  0
SECTION
  2
HEADER
  9
$ACADVER
  1
AC1014
  9
$ACADMAINTVER
 70
           0
  9
$DWGCODEPAGE
  3
DOS932
  9
$INSBASE
 10
0.0
 20
0.0
 30
0.0
  9
$EXTMIN
 10
1.000000000000E+20
 20
1.000000000000E+20
 30
1.000000000000E+20
  9
$EXTMAX
 10
-1.000000000000E+20
 20
-1.000000000000E+20
 30
-1.000000000000E+20
  9
$LIMMIN
 10
0.0
 20
0.0
  9
$LIMMAX
 10
0.0
 20
0.0
  9
$ORTHOMODE
 70
           0
  9
$REGENMODE
 70
           1
  9
$FILLMODE
 70
           1
  9
$QTEXTMODE
 70
           0
  9
$MIRRTEXT
 70
           1
  9
$DRAGMODE
 70
           2
  9
$LTSCALE
 40
1.0
  9
$OSMODE
 70
           0
  9
$ATTMODE
 70
           1
  9
$TEXTSIZE
 40
0.2
  9
$TRACEWID
 40
0.05
  9
$TEXTSTYLE
  7
STANDARD
  9
$CLAYER
  8
0
  9
$CELTYPE
  6
CONTINUOUS
  9
$CECOLOR
 62
         256
  9
$CELTSCALE
 40
1.0
  9
$DELOBJ
 70
           1
  9
$DISPSILH
 70
           0
  9
$DIMSCALE
 40
1.0
  9
$DIMASZ
 40
0.18
  9
$DIMEXO
 40
0.0625
  9
$DIMDLI
 40
0.38
  9
$DIMRND
 40
0.0
  9
$DIMDLE
 40
0.0
  9
$DIMEXE
 40
0.18
  9
$DIMTP
 40
0.0
  9
$DIMTM
 40
0.0
  9
$DIMTXT
 40
0.18
  9
$DIMCEN
 40
0.09
  9
$DIMTSZ
 40
0.0
  9
$DIMTOL
 70
           0
  9
$DIMLIM
 70
           0
  9
$DIMTIH
 70
           1
  9
$DIMTOH
 70
           1
  9
$DIMSE1
 70
           0
  9
$DIMSE2
 70
           0
  9
$DIMTAD
 70
           0
  9
$DIMZIN
 70
           0
  9
$DIMBLK
  1

  9
$DIMASO
 70
           1
  9
$DIMSHO
 70
           1
  9
$DIMPOST
  1

  9
$DIMAPOST
  1

  9
$DIMALT
 70
           0
  9
$DIMALTD
 70
           2
  9
$DIMALTF
 40
25.4
  9
$DIMLFAC
 40
1.0
  9
$DIMTOFL
 70
           0
  9
$DIMTVP
 40
0.0
  9
$DIMTIX
 70
           0
  9
$DIMSOXD
 70
           0
  9
$DIMSAH
 70
           0
  9
$DIMBLK1
  1

  9
$DIMBLK2
  1

  9
$DIMSTYLE
  2
STANDARD
  9
$DIMCLRD
 70
           0
  9
$DIMCLRE
 70
           0
  9
$DIMCLRT
 70
           0
  9
$DIMTFAC
 40
1.0
  9
$DIMGAP
 40
0.09
  9
$DIMJUST
 70
           0
  9
$DIMSD1
 70
           0
  9
$DIMSD2
 70
           0
  9
$DIMTOLJ
 70
           1
  9
$DIMTZIN
 70
           0
  9
$DIMALTZ
 70
           0
  9
$DIMALTTZ
 70
           0
  9
$DIMFIT
 70
           3
  9
$DIMUPT
 70
           0
  9
$DIMUNIT
 70
           2
  9
$DIMDEC
 70
           4
  9
$DIMTDEC
 70
           4
  9
$DIMALTU
 70
           2
  9
$DIMALTTD
 70
           2
  9
$DIMTXSTY
  7
STANDARD
  9
$DIMAUNIT
 70
           0
  9
$LUNITS
 70
           2
  9
$LUPREC
 70
           4
  9
$SKETCHINC
 40
0.1
  9
$FILLETRAD
 40
0.0
  9
$AUNITS
 70
           0
  9
$AUPREC
 70
           0
  9
$MENU
  1
acad
  9
$ELEVATION
 40
0.0
  9
$PELEVATION
 40
0.0
  9
$THICKNESS
 40
0.0
  9
$LIMCHECK
 70
           0
  9
$BLIPMODE
 70
           1
  9
$CHAMFERA
 40
0.0
  9
$CHAMFERB
 40
0.0
  9
$CHAMFERC
 40
0.0
  9
$CHAMFERD
 40
0.0
  9
$SKPOLY
 70
           0
  9
$TDCREATE
 40
0.000000000
  9
$TDUPDATE
 40
0.000000000
  9
$TDINDWG
 40
0.0000000000
  9
$TDUSRTIMER
 40
0.0000000000
  9
$USRTIMER
 70
           1
  9
$ANGBASE
 50
0.0
  9
$ANGDIR
 70
           0
  9
$PDMODE
 70
           0
  9
$PDSIZE
 40
0.0
  9
$PLINEWID
 40
0.0
  9
$COORDS
 70
           0
  9
$SPLFRAME
 70
           0
  9
$SPLINETYPE
 70
           6
  9
$SPLINESEGS
 70
           8
  9
$ATTDIA
 70
           0
  9
$ATTREQ
 70
           1
  9
$HANDLING
 70
           1
  9
$HANDSEED
  5
1EC
  9
$SURFTAB1
 70
           6
  9
$SURFTAB2
 70
           6
  9
$SURFTYPE
 70
           6
  9
$SURFU
 70
           6
  9
$SURFV
 70
           6
  9
$UCSNAME
  2

  9
$UCSORG
 10
0.0
 20
0.0
 30
0.0
  9
$UCSXDIR
 10
1.0
 20
0.0
 30
0.0
  9
$UCSYDIR
 10
0.0
 20
1.0
 30
0.0
  9
$PUCSNAME
  2

  9
$PUCSORG
 10
0.0
 20
0.0
 30
0.0
  9
$PUCSXDIR
 10
1.0
 20
0.0
 30
0.0
  9
$PUCSYDIR
 10
0.0
 20
1.0
 30
0.0
  9
$USERI1
 70
           0
  9
$USERI2
 70
           0
  9
$USERI3
 70
           0
  9
$USERI4
 70
           0
  9
$USERI5
 70
           0
  9
$USERR1
 40
0.0
  9
$USERR2
 40
0.0
  9
$USERR3
 40
0.0
  9
$USERR4
 40
0.0
  9
$USERR5
 40
0.0
  9
$WORLDVIEW
 70
           1
  9
$SHADEDGE
 70
           3
  9
$SHADEDIF
 70
          70
  9
$TILEMODE
 70
           1
  9
$MAXACTVP
 70
          16
  9
$PINSBASE
 10
0.0
 20
0.0
 30
0.0
  9
$PLIMCHECK
 70
           0
  9
$PEXTMIN
 10
1.000000000000E+20
 20
1.000000000000E+20
 30
1.000000000000E+20
  9
$PEXTMAX
 10
-1.000000000000E+20
 20
-1.000000000000E+20
 30
-1.000000000000E+20
  9
$PLIMMIN
 10
0.0
 20
0.0
  9
$PLIMMAX
 10
12.0
 20
9.0
  9
$UNITMODE
 70
           0
  9
$VISRETAIN
 70
           0
  9
$PLINEGEN
 70
           1
  9
$PSLTSCALE
 70
           0
  9
$TREEDEPTH
 70
        3020
  9
$PICKSTYLE
 70
           1
  9
$CMLSTYLE
  2
STANDARD
  9
$CMLJUST
 70
           0
  9
$CMLSCALE
 40
1.0
  9
$PROXYGRAPHICS
 70
           0
  9
$MEASUREMENT
 70
           0
  0
ENDSEC
  0
SECTION
  2
CLASSES
  0
CLASS
  1
LWPOLYLINE
  2
AcDbPolyline
  3
"AutoCAD"
 90
        0
280
           0
281
           1
  0
CLASS
  1
IMAGE
  2
AcDbRasterImage
  3
ISM
 90
      127
280
           0
281
           1
  0
CLASS
  1
OLE2FRAME
  2
AcDbOle2Frame
  3
""
 90
        0
280
           0
281
           1
  0
CLASS
  1
HATCH
  2
AcDbHatch
  3
"ACAD_SEDONA"
 90
        0
280
           0
281
           1
  0
CLASS
  1
DICTIONARYVAR
  2
AcDbDictionaryVar
  3
"AutoCAD"
 90
        0
280
           0
281
           0
  0
CLASS
  1
RASTERVARIABLES
  2
AcDbRasterVariables
  3
ISM
 90
        0
280
           0
281
           0
  0
CLASS
  1
IMAGEDEF
  2
AcDbRasterImageDef
  3
ISM
 90
        0
280
           0
281
           0
  0
CLASS
  1
IMAGEDEF_REACTOR
  2
AcDbRasterImageDefReactor
  3
ISM
 90
        1
280
           0
281
           0
  0
CLASS
  1
IDBUFFER
  2
AcDbIdBuffer
  3
"Acad"
 90
        0
280
           0
281
           0
  0
CLASS
  1
SPATIAL_FILTER
  2
AcDbSpatialFilter
  3
"Acad"
 90
        0
280
           0
281
           0
  0
CLASS
  1
XRECORD
  2
AcDbXrecord
  3
"<Built In>"
 90
        0
280
           0
281
           0
  0
CLASS
  1
SORTENTSTABLE
  2
AcDbSortentsTable
  3
"AutoCAD"
 90
        0
280
           0
281
           0
  0
CLASS
  1
LAYER_INDEX
  2
AcDbLayerIndex
  3
"Acad"
 90
        0
280
           0
281
           0
  0
CLASS
  1
SPATIAL_INDEX
  2
AcDbSpatialIndex
  3
"Acad"
 90
        0
280
           0
281
           0
  0
CLASS
  1
OBJECT_PTR
  2
CAseDLPNTableRecord
  3
"ASE-LPNTableRecord"
 90
        1
280
           0
281
           0
  0
CLASS
  1
LAYOUT
  2
AcDbLayout
  3
"AutoCAD 2000"
 90
        1
280
           0
281
           0
  0
CLASS
  1
PLOTSETTINGS
  2
AcDbPlotSettings
  3
"AutoCAD 2000"
 90
        1
280
           0
281
           0
  0
CLASS
  1
ACDBDICTIONARYWDFLT
  2
AcDbDictionaryWithDefault
  3
"AutoCAD 2000"
 90
        1
280
           0
281
           0
  0
CLASS
  1
ACDBPLACEHOLDER
  2
AcDbPlaceHolder
  3
"AutoCAD 2000"
 90
        1
280
           0
281
           0
  0
CLASS
  1
VBA_PROJECT
  2
AcDbVbaProject
  3
"acadvba"
 90
        1
280
           0
281
           0
  0
CLASS
  1
WIPEOUT
  2
AcDbWipeout
  3
WipeOut|AutoCAD Express Tool|expresstools@autodesk.com
 90
      127
280
           0
281
           1
  0
CLASS
  1
WIPEOUTVARIABLES
  2
AcDbWipeoutVariables
  3
WipeOut|AutoCAD Express Tool|expresstools@autodesk.com
 90
        0
280
           0
281
           0
  0
CLASS
  1
RTEXT
  2
RText
  3
RText|AutoCAD Express Tool|expresstools@autodesk.com
 90
        0
280
           0
281
           1
  0
CLASS
  1
ARCALIGNEDTEXT
  2
AcDbArcAlignedText
  3
ATEXT|AutoCAD Express Tool|expresstools@autodesk.com
 90
        0
280
           0
281
           1
  0
ENDSEC
  0
SECTION
  2
TABLES
  0
TABLE
  2
VPORT
  5
7
100
AcDbSymbolTable
 70
           1
  0
VPORT
  5
15
100
AcDbSymbolTableRecord
100
AcDbViewportTableRecord
  2
*ACTIVE
 70
           0
 10
0.0
 20
0.0
 11
1.0
 21
1.0
 12
6.591288
 22
4.579184
 13
0.0
 23
0.0
 14
1.0
 24
1.0
 15
0.0
 25
0.0
 16
0.0
 26
0.0
 36
1.0
 17
0.0
 27
0.0
 37
0.0
 40
9.158369
 41
0.688564
 42
50.0
 43
0.0
 44
0.0
 50
0.0
 51
0.0
 71
           0
 72
         100
 73
           1
 74
           1
 75
           0
 76
           0
 77
           0
 78
           0
  0
ENDTAB
  0
TABLE
  2
LTYPE
  5
4
100
AcDbSymbolTable
 70
          10
  0
LTYPE
  5
11
100
AcDbSymbolTableRecord
100
AcDbLinetypeTableRecord
  2
BYBLOCK
 70
          64
  3

 72
          65
 73
           0
 40
0.0
  0
LTYPE
  5
12
100
AcDbSymbolTableRecord
100
AcDbLinetypeTableRecord
  2
BYLAYER
 70
          64
  3

 72
          65
 73
           0
 40
0.0
  0
LTYPE
  5
13
100
AcDbSymbolTableRecord
100
AcDbLinetypeTableRecord
  2
CONTINUOUS
 70
          64
  3
Solid line
 72
          65
 73
           0
 40
0.0
  0
LTYPE
  5
1D
100
AcDbSymbolTableRecord
100
AcDbLinetypeTableRecord
  2
DASHED
 70
          64
  3
Dashed
 72
          65
 73
           2
 40
15.0
 49
12.0
 74
           0
 49
-3.0
 74
           0
  0
LTYPE
  5
1E
100
AcDbSymbolTableRecord
100
AcDbLinetypeTableRecord
  2
DOTTED
 70
          64
  3
Dotted
 72
          65
 73
           2
 40
3.5
 49
0.5
 74
           0
 49
-3.0
 74
           0
  0
LTYPE
  5
1F
100
AcDbSymbolTableRecord
100
AcDbLinetypeTableRecord
  2
DOT_CENTER
 70
          64
  3
Dot_Center
 72
          65
 73
           4
 40
2.0
 49
1.25
 74
           0
 49
-0.25
 74
           0
 49
0.25
 74
           0
 49
-0.25
 74
           0
  0
LTYPE
  5
20
100
AcDbSymbolTableRecord
100
AcDbLinetypeTableRecord
  2
LONG_DASHED
 70
          64
  3
Long_Dashed
 72
          65
 73
           2
 40
2.0
 49
1.5
 74
           0
 49
-0.5
 74
           0
  0
LTYPE
  5
21
100
AcDbSymbolTableRecord
100
AcDbLinetypeTableRecord
  2
DASH_CENTER
 70
          64
  3
Dash_Center
 72
          65
 73
           4
 40
36.0
 49
24.0
 74
           0
 49
-3.0
 74
           0
 49
6.0
 74
           0
 49
-3.0
 74
           0
  0
LTYPE
  5
22
100
AcDbSymbolTableRecord
100
AcDbLinetypeTableRecord
  2
PHANTOM
 70
          64
  3
Phantom
 72
          65
 73
           6
 40
2.5
 49
1.25
 74
           0
 49
-0.25
 74
           0
 49
0.25
 74
           0
 49
-0.25
 74
           0
 49
0.25
 74
           0
 49
-0.25
 74
           0
  0
LTYPE
  5
23
100
AcDbSymbolTableRecord
100
AcDbLinetypeTableRecord
  2
CENTER_DASH_DASH
 70
          64
  3
Center_Dash_Dash
 72
          65
 73
           6
 40
22.0
 49
12.0
 74
           0
 49
-3.0
 74
           0
 49
0.5
 74
           0
 49
-3.0
 74
           0
 49
0.5
 74
           0
 49
-3.0
 74
           0
  0
ENDTAB
  0
TABLE
  2
LAYER
  5
2
100
AcDbSymbolTable
 70
           2
  0
LAYER
  5
14
100
AcDbSymbolTableRecord
100
AcDbLayerTableRecord
  2
0
 70
           0
 62
           7
  6
CONTINUOUS
  0
LAYER
  5
24
100
AcDbSymbolTableRecord
100
AcDbLayerTableRecord
  2
1
 70
           0
 62
           7
  6
CONTINUOUS
  0
ENDTAB
  0
TABLE
  2
STYLE
  5
3
100
AcDbSymbolTable
 70
           3
  0
STYLE
  5
17
100
AcDbSymbolTableRecord
100
AcDbTextStyleTableRecord
  2
STANDARD
 70
           0
 40
0.0
 41
1.0
 50
0.0
 71
           0
 42
0.0
  3
txt
  4

  0
STYLE
  5
1DA
100
AcDbSymbolTableRecord
100
AcDbTextStyleTableRecord
  2
CONVERTER_1
 70
           0
 40
0.0
 41
0.89
 50
0.0
 71
           0
 42
0.0
  3
MS Mincho.ttf
  4

1001
ACAD
1000
MS Mincho
1071
    32785
  0
STYLE
  5
1E6
100
AcDbSymbolTableRecord
100
AcDbTextStyleTableRecord
  2
CONVERTER_2
 70
           0
 40
0.0
 41
0.9
 50
0.0
 71
           0
 42
0.0
  3
txt.shx
  4

  0
ENDTAB
  0
TABLE
  2
VIEW
  5
5
100
AcDbSymbolTable
 70
           0
  0
ENDTAB
  0
TABLE
  2
UCS
  5
6
100
AcDbSymbolTable
 70
           0
  0
ENDTAB
  0
TABLE
  2
APPID
  5
8
100
AcDbSymbolTable
 70
           1
  0
APPID
  5
16
100
AcDbSymbolTableRecord
100
AcDbRegAppTableRecord
  2
ACAD
 70
           0
  0
ENDTAB
  0
TABLE
  2
DIMSTYLE
  5
9
100
AcDbSymbolTable
 70
           3
  0
DIMSTYLE
105
18
100
AcDbSymbolTableRecord
100
AcDbDimStyleTableRecord
  2
STANDARD
 70
           0
  3

  4

  5

  6

  7

 40
1.0
 41
0.18
 42
0.0625
 43
0.38
 44
0.18
 45
0.0
 46
0.0
 47
0.0
 48
0.0
 71
           0
 72
           0
 73
           1
 74
           1
 75
           0
 76
           0
 77
           0
 78
           0
140
0.18
141
0.09
142
0.0
143
25.4
144
1.0
145
0.0
146
1.0
147
0.09
170
           0
171
           2
172
           0
173
           0
174
           0
175
           0
176
           0
177
           0
178
           0
270
           2
271
           4
272
           4
273
           2
274
           2
275
           0
280
           0
281
           0
282
           0
283
           1
284
           0
285
           0
286
           0
287
           0
288
           0
340
17
  0
DIMSTYLE
105
1DD
100
AcDbSymbolTableRecord
100
AcDbDimStyleTableRecord
  2
ME10_DIM_0
 70
           0
  3
ó<>
  4

  5

  6

  7

 40
1.0
 41
2.8
 42
0.8
 43
0.38
 44
1.0
 45
0.0
 46
0.0
 47
0.0
 48
0.0
 71
           0
 72
           0
 73
           0
 74
           0
 75
           0
 76
           0
 77
           1
 78
           8
140
2.8
141
0.09
142
0.0
143
25.4
144
1.0
145
0.0
146
1.0
147
0.09
170
           0
171
           2
172
           0
173
           1
174
           0
175
           0
176
           2
177
           2
178
           2
270
           2
271
           0
272
           4
273
           2
274
           2
275
           0
280
           0
281
           0
282
           0
283
           1
284
           0
285
           0
286
           0
287
           3
288
           0
340
17
  0
DIMSTYLE
105
1E9
100
AcDbSymbolTableRecord
100
AcDbDimStyleTableRecord
  2
ME10_DIM_1
 70
           0
  3

  4

  5

  6

  7

 40
1.0
 41
2.8
 42
0.8
 43
0.38
 44
1.0
 45
0.0
 46
0.0
 47
0.0
 48
0.0
 71
           0
 72
           0
 73
           0
 74
           0
 75
           0
 76
           0
 77
           1
 78
           8
140
2.8
141
0.09
142
0.0
143
25.4
144
1.0
145
0.0
146
1.0
147
0.09
170
           0
171
           2
172
           0
173
           1
174
           0
175
           0
176
           2
177
           2
178
           2
270
           2
271
           3
272
           4
273
           2
274
           2
275
           0
280
           0
281
           0
282
           0
283
           1
284
           0
285
           0
286
           0
287
           3
288
           0
340
17
  0
ENDTAB
  0
TABLE
  2
BLOCK_RECORD
  5
1
100
AcDbSymbolTable
 70
           2
  0
BLOCK_RECORD
  5
A
100
AcDbSymbolTableRecord
100
AcDbBlockTableRecord
  2
*MODEL_SPACE
  0
BLOCK_RECORD
  5
B
100
AcDbSymbolTableRecord
100
AcDbBlockTableRecord
  2
*PAPER_SPACE
  0
BLOCK_RECORD
  5
1D3
100
AcDbSymbolTableRecord
100
AcDbBlockTableRecord
  2
*D0
  0
BLOCK_RECORD
  5
1DF
100
AcDbSymbolTableRecord
100
AcDbBlockTableRecord
  2
*D1
  0
ENDTAB
  0
ENDSEC
  0
SECTION
  2
BLOCKS
  0
BLOCK
  5
D
100
AcDbEntity
  8
0
100
AcDbBlockBegin
  2
*MODEL_SPACE
 70
           0
 10
0.0
 20
0.0
 30
0.0
  3
*MODEL_SPACE
  1

  0
ENDBLK
  5
E
100
AcDbEntity
  8
0
100
AcDbBlockEnd
  0
BLOCK
  5
F
100
AcDbEntity
 67
           1
  8
0
100
AcDbBlockBegin
  2
*PAPER_SPACE
 70
           0
 10
0.0
 20
0.0
 30
0.0
  3
*PAPER_SPACE
  1

  0
ENDBLK
  5
10
100
AcDbEntity
 67
           1
  8
0
100
AcDbBlockEnd
  0
BLOCK
  5
1D4
100
AcDbEntity
  8
0
100
AcDbBlockBegin
  2
*D0
 70
           1
 10
0.0
 20
0.0
 30
0.0
  3
*D0
  1

  0
LINE
  5
1D5
100
AcDbEntity
  8
0
  6
CONTINUOUS
 62
           2
100
AcDbLine
 10
993.69509775309
 20
-87.177184097824
 11
1076.82009775309
 21
-87.177184097824
  0
LINE
  5
1D6
100
AcDbEntity
  8
0
  6
CONTINUOUS
 62
           2
100
AcDbLine
 10
1076.82009775309
 20
-120.611252860474
 11
1076.82009775309
 21
-86.177184097824
  0
LINE
  5
1D7
100
AcDbEntity
  8
0
  6
CONTINUOUS
 62
           2
100
AcDbLine
 10
993.69509775309
 20
-120.611252860474
 11
993.69509775309
 21
-86.177184097824
  0
SOLID
  5
1D8
100
AcDbEntity
  8
0
 62
           2
100
AcDbTrace
 10
1074.02009775309
 20
-87.545811091069
 11
1074.02009775309
 21
-86.808557104579
 12
1076.82009775309
 22
-87.177184097824
 13
1076.82009775309
 23
-87.177184097824
  0
SOLID
  5
1D9
100
AcDbEntity
  8
0
 62
           2
100
AcDbTrace
 10
996.49509775309
 20
-86.808557104579
 11
996.49509775309
 21
-87.545811091069
 12
993.69509775309
 22
-87.177184097824
 13
993.69509775309
 23
-87.177184097824
  0
MTEXT
  5
1DB
100
AcDbEntity
  8
0
 62
           2
100
AcDbMText
 10
1033.34579217591
 20
-86.177184097824
 30
0.0
 40
2.8
 41
0.0
 71
           7
 72
           1
  1
\C2;ó\C2;83\C2;
  7
CONVERTER_1
  0
ENDBLK
  5
1DC
100
AcDbEntity
  8
0
100
AcDbBlockEnd
  0
BLOCK
  5
1E0
100
AcDbEntity
  8
0
100
AcDbBlockBegin
  2
*D1
 70
           1
 10
0.0
 20
0.0
 30
0.0
  3
*D1
  1

  0
LINE
  5
1E1
100
AcDbEntity
  8
0
  6
CONTINUOUS
 62
           2
100
AcDbLine
 10
1124.152029843963
 20
-294.297340512439
 11
1124.152029843963
 21
-115.473752860474
  0
LINE
  5
1E2
100
AcDbEntity
  8
0
  6
CONTINUOUS
 62
           2
100
AcDbLine
 10
1071.68259775309
 20
-115.473752860474
 11
1125.152029843963
 21
-115.473752860474
  0
LINE
  5
1E3
100
AcDbEntity
  8
0
  6
CONTINUOUS
 62
           2
100
AcDbLine
 10
1037.271067307374
 20
-294.297340512439
 11
1125.152029843963
 21
-294.297340512439
  0
SOLID
  5
1E4
100
AcDbEntity
  8
0
 62
           2
100
AcDbTrace
 10
1124.520656837208
 20
-118.273752860474
 11
1123.783402850718
 21
-118.273752860474
 12
1124.152029843963
 22
-115.473752860474
 13
1124.152029843963
 23
-115.473752860474
  0
SOLID
  5
1E5
100
AcDbEntity
  8
0
 62
           2
100
AcDbTrace
 10
1123.783402850718
 20
-291.497340512439
 11
1124.520656837208
 21
-291.497340512439
 12
1124.152029843963
 22
-294.297340512439
 13
1124.152029843963
 23
-294.297340512439
  0
MTEXT
  5
1E7
100
AcDbEntity
  8
0
 62
           2
100
AcDbMText
 10
1123.152029843963
 20
-201.503425499685
 30
0.0
 40
2.8
 41
0.0
 71
           7
 72
           1
  1
179
  7
CONVERTER_2
 11
0.0
 21
1.0
 31
0.0
  0
ENDBLK
  5
1E8
100
AcDbEntity
  8
0
100
AcDbBlockEnd
  0
ENDSEC
  0
SECTION
  2
ENTITIES
  0
DIMENSION
  5
1EA
100
AcDbEntity
  8
0
100
AcDbDimension
  2
*D1
 10
1124.152029843963
 20
-115.473752860474
 11
1121.752029843963
 21
-198.563425499685
 31
0.0
 53
90.0
  1
<>
  3
ME10_DIM_1
100
AcDbAlignedDimension
 13
1036.471067307374
 23
-294.297340512439
 14
1070.88259775309
 24
-115.473752860474
 50
90.0
100
AcDbRotatedDimension
  0
DIMENSION
  5
1DE
100
AcDbEntity
  8
0
100
AcDbDimension
  2
*D0
 10
1076.82009775309
 20
-87.177184097824
 11
1036.06179217591
 21
-84.777184097824
 31
0.0
  1
<>
  3
ME10_DIM_0
100
AcDbAlignedDimension
 13
993.69509775309
 23
-121.411252860474
 14
1076.82009775309
 24
-121.411252860474
100
AcDbRotatedDimension
  0
ARC
  5
1D2
100
AcDbEntity
  8
1
  6
CONTINUOUS
 62
           7
100
AcDbCircle
 10
1036.471067307374
 20
-292.297340512439
 40
2.0
100
AcDbArc
 50
-90.0
 51
-1.636577041618
  0
ARC
  5
1D1
100
AcDbEntity
  8
1
  6
CONTINUOUS
 62
           7
100
AcDbCircle
 10
1034.044128198806
 20
-292.297340512439
 40
2.000000000001
100
AcDbArc
 50
-178.363422958382
 51
-90.0
  0
ARC
  5
1D0
100
AcDbEntity
  8
1
  6
CONTINUOUS
 62
           7
100
AcDbCircle
 10
1048.923978693271
 20
-276.616835606328
 40
10.0
100
AcDbArc
 50
120.0
 51
178.363422958384
  0
ARC
  5
1CF
100
AcDbEntity
  8
1
  6
CONTINUOUS
 62
           7
100
AcDbCircle
 10
1021.591216812909
 20
-276.616835606328
 40
10.0
100
AcDbArc
 50
1.636577041616
 51
60.0
  0
ARC
  5
1CE
100
AcDbEntity
  8
1
  6
CONTINUOUS
 62
           7
100
AcDbCircle
 10
1054.787155309477
 20
-243.704719943212
 40
9.0
100
AcDbArc
 50
130.79858811756
 51
143.843558273684
  0
ARC
  5
1CD
100
AcDbEntity
  8
1
  6
CONTINUOUS
 62
           7
100
AcDbCircle
 10
1074.75759775309
 20
-130.130002860474
 40
1.0
100
AcDbArc
 50
0.0
 51
90.0
  0
ARC
  5
1CC
100
AcDbEntity
  8
1
  6
CONTINUOUS
 62
           7
100
AcDbCircle
 10
1074.25759775309
 20
-130.630002860474
 40
1.5
100
AcDbArc
 50
-90.0
 51
0.0
  0
ARC
  5
1CB
100
AcDbEntity
  8
1
  6
CONTINUOUS
 62
           7
100
AcDbCircle
 10
1074.25759775309
 20
-130.630002860474
 40
1.5
100
AcDbArc
 50
-90.0
 51
0.0
  0
ARC
  5
1CA
100
AcDbEntity
  8
1
  6
CONTINUOUS
 62
           7
100
AcDbCircle
 10
1074.75759775309
 20
-130.130002860474
 40
1.0
100
AcDbArc
 50
0.0
 51
90.0
  0
ARC
  5
1C9
100
AcDbEntity
  8
1
  6
CONTINUOUS
 62
           7
100
AcDbCircle
 10
1033.620139770808
 20
-234.29144618125
 40
11.0
100
AcDbArc
 50
-143.843558273685
 51
-132.500000000003
  0
ARC
  5
1C8
100
AcDbEntity
  8
1
  6
CONTINUOUS
 62
           7
100
AcDbCircle
 10
1033.620139770808
 20
-234.29144618125
 40
11.0
100
AcDbArc
 50
-143.843558273685
 51
-132.500000000003
  0
ARC
  5
1C7
100
AcDbEntity
  8
1
  6
CONTINUOUS
 62
           7
100
AcDbCircle
 10
1015.728040196703
 20
-243.704719943212
 40
9.0
100
AcDbArc
 50
36.156441726315
 51
49.201411882439
  0
ARC
  5
1C6
100
AcDbEntity
  8
1
  6
CONTINUOUS
 62
           7
100
AcDbCircle
 10
1021.75759775309
 20
-203.995562347441
 40
25.0
100
AcDbArc
 50
-179.999999999999
 51
-130.798588117559
  0
ARC
  5
1C5
100
AcDbEntity
  8
1
  6
CONTINUOUS
 62
           7
100
AcDbCircle
 10
1048.75759775309
 20
-203.995562347441
 40
25.0
100
AcDbArc
 50
-49.201411882441
 51
0.0
  0
ARC
  5
1C4
100
AcDbEntity
  8
1
  6
CONTINUOUS
 62
           7
100
AcDbCircle
 10
1036.895055735373
 20
-234.29144618125
 40
11.0
100
AcDbArc
 50
-47.5
 51
-36.156441726314
  0
ARC
  5
1C3
100
AcDbEntity
  8
1
  6
CONTINUOUS
 62
           7
100
AcDbCircle
 10
995.75759775309
 20
-130.130002860474
 40
1.0
100
AcDbArc
 50
89.999999999993
 51
180.0
  0
ARC
  5
1C2
100
AcDbEntity
  8
1
  6
CONTINUOUS
 62
           7
100
AcDbCircle
 10
996.25759775309
 20
-130.630002860474
 40
1.5
100
AcDbArc
 50
180.0
 51
-89.999999999995
  0
ARC
  5
1C1
100
AcDbEntity
  8
1
  6
CONTINUOUS
 62
           7
100
AcDbCircle
 10
996.25759775309
 20
-130.630002860474
 40
1.5
100
AcDbArc
 50
180.0
 51
-89.999999999995
  0
ARC
  5
1C0
100
AcDbEntity
  8
1
  6
CONTINUOUS
 62
           7
100
AcDbCircle
 10
995.75759775309
 20
-130.130002860474
 40
1.0
100
AcDbArc
 50
89.999999999993
 51
180.0
  0
ARC
  5
1BF
100
AcDbEntity
  8
1
  6
CONTINUOUS
 62
           7
100
AcDbCircle
 10
1074.75759775309
 20
-130.130002860474
 40
1.0
100
AcDbArc
 50
0.0
 51
90.0
  0
ARC
  5
1BE
100
AcDbEntity
  8
1
  6
CONTINUOUS
 62
           7
100
AcDbCircle
 10
1074.25759775309
 20
-130.630002860474
 40
1.5
100
AcDbArc
 50
-90.0
 51
0.0
  0
LWPOLYLINE
  5
1BD
100
AcDbEntity
  8
1
  6
CONTINUOUS
 62
           7
 60
           1
100
AcDbPolyline
 90
        3
 70
           0
 10
1042.75759775309
 20
-257.775291379896
 10
1042.75759775309
 20
-262.075291379896
 10
1043.347766842863
 20
-262.075291379896
  0
LWPOLYLINE
  5
1BC
100
AcDbEntity
  8
1
  6
CONTINUOUS
 62
           7
 60
           1
100
AcDbPolyline
 90
        4
 70
           0
 10
1038.71609775309
 20
-261.233791379896
 10
1038.71609775309
 20
-261.275291379896
 10
1035.537064716129
 20
-263.110706959548
 10
1035.25759775309
 20
-263.272057285888
  0
LWPOLYLINE
  5
1BB
100
AcDbEntity
  8
1
  6
CONTINUOUS
 62
           7
 60
           1
100
AcDbPolyline
 90
        3
 70
           0
 10
1042.75759775309
 20
-257.797340512439
 10
1042.75759775309
 20
-262.097340512439
 10
1043.347766842863
 20
-262.097340512439
  0
ARC
  5
1BA
100
AcDbEntity
  8
1
  6
CONTINUOUS
 62
           7
100
AcDbCircle
 10
1060.265333308445
 20
-248.452835981075
 40
6.0
100
AcDbArc
 50
128.776878340403
 51
178.304326425656
  0
ARC
  5
1B9
100
AcDbEntity
  8
1
  6
CONTINUOUS
 62
           7
100
AcDbCircle
 10
1066.768805377558
 20
-247.799298592109
 40
3.0
100
AcDbArc
 50
-170.035854747607
 51
-132.098140751918
  0
ARC
  5
1B8
100
AcDbEntity
  8
1
  6
CONTINUOUS
 62
           7
100
AcDbCircle
 10
1057.816989778289
 20
-248.505979783959
 40
6.0
100
AcDbArc
 50
7.235851773493
 51
52.040716587004
  0
ARC
  5
1B7
100
AcDbEntity
  8
1
  6
CONTINUOUS
 62
           7
100
AcDbCircle
 10
1066.768805377558
 20
-247.799298592109
 40
3.0
100
AcDbArc
 50
179.063308901971
 51
-170.035854747607
  0
ARC
  5
1B6
100
AcDbEntity
  8
1
  6
CONTINUOUS
 62
           7
100
AcDbCircle
 10
1051.246390128622
 20
-247.799298592109
 40
3.0
100
AcDbArc
 50
-47.901859248078
 51
-12.098140751918
  0
ARC
  5
1B5
100
AcDbEntity
  8
1
  6
CONTINUOUS
 62
           7
100
AcDbCircle
 10
1051.246390128622
 20
-267.751284167684
 40
3.0
100
AcDbArc
 50
12.098140751919
 51
47.901859248079
  0
ARC
  5
1B4
100
AcDbEntity
  8
1
  6
CONTINUOUS
 62
           7
100
AcDbCircle
 10
1066.768805377558
 20
-267.751284167684
 40
3.0
100
AcDbArc
 50
170.035854747605
 51
-179.063308901973
  0
ARC
  5
1B3
100
AcDbEntity
  8
1
  6
CONTINUOUS
 62
           7
100
AcDbCircle
 10
1057.816989778289
 20
-267.044602975833
 40
6.0
100
AcDbArc
 50
-52.040716587004
 51
-7.235851773493
  0
ARC
  5
1B2
100
AcDbEntity
  8
1
  6
CONTINUOUS
 62
           7
100
AcDbCircle
 10
1066.768805377558
 20
-267.751284167684
 40
3.0
100
AcDbArc
 50
132.098140751917
 51
170.035854747605
  0
ARC
  5
1B1
100
AcDbEntity
  8
1
  6
CONTINUOUS
 62
           7
100
AcDbCircle
 10
1060.265333308445
 20
-267.097746778717
 40
6.0
100
AcDbArc
 50
-178.304326425656
 51
-128.776878340404
  0
ARC
  5
1B0
100
AcDbEntity
  8
1
  6
CONTINUOUS
 62
           2
100
AcDbCircle
 10
1054.236435550087
 20
-122.848815363071
 40
22.227648888901
100
AcDbArc
 50
-4.596422182699
 51
4.596422182699
  0
ARC
  5
1AF
100
AcDbEntity
  8
1
  6
CONTINUOUS
 62
           2
100
AcDbCircle
 10
1060.837064874514
 20
-122.848815363071
 40
15.454285335335
100
AcDbArc
 50
-6.618580886742
 51
6.618580886742
  0
ARC
  5
1AE
100
AcDbEntity
  8
1
  6
CONTINUOUS
 62
           2
100
AcDbCircle
 10
1062.816630363029
 20
-122.848815363071
 40
13.283070599917
100
AcDbArc
 50
-7.706537965358
 51
7.706537965358
  0
ARC
  5
1AD
100
AcDbEntity
  8
1
  6
CONTINUOUS
 62
           2
100
AcDbCircle
 10
1064.219018309034
 20
-122.848815363071
 40
11.659573741221
100
AcDbArc
 50
-8.787570526605
 51
8.787570526605
  0
ARC
  5
1AC
100
AcDbEntity
  8
1
  6
CONTINUOUS
 62
           2
100
AcDbCircle
 10
1065.226962315824
 20
-122.848815363071
 40
10.401220642368
100
AcDbArc
 50
-9.860733686814
 51
9.860733686814
  0
ARC
  5
1AB
100
AcDbEntity
  8
1
  6
CONTINUOUS
 62
           2
100
AcDbCircle
 10
1065.950187473872
 20
-122.848815363071
 40
9.398466833767
100
AcDbArc
 50
-10.925099650771
 51
10.925099650771
  0
ARC
  5
1AA
100
AcDbEntity
  8
1
  6
CONTINUOUS
 62
           2
100
AcDbCircle
 10
1066.458605462728
 20
-122.848815363071
 40
8.581602260921
100
AcDbArc
 50
-11.979759459063
 51
11.979759459063
  0
ARC
  5
1A9
100
AcDbEntity
  8
1
  6
CONTINUOUS
 62
           2
100
AcDbCircle
 10
1066.798912014534
 20
-122.848815363071
 40
7.904153675504
100
AcDbArc
 50
-13.023824609532
 51
13.023824609532
  0
ARC
  5
1A8
100
AcDbEntity
  8
1
  6
CONTINUOUS
 62
           2
100
AcDbCircle
 10
1067.003523920829
 20
-122.848815363071
 40
7.333947468063
100
AcDbArc
 50
-14.056428544739
 51
14.056428544739
  0
ARC
  5
1A7
100
AcDbEntity
  8
1
  6
CONTINUOUS
 62
           2
100
AcDbCircle
 10
1067.095685803444
 20
-122.848815363071
 40
6.848002721731
100
AcDbArc
 50
-15.076727998822
 51
15.076727998822
  0
ARC
  5
1A6
100
AcDbEntity
  8
1
  6
CONTINUOUS
 62
           2
100
AcDbCircle
 10
1067.092534085904
 20
-122.848815363071
 40
6.429467050609
100
AcDbArc
 50
-16.083904198821
 51
16.083904198821
  0
ARC
  5
1A5
100
AcDbEntity
  8
1
  6
CONTINUOUS
 62
           2
100
AcDbCircle
 10
1067.007011883586
 20
-122.848815363071
 40
6.06570150473
100
AcDbArc
 50
-17.077163917012
 51
17.077163917012
  0
ARC
  5
1A4
100
AcDbEntity
  8
1
  6
CONTINUOUS
 62
           2
100
AcDbCircle
 10
1066.849107957679
 20
-122.848815363071
 40
5.747041396708
100
AcDbArc
 50
-18.055740372436
 51
18.055740372436
  0
ARC
  5
1A3
100
AcDbEntity
  8
1
  6
CONTINUOUS
 62
           2
100
AcDbCircle
 10
1066.626682591321
 20
-122.848815363071
 40
5.465970191846
100
AcDbArc
 50
-19.018893981275
 51
19.018893981275
  0
ARC
  5
1A2
100
AcDbEntity
  8
1
  6
CONTINUOUS
 62
           2
100
AcDbCircle
 10
1066.346032569174
 20
-122.848815363071
 40
5.216554280603
100
AcDbArc
 50
-19.965912957256
 51
19.965912957256
  0
ARC
  5
1A1
100
AcDbEntity
  8
1
  6
CONTINUOUS
 62
           2
100
AcDbCircle
 10
1066.012286569207
 20
-122.848815363071
 40
4.994047324861
100
AcDbArc
 50
-20.896113764368
 51
20.896113764368
  0
ARC
  5
1A0
100
AcDbEntity
  8
1
  6
CONTINUOUS
 62
           2
100
AcDbCircle
 10
1065.629687491273
 20
-122.848815363071
 40
4.794607653557
100
AcDbArc
 50
-21.808841425831
 51
21.808841425831
  0
ARC
  5
19F
100
AcDbEntity
  8
1
  6
CONTINUOUS
 62
           2
100
AcDbCircle
 10
1065.201797692677
 20
-122.848815363071
 40
4.615092737699
100
AcDbArc
 50
-22.703469694
 51
22.703469694
  0
ARC
  5
19E
100
AcDbEntity
  8
1
  6
CONTINUOUS
 62
           2
100
AcDbCircle
 10
1064.731650589652
 20
-122.848815363071
 40
4.452907286074
100
AcDbArc
 50
-23.57940108712
 51
23.57940108712
  0
ARC
  5
19D
100
AcDbEntity
  8
1
  6
CONTINUOUS
 62
           2
100
AcDbCircle
 10
1064.230852007262
 20
-122.85250630626
 40
4.299239357969
100
AcDbArc
 50
-24.459430925234
 51
24.530399701572
  0
ARC
  5
19C
100
AcDbEntity
  8
1
  6
CONTINUOUS
 62
           2
100
AcDbCircle
 10
1063.5708290658
 20
-122.848815363071
 40
4.280457896985
100
AcDbArc
 50
-24.677155667183
 51
24.590837528827
  0
ARC
  5
19B
100
AcDbEntity
  8
1
  6
CONTINUOUS
 62
           2
100
AcDbCircle
 10
1045.921009062329
 20
-122.848815363071
 40
4.298086506592
100
AcDbArc
 50
-24.483338245833
 51
24.483338245833
  0
ARC
  5
19A
100
AcDbEntity
  8
1
  6
CONTINUOUS
 62
           2
100
AcDbCircle
 10
1057.146141362956
 20
-122.848815363071
 40
7.527313857042
100
AcDbArc
 50
166.311791265249
 51
-166.311791265249
  0
ARC
  5
199
100
AcDbEntity
  8
1
  6
CONTINUOUS
 62
           2
100
AcDbCircle
 10
1044.846823560045
 20
-122.848815363071
 40
4.330808572441
100
AcDbArc
 50
-24.286357094227
 51
24.286357094227
  0
ARC
  5
198
100
AcDbEntity
  8
1
  6
CONTINUOUS
 62
           2
100
AcDbCircle
 10
1055.800497699872
 20
-122.848815363071
 40
7.229025102122
100
AcDbArc
 50
165.735266563816
 51
-165.735266563816
  0
ARC
  5
197
100
AcDbEntity
  8
1
  6
CONTINUOUS
 62
           2
100
AcDbCircle
 10
1043.759118434525
 20
-122.848815363071
 40
4.367009657239
100
AcDbArc
 50
-24.072219138778
 51
24.072219138778
  0
ARC
  5
196
100
AcDbEntity
  8
1
  6
CONTINUOUS
 62
           2
100
AcDbCircle
 10
1054.473661988099
 20
-122.848815363071
 40
6.959147675028
100
AcDbArc
 50
165.169637358707
 51
-165.169637358707
  0
ARC
  5
195
100
AcDbEntity
  8
1
  6
CONTINUOUS
 62
           2
100
AcDbCircle
 10
1058.514107494331
 20
-122.848815363071
 40
7.858283920231
100
AcDbArc
 50
166.898804676691
 51
-166.898804676691
  0
ARC
  5
194
100
AcDbEntity
  8
1
  6
CONTINUOUS
 62
           2
100
AcDbCircle
 10
1046.98106311726
 20
-122.848815363071
 40
4.268704070026
100
AcDbArc
 50
-24.66305752376
 51
24.66305752376
  0
ARC
  5
193
100
AcDbEntity
  8
1
  6
CONTINUOUS
 62
           2
100
AcDbCircle
 10
1059.908827901745
 20
-122.848815363071
 40
8.227115091015
100
AcDbArc
 50
167.495888404975
 51
-167.495888404975
  0
ARC
  5
192
100
AcDbEntity
  8
1
  6
CONTINUOUS
 62
           2
100
AcDbCircle
 10
1048.026365263711
 20
-122.848815363071
 40
4.242538294285
100
AcDbArc
 50
-24.825419750244
 51
24.825419750244
  0
ARC
  5
191
100
AcDbEntity
  8
1
  6
CONTINUOUS
 62
           2
100
AcDbCircle
 10
1061.335907343824
 20
-122.848815363071
 40
8.640152108202
100
AcDbArc
 50
168.102612698738
 51
-168.102612698738
  0
ARC
  5
190
100
AcDbEntity
  8
1
  6
CONTINUOUS
 62
           2
100
AcDbCircle
 10
1049.05628816262
 20
-122.848815363071
 40
4.219481409269
100
AcDbArc
 50
-24.970339504416
 51
24.970339504416
  0
ARC
  5
18F
100
AcDbEntity
  8
1
  6
CONTINUOUS
 62
           2
100
AcDbCircle
 10
1062.802470194087
 20
-122.848815363071
 40
9.105250780329
100
AcDbArc
 50
168.718536732985
 51
-168.718536732985
  0
ARC
  5
18E
100
AcDbEntity
  8
1
  6
CONTINUOUS
 62
           2
100
AcDbCircle
 10
1050.07019917347
 20
-122.848815363071
 40
4.199439797013
100
AcDbArc
 50
-25.097740997081
 51
25.097740997081
  0
ARC
  5
18D
100
AcDbEntity
  8
1
  6
CONTINUOUS
 62
           2
100
AcDbCircle
 10
1064.317638374326
 20
-122.848815363071
 40
9.632255391461
100
AcDbArc
 50
169.343208929923
 51
-169.343208929923
  0
ARC
  5
18C
100
AcDbEntity
  8
1
  6
CONTINUOUS
 62
           2
100
AcDbCircle
 10
1051.067461767482
 20
-122.848815363071
 40
4.18233310233
100
AcDbArc
 50
-25.207557956643
 51
25.207557956643
  0
ARC
  5
18B
100
AcDbEntity
  8
1
  6
CONTINUOUS
 62
           2
100
AcDbCircle
 10
1065.893202556976
 20
-122.848815363071
 40
10.233669382518
100
AcDbArc
 50
169.976167316159
 51
-169.976167316159
  0
ARC
  5
18A
100
AcDbEntity
  8
1
  6
CONTINUOUS
 62
           2
100
AcDbCircle
 10
1052.047436793449
 20
-122.848815363071
 40
4.168093484078
100
AcDbArc
 50
-25.299733526931
 51
25.299733526931
  0
ARC
  5
189
100
AcDbEntity
  8
1
  6
CONTINUOUS
 62
           2
100
AcDbCircle
 10
1067.544584522736
 20
-122.848815363071
 40
10.925617194767
100
AcDbArc
 50
170.616939916074
 51
-170.616939916074
  0
ARC
  5
188
100
AcDbEntity
  8
1
  6
CONTINUOUS
 62
           2
100
AcDbCircle
 10
1053.00948360924
 20
-122.848815363071
 40
4.156664993616
100
AcDbArc
 50
-25.37422017773
 51
25.37422017773
  0
ARC
  5
187
100
AcDbEntity
  8
1
  6
CONTINUOUS
 62
           2
100
AcDbCircle
 10
1069.292249637329
 20
-122.848815363071
 40
11.72925623975
100
AcDbArc
 50
171.26504518102
 51
-171.265045181019
  0
ARC
  5
186
100
AcDbEntity
  8
1
  6
CONTINUOUS
 62
           2
100
AcDbCircle
 10
1053.952961089488
 20
-122.848815363071
 40
4.148003069562
100
AcDbArc
 50
-25.430979628697
 51
25.430979628694
  0
ARC
  5
185
100
AcDbEntity
  8
1
  6
CONTINUOUS
 62
           2
100
AcDbCircle
 10
1071.163835989554
 20
-122.848815363071
 40
12.67290553816
100
AcDbArc
 50
171.919992453658
 51
-171.919992453658
  0
ARC
  5
184
100
AcDbEntity
  8
1
  6
CONTINUOUS
 62
           2
100
AcDbCircle
 10
1054.877228517805
 20
-122.848815363071
 40
4.142074140176
100
AcDbArc
 50
-25.469982787247
 51
25.469982787247
  0
ARC
  5
183
100
AcDbEntity
  8
1
  6
CONTINUOUS
 62
           2
100
AcDbCircle
 10
1073.197463783056
 20
-122.848815363071
 40
13.795354620449
100
AcDbArc
 50
172.581282466506
 51
-172.581282466506
  0
ARC
  5
182
100
AcDbEntity
  8
1
  6
CONTINUOUS
 62
           2
100
AcDbCircle
 10
1055.781646369896
 20
-122.848815363071
 40
4.138855326608
100
AcDbArc
 50
-25.491209700779
 51
25.491209700779
  0
ARC
  5
181
100
AcDbEntity
  8
1
  6
CONTINUOUS
 62
           2
100
AcDbCircle
 10
1075.44706619682
 20
-122.848815363071
 40
15.151193904532
100
AcDbArc
 50
173.248407873555
 51
-173.248407873555
  0
ARC
  5
180
100
AcDbEntity
  8
1
  6
CONTINUOUS
 62
           2
100
AcDbCircle
 10
1056.665576992192
 20
-122.848815363071
 40
4.138334242064
100
AcDbArc
 50
-25.49464952369
 51
25.49464952369
  0
ARC
  5
17F
100
AcDbEntity
  8
1
  6
CONTINUOUS
 62
           2
100
AcDbCircle
 10
1077.991345824062
 20
-122.848815363071
 40
16.819770660602
100
AcDbArc
 50
173.920853813494
 51
-173.920853813494
  0
ARC
  5
17E
100
AcDbEntity
  8
1
  6
CONTINUOUS
 62
           2
100
AcDbCircle
 10
1057.528385178996
 20
-122.848815363071
 40
4.140508883536
100
AcDbArc
 50
-25.48030049933
 51
25.48030049933
  0
ARC
  5
17D
100
AcDbEntity
  8
1
  6
CONTINUOUS
 62
           2
100
AcDbCircle
 10
1080.949601560098
 20
-122.848815363071
 40
18.921015433999
100
AcDbArc
 50
174.598098502891
 51
-174.59809850289
  0
ARC
  5
17C
100
AcDbEntity
  8
1
  6
CONTINUOUS
 62
           2
100
AcDbCircle
 10
1058.369438649576
 20
-122.848815363071
 40
4.145387614332
100
AcDbArc
 50
-25.448169957085
 51
25.448169957083
  0
ARC
  5
17B
100
AcDbEntity
  8
1
  6
CONTINUOUS
 62
           2
100
AcDbCircle
 10
1084.511476385025
 20
-122.848815363071
 40
21.645189372266
100
AcDbArc
 50
175.279613857382
 51
-175.279613857383
  0
ARC
  5
17A
100
AcDbEntity
  8
1
  6
CONTINUOUS
 62
           2
100
AcDbCircle
 10
1059.188108425179
 20
-122.848815363071
 40
4.152989237098
100
AcDbArc
 50
-25.398274324568
 51
25.398274324568
  0
ARC
  5
179
100
AcDbEntity
  8
1
  6
CONTINUOUS
 62
           2
100
AcDbCircle
 10
1088.997365659367
 20
-122.848815363071
 40
25.313292074911
100
AcDbArc
 50
175.964866138765
 51
-175.964866138765
  0
ARC
  5
178
100
AcDbEntity
  8
1
  6
CONTINUOUS
 62
           2
100
AcDbCircle
 10
1059.983769104426
 20
-122.848815363071
 40
4.163343158546
100
AcDbArc
 50
-25.330639154879
 51
25.330639154877
  0
ARC
  5
177
100
AcDbEntity
  8
1
  6
CONTINUOUS
 62
           2
100
AcDbCircle
 10
1094.994001663637
 20
-122.848815363071
 40
30.512645697126
100
AcDbArc
 50
176.653316625579
 51
-176.653316625579
  0
ARC
  5
176
100
AcDbEntity
  8
1
  6
CONTINUOUS
 62
           2
100
AcDbCircle
 10
1060.755799034043
 20
-122.848815363071
 40
4.17648964862
100
AcDbArc
 50
-25.24529916863
 51
25.245299168636
  0
ARC
  5
175
100
AcDbEntity
  8
1
  6
CONTINUOUS
 62
           2
100
AcDbCircle
 10
1103.70292508127
 20
-122.848815363071
 40
38.445366007236
100
AcDbArc
 50
177.344422304671
 51
-177.344422304671
  0
ARC
  5
174
100
AcDbEntity
  8
1
  6
CONTINUOUS
 62
           2
100
AcDbCircle
 10
1061.503580370307
 20
-122.848815363071
 40
4.192480198403
100
AcDbArc
 50
-25.142298310643
 51
25.142298310643
  0
ARC
  5
173
100
AcDbEntity
  8
1
  6
CONTINUOUS
 62
           2
100
AcDbCircle
 10
1118.030042885776
 20
-122.848815363071
 40
52.017919859043
100
AcDbArc
 50
178.037636580969
 51
-178.037636580969
  0
ARC
  5
172
100
AcDbEntity
  8
1
  6
CONTINUOUS
 62
           2
100
AcDbCircle
 10
1062.226499024858
 20
-122.848815363071
 40
4.211377982819
100
AcDbArc
 50
-25.021689820631
 51
25.021689820628
  0
ARC
  5
171
100
AcDbEntity
  8
1
  6
CONTINUOUS
 62
           2
100
AcDbCircle
 10
1147.264571878479
 20
-122.848815363071
 40
80.520068325712
100
AcDbArc
 50
178.732410002594
 51
-178.732410002594
  0
ARC
  5
170
100
AcDbEntity
  8
1
  6
CONTINUOUS
 62
           2
100
AcDbCircle
 10
1062.923944486678
 20
-122.848815363071
 40
4.233258436034
100
AcDbArc
 50
-24.883536317614
 51
24.883536317614
  0
ARC
  5
16F
100
AcDbEntity
  8
1
  6
CONTINUOUS
 62
           2
100
AcDbCircle
 10
1032.262137121072
 20
-122.848815363071
 40
4.966450941769
100
AcDbArc
 50
-21.017711079805
 51
21.017711079805
  0
ARC
  5
16E
100
AcDbEntity
  8
1
  6
CONTINUOUS
 62
           2
100
AcDbCircle
 10
1041.844010253805
 20
-122.848815363071
 40
5.256824707506
100
AcDbArc
 50
160.193464876454
 51
-160.193464876454
  0
ARC
  5
16D
100
AcDbEntity
  8
1
  6
CONTINUOUS
 62
           2
100
AcDbCircle
 10
1033.455066425467
 20
-122.848815363071
 40
4.882795906816
100
AcDbArc
 50
-21.395351170021
 51
21.395351170021
  0
ARC
  5
16C
100
AcDbEntity
  8
1
  6
CONTINUOUS
 62
           2
100
AcDbCircle
 10
1043.044459526579
 20
-122.848815363071
 40
5.348423964744
100
AcDbArc
 50
160.546481006697
 51
-160.546481006697
  0
ARC
  5
16B
100
AcDbEntity
  8
1
  6
CONTINUOUS
 62
           2
100
AcDbCircle
 10
1034.639536674054
 20
-122.848815363071
 40
4.805378113556
100
AcDbArc
 50
-21.757463708821
 51
21.757463708821
  0
ARC
  5
16A
100
AcDbEntity
  8
1
  6
CONTINUOUS
 62
           2
100
AcDbCircle
 10
1044.299770448514
 20
-122.848815363071
 40
5.493958511223
100
AcDbArc
 50
161.081687914028
 51
-161.081687914028
  0
ARC
  5
169
100
AcDbEntity
  8
1
  6
CONTINUOUS
 62
           2
100
AcDbCircle
 10
1035.815184258907
 20
-122.848815363071
 40
4.733762646434
100
AcDbArc
 50
-22.10383595237
 51
22.10383595237
  0
ARC
  5
168
100
AcDbEntity
  8
1
  6
CONTINUOUS
 62
           2
100
AcDbCircle
 10
1045.539161581925
 20
-122.848815363071
 40
5.627475709737
100
AcDbArc
 50
161.546956549954
 51
-161.546956549954
  0
ARC
  5
167
100
AcDbEntity
  8
1
  6
CONTINUOUS
 62
           2
100
AcDbCircle
 10
1036.98160078654
 20
-122.848815363071
 40
4.66756155404
100
AcDbArc
 50
-22.434266668839
 51
22.434266668839
  0
ARC
  5
166
100
AcDbEntity
  8
1
  6
CONTINUOUS
 62
           2
100
AcDbCircle
 10
1046.786492029905
 20
-122.848815363071
 40
5.772289243171
100
AcDbArc
 50
162.02593852488
 51
-162.02593852488
  0
ARC
  5
165
100
AcDbEntity
  8
1
  6
CONTINUOUS
 62
           2
100
AcDbCircle
 10
1038.138339188611
 20
-122.848815363071
 40
4.606428312816
100
AcDbArc
 50
-22.748565977763
 51
22.748565977763
  0
ARC
  5
164
100
AcDbEntity
  8
1
  6
CONTINUOUS
 62
           2
100
AcDbCircle
 10
1048.042146335246
 20
-122.848815363071
 40
5.92957890634
100
AcDbArc
 50
162.518324819922
 51
-162.518324819922
  0
ARC
  5
163
100
AcDbEntity
  8
1
  6
CONTINUOUS
 62
           2
100
AcDbCircle
 10
1039.284919019016
 20
-122.848815363071
 40
4.550053102382
100
AcDbArc
 50
-23.046555184547
 51
23.046555184547
  0
ARC
  5
162
100
AcDbEntity
  8
1
  6
CONTINUOUS
 62
           2
100
AcDbCircle
 10
1049.306690670513
 20
-122.848815363071
 40
6.100703128784
100
AcDbArc
 50
163.023794006765
 51
-163.023794006765
  0
ARC
  5
161
100
AcDbEntity
  8
1
  6
CONTINUOUS
 62
           2
100
AcDbCircle
 10
1040.420831068182
 20
-122.848815363071
 40
4.498158761268
100
AcDbArc
 50
-23.328066611808
 51
23.328066611808
  0
ARC
  5
160
100
AcDbEntity
  8
1
  6
CONTINUOUS
 62
           2
100
AcDbCircle
 10
1050.580907829479
 20
-122.848815363071
 40
6.287233394742
100
AcDbArc
 50
163.542012244597
 51
-163.542012244597
  0
ARC
  5
15F
100
AcDbEntity
  8
1
  6
CONTINUOUS
 62
           2
100
AcDbCircle
 10
1041.545541401303
 20
-122.848815363071
 40
4.450497315887
100
AcDbArc
 50
-23.592943429548
 51
23.592943429548
  0
ARC
  5
15E
100
AcDbEntity
  8
1
  6
CONTINUOUS
 62
           2
100
AcDbCircle
 10
1051.865840548127
 20
-122.848815363071
 40
6.490996995277
100
AcDbArc
 50
164.072633303533
 51
-164.072633303533
  0
ARC
  5
15D
100
AcDbEntity
  8
1
  6
CONTINUOUS
 62
           2
100
AcDbCircle
 10
1042.658494907894
 20
-122.848815363071
 40
4.406846994978
100
AcDbArc
 50
-23.841039485702
 51
23.841039485702
  0
ARC
  5
15C
100
AcDbEntity
  8
1
  6
CONTINUOUS
 62
           2
100
AcDbCircle
 10
1053.162845602415
 20
-122.848815363071
 40
6.714130560129
100
AcDbArc
 50
164.615298616132
 51
-164.615298616132
  0
ARC
  5
15B
100
AcDbEntity
  8
1
  6
CONTINUOUS
 62
           7
100
AcDbCircle
 10
1073.85134775309
 20
-124.380002860474
 40
2.96875
100
AcDbArc
 50
-90.0
 51
0.0
  0
ARC
  5
15A
100
AcDbEntity
  8
1
  6
CONTINUOUS
 62
           7
100
AcDbCircle
 10
1073.25759775309
 20
-121.411252860474
 40
3.5625
100
AcDbArc
 50
0.0
 51
90.0
  0
ARC
  5
159
100
AcDbEntity
  8
1
  6
CONTINUOUS
 62
           7
100
AcDbCircle
 10
1070.88259775309
 20
-117.848752860474
 40
2.375
100
AcDbArc
 50
0.0
 51
90.0
  0
ARC
  5
158
100
AcDbEntity
  8
1
  6
CONTINUOUS
 62
           2
100
AcDbCircle
 10
1040.784636810326
 20
-122.848815363071
 40
5.299192344847
100
AcDbArc
 50
160.358359845898
 51
-160.358359845898
  0
ARC
  5
157
100
AcDbEntity
  8
1
  6
CONTINUOUS
 62
           2
100
AcDbCircle
 10
1031.061060497676
 20
-122.848815363071
 40
5.056831607702
100
AcDbArc
 50
-20.624767847767
 51
20.624767847767
  0
ARC
  5
156
100
AcDbEntity
  8
1
  6
CONTINUOUS
 62
           7
100
AcDbCircle
 10
1073.85134775309
 20
-124.380002860474
 40
2.96875
100
AcDbArc
 50
-90.0
 51
0.0
  0
ARC
  5
155
100
AcDbEntity
  8
1
  6
CONTINUOUS
 62
           7
100
AcDbCircle
 10
1073.25759775309
 20
-121.411252860474
 40
3.5625
100
AcDbArc
 50
0.0
 51
90.0
  0
ARC
  5
154
100
AcDbEntity
  8
1
  6
CONTINUOUS
 62
           7
100
AcDbCircle
 10
1070.88259775309
 20
-117.848752860474
 40
2.375
100
AcDbArc
 50
0.0
 51
90.0
  0
ARC
  5
153
100
AcDbEntity
  8
1
  6
CONTINUOUS
 62
           2
100
AcDbCircle
 10
1039.454135008504
 20
-122.848815363071
 40
5.056831607702
100
AcDbArc
 50
159.375232152232
 51
-159.375232152232
  0
ARC
  5
152
100
AcDbEntity
  8
1
  6
CONTINUOUS
 62
           2
100
AcDbCircle
 10
1029.730558695854
 20
-122.848815363071
 40
5.299192344847
100
AcDbArc
 50
-19.641640154101
 51
19.641640154101
  0
ARC
  5
151
100
AcDbEntity
  8
1
  6
CONTINUOUS
 62
           7
100
AcDbCircle
 10
999.63259775309
 20
-117.848752860474
 40
2.375
100
AcDbArc
 50
90.0
 51
180.0
  0
ARC
  5
150
100
AcDbEntity
  8
1
  6
CONTINUOUS
 62
           7
100
AcDbCircle
 10
997.25759775309
 20
-121.411252860474
 40
3.5625
100
AcDbArc
 50
90.0
 51
180.0
  0
ARC
  5
14F
100
AcDbEntity
  8
1
  6
CONTINUOUS
 62
           7
100
AcDbCircle
 10
996.66384775309
 20
-124.380002860474
 40
2.96875
100
AcDbArc
 50
180.0
 51
-90.0
  0
ARC
  5
14E
100
AcDbEntity
  8
1
  6
CONTINUOUS
 62
           2
100
AcDbCircle
 10
1017.352349903766
 20
-122.848815363071
 40
6.714130560128
100
AcDbArc
 50
-15.38470138387
 51
15.38470138387
  0
ARC
  5
14D
100
AcDbEntity
  8
1
  6
CONTINUOUS
 62
           2
100
AcDbCircle
 10
1027.856700598286
 20
-122.848815363071
 40
4.406846994978
100
AcDbArc
 50
156.158960514298
 51
-156.158960514298
  0
ARC
  5
14C
100
AcDbEntity
  8
1
  6
CONTINUOUS
 62
           2
100
AcDbCircle
 10
1018.649354958053
 20
-122.848815363071
 40
6.490996995277
100
AcDbArc
 50
-15.927366696466
 51
15.927366696466
  0
ARC
  5
14B
100
AcDbEntity
  8
1
  6
CONTINUOUS
 62
           2
100
AcDbCircle
 10
1028.969654104877
 20
-122.848815363071
 40
4.450497315887
100
AcDbArc
 50
156.407056570451
 51
-156.407056570451
  0
ARC
  5
14A
100
AcDbEntity
  8
1
  6
CONTINUOUS
 62
           2
100
AcDbCircle
 10
1019.934287676701
 20
-122.848815363071
 40
6.287233394742
100
AcDbArc
 50
-16.457987755403
 51
16.457987755403
  0
ARC
  5
149
100
AcDbEntity
  8
1
  6
CONTINUOUS
 62
           2
100
AcDbCircle
 10
1030.094364437999
 20
-122.848815363071
 40
4.498158761269
100
AcDbArc
 50
156.671933388197
 51
-156.671933388197
  0
ARC
  5
148
100
AcDbEntity
  8
1
  6
CONTINUOUS
 62
           2
100
AcDbCircle
 10
1021.208504835667
 20
-122.848815363071
 40
6.100703128784
100
AcDbArc
 50
-16.976205993234
 51
16.976205993234
  0
ARC
  5
147
100
AcDbEntity
  8
1
  6
CONTINUOUS
 62
           2
100
AcDbCircle
 10
1031.230276487165
 20
-122.848815363071
 40
4.550053102382
100
AcDbArc
 50
156.953444815456
 51
-156.953444815456
  0
ARC
  5
146
100
AcDbEntity
  8
1
  6
CONTINUOUS
 62
           2
100
AcDbCircle
 10
1022.473049170935
 20
-122.848815363071
 40
5.92957890634
100
AcDbArc
 50
-17.481675180077
 51
17.481675180077
  0
ARC
  5
145
100
AcDbEntity
  8
1
  6
CONTINUOUS
 62
           2
100
AcDbCircle
 10
1032.376856317569
 20
-122.848815363071
 40
4.606428312815
100
AcDbArc
 50
157.251434022233
 51
-157.251434022233
  0
ARC
  5
144
100
AcDbEntity
  8
1
  6
CONTINUOUS
 62
           2
100
AcDbCircle
 10
1023.728703476275
 20
-122.848815363071
 40
5.772289243172
100
AcDbArc
 50
-17.974061475117
 51
17.974061475117
  0
ARC
  5
143
100
AcDbEntity
  8
1
  6
CONTINUOUS
 62
           2
100
AcDbCircle
 10
1033.53359471964
 20
-122.848815363071
 40
4.667561554039
100
AcDbArc
 50
157.565733331155
 51
-157.565733331155
  0
ARC
  5
142
100
AcDbEntity
  8
1
  6
CONTINUOUS
 62
           2
100
AcDbCircle
 10
1024.976033924255
 20
-122.848815363071
 40
5.627475709737
100
AcDbArc
 50
-18.453043450043
 51
18.453043450043
  0
ARC
  5
141
100
AcDbEntity
  8
1
  6
CONTINUOUS
 62
           2
100
AcDbCircle
 10
1034.700011247273
 20
-122.848815363071
 40
4.733762646433
100
AcDbArc
 50
157.896164047625
 51
-157.896164047625
  0
ARC
  5
140
100
AcDbEntity
  8
1
  6
CONTINUOUS
 62
           2
100
AcDbCircle
 10
1026.215425057666
 20
-122.848815363071
 40
5.493958511223
100
AcDbArc
 50
-18.918312085972
 51
18.918312085972
  0
ARC
  5
13F
100
AcDbEntity
  8
1
  6
CONTINUOUS
 62
           2
100
AcDbCircle
 10
1035.875658832126
 20
-122.848815363071
 40
4.805378113556
100
AcDbArc
 50
158.242536291178
 51
-158.242536291178
  0
ARC
  5
13E
100
AcDbEntity
  8
1
  6
CONTINUOUS
 62
           2
100
AcDbCircle
 10
1027.470735979601
 20
-122.848815363071
 40
5.348423964745
100
AcDbArc
 50
-19.453518993302
 51
19.453518993302
  0
ARC
  5
13D
100
AcDbEntity
  8
1
  6
CONTINUOUS
 62
           2
100
AcDbCircle
 10
1037.060129080713
 20
-122.848815363071
 40
4.882795906816
100
AcDbArc
 50
158.604648829979
 51
-158.604648829979
  0
ARC
  5
13C
100
AcDbEntity
  8
1
  6
CONTINUOUS
 62
           2
100
AcDbCircle
 10
1028.671185252375
 20
-122.848815363071
 40
5.256824707506
100
AcDbArc
 50
-19.806535123545
 51
19.806535123545
  0
ARC
  5
13B
100
AcDbEntity
  8
1
  6
CONTINUOUS
 62
           2
100
AcDbCircle
 10
1038.253058385108
 20
-122.848815363071
 40
4.966450941769
100
AcDbArc
 50
158.982288920195
 51
-158.982288920195
  0
ARC
  5
13A
100
AcDbEntity
  8
1
  6
CONTINUOUS
 62
           2
100
AcDbCircle
 10
1007.591251019502
 20
-122.848815363071
 40
4.233258436034
100
AcDbArc
 50
155.116463682385
 51
-155.116463682385
  0
ARC
  5
139
100
AcDbEntity
  8
1
  6
CONTINUOUS
 62
           2
100
AcDbCircle
 10
923.250623627701
 20
-122.848815363071
 40
80.520068325712
100
AcDbArc
 50
-1.267589997405
 51
1.267589997405
  0
ARC
  5
138
100
AcDbEntity
  8
1
  6
CONTINUOUS
 62
           2
100
AcDbCircle
 10
1008.288696481322
 20
-122.848815363071
 40
4.211377982819
100
AcDbArc
 50
154.978310179371
 51
-154.978310179368
  0
ARC
  5
137
100
AcDbEntity
  8
1
  6
CONTINUOUS
 62
           2
100
AcDbCircle
 10
952.485152620404
 20
-122.848815363071
 40
52.017919859043
100
AcDbArc
 50
-1.962363419031
 51
1.962363419031
  0
ARC
  5
136
100
AcDbEntity
  8
1
  6
CONTINUOUS
 62
           2
100
AcDbCircle
 10
1009.011615135873
 20
-122.848815363071
 40
4.192480198403
100
AcDbArc
 50
154.857701689356
 51
-154.857701689356
  0
ARC
  5
135
100
AcDbEntity
  8
1
  6
CONTINUOUS
 62
           2
100
AcDbCircle
 10
966.81227042491
 20
-122.848815363071
 40
38.445366007236
100
AcDbArc
 50
-2.655577695328
 51
2.655577695328
  0
ARC
  5
134
100
AcDbEntity
  8
1
  6
CONTINUOUS
 62
           2
100
AcDbCircle
 10
1009.759396472137
 20
-122.848815363071
 40
4.17648964862
100
AcDbArc
 50
154.754700831365
 51
-154.754700831371
  0
ARC
  5
133
100
AcDbEntity
  8
1
  6
CONTINUOUS
 62
           2
100
AcDbCircle
 10
975.521193842543
 20
-122.848815363071
 40
30.512645697126
100
AcDbArc
 50
-3.346683374421
 51
3.34668337442
  0
ARC
  5
132
100
AcDbEntity
  8
1
  6
CONTINUOUS
 62
           2
100
AcDbCircle
 10
1010.531426401754
 20
-122.848815363071
 40
4.163343158546
100
AcDbArc
 50
154.669360845123
 51
-154.669360845121
  0
ARC
  5
131
100
AcDbEntity
  8
1
  6
CONTINUOUS
 62
           2
100
AcDbCircle
 10
981.517829846813
 20
-122.848815363071
 40
25.313292074911
100
AcDbArc
 50
-4.035133861235
 51
4.035133861234
  0
ARC
  5
130
100
AcDbEntity
  8
1
  6
CONTINUOUS
 62
           2
100
AcDbCircle
 10
1011.327087081001
 20
-122.848815363071
 40
4.152989237098
100
AcDbArc
 50
154.601725675431
 51
-154.601725675431
  0
ARC
  5
12F
100
AcDbEntity
  8
1
  6
CONTINUOUS
 62
           2
100
AcDbCircle
 10
986.003719121156
 20
-122.848815363071
 40
21.645189372265
100
AcDbArc
 50
-4.720386142617
 51
4.720386142618
  0
ARC
  5
12E
100
AcDbEntity
  8
1
  6
CONTINUOUS
 62
           2
100
AcDbCircle
 10
1012.145756856604
 20
-122.848815363071
 40
4.145387614331
100
AcDbArc
 50
154.551830042917
 51
-154.551830042914
  0
ARC
  5
12D
100
AcDbEntity
  8
1
  6
CONTINUOUS
 62
           2
100
AcDbCircle
 10
989.565593946082
 20
-122.848815363071
 40
18.921015433999
100
AcDbArc
 50
-5.40190149711
 51
5.401901497109
  0
ARC
  5
12C
100
AcDbEntity
  8
1
  6
CONTINUOUS
 62
           2
100
AcDbCircle
 10
1012.986810327185
 20
-122.848815363071
 40
4.140508883536
100
AcDbArc
 50
154.519699500675
 51
-154.519699500675
  0
ARC
  5
12B
100
AcDbEntity
  8
1
  6
CONTINUOUS
 62
           2
100
AcDbCircle
 10
992.523849682118
 20
-122.848815363071
 40
16.819770660603
100
AcDbArc
 50
-6.079146186505
 51
6.079146186505
  0
ARC
  5
12A
100
AcDbEntity
  8
1
  6
CONTINUOUS
 62
           2
100
AcDbCircle
 10
1013.849618513988
 20
-122.848815363071
 40
4.138334242064
100
AcDbArc
 50
154.505350476311
 51
-154.505350476311
  0
ARC
  5
129
100
AcDbEntity
  8
1
  6
CONTINUOUS
 62
           2
100
AcDbCircle
 10
995.06812930936
 20
-122.848815363071
 40
15.151193904531
100
AcDbArc
 50
-6.751592126445
 51
6.751592126445
  0
ARC
  5
128
100
AcDbEntity
  8
1
  6
CONTINUOUS
 62
           2
100
AcDbCircle
 10
1014.733549136285
 20
-122.848815363071
 40
4.138855326608
100
AcDbArc
 50
154.50879029922
 51
-154.50879029922
  0
ARC
  5
127
100
AcDbEntity
  8
1
  6
CONTINUOUS
 62
           2
100
AcDbCircle
 10
997.317731723124
 20
-122.848815363071
 40
13.79535462045
100
AcDbArc
 50
-7.418717533493
 51
7.418717533493
  0
ARC
  5
126
100
AcDbEntity
  8
1
  6
CONTINUOUS
 62
           2
100
AcDbCircle
 10
1015.637966988375
 20
-122.848815363071
 40
4.142074140176
100
AcDbArc
 50
154.530017212752
 51
-154.530017212752
  0
ARC
  5
125
100
AcDbEntity
  8
1
  6
CONTINUOUS
 62
           2
100
AcDbCircle
 10
999.351359516626
 20
-122.848815363071
 40
12.672905538161
100
AcDbArc
 50
-8.080007546342
 51
8.080007546342
  0
ARC
  5
124
100
AcDbEntity
  8
1
  6
CONTINUOUS
 62
           2
100
AcDbCircle
 10
1016.562234416692
 20
-122.848815363071
 40
4.148003069562
100
AcDbArc
 50
154.569020371306
 51
-154.569020371304
  0
ARC
  5
123
100
AcDbEntity
  8
1
  6
CONTINUOUS
 62
           2
100
AcDbCircle
 10
1001.222945868851
 20
-122.848815363071
 40
11.72925623975
100
AcDbArc
 50
-8.73495481898
 51
8.734954818979
  0
ARC
  5
122
100
AcDbEntity
  8
1
  6
CONTINUOUS
 62
           2
100
AcDbCircle
 10
1017.50571189694
 20
-122.848815363071
 40
4.156664993616
100
AcDbArc
 50
154.62577982227
 51
-154.62577982227
  0
ARC
  5
121
100
AcDbEntity
  8
1
  6
CONTINUOUS
 62
           2
100
AcDbCircle
 10
1002.970610983444
 20
-122.848815363071
 40
10.925617194767
100
AcDbArc
 50
-9.383060083925
 51
9.383060083925
  0
ARC
  5
120
100
AcDbEntity
  8
1
  6
CONTINUOUS
 62
           2
100
AcDbCircle
 10
1018.467758712731
 20
-122.848815363071
 40
4.168093484078
100
AcDbArc
 50
154.700266473068
 51
-154.700266473068
  0
ARC
  5
11F
100
AcDbEntity
  8
1
  6
CONTINUOUS
 62
           2
100
AcDbCircle
 10
1004.621992949204
 20
-122.848815363071
 40
10.233669382518
100
AcDbArc
 50
-10.023832683841
 51
10.023832683841
  0
ARC
  5
11E
100
AcDbEntity
  8
1
  6
CONTINUOUS
 62
           2
100
AcDbCircle
 10
1019.447733738698
 20
-122.848815363071
 40
4.18233310233
100
AcDbArc
 50
154.792442043356
 51
-154.792442043356
  0
ARC
  5
11D
100
AcDbEntity
  8
1
  6
CONTINUOUS
 62
           2
100
AcDbCircle
 10
1006.197557131854
 20
-122.848815363071
 40
9.632255391461
100
AcDbArc
 50
-10.656791070076
 51
10.656791070076
  0
ARC
  5
11C
100
AcDbEntity
  8
1
  6
CONTINUOUS
 62
           2
100
AcDbCircle
 10
1020.44499633271
 20
-122.848815363071
 40
4.199439797013
100
AcDbArc
 50
154.902259002918
 51
-154.902259002918
  0
ARC
  5
11B
100
AcDbEntity
  8
1
  6
CONTINUOUS
 62
           2
100
AcDbCircle
 10
1007.712725312093
 20
-122.848815363071
 40
9.105250780329
100
AcDbArc
 50
-11.281463267015
 51
11.281463267015
  0
ARC
  5
11A
100
AcDbEntity
  8
1
  6
CONTINUOUS
 62
           2
100
AcDbCircle
 10
1021.45890734356
 20
-122.848815363071
 40
4.219481409269
100
AcDbArc
 50
155.029660495583
 51
-155.029660495583
  0
ARC
  5
119
100
AcDbEntity
  8
1
  6
CONTINUOUS
 62
           2
100
AcDbCircle
 10
1009.179288162356
 20
-122.848815363071
 40
8.640152108202
100
AcDbArc
 50
-11.897387301262
 51
11.897387301262
  0
ARC
  5
118
100
AcDbEntity
  8
1
  6
CONTINUOUS
 62
           2
100
AcDbCircle
 10
1022.488830242469
 20
-122.848815363071
 40
4.242538294284
100
AcDbArc
 50
155.174580249751
 51
-155.174580249751
  0
ARC
  5
117
100
AcDbEntity
  8
1
  6
CONTINUOUS
 62
           2
100
AcDbCircle
 10
1010.606367604435
 20
-122.848815363071
 40
8.227115091016
100
AcDbArc
 50
-12.504111595024
 51
12.504111595024
  0
ARC
  5
116
100
AcDbEntity
  8
1
  6
CONTINUOUS
 62
           2
100
AcDbCircle
 10
1023.53413238892
 20
-122.848815363071
 40
4.268704070026
100
AcDbArc
 50
155.33694247624
 51
-155.33694247624
  0
ARC
  5
115
100
AcDbEntity
  8
1
  6
CONTINUOUS
 62
           2
100
AcDbCircle
 10
1012.001088011849
 20
-122.848815363071
 40
7.858283920231
100
AcDbArc
 50
-13.101195323309
 51
13.101195323309
  0
ARC
  5
114
100
AcDbEntity
  8
1
  6
CONTINUOUS
 62
           2
100
AcDbCircle
 10
1016.041533518081
 20
-122.848815363071
 40
6.959147675029
100
AcDbArc
 50
-14.830362641291
 51
14.830362641291
  0
ARC
  5
113
100
AcDbEntity
  8
1
  6
CONTINUOUS
 62
           2
100
AcDbCircle
 10
1026.756077071655
 20
-122.848815363071
 40
4.367009657238
100
AcDbArc
 50
155.927780861216
 51
-155.927780861216
  0
ARC
  5
112
100
AcDbEntity
  8
1
  6
CONTINUOUS
 62
           2
100
AcDbCircle
 10
1014.714697806308
 20
-122.848815363071
 40
7.229025102121
100
AcDbArc
 50
-14.264733436184
 51
14.264733436184
  0
ARC
  5
111
100
AcDbEntity
  8
1
  6
CONTINUOUS
 62
           2
100
AcDbCircle
 10
1025.668371946135
 20
-122.848815363071
 40
4.330808572442
100
AcDbArc
 50
155.713642905774
 51
-155.713642905774
  0
ARC
  5
110
100
AcDbEntity
  8
1
  6
CONTINUOUS
 62
           2
100
AcDbCircle
 10
1013.369054143224
 20
-122.848815363071
 40
7.527313857042
100
AcDbArc
 50
-13.688208734751
 51
13.688208734751
  0
ARC
  5
10F
100
AcDbEntity
  8
1
  6
CONTINUOUS
 62
           2
100
AcDbCircle
 10
1024.594186443851
 20
-122.848815363071
 40
4.298086506592
100
AcDbArc
 50
155.516661754165
 51
-155.516661754165
  0
ARC
  5
10E
100
AcDbEntity
  8
1
  6
CONTINUOUS
 62
           2
100
AcDbCircle
 10
1006.94436644038
 20
-122.848815363071
 40
4.280457896984
100
AcDbArc
 50
155.409162471171
 51
-155.322844332816
  0
ARC
  5
10D
100
AcDbEntity
  8
1
  6
CONTINUOUS
 62
           2
100
AcDbCircle
 10
1006.284343498918
 20
-122.85250630626
 40
4.299239357969
100
AcDbArc
 50
155.469600298429
 51
-155.540569074766
  0
ARC
  5
10C
100
AcDbEntity
  8
1
  6
CONTINUOUS
 62
           2
100
AcDbCircle
 10
1005.783544916528
 20
-122.848815363071
 40
4.452907286074
100
AcDbArc
 50
156.420598912879
 51
-156.420598912879
  0
ARC
  5
10B
100
AcDbEntity
  8
1
  6
CONTINUOUS
 62
           2
100
AcDbCircle
 10
1005.313397813503
 20
-122.848815363071
 40
4.615092737699
100
AcDbArc
 50
157.296530306
 51
-157.296530306
  0
ARC
  5
10A
100
AcDbEntity
  8
1
  6
CONTINUOUS
 62
           2
100
AcDbCircle
 10
1004.885508014908
 20
-122.848815363071
 40
4.794607653558
100
AcDbArc
 50
158.191158574174
 51
-158.191158574174
  0
ARC
  5
109
100
AcDbEntity
  8
1
  6
CONTINUOUS
 62
           2
100
AcDbCircle
 10
1004.502908936973
 20
-122.848815363071
 40
4.994047324861
100
AcDbArc
 50
159.103886235632
 51
-159.103886235632
  0
ARC
  5
108
100
AcDbEntity
  8
1
  6
CONTINUOUS
 62
           2
100
AcDbCircle
 10
1004.169162937006
 20
-122.848815363071
 40
5.216554280603
100
AcDbArc
 50
160.034087042743
 51
-160.034087042743
  0
ARC
  5
107
100
AcDbEntity
  8
1
  6
CONTINUOUS
 62
           2
100
AcDbCircle
 10
1003.888512914859
 20
-122.848815363071
 40
5.465970191845
100
AcDbArc
 50
160.981106018723
 51
-160.981106018723
  0
ARC
  5
106
100
AcDbEntity
  8
1
  6
CONTINUOUS
 62
           2
100
AcDbCircle
 10
1003.666087548501
 20
-122.848815363071
 40
5.747041396708
100
AcDbArc
 50
161.944259627565
 51
-161.944259627565
  0
ARC
  5
105
100
AcDbEntity
  8
1
  6
CONTINUOUS
 62
           2
100
AcDbCircle
 10
1003.508183622594
 20
-122.848815363071
 40
6.065701504729
100
AcDbArc
 50
162.922836082986
 51
-162.922836082986
  0
ARC
  5
104
100
AcDbEntity
  8
1
  6
CONTINUOUS
 62
           2
100
AcDbCircle
 10
1003.422661420276
 20
-122.848815363071
 40
6.429467050608
100
AcDbArc
 50
163.916095801176
 51
-163.916095801176
  0
ARC
  5
103
100
AcDbEntity
  8
1
  6
CONTINUOUS
 62
           2
100
AcDbCircle
 10
1003.419509702736
 20
-122.848815363071
 40
6.848002721731
100
AcDbArc
 50
164.923272001178
 51
-164.923272001178
  0
ARC
  5
102
100
AcDbEntity
  8
1
  6
CONTINUOUS
 62
           2
100
AcDbCircle
 10
1003.511671585352
 20
-122.848815363071
 40
7.333947468064
100
AcDbArc
 50
165.943571455262
 51
-165.943571455262
  0
ARC
  5
101
100
AcDbEntity
  8
1
  6
CONTINUOUS
 62
           2
100
AcDbCircle
 10
1003.716283491646
 20
-122.848815363071
 40
7.904153675503
100
AcDbArc
 50
166.976175390467
 51
-166.976175390467
  0
ARC
  5
100
100
AcDbEntity
  8
1
  6
CONTINUOUS
 62
           2
100
AcDbCircle
 10
1004.056590043452
 20
-122.848815363071
 40
8.581602260921
100
AcDbArc
 50
168.020240540937
 51
-168.020240540937
  0
ARC
  5
FF
100
AcDbEntity
  8
1
  6
CONTINUOUS
 62
           2
100
AcDbCircle
 10
1004.565008032308
 20
-122.848815363071
 40
9.398466833767
100
AcDbArc
 50
169.074900349229
 51
-169.074900349229
  0
ARC
  5
FE
100
AcDbEntity
  8
1
  6
CONTINUOUS
 62
           2
100
AcDbCircle
 10
1005.288233190356
 20
-122.848815363071
 40
10.401220642369
100
AcDbArc
 50
170.139266313187
 51
-170.139266313187
  0
ARC
  5
FD
100
AcDbEntity
  8
1
  6
CONTINUOUS
 62
           2
100
AcDbCircle
 10
1006.296177197147
 20
-122.848815363071
 40
11.659573741221
100
AcDbArc
 50
171.212429473395
 51
-171.212429473395
  0
ARC
  5
FC
100
AcDbEntity
  8
1
  6
CONTINUOUS
 62
           2
100
AcDbCircle
 10
1007.698565143151
 20
-122.848815363071
 40
13.283070599916
100
AcDbArc
 50
172.293462034641
 51
-172.293462034641
  0
ARC
  5
FB
100
AcDbEntity
  8
1
  6
CONTINUOUS
 62
           2
100
AcDbCircle
 10
1009.678130631666
 20
-122.848815363071
 40
15.454285335335
100
AcDbArc
 50
173.381419113258
 51
-173.381419113258
  0
ARC
  5
FA
100
AcDbEntity
  8
1
  6
CONTINUOUS
 62
           2
100
AcDbCircle
 10
1016.278759956093
 20
-122.848815363071
 40
22.227648888901
100
AcDbArc
 50
175.4035778173
 51
-175.4035778173
  0
LINE
  5
F9
100
AcDbEntity
  8
1
  6
DOT_CENTER
 62
           2
100
AcDbLine
 10
1070.97579600175
 20
-257.775291379896
 11
1023.13498769216
 21
-257.775291379896
  0
LINE
  5
F8
100
AcDbEntity
  8
1
  6
DOT_CENTER
 62
           2
100
AcDbLine
 10
1035.25759775309
 20
-106.033558511159
 11
1035.25759775309
 21
-310.832423448574
  0
LINE
  5
F7
100
AcDbEntity
  8
1
  6
CONTINUOUS
 62
           7
100
AcDbLine
 10
997.25759775309
 20
-202.807588154579
 11
997.25759775309
 21
-202.808824950006
  0
LINE
  5
F6
100
AcDbEntity
  8
1
  6
CONTINUOUS
 62
           7
100
AcDbLine
 10
1044.75759775309
 20
-242.475291379896
 11
1025.75759775309
 21
-242.475291379896
  0
LINE
  5
F5
100
AcDbEntity
  8
1
  6
CONTINUOUS
 62
           7
100
AcDbLine
 10
1035.25759775309
 20
-267.475291379896
 11
1025.75759775309
 21
-267.475291379896
  0
LINE
  5
F4
100
AcDbEntity
  8
1
  6
CONTINUOUS
 62
           7
100
AcDbLine
 10
1044.75759775309
 20
-262.075291379896
 11
1044.75759775309
 21
-257.775291379896
  0
LINE
  5
F3
100
AcDbEntity
  8
1
  6
CONTINUOUS
 62
           7
100
AcDbLine
 10
1044.75759775309
 20
-261.081499101884
 11
1044.75759775309
 21
-242.475291379896
  0
LINE
  5
F2
100
AcDbEntity
  8
1
  6
CONTINUOUS
 62
           7
100
AcDbLine
 10
1044.75759775309
 20
-267.475291379896
 11
1035.25759775309
 21
-267.475291379896
  0
LINE
  5
F1
100
AcDbEntity
  8
1
  6
CONTINUOUS
 62
           7
100
AcDbLine
 10
1031.595297612916
 20
-276.616835606328
 11
1032.044944025884
 21
-292.354460060237
  0
LINE
  5
F0
100
AcDbEntity
  8
1
  6
CONTINUOUS
 62
           7
100
AcDbLine
 10
1025.75759775309
 20
-242.475291379896
 11
1025.75759775309
 21
-267.475291379896
  0
LINE
  5
EF
100
AcDbEntity
  8
1
  6
CONTINUOUS
 62
           7
100
AcDbLine
 10
1031.587137677516
 20
-276.33123786734
 11
1031.595297612916
 21
-276.616835606328
  0
LINE
  5
EE
100
AcDbEntity
  8
1
  6
CONTINUOUS
 62
           7
100
AcDbLine
 10
1034.044128198806
 20
-294.297340512439
 11
1036.471067307374
 21
-294.297340512439
  0
LINE
  5
ED
100
AcDbEntity
  8
1
  6
CONTINUOUS
 62
           7
100
AcDbLine
 10
1038.470251480296
 20
-292.354460060237
 11
1038.928057828664
 21
-276.33123786734
  0
LINE
  5
EC
100
AcDbEntity
  8
1
  6
CONTINUOUS
 62
           7
100
AcDbLine
 10
1043.923978693271
 20
-267.956581568484
 11
1044.75759775309
 21
-267.475291379896
  0
LINE
  5
EB
100
AcDbEntity
  8
1
  6
CONTINUOUS
 62
           7
100
AcDbLine
 10
1025.75759775309
 20
-267.475291379896
 11
1026.591216812909
 21
-267.956581568484
  0
LINE
  5
EA
100
AcDbEntity
  8
1
  6
CONTINUOUS
 62
           7
100
AcDbLine
 10
1025.75759775309
 20
-242.475291379896
 11
1025.75759775309
 21
-267.475291379896
  0
LINE
  5
E9
100
AcDbEntity
  8
1
  6
CONTINUOUS
 62
           7
100
AcDbLine
 10
1044.75759775309
 20
-267.475291379896
 11
1044.75759775309
 21
-262.075291379896
  0
LINE
  5
E8
100
AcDbEntity
  8
1
  6
CONTINUOUS
 62
           7
100
AcDbLine
 10
1044.75759775309
 20
-242.475291379896
 11
1044.2460154608
 21
-242.475291379896
  0
LINE
  5
E7
100
AcDbEntity
  8
1
  6
CONTINUOUS
 62
           7
100
AcDbLine
 10
1025.75759775309
 20
-242.475291379896
 11
1026.26918004538
 21
-242.475291379896
  0
LINE
  5
E6
100
AcDbEntity
  8
1
  6
CONTINUOUS
 62
           7
100
AcDbLine
 10
1055.25759775309
 20
-250.025291379896
 11
1062.75759775309
 21
-250.025291379896
  0
LINE
  5
E5
100
AcDbEntity
  8
1
  6
CONTINUOUS
 62
           7
100
AcDbLine
 10
1052.75759775309
 20
-250.025291379896
 11
1052.25759775309
 21
-250.525291379896
  0
LINE
  5
E4
100
AcDbEntity
  8
1
  6
CONTINUOUS
 62
           7
100
AcDbLine
 10
1053.25759775309
 20
-250.025291379896
 11
1052.75759775309
 21
-250.025291379896
  0
LINE
  5
E3
100
AcDbEntity
  8
1
  6
CONTINUOUS
 62
           7
100
AcDbLine
 10
1052.75759775309
 20
-250.025291379896
 11
1052.25759775309
 21
-250.525291379896
  0
LINE
  5
E2
100
AcDbEntity
  8
1
  6
CONTINUOUS
 62
           7
100
AcDbLine
 10
1052.75759775309
 20
-250.025291379896
 11
1052.25759775309
 21
-250.525291379896
  0
LINE
  5
E1
100
AcDbEntity
  8
1
  6
CONTINUOUS
 62
           7
100
AcDbLine
 10
1065.75759775309
 20
-250.525291379896
 11
1065.25759775309
 21
-250.025291379896
  0
LINE
  5
E0
100
AcDbEntity
  8
1
  6
CONTINUOUS
 62
           6
100
AcDbLine
 10
1065.75759775309
 20
-257.775291379896
 11
1065.75759775309
 21
-264.353791379896
  0
LINE
  5
DF
100
AcDbEntity
  8
1
  6
CONTINUOUS
 62
           2
100
AcDbLine
 10
1054.267960724172
 20
-248.275291379896
 11
1054.199244986439
 21
-248.394310528929
  0
LINE
  5
DE
100
AcDbEntity
  8
1
  6
CONTINUOUS
 62
           7
100
AcDbLine
 10
1056.50759775309
 20
-243.775291379896
 11
1061.50759775309
 21
-243.775291379896
  0
LINE
  5
DD
100
AcDbEntity
  8
1
  6
CONTINUOUS
 62
           7
100
AcDbLine
 10
1064.75759775309
 20
-250.025291379896
 11
1065.25759775309
 21
-250.025291379896
  0
LINE
  5
DC
100
AcDbEntity
  8
1
  6
CONTINUOUS
 62
           7
100
AcDbLine
 10
1054.199244986439
 20
-248.394310528929
 11
1054.179760243721
 21
-248.428059093289
  0
LINE
  5
DB
100
AcDbEntity
  8
1
  6
CONTINUOUS
 62
           7
100
AcDbLine
 10
1064.75759775309
 20
-250.025291379896
 11
1064.75759775309
 21
-251.070425941718
  0
LINE
  5
DA
100
AcDbEntity
  8
1
  6
CONTINUOUS
 62
           7
100
AcDbLine
 10
1053.25759775309
 20
-250.025291379896
 11
1053.25759775309
 21
-251.070425941718
  0
LINE
  5
D9
100
AcDbEntity
  8
1
  6
CONTINUOUS
 62
           7
100
AcDbLine
 10
1052.75759775309
 20
-257.775291379896
 11
1052.75759775309
 21
-250.025291379896
  0
LINE
  5
D8
100
AcDbEntity
  8
1
  6
CONTINUOUS
 62
           7
100
AcDbLine
 10
1065.25759775309
 20
-257.775291379896
 11
1065.25759775309
 21
-250.025291379896
  0
LINE
  5
D7
100
AcDbEntity
  8
1
  6
CONTINUOUS
 62
           7
100
AcDbLine
 10
1052.25759775309
 20
-250.525291379896
 11
1052.25759775309
 21
-257.775291379896
  0
LINE
  5
D6
100
AcDbEntity
  8
1
  6
CONTINUOUS
 62
           7
100
AcDbLine
 10
1065.75759775309
 20
-257.775291379896
 11
1065.75759775309
 21
-250.525291379896
  0
LINE
  5
D5
100
AcDbEntity
  8
1
  6
CONTINUOUS
 62
           7
100
AcDbLine
 10
1065.75759775309
 20
-265.025291379896
 11
1065.75759775309
 21
-257.775291379896
  0
LINE
  5
D4
100
AcDbEntity
  8
1
  6
CONTINUOUS
 62
           7
100
AcDbLine
 10
1052.25759775309
 20
-257.775291379896
 11
1052.25759775309
 21
-265.025291379896
  0
LINE
  5
D3
100
AcDbEntity
  8
1
  6
CONTINUOUS
 62
           7
100
AcDbLine
 10
1065.25759775309
 20
-265.525291379896
 11
1065.25759775309
 21
-257.775291379896
  0
LINE
  5
D2
100
AcDbEntity
  8
1
  6
CONTINUOUS
 62
           7
100
AcDbLine
 10
1052.75759775309
 20
-265.525291379896
 11
1052.75759775309
 21
-257.775291379896
  0
LINE
  5
D1
100
AcDbEntity
  8
1
  6
CONTINUOUS
 62
           7
100
AcDbLine
 10
1053.25759775309
 20
-264.480156818074
 11
1053.25759775309
 21
-265.525291379896
  0
LINE
  5
D0
100
AcDbEntity
  8
1
  6
CONTINUOUS
 62
           7
100
AcDbLine
 10
1064.75759775309
 20
-264.480156818074
 11
1064.75759775309
 21
-265.525291379896
  0
LINE
  5
CF
100
AcDbEntity
  8
1
  6
CONTINUOUS
 62
           7
100
AcDbLine
 10
1054.179760243721
 20
-267.122523666503
 11
1054.199244986439
 21
-267.156272230863
  0
LINE
  5
CE
100
AcDbEntity
  8
1
  6
CONTINUOUS
 62
           7
100
AcDbLine
 10
1065.25759775309
 20
-265.525291379896
 11
1064.75759775309
 21
-265.525291379896
  0
LINE
  5
CD
100
AcDbEntity
  8
1
  6
CONTINUOUS
 62
           7
100
AcDbLine
 10
1061.50759775309
 20
-271.775291379896
 11
1056.50759775309
 21
-271.775291379896
  0
LINE
  5
CC
100
AcDbEntity
  8
1
  6
CONTINUOUS
 62
           2
100
AcDbLine
 10
1054.199244986439
 20
-267.156272230863
 11
1054.267960724172
 21
-267.275291379896
  0
LINE
  5
CB
100
AcDbEntity
  8
1
  6
CONTINUOUS
 62
           6
100
AcDbLine
 10
1065.75759775309
 20
-251.196791379896
 11
1065.75759775309
 21
-257.775291379896
  0
LINE
  5
CA
100
AcDbEntity
  8
1
  6
CONTINUOUS
 62
           7
100
AcDbLine
 10
1065.25759775309
 20
-265.525291379896
 11
1065.75759775309
 21
-265.025291379896
  0
LINE
  5
C9
100
AcDbEntity
  8
1
  6
CONTINUOUS
 62
           7
100
AcDbLine
 10
1052.25759775309
 20
-265.025291379896
 11
1052.75759775309
 21
-265.525291379896
  0
LINE
  5
C8
100
AcDbEntity
  8
1
  6
CONTINUOUS
 62
           7
100
AcDbLine
 10
1052.25759775309
 20
-265.025291379896
 11
1052.75759775309
 21
-265.525291379896
  0
LINE
  5
C7
100
AcDbEntity
  8
1
  6
CONTINUOUS
 62
           7
100
AcDbLine
 10
1052.75759775309
 20
-265.525291379896
 11
1053.25759775309
 21
-265.525291379896
  0
LINE
  5
C6
100
AcDbEntity
  8
1
  6
CONTINUOUS
 62
           7
100
AcDbLine
 10
1052.25759775309
 20
-265.025291379896
 11
1052.75759775309
 21
-265.525291379896
  0
LINE
  5
C5
100
AcDbEntity
  8
1
  6
CONTINUOUS
 62
           7
100
AcDbLine
 10
1062.75759775309
 20
-265.525291379896
 11
1055.25759775309
 21
-265.525291379896
  0
LINE
  5
C4
100
AcDbEntity
  8
1
  6
CONTINUOUS
 62
           7
100
AcDbLine
 10
1044.75759775309
 20
-253.475291379896
 11
1052.25759775309
 21
-253.475291379896
  0
LINE
  5
C3
100
AcDbEntity
  8
1
  6
CONTINUOUS
 62
           7
100
AcDbLine
 10
1052.25759775309
 20
-262.075291379896
 11
1044.75759775309
 21
-262.075291379896
  0
LINE
  5
C2
100
AcDbEntity
  8
1
  6
CONTINUOUS
 62
           7
100
AcDbLine
 10
1073.85134775309
 20
-127.348752860474
 11
1035.25759775309
 21
-127.348752860474
  0
LINE
  5
C1
100
AcDbEntity
  8
1
  6
CONTINUOUS
 62
           7
100
AcDbLine
 10
1035.25759775309
 20
-117.848752860474
 11
1073.25759775309
 21
-117.848752860474
  0
LINE
  5
C0
100
AcDbEntity
  8
1
  6
CONTINUOUS
 62
           2
100
AcDbLine
 10
1076.786373590859
 20
-124.826208972185
 11
1076.786373590859
 21
-121.067565363071
  0
LINE
  5
BF
100
AcDbEntity
  8
1
  6
CONTINUOUS
 62
           2
100
AcDbLine
 10
1076.726442048027
 20
-121.067565363071
 11
1076.726442048027
 21
-125.11980645449
  0
LINE
  5
BE
100
AcDbEntity
  8
1
  6
CONTINUOUS
 62
           2
100
AcDbLine
 10
1076.636598773915
 20
-121.067565363071
 11
1076.636598773915
 21
-124.122840624796
  0
LINE
  5
BD
100
AcDbEntity
  8
1
  6
CONTINUOUS
 62
           2
100
AcDbLine
 10
1076.516908573025
 20
-124.402298395984
 11
1076.516908573025
 21
-121.067565363071
  0
LINE
  5
BC
100
AcDbEntity
  8
1
  6
CONTINUOUS
 62
           2
100
AcDbLine
 10
1076.367457778633
 20
-124.630065363071
 11
1076.367457778633
 21
-121.067565363071
  0
LINE
  5
BB
100
AcDbEntity
  8
1
  6
CONTINUOUS
 62
           2
100
AcDbLine
 10
1076.188354190511
 20
-124.630065363071
 11
1076.188354190511
 21
-121.067565363071
  0
LINE
  5
BA
100
AcDbEntity
  8
1
  6
CONTINUOUS
 62
           2
100
AcDbLine
 10
1075.979726997175
 20
-124.630065363071
 11
1075.979726997175
 21
-121.067565363071
  0
LINE
  5
B9
100
AcDbEntity
  8
1
  6
CONTINUOUS
 62
           2
100
AcDbLine
 10
1075.741726682696
 20
-124.630065363071
 11
1075.741726682696
 21
-121.067565363071
  0
LINE
  5
B8
100
AcDbEntity
  8
1
  6
CONTINUOUS
 62
           2
100
AcDbLine
 10
1075.474524918157
 20
-124.630065363071
 11
1075.474524918157
 21
-121.067565363071
  0
LINE
  5
B7
100
AcDbEntity
  8
1
  6
CONTINUOUS
 62
           2
100
AcDbLine
 10
1075.178314437829
 20
-124.630065363071
 11
1075.178314437829
 21
-121.067565363071
  0
LINE
  5
B6
100
AcDbEntity
  8
1
  6
CONTINUOUS
 62
           2
100
AcDbLine
 10
1074.853308900143
 20
-124.630065363071
 11
1074.853308900143
 21
-121.067565363071
  0
LINE
  5
B5
100
AcDbEntity
  8
1
  6
CONTINUOUS
 62
           2
100
AcDbLine
 10
1074.499742733585
 20
-121.067565363071
 11
1074.499742733585
 21
-124.630065363071
  0
LINE
  5
B4
100
AcDbEntity
  8
1
  6
CONTINUOUS
 62
           2
100
AcDbLine
 10
1074.117870967593
 20
-121.067565363071
 11
1074.117870967593
 21
-124.630065363071
  0
LINE
  5
B3
100
AcDbEntity
  8
1
  6
CONTINUOUS
 62
           2
100
AcDbLine
 10
1073.707969048612
 20
-121.067565363071
 11
1073.707969048612
 21
-124.630065363071
  0
LINE
  5
B2
100
AcDbEntity
  8
1
  6
CONTINUOUS
 62
           2
100
AcDbLine
 10
1073.270332641406
 20
-121.067565363071
 11
1073.270332641406
 21
-124.630065363071
  0
LINE
  5
B1
100
AcDbEntity
  8
1
  6
CONTINUOUS
 62
           2
100
AcDbLine
 10
1072.805277415793
 20
-121.067565363071
 11
1072.805277415793
 21
-124.630065363071
  0
LINE
  5
B0
100
AcDbEntity
  8
1
  6
CONTINUOUS
 62
           2
100
AcDbLine
 10
1072.313138818955
 20
-121.067565363071
 11
1072.313138818955
 21
-124.630065363071
  0
LINE
  5
AF
100
AcDbEntity
  8
1
  6
CONTINUOUS
 62
           2
100
AcDbLine
 10
1071.794271833477
 20
-121.067565363071
 11
1071.794271833477
 21
-124.630065363071
  0
LINE
  5
AE
100
AcDbEntity
  8
1
  6
CONTINUOUS
 62
           2
100
AcDbLine
 10
1071.24905072129
 20
-121.067565363071
 11
1071.24905072129
 21
-124.630065363071
  0
LINE
  5
AD
100
AcDbEntity
  8
1
  6
CONTINUOUS
 62
           2
100
AcDbLine
 10
1070.677868753721
 20
-121.067565363071
 11
1070.677868753721
 21
-124.630065363071
  0
LINE
  5
AC
100
AcDbEntity
  8
1
  6
CONTINUOUS
 62
           2
100
AcDbLine
 10
1070.081137927821
 20
-121.067565363071
 11
1070.081137927821
 21
-124.630065363071
  0
LINE
  5
AB
100
AcDbEntity
  8
1
  6
CONTINUOUS
 62
           2
100
AcDbLine
 10
1069.459288669187
 20
-121.067565363071
 11
1069.459288669187
 21
-124.630065363071
  0
LINE
  5
AA
100
AcDbEntity
  8
1
  6
CONTINUOUS
 62
           2
100
AcDbLine
 10
1068.812769521498
 20
-121.067565363071
 11
1068.812769521498
 21
-124.630065363071
  0
LINE
  5
A9
100
AcDbEntity
  8
1
  6
CONTINUOUS
 62
           2
100
AcDbLine
 10
1068.142046822972
 20
-121.074947249449
 11
1068.138683493359
 21
-124.630065363071
  0
LINE
  5
A8
100
AcDbEntity
  8
1
  6
CONTINUOUS
 62
           2
100
AcDbLine
 10
1067.46306084787
 20
-121.067565363071
 11
1067.447604369999
 21
-124.630065363071
  0
LINE
  5
A7
100
AcDbEntity
  8
1
  6
CONTINUOUS
 62
           2
100
AcDbLine
 10
1066.764208204674
 20
-121.067565363071
 11
1066.764208204674
 21
-124.630065363071
  0
LINE
  5
A6
100
AcDbEntity
  8
1
  6
CONTINUOUS
 62
           2
100
AcDbLine
 10
1066.042629650462
 20
-124.630065363071
 11
1066.042629650462
 21
-121.067565363071
  0
LINE
  5
A5
100
AcDbEntity
  8
1
  6
CONTINUOUS
 62
           2
100
AcDbLine
 10
1065.298845664262
 20
-121.067565363071
 11
1065.298845664262
 21
-124.630065363071
  0
LINE
  5
A4
100
AcDbEntity
  8
1
  6
CONTINUOUS
 62
           2
100
AcDbLine
 10
1064.533392742018
 20
-124.630065363071
 11
1064.533392742018
 21
-121.067565363071
  0
LINE
  5
A3
100
AcDbEntity
  8
1
  6
CONTINUOUS
 62
           2
100
AcDbLine
 10
1063.746823009609
 20
-121.067565363071
 11
1063.77966179283
 21
-124.559717607592
  0
LINE
  5
A2
100
AcDbEntity
  8
1
  6
CONTINUOUS
 62
           2
100
AcDbLine
 10
1062.939703824599
 20
-124.548704997419
 11
1062.939703824599
 21
-121.067565363071
  0
LINE
  5
A1
100
AcDbEntity
  8
1
  6
CONTINUOUS
 62
           2
100
AcDbLine
 10
1062.112617366997
 20
-121.067565363071
 11
1062.112617366997
 21
-124.630065363071
  0
LINE
  5
A0
100
AcDbEntity
  8
1
  6
CONTINUOUS
 62
           2
100
AcDbLine
 10
1061.266160219329
 20
-124.630065363071
 11
1061.266160219329
 21
-121.067565363071
  0
LINE
  5
9F
100
AcDbEntity
  8
1
  6
CONTINUOUS
 62
           2
100
AcDbLine
 10
1060.400942936318
 20
-121.067565363071
 11
1060.400942936318
 21
-124.630065363071
  0
LINE
  5
9E
100
AcDbEntity
  8
1
  6
CONTINUOUS
 62
           2
100
AcDbLine
 10
1059.517589604488
 20
-124.630065363071
 11
1059.517589604488
 21
-121.067565363071
  0
LINE
  5
9D
100
AcDbEntity
  8
1
  6
CONTINUOUS
 62
           2
100
AcDbLine
 10
1058.616737392004
 20
-121.067565363071
 11
1058.616737392004
 21
-124.630065363071
  0
LINE
  5
9C
100
AcDbEntity
  8
1
  6
CONTINUOUS
 62
           2
100
AcDbLine
 10
1057.699036089084
 20
-124.630065363071
 11
1057.699036089084
 21
-121.067565363071
  0
LINE
  5
9B
100
AcDbEntity
  8
1
  6
CONTINUOUS
 62
           2
100
AcDbLine
 10
1056.808238442551
 20
-124.537529062488
 11
1056.765147639295
 21
-121.067565363071
  0
LINE
  5
9A
100
AcDbEntity
  8
1
  6
CONTINUOUS
 62
           2
100
AcDbLine
 10
1055.815745662095
 20
-124.630065363071
 11
1055.815745662095
 21
-121.067565363071
  0
LINE
  5
99
100
AcDbEntity
  8
1
  6
CONTINUOUS
 62
           2
100
AcDbLine
 10
1054.851514966942
 20
-124.630065363071
 11
1054.851514966942
 21
-121.067565363071
  0
LINE
  5
98
100
AcDbEntity
  8
1
  6
CONTINUOUS
 62
           2
100
AcDbLine
 10
1053.873151059339
 20
-121.067565363071
 11
1053.873151059339
 21
-124.630065363071
  0
LINE
  5
97
100
AcDbEntity
  8
1
  6
CONTINUOUS
 62
           2
100
AcDbLine
 10
1052.881359639164
 20
-124.630065363071
 11
1052.881359639164
 21
-121.067565363071
  0
LINE
  5
96
100
AcDbEntity
  8
1
  6
CONTINUOUS
 62
           2
100
AcDbLine
 10
1049.861081998545
 20
-124.566784815591
 11
1049.832619479491
 21
-121.067565363071
  0
LINE
  5
95
100
AcDbEntity
  8
1
  6
CONTINUOUS
 62
           2
100
AcDbLine
 10
1048.794360935249
 20
-121.067565363071
 11
1048.794360935249
 21
-124.630065363071
  0
LINE
  5
94
100
AcDbEntity
  8
1
  6
CONTINUOUS
 62
           2
100
AcDbLine
 10
1047.746338240846
 20
-124.630065363071
 11
1047.746338240846
 21
-121.067565363071
  0
LINE
  5
93
100
AcDbEntity
  8
1
  6
CONTINUOUS
 62
           2
100
AcDbLine
 10
1050.860364971326
 20
-121.067565363071
 11
1050.860364971326
 21
-124.630065363071
  0
LINE
  5
92
100
AcDbEntity
  8
1
  6
CONTINUOUS
 62
           2
100
AcDbLine
 10
1051.876856091641
 20
-124.630065363071
 11
1051.876856091641
 21
-121.067565363071
  0
LINE
  5
91
100
AcDbEntity
  8
1
  6
CONTINUOUS
 62
           2
100
AcDbLine
 10
1046.689307341467
 20
-124.630065363071
 11
1046.689307341467
 21
-121.067565363071
  0
LINE
  5
90
100
AcDbEntity
  8
1
  6
CONTINUOUS
 62
           2
100
AcDbLine
 10
1045.624030679972
 20
-124.630065363071
 11
1045.624030679972
 21
-121.067565363071
  0
LINE
  5
8F
100
AcDbEntity
  8
1
  6
CONTINUOUS
 62
           2
100
AcDbLine
 10
1044.551276646939
 20
-124.630065363071
 11
1044.551276646939
 21
-121.067565363071
  0
LINE
  5
8E
100
AcDbEntity
  8
1
  6
CONTINUOUS
 62
           2
100
AcDbLine
 10
1043.471819026419
 20
-124.630065363071
 11
1043.471819026419
 21
-121.067565363071
  0
LINE
  5
8D
100
AcDbEntity
  8
1
  6
CONTINUOUS
 62
           2
100
AcDbLine
 10
1042.386436437805
 20
-124.630065363071
 11
1042.386436437805
 21
-121.067565363071
  0
LINE
  5
8C
100
AcDbEntity
  8
1
  6
CONTINUOUS
 62
           2
100
AcDbLine
 10
1041.295911774201
 20
-124.630065363071
 11
1041.295911774201
 21
-121.067565363071
  0
LINE
  5
8B
100
AcDbEntity
  8
1
  6
CONTINUOUS
 62
           2
100
AcDbLine
 10
1040.201031637724
 20
-124.630065363071
 11
1040.201031637724
 21
-121.067565363071
  0
LINE
  5
8A
100
AcDbEntity
  8
1
  6
CONTINUOUS
 62
           2
100
AcDbLine
 10
1039.10258577212
 20
-124.630065363071
 11
1039.10258577212
 21
-121.067565363071
  0
LINE
  5
89
100
AcDbEntity
  8
1
  6
CONTINUOUS
 62
           2
100
AcDbLine
 10
1038.001366493117
 20
-124.630065363071
 11
1038.001366493117
 21
-121.067565363071
  0
LINE
  5
88
100
AcDbEntity
  8
1
  6
CONTINUOUS
 62
           2
100
AcDbLine
 10
1036.898168116924
 20
-124.630065363071
 11
1036.898168116924
 21
-121.067565363071
  0
LINE
  5
87
100
AcDbEntity
  8
1
  6
CONTINUOUS
 62
           7
100
AcDbLine
 10
1076.82009775309
 20
-124.380002860474
 11
1076.82009775309
 21
-121.411252860474
  0
LINE
  5
86
100
AcDbEntity
  8
1
  6
CONTINUOUS
 62
           7
100
AcDbLine
 10
1073.70291025309
 20
-129.130002860474
 11
1073.85134775309
 21
-127.348752860474
  0
LINE
  5
85
100
AcDbEntity
  8
1
  6
CONTINUOUS
 62
           7
100
AcDbLine
 10
1070.88259775309
 20
-115.473752860474
 11
1035.25759775309
 21
-115.473752860474
  0
LINE
  5
84
100
AcDbEntity
  8
1
  6
CONTINUOUS
 62
           2
100
AcDbLine
 10
1035.793786387283
 20
-124.630065363071
 11
1035.793786387283
 21
-121.067565363071
  0
LINE
  5
83
100
AcDbEntity
  8
1
  6
CONTINUOUS
 62
           7
100
AcDbLine
 10
1076.82009775309
 20
-124.380002860474
 11
1076.82009775309
 21
-121.411252860474
  0
LINE
  5
82
100
AcDbEntity
  8
1
  6
CONTINUOUS
 62
           7
100
AcDbLine
 10
1070.88259775309
 20
-115.473752860474
 11
1035.25759775309
 21
-115.473752860474
  0
LINE
  5
81
100
AcDbEntity
  8
1
  6
CONTINUOUS
 62
           2
100
AcDbLine
 10
1034.721409118897
 20
-121.067565363071
 11
1034.721409118897
 21
-124.630065363071
  0
LINE
  5
80
100
AcDbEntity
  8
1
  6
CONTINUOUS
 62
           7
100
AcDbLine
 10
1035.25759775309
 20
-115.473752860474
 11
999.63259775309
 21
-115.473752860474
  0
LINE
  5
7F
100
AcDbEntity
  8
1
  6
CONTINUOUS
 62
           7
100
AcDbLine
 10
996.66384775309
 20
-127.348752860474
 11
996.81228525309
 21
-129.130002860474
  0
LINE
  5
7E
100
AcDbEntity
  8
1
  6
CONTINUOUS
 62
           7
100
AcDbLine
 10
993.69509775309
 20
-121.411252860474
 11
993.69509775309
 21
-124.380002860474
  0
LINE
  5
7D
100
AcDbEntity
  8
1
  6
CONTINUOUS
 62
           2
100
AcDbLine
 10
1033.617027389256
 20
-121.067565363071
 11
1033.617027389256
 21
-124.630065363071
  0
LINE
  5
7C
100
AcDbEntity
  8
1
  6
CONTINUOUS
 62
           2
100
AcDbLine
 10
1032.513829013063
 20
-121.067565363071
 11
1032.513829013063
 21
-124.630065363071
  0
LINE
  5
7B
100
AcDbEntity
  8
1
  6
CONTINUOUS
 62
           2
100
AcDbLine
 10
1031.41260973406
 20
-121.067565363071
 11
1031.41260973406
 21
-124.630065363071
  0
LINE
  5
7A
100
AcDbEntity
  8
1
  6
CONTINUOUS
 62
           2
100
AcDbLine
 10
1030.314163868457
 20
-121.067565363071
 11
1030.314163868457
 21
-124.630065363071
  0
LINE
  5
79
100
AcDbEntity
  8
1
  6
CONTINUOUS
 62
           2
100
AcDbLine
 10
1029.21928373198
 20
-121.067565363071
 11
1029.21928373198
 21
-124.630065363071
  0
LINE
  5
78
100
AcDbEntity
  8
1
  6
CONTINUOUS
 62
           2
100
AcDbLine
 10
1028.128759068376
 20
-121.067565363071
 11
1028.128759068376
 21
-124.630065363071
  0
LINE
  5
77
100
AcDbEntity
  8
1
  6
CONTINUOUS
 62
           2
100
AcDbLine
 10
1027.043376479761
 20
-121.067565363071
 11
1027.043376479761
 21
-124.630065363071
  0
LINE
  5
76
100
AcDbEntity
  8
1
  6
CONTINUOUS
 62
           2
100
AcDbLine
 10
1025.963918859241
 20
-121.067565363071
 11
1025.963918859241
 21
-124.630065363071
  0
LINE
  5
75
100
AcDbEntity
  8
1
  6
CONTINUOUS
 62
           2
100
AcDbLine
 10
1024.891164826208
 20
-121.067565363071
 11
1024.891164826208
 21
-124.630065363071
  0
LINE
  5
74
100
AcDbEntity
  8
1
  6
CONTINUOUS
 62
           2
100
AcDbLine
 10
1023.825888164713
 20
-121.067565363071
 11
1023.825888164713
 21
-124.630065363071
  0
LINE
  5
73
100
AcDbEntity
  8
1
  6
CONTINUOUS
 62
           2
100
AcDbLine
 10
1018.63833941454
 20
-121.067565363071
 11
1018.63833941454
 21
-124.630065363071
  0
LINE
  5
72
100
AcDbEntity
  8
1
  6
CONTINUOUS
 62
           2
100
AcDbLine
 10
1019.654830534854
 20
-124.630065363071
 11
1019.654830534854
 21
-121.067565363071
  0
LINE
  5
71
100
AcDbEntity
  8
1
  6
CONTINUOUS
 62
           2
100
AcDbLine
 10
1022.768857265335
 20
-121.067565363071
 11
1022.768857265335
 21
-124.630065363071
  0
LINE
  5
70
100
AcDbEntity
  8
1
  6
CONTINUOUS
 62
           2
100
AcDbLine
 10
1021.720834570931
 20
-124.630065363071
 11
1021.720834570931
 21
-121.067565363071
  0
LINE
  5
6F
100
AcDbEntity
  8
1
  6
CONTINUOUS
 62
           2
100
AcDbLine
 10
1020.682576026689
 20
-121.067565363071
 11
1020.654113507635
 21
-124.566784815591
  0
LINE
  5
6E
100
AcDbEntity
  8
1
  6
CONTINUOUS
 62
           2
100
AcDbLine
 10
1017.633835867016
 20
-121.067565363071
 11
1017.633835867016
 21
-124.630065363071
  0
LINE
  5
6D
100
AcDbEntity
  8
1
  6
CONTINUOUS
 62
           2
100
AcDbLine
 10
1016.642044446841
 20
-124.630065363071
 11
1016.642044446841
 21
-121.067565363071
  0
LINE
  5
6C
100
AcDbEntity
  8
1
  6
CONTINUOUS
 62
           2
100
AcDbLine
 10
1015.663680539238
 20
-121.067565363071
 11
1015.663680539238
 21
-124.630065363071
  0
LINE
  5
6B
100
AcDbEntity
  8
1
  6
CONTINUOUS
 62
           2
100
AcDbLine
 10
1014.699449844085
 20
-121.067565363071
 11
1014.699449844085
 21
-124.630065363071
  0
LINE
  5
6A
100
AcDbEntity
  8
1
  6
CONTINUOUS
 62
           2
100
AcDbLine
 10
1013.750047866885
 20
-121.067565363071
 11
1013.706957063629
 21
-124.537529062488
  0
LINE
  5
69
100
AcDbEntity
  8
1
  6
CONTINUOUS
 62
           2
100
AcDbLine
 10
1012.816159417096
 20
-121.067565363071
 11
1012.816159417096
 21
-124.630065363071
  0
LINE
  5
68
100
AcDbEntity
  8
1
  6
CONTINUOUS
 62
           2
100
AcDbLine
 10
1011.898458114176
 20
-124.630065363071
 11
1011.898458114176
 21
-121.067565363071
  0
LINE
  5
67
100
AcDbEntity
  8
1
  6
CONTINUOUS
 62
           2
100
AcDbLine
 10
1010.997605901693
 20
-121.067565363071
 11
1010.997605901693
 21
-124.630065363071
  0
LINE
  5
66
100
AcDbEntity
  8
1
  6
CONTINUOUS
 62
           2
100
AcDbLine
 10
1010.114252569862
 20
-124.630065363071
 11
1010.114252569862
 21
-121.067565363071
  0
LINE
  5
65
100
AcDbEntity
  8
1
  6
CONTINUOUS
 62
           2
100
AcDbLine
 10
1009.249035286851
 20
-121.067565363071
 11
1009.249035286851
 21
-124.630065363071
  0
LINE
  5
64
100
AcDbEntity
  8
1
  6
CONTINUOUS
 62
           2
100
AcDbLine
 10
1008.402578139183
 20
-124.630065363071
 11
1008.402578139183
 21
-121.067565363071
  0
LINE
  5
63
100
AcDbEntity
  8
1
  6
CONTINUOUS
 62
           2
100
AcDbLine
 10
1007.575491681581
 20
-121.067565363071
 11
1007.575491681581
 21
-124.548704997419
  0
LINE
  5
62
100
AcDbEntity
  8
1
  6
CONTINUOUS
 62
           2
100
AcDbLine
 10
1006.73553371335
 20
-124.559717607592
 11
1006.768372496571
 21
-121.067565363071
  0
LINE
  5
61
100
AcDbEntity
  8
1
  6
CONTINUOUS
 62
           2
100
AcDbLine
 10
1005.981802764162
 20
-121.067565363071
 11
1005.981802764162
 21
-124.630065363071
  0
LINE
  5
60
100
AcDbEntity
  8
1
  6
CONTINUOUS
 62
           2
100
AcDbLine
 10
1005.216349841918
 20
-124.630065363071
 11
1005.216349841918
 21
-121.067565363071
  0
LINE
  5
5F
100
AcDbEntity
  8
1
  6
CONTINUOUS
 62
           2
100
AcDbLine
 10
1004.472565855718
 20
-121.067565363071
 11
1004.472565855718
 21
-124.630065363071
  0
LINE
  5
5E
100
AcDbEntity
  8
1
  6
CONTINUOUS
 62
           2
100
AcDbLine
 10
1003.750987301506
 20
-124.630065363071
 11
1003.750987301506
 21
-121.067565363071
  0
LINE
  5
5D
100
AcDbEntity
  8
1
  6
CONTINUOUS
 62
           2
100
AcDbLine
 10
1003.067591136181
 20
-124.630065363071
 11
1003.05213465831
 21
-121.067565363071
  0
LINE
  5
5C
100
AcDbEntity
  8
1
  6
CONTINUOUS
 62
           2
100
AcDbLine
 10
1002.376512012821
 20
-124.630065363071
 11
1002.373148683208
 21
-121.074947249449
  0
LINE
  5
5B
100
AcDbEntity
  8
1
  6
CONTINUOUS
 62
           2
100
AcDbLine
 10
1001.702425984682
 20
-124.630065363071
 11
1001.702425984682
 21
-121.067565363071
  0
LINE
  5
5A
100
AcDbEntity
  8
1
  6
CONTINUOUS
 62
           2
100
AcDbLine
 10
1001.055906836993
 20
-124.630065363071
 11
1001.055906836993
 21
-121.067565363071
  0
LINE
  5
59
100
AcDbEntity
  8
1
  6
CONTINUOUS
 62
           2
100
AcDbLine
 10
1000.434057578359
 20
-124.630065363071
 11
1000.434057578359
 21
-121.067565363071
  0
LINE
  5
58
100
AcDbEntity
  8
1
  6
CONTINUOUS
 62
           2
100
AcDbLine
 10
999.837326752459
 20
-124.630065363071
 11
999.837326752459
 21
-121.067565363071
  0
LINE
  5
57
100
AcDbEntity
  8
1
  6
CONTINUOUS
 62
           2
100
AcDbLine
 10
999.26614478489
 20
-124.630065363071
 11
999.26614478489
 21
-121.067565363071
  0
LINE
  5
56
100
AcDbEntity
  8
1
  6
CONTINUOUS
 62
           2
100
AcDbLine
 10
998.720923672703
 20
-124.630065363071
 11
998.720923672703
 21
-121.067565363071
  0
LINE
  5
55
100
AcDbEntity
  8
1
  6
CONTINUOUS
 62
           2
100
AcDbLine
 10
998.202056687225
 20
-124.630065363071
 11
998.202056687225
 21
-121.067565363071
  0
LINE
  5
54
100
AcDbEntity
  8
1
  6
CONTINUOUS
 62
           2
100
AcDbLine
 10
997.709918090387
 20
-124.630065363071
 11
997.709918090387
 21
-121.067565363071
  0
LINE
  5
53
100
AcDbEntity
  8
1
  6
CONTINUOUS
 62
           2
100
AcDbLine
 10
997.244862864775
 20
-124.630065363071
 11
997.244862864775
 21
-121.067565363071
  0
LINE
  5
52
100
AcDbEntity
  8
1
  6
CONTINUOUS
 62
           2
100
AcDbLine
 10
996.807226457568
 20
-124.630065363071
 11
996.807226457568
 21
-121.067565363071
  0
LINE
  5
51
100
AcDbEntity
  8
1
  6
CONTINUOUS
 62
           2
100
AcDbLine
 10
996.397324538587
 20
-124.630065363071
 11
996.397324538587
 21
-121.067565363071
  0
LINE
  5
50
100
AcDbEntity
  8
1
  6
CONTINUOUS
 62
           2
100
AcDbLine
 10
996.015452772596
 20
-124.630065363071
 11
996.015452772596
 21
-121.067565363071
  0
LINE
  5
4F
100
AcDbEntity
  8
1
  6
CONTINUOUS
 62
           2
100
AcDbLine
 10
995.661886606037
 20
-121.067565363071
 11
995.661886606037
 21
-124.630065363071
  0
LINE
  5
4E
100
AcDbEntity
  8
1
  6
CONTINUOUS
 62
           2
100
AcDbLine
 10
995.336881068351
 20
-121.067565363071
 11
995.336881068351
 21
-124.630065363071
  0
LINE
  5
4D
100
AcDbEntity
  8
1
  6
CONTINUOUS
 62
           2
100
AcDbLine
 10
995.040670588023
 20
-121.067565363071
 11
995.040670588023
 21
-124.630065363071
  0
LINE
  5
4C
100
AcDbEntity
  8
1
  6
CONTINUOUS
 62
           2
100
AcDbLine
 10
994.773468823484
 20
-121.067565363071
 11
994.773468823484
 21
-124.630065363071
  0
LINE
  5
4B
100
AcDbEntity
  8
1
  6
CONTINUOUS
 62
           2
100
AcDbLine
 10
994.535468509005
 20
-121.067565363071
 11
994.535468509005
 21
-124.630065363071
  0
LINE
  5
4A
100
AcDbEntity
  8
1
  6
CONTINUOUS
 62
           2
100
AcDbLine
 10
994.326841315669
 20
-121.067565363071
 11
994.326841315669
 21
-124.630065363071
  0
LINE
  5
49
100
AcDbEntity
  8
1
  6
CONTINUOUS
 62
           2
100
AcDbLine
 10
994.147737727547
 20
-121.067565363071
 11
994.147737727547
 21
-124.630065363071
  0
LINE
  5
48
100
AcDbEntity
  8
1
  6
CONTINUOUS
 62
           2
100
AcDbLine
 10
993.998286933155
 20
-121.067565363071
 11
993.998286933155
 21
-124.402298395984
  0
LINE
  5
47
100
AcDbEntity
  8
1
  6
CONTINUOUS
 62
           2
100
AcDbLine
 10
993.878596732265
 20
-124.122840624796
 11
993.878596732265
 21
-121.067565363071
  0
LINE
  5
46
100
AcDbEntity
  8
1
  6
CONTINUOUS
 62
           2
100
AcDbLine
 10
993.788753458153
 20
-125.11980645449
 11
993.788753458153
 21
-121.067565363071
  0
LINE
  5
45
100
AcDbEntity
  8
1
  6
CONTINUOUS
 62
           2
100
AcDbLine
 10
993.728821915321
 20
-121.067565363071
 11
993.728821915321
 21
-124.826208972185
  0
LINE
  5
44
100
AcDbEntity
  8
1
  6
CONTINUOUS
 62
           7
100
AcDbLine
 10
997.25759775309
 20
-117.848752860474
 11
1035.25759775309
 21
-117.848752860474
  0
LINE
  5
43
100
AcDbEntity
  8
1
  6
CONTINUOUS
 62
           7
100
AcDbLine
 10
1035.25759775309
 20
-127.348752860474
 11
996.66384775309
 21
-127.348752860474
  0
LINE
  5
42
100
AcDbEntity
  8
1
  6
CENTER_DASH_DASH
 62
           2
100
AcDbLine
 10
996.90134775309
 20
-129.130002860474
 11
1073.61384775309
 21
-129.130002860474
  0
LINE
  5
41
100
AcDbEntity
  8
1
  6
CONTINUOUS
 62
           7
100
AcDbLine
 10
1073.75759775309
 20
-130.546910194097
 11
1073.75759775309
 21
-203.995562347441
  0
LINE
  5
40
100
AcDbEntity
  8
1
  6
CONTINUOUS
 62
           7
100
AcDbLine
 10
1073.75759775309
 20
-129.130002860474
 11
1035.25759775309
 21
-129.130002860474
  0
LINE
  5
3F
100
AcDbEntity
  8
1
  6
CONTINUOUS
 62
           7
100
AcDbLine
 10
1075.75759775309
 20
-130.130002860474
 11
1075.75759775309
 21
-130.630002860474
  0
LINE
  5
3E
100
AcDbEntity
  8
1
  6
CONTINUOUS
 62
           7
100
AcDbLine
 10
1074.25759775309
 20
-132.130002860474
 11
1035.25759775309
 21
-132.130002860474
  0
LINE
  5
3D
100
AcDbEntity
  8
1
  6
CONTINUOUS
 62
           7
100
AcDbLine
 10
1074.75759775309
 20
-129.130002860474
 11
1073.55759775309
 21
-129.130002860474
  0
LINE
  5
3C
100
AcDbEntity
  8
1
  6
CONTINUOUS
 62
           7
100
AcDbLine
 10
1026.188647487035
 20
-242.401496886161
 11
1026.26918004538
 21
-242.475291379896
  0
LINE
  5
3B
100
AcDbEntity
  8
1
  6
CONTINUOUS
 62
           7
100
AcDbLine
 10
1022.994721900309
 20
-238.394791787532
 11
1024.738639910845
 21
-240.781358371525
  0
LINE
  5
3A
100
AcDbEntity
  8
1
  6
CONTINUOUS
 62
           7
100
AcDbLine
 10
1017.845683617293
 20
-233.643669205434
 11
1021.608657745998
 21
-236.891619530116
  0
LINE
  5
39
100
AcDbEntity
  8
1
  6
CONTINUOUS
 62
           7
100
AcDbLine
 10
1017.845683617293
 20
-233.643669205434
 11
1005.422549005049
 21
-222.920841272707
  0
LINE
  5
38
100
AcDbEntity
  8
1
  6
CONTINUOUS
 62
           7
100
AcDbLine
 10
996.75759775309
 20
-203.995562347441
 11
996.75759775309
 21
-132.130002860474
  0
LINE
  5
37
100
AcDbEntity
  8
1
  6
CONTINUOUS
 62
           7
100
AcDbLine
 10
1065.092646501131
 20
-222.920841272707
 11
1052.669511888887
 21
-233.643669205434
  0
LINE
  5
36
100
AcDbEntity
  8
1
  6
CONTINUOUS
 62
           6
100
AcDbLine
 10
1044.326548019145
 20
-242.401496886161
 11
1045.132004515838
 21
-241.663431988926
  0
LINE
  5
35
100
AcDbEntity
  8
1
  6
CONTINUOUS
 62
           6
100
AcDbLine
 10
1045.132004515838
 20
-241.663431988926
 11
1045.776555595336
 21
-240.781358371525
  0
LINE
  5
34
100
AcDbEntity
  8
1
  6
CONTINUOUS
 62
           7
100
AcDbLine
 10
1048.906537760182
 20
-236.891619530116
 11
1052.669511888887
 21
-233.643669205434
  0
LINE
  5
33
100
AcDbEntity
  8
1
  6
CONTINUOUS
 62
           7
100
AcDbLine
 10
1045.776555595336
 20
-240.781358371525
 11
1047.520473605871
 21
-238.394791787532
  0
LINE
  5
32
100
AcDbEntity
  8
1
  6
CONTINUOUS
 62
           6
100
AcDbLine
 10
1044.75759775309
 20
-242.006512577395
 11
1045.132004515838
 21
-241.663431988926
  0
LINE
  5
31
100
AcDbEntity
  8
1
  6
CONTINUOUS
 62
           7
100
AcDbLine
 10
996.95759775309
 20
-129.130002860474
 11
995.75759775309
 21
-129.130002860474
  0
LINE
  5
30
100
AcDbEntity
  8
1
  6
CONTINUOUS
 62
           7
100
AcDbLine
 10
1035.25759775309
 20
-132.130002860474
 11
996.25759775309
 21
-132.130002860474
  0
LINE
  5
2F
100
AcDbEntity
  8
1
  6
CONTINUOUS
 62
           7
100
AcDbLine
 10
994.75759775309
 20
-130.630002860474
 11
994.75759775309
 21
-130.130002860474
  0
LINE
  5
2E
100
AcDbEntity
  8
1
  6
CONTINUOUS
 62
           7
100
AcDbLine
 10
1075.75759775309
 20
-130.130002860474
 11
1075.75759775309
 21
-130.630002860474
  0
LINE
  5
2D
100
AcDbEntity
  8
1
  6
CONTINUOUS
 62
           7
100
AcDbLine
 10
1074.25759775309
 20
-132.130002860474
 11
1073.75759775309
 21
-132.130002860474
  0
LINE
  5
2C
100
AcDbEntity
  8
1
  6
CONTINUOUS
 62
           7
100
AcDbLine
 10
1074.75759775309
 20
-129.130002860474
 11
1073.55759775309
 21
-129.130002860474
  0
LINE
  5
2B
100
AcDbEntity
  8
1
  6
CONTINUOUS
 62
           7
100
AcDbLine
 10
1035.25759775309
 20
-129.130002860474
 11
996.75759775309
 21
-129.130002860474
  0
LINE
  5
2A
100
AcDbEntity
  8
1
  6
CONTINUOUS
 62
           7
100
AcDbLine
 10
1074.824219747286
 20
-129.130002860474
 11
1073.55759775309
 21
-129.130002860474
  0
LINE
  5
29
100
AcDbEntity
  8
1
  6
CONTINUOUS
 62
           6
100
AcDbLine
 10
1073.75759775309
 20
-129.130002860474
 11
1073.75759775309
 21
-130.546910194097
  0
LINE
  5
28
100
AcDbEntity
  8
1
  6
CONTINUOUS
 62
           7
100
AcDbLine
 10
1073.576752991293
 20
-129.130002860474
 11
1073.75759775309
 21
-129.130002860474
  0
ENDSEC
  0
SECTION
  2
OBJECTS
  0
DICTIONARY
  5
19
100
AcDbDictionary
  3
ACAD_GROUP
350
1A
  3
ACAD_MLINESTYLE
350
1B
  0
DICTIONARY
  5
1A
102
{ACAD_REACTORS
330
19
102
}
100
AcDbDictionary
  0
DICTIONARY
  5
1B
102
{ACAD_REACTORS
330
19
102
}
100
AcDbDictionary
  3
STANDARD
350
1C
  0
MLINESTYLE
  5
1C
102
{ACAD_REACTORS
330
1B
102
}
100
AcDbMlineStyle
  2
STANDARD
 70
           0
  3

 62
           0
 51
90.0
 52
90.0
 71
           2
 49
0.5
 62
         256
  6
BYLAYER
 49
-0.5
 62
         256
  6
BYLAYER
  0
ENDSEC
  0
EOF
