  0
SECTION
  2
HEADER
  9
$ACADVER
  1
AC1014
  9
$ACADMAINTVER
 70
           0
  9
$DWGCODEPAGE
  3
DOS932
  9
$INSBASE
 10
0.0
 20
0.0
 30
0.0
  9
$EXTMIN
 10
1.000000000000E+20
 20
1.000000000000E+20
 30
1.000000000000E+20
  9
$EXTMAX
 10
-1.000000000000E+20
 20
-1.000000000000E+20
 30
-1.000000000000E+20
  9
$LIMMIN
 10
0.0
 20
0.0
  9
$LIMMAX
 10
0.0
 20
0.0
  9
$ORTHOMODE
 70
           0
  9
$REGENMODE
 70
           1
  9
$FILLMODE
 70
           1
  9
$QTEXTMODE
 70
           0
  9
$MIRRTEXT
 70
           1
  9
$DRAGMODE
 70
           2
  9
$LTSCALE
 40
1.0
  9
$OSMODE
 70
           0
  9
$ATTMODE
 70
           1
  9
$TEXTSIZE
 40
0.2
  9
$TRACEWID
 40
0.05
  9
$TEXTSTYLE
  7
STANDARD
  9
$CLAYER
  8
0
  9
$CELTYPE
  6
CONTINUOUS
  9
$CECOLOR
 62
         256
  9
$CELTSCALE
 40
1.0
  9
$DELOBJ
 70
           1
  9
$DISPSILH
 70
           0
  9
$DIMSCALE
 40
1.0
  9
$DIMASZ
 40
0.18
  9
$DIMEXO
 40
0.0625
  9
$DIMDLI
 40
0.38
  9
$DIMRND
 40
0.0
  9
$DIMDLE
 40
0.0
  9
$DIMEXE
 40
0.18
  9
$DIMTP
 40
0.0
  9
$DIMTM
 40
0.0
  9
$DIMTXT
 40
0.18
  9
$DIMCEN
 40
0.09
  9
$DIMTSZ
 40
0.0
  9
$DIMTOL
 70
           0
  9
$DIMLIM
 70
           0
  9
$DIMTIH
 70
           1
  9
$DIMTOH
 70
           1
  9
$DIMSE1
 70
           0
  9
$DIMSE2
 70
           0
  9
$DIMTAD
 70
           0
  9
$DIMZIN
 70
           0
  9
$DIMBLK
  1

  9
$DIMASO
 70
           1
  9
$DIMSHO
 70
           1
  9
$DIMPOST
  1

  9
$DIMAPOST
  1

  9
$DIMALT
 70
           0
  9
$DIMALTD
 70
           2
  9
$DIMALTF
 40
25.4
  9
$DIMLFAC
 40
1.0
  9
$DIMTOFL
 70
           0
  9
$DIMTVP
 40
0.0
  9
$DIMTIX
 70
           0
  9
$DIMSOXD
 70
           0
  9
$DIMSAH
 70
           0
  9
$DIMBLK1
  1

  9
$DIMBLK2
  1

  9
$DIMSTYLE
  2
STANDARD
  9
$DIMCLRD
 70
           0
  9
$DIMCLRE
 70
           0
  9
$DIMCLRT
 70
           0
  9
$DIMTFAC
 40
1.0
  9
$DIMGAP
 40
0.09
  9
$DIMJUST
 70
           0
  9
$DIMSD1
 70
           0
  9
$DIMSD2
 70
           0
  9
$DIMTOLJ
 70
           1
  9
$DIMTZIN
 70
           0
  9
$DIMALTZ
 70
           0
  9
$DIMALTTZ
 70
           0
  9
$DIMFIT
 70
           3
  9
$DIMUPT
 70
           0
  9
$DIMUNIT
 70
           2
  9
$DIMDEC
 70
           4
  9
$DIMTDEC
 70
           4
  9
$DIMALTU
 70
           2
  9
$DIMALTTD
 70
           2
  9
$DIMTXSTY
  7
STANDARD
  9
$DIMAUNIT
 70
           0
  9
$LUNITS
 70
           2
  9
$LUPREC
 70
           4
  9
$SKETCHINC
 40
0.1
  9
$FILLETRAD
 40
0.0
  9
$AUNITS
 70
           0
  9
$AUPREC
 70
           0
  9
$MENU
  1
acad
  9
$ELEVATION
 40
0.0
  9
$PELEVATION
 40
0.0
  9
$THICKNESS
 40
0.0
  9
$LIMCHECK
 70
           0
  9
$BLIPMODE
 70
           1
  9
$CHAMFERA
 40
0.0
  9
$CHAMFERB
 40
0.0
  9
$CHAMFERC
 40
0.0
  9
$CHAMFERD
 40
0.0
  9
$SKPOLY
 70
           0
  9
$TDCREATE
 40
0.000000000
  9
$TDUPDATE
 40
0.000000000
  9
$TDINDWG
 40
0.0000000000
  9
$TDUSRTIMER
 40
0.0000000000
  9
$USRTIMER
 70
           1
  9
$ANGBASE
 50
0.0
  9
$ANGDIR
 70
           0
  9
$PDMODE
 70
           0
  9
$PDSIZE
 40
0.0
  9
$PLINEWID
 40
0.0
  9
$COORDS
 70
           0
  9
$SPLFRAME
 70
           0
  9
$SPLINETYPE
 70
           6
  9
$SPLINESEGS
 70
           8
  9
$ATTDIA
 70
           0
  9
$ATTREQ
 70
           1
  9
$HANDLING
 70
           1
  9
$HANDSEED
  5
167
  9
$SURFTAB1
 70
           6
  9
$SURFTAB2
 70
           6
  9
$SURFTYPE
 70
           6
  9
$SURFU
 70
           6
  9
$SURFV
 70
           6
  9
$UCSNAME
  2

  9
$UCSORG
 10
0.0
 20
0.0
 30
0.0
  9
$UCSXDIR
 10
1.0
 20
0.0
 30
0.0
  9
$UCSYDIR
 10
0.0
 20
1.0
 30
0.0
  9
$PUCSNAME
  2

  9
$PUCSORG
 10
0.0
 20
0.0
 30
0.0
  9
$PUCSXDIR
 10
1.0
 20
0.0
 30
0.0
  9
$PUCSYDIR
 10
0.0
 20
1.0
 30
0.0
  9
$USERI1
 70
           0
  9
$USERI2
 70
           0
  9
$USERI3
 70
           0
  9
$USERI4
 70
           0
  9
$USERI5
 70
           0
  9
$USERR1
 40
0.0
  9
$USERR2
 40
0.0
  9
$USERR3
 40
0.0
  9
$USERR4
 40
0.0
  9
$USERR5
 40
0.0
  9
$WORLDVIEW
 70
           1
  9
$SHADEDGE
 70
           3
  9
$SHADEDIF
 70
          70
  9
$TILEMODE
 70
           1
  9
$MAXACTVP
 70
          16
  9
$PINSBASE
 10
0.0
 20
0.0
 30
0.0
  9
$PLIMCHECK
 70
           0
  9
$PEXTMIN
 10
1.000000000000E+20
 20
1.000000000000E+20
 30
1.000000000000E+20
  9
$PEXTMAX
 10
-1.000000000000E+20
 20
-1.000000000000E+20
 30
-1.000000000000E+20
  9
$PLIMMIN
 10
0.0
 20
0.0
  9
$PLIMMAX
 10
12.0
 20
9.0
  9
$UNITMODE
 70
           0
  9
$VISRETAIN
 70
           0
  9
$PLINEGEN
 70
           1
  9
$PSLTSCALE
 70
           0
  9
$TREEDEPTH
 70
        3020
  9
$PICKSTYLE
 70
           1
  9
$CMLSTYLE
  2
STANDARD
  9
$CMLJUST
 70
           0
  9
$CMLSCALE
 40
1.0
  9
$PROXYGRAPHICS
 70
           0
  9
$MEASUREMENT
 70
           0
  0
ENDSEC
  0
SECTION
  2
CLASSES
  0
CLASS
  1
LWPOLYLINE
  2
AcDbPolyline
  3
"AutoCAD"
 90
        0
280
           0
281
           1
  0
CLASS
  1
IMAGE
  2
AcDbRasterImage
  3
ISM
 90
      127
280
           0
281
           1
  0
CLASS
  1
OLE2FRAME
  2
AcDbOle2Frame
  3
""
 90
        0
280
           0
281
           1
  0
CLASS
  1
HATCH
  2
AcDbHatch
  3
"ACAD_SEDONA"
 90
        0
280
           0
281
           1
  0
CLASS
  1
DICTIONARYVAR
  2
AcDbDictionaryVar
  3
"AutoCAD"
 90
        0
280
           0
281
           0
  0
CLASS
  1
RASTERVARIABLES
  2
AcDbRasterVariables
  3
ISM
 90
        0
280
           0
281
           0
  0
CLASS
  1
IMAGEDEF
  2
AcDbRasterImageDef
  3
ISM
 90
        0
280
           0
281
           0
  0
CLASS
  1
IMAGEDEF_REACTOR
  2
AcDbRasterImageDefReactor
  3
ISM
 90
        1
280
           0
281
           0
  0
CLASS
  1
IDBUFFER
  2
AcDbIdBuffer
  3
"Acad"
 90
        0
280
           0
281
           0
  0
CLASS
  1
SPATIAL_FILTER
  2
AcDbSpatialFilter
  3
"Acad"
 90
        0
280
           0
281
           0
  0
CLASS
  1
XRECORD
  2
AcDbXrecord
  3
"<Built In>"
 90
        0
280
           0
281
           0
  0
CLASS
  1
SORTENTSTABLE
  2
AcDbSortentsTable
  3
"AutoCAD"
 90
        0
280
           0
281
           0
  0
CLASS
  1
LAYER_INDEX
  2
AcDbLayerIndex
  3
"Acad"
 90
        0
280
           0
281
           0
  0
CLASS
  1
SPATIAL_INDEX
  2
AcDbSpatialIndex
  3
"Acad"
 90
        0
280
           0
281
           0
  0
CLASS
  1
OBJECT_PTR
  2
CAseDLPNTableRecord
  3
"ASE-LPNTableRecord"
 90
        1
280
           0
281
           0
  0
CLASS
  1
LAYOUT
  2
AcDbLayout
  3
"AutoCAD 2000"
 90
        1
280
           0
281
           0
  0
CLASS
  1
PLOTSETTINGS
  2
AcDbPlotSettings
  3
"AutoCAD 2000"
 90
        1
280
           0
281
           0
  0
CLASS
  1
ACDBDICTIONARYWDFLT
  2
AcDbDictionaryWithDefault
  3
"AutoCAD 2000"
 90
        1
280
           0
281
           0
  0
CLASS
  1
ACDBPLACEHOLDER
  2
AcDbPlaceHolder
  3
"AutoCAD 2000"
 90
        1
280
           0
281
           0
  0
CLASS
  1
VBA_PROJECT
  2
AcDbVbaProject
  3
"acadvba"
 90
        1
280
           0
281
           0
  0
CLASS
  1
WIPEOUT
  2
AcDbWipeout
  3
WipeOut|AutoCAD Express Tool|expresstools@autodesk.com
 90
      127
280
           0
281
           1
  0
CLASS
  1
WIPEOUTVARIABLES
  2
AcDbWipeoutVariables
  3
WipeOut|AutoCAD Express Tool|expresstools@autodesk.com
 90
        0
280
           0
281
           0
  0
CLASS
  1
RTEXT
  2
RText
  3
RText|AutoCAD Express Tool|expresstools@autodesk.com
 90
        0
280
           0
281
           1
  0
CLASS
  1
ARCALIGNEDTEXT
  2
AcDbArcAlignedText
  3
ATEXT|AutoCAD Express Tool|expresstools@autodesk.com
 90
        0
280
           0
281
           1
  0
ENDSEC
  0
SECTION
  2
TABLES
  0
TABLE
  2
VPORT
  5
7
100
AcDbSymbolTable
 70
           1
  0
VPORT
  5
15
100
AcDbSymbolTableRecord
100
AcDbViewportTableRecord
  2
*ACTIVE
 70
           0
 10
0.0
 20
0.0
 11
1.0
 21
1.0
 12
6.591288
 22
4.579184
 13
0.0
 23
0.0
 14
1.0
 24
1.0
 15
0.0
 25
0.0
 16
0.0
 26
0.0
 36
1.0
 17
0.0
 27
0.0
 37
0.0
 40
9.158369
 41
0.688564
 42
50.0
 43
0.0
 44
0.0
 50
0.0
 51
0.0
 71
           0
 72
         100
 73
           1
 74
           1
 75
           0
 76
           0
 77
           0
 78
           0
  0
ENDTAB
  0
TABLE
  2
LTYPE
  5
4
100
AcDbSymbolTable
 70
          10
  0
LTYPE
  5
11
100
AcDbSymbolTableRecord
100
AcDbLinetypeTableRecord
  2
BYBLOCK
 70
          64
  3

 72
          65
 73
           0
 40
0.0
  0
LTYPE
  5
12
100
AcDbSymbolTableRecord
100
AcDbLinetypeTableRecord
  2
BYLAYER
 70
          64
  3

 72
          65
 73
           0
 40
0.0
  0
LTYPE
  5
13
100
AcDbSymbolTableRecord
100
AcDbLinetypeTableRecord
  2
CONTINUOUS
 70
          64
  3
Solid line
 72
          65
 73
           0
 40
0.0
  0
LTYPE
  5
1D
100
AcDbSymbolTableRecord
100
AcDbLinetypeTableRecord
  2
DASHED
 70
          64
  3
Dashed
 72
          65
 73
           2
 40
15.0
 49
12.0
 74
           0
 49
-3.0
 74
           0
  0
LTYPE
  5
1E
100
AcDbSymbolTableRecord
100
AcDbLinetypeTableRecord
  2
DOTTED
 70
          64
  3
Dotted
 72
          65
 73
           2
 40
3.5
 49
0.5
 74
           0
 49
-3.0
 74
           0
  0
LTYPE
  5
1F
100
AcDbSymbolTableRecord
100
AcDbLinetypeTableRecord
  2
DOT_CENTER
 70
          64
  3
Dot_Center
 72
          65
 73
           4
 40
2.0
 49
1.25
 74
           0
 49
-0.25
 74
           0
 49
0.25
 74
           0
 49
-0.25
 74
           0
  0
LTYPE
  5
20
100
AcDbSymbolTableRecord
100
AcDbLinetypeTableRecord
  2
LONG_DASHED
 70
          64
  3
Long_Dashed
 72
          65
 73
           2
 40
2.0
 49
1.5
 74
           0
 49
-0.5
 74
           0
  0
LTYPE
  5
21
100
AcDbSymbolTableRecord
100
AcDbLinetypeTableRecord
  2
DASH_CENTER
 70
          64
  3
Dash_Center
 72
          65
 73
           4
 40
36.0
 49
24.0
 74
           0
 49
-3.0
 74
           0
 49
6.0
 74
           0
 49
-3.0
 74
           0
  0
LTYPE
  5
22
100
AcDbSymbolTableRecord
100
AcDbLinetypeTableRecord
  2
PHANTOM
 70
          64
  3
Phantom
 72
          65
 73
           6
 40
2.5
 49
1.25
 74
           0
 49
-0.25
 74
           0
 49
0.25
 74
           0
 49
-0.25
 74
           0
 49
0.25
 74
           0
 49
-0.25
 74
           0
  0
LTYPE
  5
23
100
AcDbSymbolTableRecord
100
AcDbLinetypeTableRecord
  2
CENTER_DASH_DASH
 70
          64
  3
Center_Dash_Dash
 72
          65
 73
           6
 40
22.0
 49
12.0
 74
           0
 49
-3.0
 74
           0
 49
0.5
 74
           0
 49
-3.0
 74
           0
 49
0.5
 74
           0
 49
-3.0
 74
           0
  0
ENDTAB
  0
TABLE
  2
LAYER
  5
2
100
AcDbSymbolTable
 70
           2
  0
LAYER
  5
14
100
AcDbSymbolTableRecord
100
AcDbLayerTableRecord
  2
0
 70
           0
 62
           7
  6
CONTINUOUS
  0
LAYER
  5
24
100
AcDbSymbolTableRecord
100
AcDbLayerTableRecord
  2
1
 70
           0
 62
           7
  6
CONTINUOUS
  0
ENDTAB
  0
TABLE
  2
STYLE
  5
3
100
AcDbSymbolTable
 70
           3
  0
STYLE
  5
17
100
AcDbSymbolTableRecord
100
AcDbTextStyleTableRecord
  2
STANDARD
 70
           0
 40
0.0
 41
1.0
 50
0.0
 71
           0
 42
0.0
  3
txt
  4

  0
STYLE
  5
155
100
AcDbSymbolTableRecord
100
AcDbTextStyleTableRecord
  2
CONVERTER_1
 70
           0
 40
0.0
 41
0.9
 50
0.0
 71
           0
 42
0.0
  3
txt.shx
  4

  0
STYLE
  5
161
100
AcDbSymbolTableRecord
100
AcDbTextStyleTableRecord
  2
CONVERTER_2
 70
           0
 40
0.0
 41
0.89
 50
0.0
 71
           0
 42
0.0
  3
MS Mincho.ttf
  4

1001
ACAD
1000
MS Mincho
1071
    32785
  0
ENDTAB
  0
TABLE
  2
VIEW
  5
5
100
AcDbSymbolTable
 70
           0
  0
ENDTAB
  0
TABLE
  2
UCS
  5
6
100
AcDbSymbolTable
 70
           0
  0
ENDTAB
  0
TABLE
  2
APPID
  5
8
100
AcDbSymbolTable
 70
           1
  0
APPID
  5
16
100
AcDbSymbolTableRecord
100
AcDbRegAppTableRecord
  2
ACAD
 70
           0
  0
ENDTAB
  0
TABLE
  2
DIMSTYLE
  5
9
100
AcDbSymbolTable
 70
           3
  0
DIMSTYLE
105
18
100
AcDbSymbolTableRecord
100
AcDbDimStyleTableRecord
  2
STANDARD
 70
           0
  3

  4

  5

  6

  7

 40
1.0
 41
0.18
 42
0.0625
 43
0.38
 44
0.18
 45
0.0
 46
0.0
 47
0.0
 48
0.0
 71
           0
 72
           0
 73
           1
 74
           1
 75
           0
 76
           0
 77
           0
 78
           0
140
0.18
141
0.09
142
0.0
143
25.4
144
1.0
145
0.0
146
1.0
147
0.09
170
           0
171
           2
172
           0
173
           0
174
           0
175
           0
176
           0
177
           0
178
           0
270
           2
271
           4
272
           4
273
           2
274
           2
275
           0
280
           0
281
           0
282
           0
283
           1
284
           0
285
           0
286
           0
287
           0
288
           0
340
17
  0
DIMSTYLE
105
158
100
AcDbSymbolTableRecord
100
AcDbDimStyleTableRecord
  2
ME10_DIM_0
 70
           0
  3
<>
  4

  5

  6

  7

 40
1.0
 41
2.8
 42
0.8
 43
0.38
 44
1.0
 45
0.0
 46
0.0
 47
0.0
 48
0.0
 71
           0
 72
           0
 73
           0
 74
           0
 75
           0
 76
           0
 77
           1
 78
           8
140
2.8
141
0.09
142
0.0
143
25.4
144
1.0
145
0.0
146
1.0
147
0.09
170
           0
171
           2
172
           0
173
           1
174
           0
175
           0
176
           2
177
           2
178
           2
270
           2
271
           3
272
           4
273
           2
274
           2
275
           0
280
           0
281
           0
282
           0
283
           1
284
           0
285
           0
286
           0
287
           3
288
           0
340
17
  0
DIMSTYLE
105
164
100
AcDbSymbolTableRecord
100
AcDbDimStyleTableRecord
  2
ME10_DIM_1
 70
           0
  3
ó<>
  4

  5

  6

  7

 40
1.0
 41
2.8
 42
0.8
 43
0.38
 44
1.0
 45
0.0
 46
0.0
 47
0.0
 48
0.0
 71
           0
 72
           0
 73
           0
 74
           0
 75
           0
 76
           0
 77
           1
 78
           8
140
2.8
141
0.09
142
0.0
143
25.4
144
1.0
145
0.0
146
1.0
147
0.09
170
           0
171
           2
172
           0
173
           1
174
           0
175
           0
176
           2
177
           2
178
           2
270
           2
271
           3
272
           4
273
           2
274
           2
275
           0
280
           0
281
           0
282
           0
283
           1
284
           0
285
           0
286
           0
287
           3
288
           0
340
17
  0
ENDTAB
  0
TABLE
  2
BLOCK_RECORD
  5
1
100
AcDbSymbolTable
 70
           2
  0
BLOCK_RECORD
  5
A
100
AcDbSymbolTableRecord
100
AcDbBlockTableRecord
  2
*MODEL_SPACE
  0
BLOCK_RECORD
  5
B
100
AcDbSymbolTableRecord
100
AcDbBlockTableRecord
  2
*PAPER_SPACE
  0
BLOCK_RECORD
  5
14E
100
AcDbSymbolTableRecord
100
AcDbBlockTableRecord
  2
*D0
  0
BLOCK_RECORD
  5
15A
100
AcDbSymbolTableRecord
100
AcDbBlockTableRecord
  2
*D1
  0
ENDTAB
  0
ENDSEC
  0
SECTION
  2
BLOCKS
  0
BLOCK
  5
D
100
AcDbEntity
  8
0
100
AcDbBlockBegin
  2
*MODEL_SPACE
 70
           0
 10
0.0
 20
0.0
 30
0.0
  3
*MODEL_SPACE
  1

  0
ENDBLK
  5
E
100
AcDbEntity
  8
0
100
AcDbBlockEnd
  0
BLOCK
  5
F
100
AcDbEntity
 67
           1
  8
0
100
AcDbBlockBegin
  2
*PAPER_SPACE
 70
           0
 10
0.0
 20
0.0
 30
0.0
  3
*PAPER_SPACE
  1

  0
ENDBLK
  5
10
100
AcDbEntity
 67
           1
  8
0
100
AcDbBlockEnd
  0
BLOCK
  5
14F
100
AcDbEntity
  8
0
100
AcDbBlockBegin
  2
*D0
 70
           1
 10
0.0
 20
0.0
 30
0.0
  3
*D0
  1

  0
LINE
  5
150
100
AcDbEntity
  8
0
  6
CONTINUOUS
 62
           2
100
AcDbLine
 10
129.360795052381
 20
165.905739704359
 11
129.360795052381
 21
308.905739704358
  0
LINE
  5
151
100
AcDbEntity
  8
0
  6
CONTINUOUS
 62
           2
100
AcDbLine
 10
207.166093840124
 20
308.905739704358
 11
128.360795052381
 21
308.905739704358
  0
LINE
  5
152
100
AcDbEntity
  8
0
  6
CONTINUOUS
 62
           2
100
AcDbLine
 10
163.833757231353
 20
165.905739704359
 11
128.360795052381
 21
165.905739704359
  0
SOLID
  5
153
100
AcDbEntity
  8
0
 62
           2
100
AcDbTrace
 10
129.729422045625
 20
306.105739704358
 11
128.992168059136
 21
306.105739704358
 12
129.360795052381
 22
308.905739704358
 13
129.360795052381
 23
308.905739704358
  0
SOLID
  5
154
100
AcDbEntity
  8
0
 62
           2
100
AcDbTrace
 10
128.992168059136
 20
168.705739704359
 11
129.729422045625
 21
168.705739704359
 12
129.360795052381
 22
165.905739704359
 13
129.360795052381
 23
165.905739704359
  0
MTEXT
  5
156
100
AcDbEntity
  8
0
 62
           2
100
AcDbMText
 10
128.360795052381
 20
237.480383655282
 30
0.0
 40
2.8
 41
0.0
 71
           7
 72
           1
  1
\C2;\C2;143
  7
CONVERTER_1
 11
0.0
 21
1.0
 31
0.0
  0
ENDBLK
  5
157
100
AcDbEntity
  8
0
100
AcDbBlockEnd
  0
BLOCK
  5
15B
100
AcDbEntity
  8
0
100
AcDbBlockBegin
  2
*D1
 70
           1
 10
0.0
 20
0.0
 30
0.0
  3
*D1
  1

  0
LINE
  5
15C
100
AcDbEntity
  8
0
  6
CONTINUOUS
 62
           2
100
AcDbLine
 10
161.133757231353
 20
153.508196876382
 11
237.733757231353
 21
153.508196876382
  0
LINE
  5
15D
100
AcDbEntity
  8
0
  6
CONTINUOUS
 62
           2
100
AcDbLine
 10
237.733757231353
 20
168.605739704358
 11
237.733757231353
 21
152.508196876382
  0
LINE
  5
15E
100
AcDbEntity
  8
0
  6
CONTINUOUS
 62
           2
100
AcDbLine
 10
161.133757231353
 20
168.605739704358
 11
161.133757231353
 21
152.508196876382
  0
SOLID
  5
15F
100
AcDbEntity
  8
0
 62
           2
100
AcDbTrace
 10
234.933757231353
 20
153.139569883137
 11
234.933757231353
 21
153.876823869627
 12
237.733757231353
 22
153.508196876382
 13
237.733757231353
 23
153.508196876382
  0
SOLID
  5
160
100
AcDbEntity
  8
0
 62
           2
100
AcDbTrace
 10
163.933757231353
 20
153.876823869627
 11
163.933757231353
 21
153.139569883137
 12
161.133757231353
 22
153.508196876382
 13
161.133757231353
 23
153.508196876382
  0
MTEXT
  5
162
100
AcDbEntity
  8
0
 62
           2
100
AcDbMText
 10
194.378455528417
 20
154.508196876382
 30
0.0
 40
2.8
 41
0.0
 71
           7
 72
           1
  1
\C2;ó\C2;76.6\C2;
  7
CONVERTER_2
  0
ENDBLK
  5
163
100
AcDbEntity
  8
0
100
AcDbBlockEnd
  0
ENDSEC
  0
SECTION
  2
ENTITIES
  0
DIMENSION
  5
165
100
AcDbEntity
  8
0
100
AcDbDimension
  2
*D1
 10
237.733757231353
 20
153.508196876382
 11
198.809455528417
 21
155.908196876382
 31
0.0
  1
<>
  3
ME10_DIM_1
100
AcDbAlignedDimension
 13
161.133757231353
 23
169.405739704359
 14
237.733757231353
 24
169.405739704359
100
AcDbRotatedDimension
  0
DIMENSION
  5
159
100
AcDbEntity
  8
0
100
AcDbDimension
  2
*D0
 10
129.360795052381
 20
308.905739704358
 11
126.960795052381
 21
240.420383655282
 31
0.0
 53
90.0
  1
<>
  3
ME10_DIM_0
100
AcDbAlignedDimension
 13
164.633757231353
 23
165.905739704359
 14
207.966093840124
 24
308.905739704358
 50
90.0
100
AcDbRotatedDimension
  0
ARC
  5
14D
100
AcDbEntity
  8
1
  6
CONTINUOUS
 62
           7
100
AcDbCircle
 10
164.633757231353
 20
169.405739704359
 40
3.5
100
AcDbArc
 50
180.0
 51
-90.0
  0
ARC
  5
14C
100
AcDbEntity
  8
1
  6
CONTINUOUS
 62
           7
100
AcDbCircle
 10
234.233757231353
 20
169.405739704359
 40
3.5
100
AcDbArc
 50
-90.0
 51
0.0
  0
ARC
  5
14B
100
AcDbEntity
  8
1
  6
CONTINUOUS
 62
           7
100
AcDbCircle
 10
226.683757231353
 20
285.105739704358
 40
4.0
100
AcDbArc
 50
180.0
 51
-90.0
  0
ARC
  5
14A
100
AcDbEntity
  8
1
  6
CONTINUOUS
 62
           7
100
AcDbCircle
 10
209.683757231353
 20
288.105739704358
 40
1.5
100
AcDbArc
 50
138.189685104222
 51
180.0
  0
ARC
  5
149
100
AcDbEntity
  8
1
  6
CONTINUOUS
 62
           7
100
AcDbCircle
 10
204.183757231353
 20
285.105739704358
 40
4.0
100
AcDbArc
 50
-90.0
 51
0.0
  0
ARC
  5
148
100
AcDbEntity
  8
1
  6
CONTINUOUS
 62
           7
100
AcDbCircle
 10
166.933757231353
 20
263.105739704358
 40
2.0
100
AcDbArc
 50
0.0
 51
67.380135051962
  0
ARC
  5
147
100
AcDbEntity
  8
1
  6
CONTINUOUS
 62
           7
100
AcDbCircle
 10
167.733757231353
 20
267.105739704358
 40
2.0
100
AcDbArc
 50
180.0
 51
-113.578178478198
  0
ARC
  5
146
100
AcDbEntity
  8
1
  6
CONTINUOUS
 62
           7
100
AcDbCircle
 10
169.933757231353
 20
279.105739704358
 40
2.0
100
AcDbArc
 50
90.0
 51
126.869897645846
  0
ARC
  5
145
100
AcDbEntity
  8
1
  6
CONTINUOUS
 62
           7
100
AcDbCircle
 10
165.933757231353
 20
281.105739704358
 40
2.0
100
AcDbArc
 50
-60.137165643726
 51
-53.130102354158
  0
ARC
  5
144
100
AcDbEntity
  8
1
  6
CONTINUOUS
 62
           7
100
AcDbCircle
 10
166.733757231353
 20
278.105739704358
 40
1.0
100
AcDbArc
 50
119.862834356273
 51
180.0
  0
ARC
  5
143
100
AcDbEntity
  8
1
  6
CONTINUOUS
 62
           7
100
AcDbCircle
 10
169.933757231353
 20
263.105739704358
 40
1.0
100
AcDbArc
 50
180.0
 51
-150.000000000002
  0
ARC
  5
142
100
AcDbEntity
  8
1
  6
CONTINUOUS
 62
           7
100
AcDbCircle
 10
221.183757231353
 20
288.105739704358
 40
1.5
100
AcDbArc
 50
0.0
 51
41.810314895781
  0
ARC
  5
141
100
AcDbEntity
  8
1
  6
CONTINUOUS
 62
           7
100
AcDbCircle
 10
168.233757231353
 20
278.105739704358
 40
1.0
100
AcDbArc
 50
119.862834356273
 51
180.0
  0
ARC
  5
140
100
AcDbEntity
  8
1
  6
CONTINUOUS
 62
           7
100
AcDbCircle
 10
169.233757231353
 20
267.105739704358
 40
2.0
100
AcDbArc
 50
180.0
 51
-113.578178478198
  0
ARC
  5
13F
100
AcDbEntity
  8
1
  6
CONTINUOUS
 62
           7
100
AcDbCircle
 10
169.733757231353
 20
278.105739704358
 40
1.0
100
AcDbArc
 50
119.862834356273
 51
180.0
  0
ARC
  5
13E
100
AcDbEntity
  8
1
  6
CONTINUOUS
 62
           7
100
AcDbCircle
 10
169.733757231353
 20
278.105739704358
 40
1.0
100
AcDbArc
 50
119.862834356273
 51
180.0
  0
ARC
  5
13D
100
AcDbEntity
  8
1
  6
CONTINUOUS
 62
           7
100
AcDbCircle
 10
170.733757231353
 20
267.105739704358
 40
2.0
100
AcDbArc
 50
180.0
 51
-113.578178478198
  0
ARC
  5
13C
100
AcDbEntity
  8
1
  6
CONTINUOUS
 62
           7
100
AcDbCircle
 10
171.233757231353
 20
278.105739704358
 40
1.0
100
AcDbArc
 50
119.862834356273
 51
180.0
  0
ARC
  5
13B
100
AcDbEntity
  8
1
  6
CONTINUOUS
 62
           7
100
AcDbCircle
 10
171.233757231353
 20
278.105739704358
 40
1.0
100
AcDbArc
 50
119.862834356273
 51
180.0
  0
ARC
  5
13A
100
AcDbEntity
  8
1
  6
CONTINUOUS
 62
           7
100
AcDbCircle
 10
172.233757231353
 20
267.105739704358
 40
2.0
100
AcDbArc
 50
180.0
 51
-113.578178478198
  0
ARC
  5
139
100
AcDbEntity
  8
1
  6
CONTINUOUS
 62
           7
100
AcDbCircle
 10
173.733757231353
 20
267.105739704358
 40
2.0
100
AcDbArc
 50
180.0
 51
-113.578178478198
  0
ARC
  5
138
100
AcDbEntity
  8
1
  6
CONTINUOUS
 62
           7
100
AcDbCircle
 10
172.733757231353
 20
278.105739704358
 40
1.0
100
AcDbArc
 50
119.862834356273
 51
180.0
  0
ARC
  5
137
100
AcDbEntity
  8
1
  6
CONTINUOUS
 62
           7
100
AcDbCircle
 10
172.733757231353
 20
278.105739704358
 40
1.0
100
AcDbArc
 50
119.862834356273
 51
180.0
  0
ARC
  5
136
100
AcDbEntity
  8
1
  6
CONTINUOUS
 62
           7
100
AcDbCircle
 10
175.233757231353
 20
278.105739704358
 40
1.0
100
AcDbArc
 50
119.862834356277
 51
180.0
  0
ARC
  5
135
100
AcDbEntity
  8
1
  6
CONTINUOUS
 62
           7
100
AcDbCircle
 10
175.233757231353
 20
278.105739704358
 40
1.0
100
AcDbArc
 50
119.862834356277
 51
180.0
  0
ARC
  5
134
100
AcDbEntity
  8
1
  6
CONTINUOUS
 62
           7
100
AcDbCircle
 10
175.233757231353
 20
278.105739704358
 40
1.0
100
AcDbArc
 50
119.862834356277
 51
180.0
  0
ARC
  5
133
100
AcDbEntity
  8
1
  6
CONTINUOUS
 62
           7
100
AcDbCircle
 10
175.233757231353
 20
278.105739704358
 40
1.0
100
AcDbArc
 50
119.862834356277
 51
180.0
  0
ARC
  5
132
100
AcDbEntity
  8
1
  6
CONTINUOUS
 62
           7
100
AcDbCircle
 10
176.233757231353
 20
267.105739704358
 40
2.0
100
AcDbArc
 50
180.0
 51
-113.5781784782
  0
ARC
  5
131
100
AcDbEntity
  8
1
  6
CONTINUOUS
 62
           7
100
AcDbCircle
 10
178.733757231353
 20
267.105739704358
 40
2.0
100
AcDbArc
 50
180.0
 51
-113.5781784782
  0
ARC
  5
130
100
AcDbEntity
  8
1
  6
CONTINUOUS
 62
           7
100
AcDbCircle
 10
177.733757231353
 20
278.105739704358
 40
1.0
100
AcDbArc
 50
119.862834356277
 51
180.0
  0
ARC
  5
12F
100
AcDbEntity
  8
1
  6
CONTINUOUS
 62
           7
100
AcDbCircle
 10
177.733757231353
 20
278.105739704358
 40
1.0
100
AcDbArc
 50
119.862834356277
 51
180.0
  0
ARC
  5
12E
100
AcDbEntity
  8
1
  6
CONTINUOUS
 62
           7
100
AcDbCircle
 10
177.733757231353
 20
278.105739704358
 40
1.0
100
AcDbArc
 50
119.862834356277
 51
180.0
  0
ARC
  5
12D
100
AcDbEntity
  8
1
  6
CONTINUOUS
 62
           7
100
AcDbCircle
 10
177.733757231353
 20
278.105739704358
 40
1.0
100
AcDbArc
 50
119.862834356277
 51
180.0
  0
ARC
  5
12C
100
AcDbEntity
  8
1
  6
CONTINUOUS
 62
           7
100
AcDbCircle
 10
180.233757231353
 20
278.105739704358
 40
1.0
100
AcDbArc
 50
119.862834356277
 51
180.0
  0
ARC
  5
12B
100
AcDbEntity
  8
1
  6
CONTINUOUS
 62
           7
100
AcDbCircle
 10
180.233757231353
 20
278.105739704358
 40
1.0
100
AcDbArc
 50
119.862834356277
 51
180.0
  0
ARC
  5
12A
100
AcDbEntity
  8
1
  6
CONTINUOUS
 62
           7
100
AcDbCircle
 10
180.233757231353
 20
278.105739704358
 40
1.0
100
AcDbArc
 50
119.862834356277
 51
180.0
  0
ARC
  5
129
100
AcDbEntity
  8
1
  6
CONTINUOUS
 62
           7
100
AcDbCircle
 10
180.233757231353
 20
278.105739704358
 40
1.0
100
AcDbArc
 50
119.862834356277
 51
180.0
  0
ARC
  5
128
100
AcDbEntity
  8
1
  6
CONTINUOUS
 62
           7
100
AcDbCircle
 10
181.233757231353
 20
267.105739704358
 40
2.0
100
AcDbArc
 50
180.0
 51
-113.5781784782
  0
ARC
  5
127
100
AcDbEntity
  8
1
  6
CONTINUOUS
 62
           7
100
AcDbCircle
 10
182.733757231353
 20
278.105739704358
 40
1.0
100
AcDbArc
 50
119.862834356277
 51
180.0
  0
ARC
  5
126
100
AcDbEntity
  8
1
  6
CONTINUOUS
 62
           7
100
AcDbCircle
 10
182.733757231353
 20
278.105739704358
 40
1.0
100
AcDbArc
 50
119.862834356277
 51
180.0
  0
ARC
  5
125
100
AcDbEntity
  8
1
  6
CONTINUOUS
 62
           7
100
AcDbCircle
 10
182.733757231353
 20
278.105739704358
 40
1.0
100
AcDbArc
 50
119.862834356277
 51
180.0
  0
ARC
  5
124
100
AcDbEntity
  8
1
  6
CONTINUOUS
 62
           7
100
AcDbCircle
 10
182.733757231353
 20
278.105739704358
 40
1.0
100
AcDbArc
 50
119.862834356277
 51
180.0
  0
ARC
  5
123
100
AcDbEntity
  8
1
  6
CONTINUOUS
 62
           7
100
AcDbCircle
 10
183.733757231353
 20
267.105739704358
 40
2.0
100
AcDbArc
 50
180.0
 51
-113.5781784782
  0
ARC
  5
122
100
AcDbEntity
  8
1
  6
CONTINUOUS
 62
           7
100
AcDbCircle
 10
186.233757231353
 20
278.105739704358
 40
1.0
100
AcDbArc
 50
119.862834356277
 51
180.0
  0
ARC
  5
121
100
AcDbEntity
  8
1
  6
CONTINUOUS
 62
           7
100
AcDbCircle
 10
186.233757231353
 20
278.105739704358
 40
1.0
100
AcDbArc
 50
119.862834356277
 51
180.0
  0
ARC
  5
120
100
AcDbEntity
  8
1
  6
CONTINUOUS
 62
           7
100
AcDbCircle
 10
186.233757231353
 20
278.105739704358
 40
1.0
100
AcDbArc
 50
119.862834356277
 51
180.0
  0
ARC
  5
11F
100
AcDbEntity
  8
1
  6
CONTINUOUS
 62
           7
100
AcDbCircle
 10
186.233757231353
 20
278.105739704358
 40
1.0
100
AcDbArc
 50
119.862834356277
 51
180.0
  0
ARC
  5
11E
100
AcDbEntity
  8
1
  6
CONTINUOUS
 62
           7
100
AcDbCircle
 10
187.233757231353
 20
267.105739704358
 40
2.0
100
AcDbArc
 50
180.0
 51
-113.5781784782
  0
ARC
  5
11D
100
AcDbEntity
  8
1
  6
CONTINUOUS
 62
           7
100
AcDbCircle
 10
190.733757231353
 20
267.105739704358
 40
2.0
100
AcDbArc
 50
180.0
 51
-113.578178478198
  0
ARC
  5
11C
100
AcDbEntity
  8
1
  6
CONTINUOUS
 62
           7
100
AcDbCircle
 10
189.733757231353
 20
278.105739704358
 40
1.0
100
AcDbArc
 50
119.862834356273
 51
180.0
  0
ARC
  5
11B
100
AcDbEntity
  8
1
  6
CONTINUOUS
 62
           7
100
AcDbCircle
 10
189.733757231353
 20
278.105739704358
 40
1.0
100
AcDbArc
 50
119.862834356273
 51
180.0
  0
ARC
  5
11A
100
AcDbEntity
  8
1
  6
CONTINUOUS
 62
           7
100
AcDbCircle
 10
189.733757231353
 20
278.105739704358
 40
1.0
100
AcDbArc
 50
119.862834356273
 51
180.0
  0
ARC
  5
119
100
AcDbEntity
  8
1
  6
CONTINUOUS
 62
           7
100
AcDbCircle
 10
189.733757231353
 20
278.105739704358
 40
1.0
100
AcDbArc
 50
119.862834356273
 51
180.0
  0
ARC
  5
118
100
AcDbEntity
  8
1
  6
CONTINUOUS
 62
           7
100
AcDbCircle
 10
193.233757231353
 20
278.105739704358
 40
1.0
100
AcDbArc
 50
119.862834356273
 51
180.0
  0
ARC
  5
117
100
AcDbEntity
  8
1
  6
CONTINUOUS
 62
           7
100
AcDbCircle
 10
193.233757231353
 20
278.105739704358
 40
1.0
100
AcDbArc
 50
119.862834356273
 51
180.0
  0
ARC
  5
116
100
AcDbEntity
  8
1
  6
CONTINUOUS
 62
           7
100
AcDbCircle
 10
193.233757231353
 20
278.105739704358
 40
1.0
100
AcDbArc
 50
119.862834356273
 51
180.0
  0
ARC
  5
115
100
AcDbEntity
  8
1
  6
CONTINUOUS
 62
           7
100
AcDbCircle
 10
193.233757231353
 20
278.105739704358
 40
1.0
100
AcDbArc
 50
119.862834356273
 51
180.0
  0
ARC
  5
114
100
AcDbEntity
  8
1
  6
CONTINUOUS
 62
           7
100
AcDbCircle
 10
194.233757231353
 20
267.105739704358
 40
2.0
100
AcDbArc
 50
180.0
 51
-113.578178478198
  0
ARC
  5
113
100
AcDbEntity
  8
1
  6
CONTINUOUS
 62
           7
100
AcDbCircle
 10
197.733757231353
 20
267.105739704358
 40
2.0
100
AcDbArc
 50
180.0
 51
-113.578178478198
  0
ARC
  5
112
100
AcDbEntity
  8
1
  6
CONTINUOUS
 62
           7
100
AcDbCircle
 10
196.733757231353
 20
278.105739704358
 40
1.0
100
AcDbArc
 50
119.862834356273
 51
180.0
  0
ARC
  5
111
100
AcDbEntity
  8
1
  6
CONTINUOUS
 62
           7
100
AcDbCircle
 10
196.733757231353
 20
278.105739704358
 40
1.0
100
AcDbArc
 50
119.862834356273
 51
180.0
  0
ARC
  5
110
100
AcDbEntity
  8
1
  6
CONTINUOUS
 62
           7
100
AcDbCircle
 10
196.733757231353
 20
278.105739704358
 40
1.0
100
AcDbArc
 50
119.862834356273
 51
180.0
  0
ARC
  5
10F
100
AcDbEntity
  8
1
  6
CONTINUOUS
 62
           7
100
AcDbCircle
 10
196.733757231353
 20
278.105739704358
 40
1.0
100
AcDbArc
 50
119.862834356273
 51
180.0
  0
ARC
  5
10E
100
AcDbEntity
  8
1
  6
CONTINUOUS
 62
           7
100
AcDbCircle
 10
196.733757231353
 20
278.105739704358
 40
1.0
100
AcDbArc
 50
119.862834356273
 51
180.0
  0
ARC
  5
10D
100
AcDbEntity
  8
1
  6
CONTINUOUS
 62
           7
100
AcDbCircle
 10
196.733757231353
 20
278.105739704358
 40
1.0
100
AcDbArc
 50
119.862834356273
 51
180.0
  0
ARC
  5
10C
100
AcDbEntity
  8
1
  6
CONTINUOUS
 62
           7
100
AcDbCircle
 10
196.733757231353
 20
278.105739704358
 40
1.0
100
AcDbArc
 50
119.862834356273
 51
180.0
  0
ARC
  5
10B
100
AcDbEntity
  8
1
  6
CONTINUOUS
 62
           7
100
AcDbCircle
 10
196.733757231353
 20
278.105739704358
 40
1.0
100
AcDbArc
 50
119.862834356273
 51
180.0
  0
ARC
  5
10A
100
AcDbEntity
  8
1
  6
CONTINUOUS
 62
           7
100
AcDbCircle
 10
202.133757231353
 20
278.105739704358
 40
1.0
100
AcDbArc
 50
0.0
 51
60.137165643722
  0
ARC
  5
109
100
AcDbEntity
  8
1
  6
CONTINUOUS
 62
           7
100
AcDbCircle
 10
202.133757231353
 20
278.105739704358
 40
1.0
100
AcDbArc
 50
0.0
 51
60.137165643722
  0
ARC
  5
108
100
AcDbEntity
  8
1
  6
CONTINUOUS
 62
           7
100
AcDbCircle
 10
202.133757231353
 20
278.105739704358
 40
1.0
100
AcDbArc
 50
0.0
 51
60.137165643722
  0
ARC
  5
107
100
AcDbEntity
  8
1
  6
CONTINUOUS
 62
           7
100
AcDbCircle
 10
202.133757231353
 20
278.105739704358
 40
1.0
100
AcDbArc
 50
0.0
 51
60.137165643722
  0
ARC
  5
106
100
AcDbEntity
  8
1
  6
CONTINUOUS
 62
           7
100
AcDbCircle
 10
202.133757231353
 20
278.105739704358
 40
1.0
100
AcDbArc
 50
0.0
 51
60.137165643722
  0
ARC
  5
105
100
AcDbEntity
  8
1
  6
CONTINUOUS
 62
           7
100
AcDbCircle
 10
202.133757231353
 20
278.105739704358
 40
1.0
100
AcDbArc
 50
0.0
 51
60.137165643722
  0
ARC
  5
104
100
AcDbEntity
  8
1
  6
CONTINUOUS
 62
           7
100
AcDbCircle
 10
202.133757231353
 20
278.105739704358
 40
1.0
100
AcDbArc
 50
0.0
 51
60.137165643722
  0
ARC
  5
103
100
AcDbEntity
  8
1
  6
CONTINUOUS
 62
           7
100
AcDbCircle
 10
202.133757231353
 20
278.105739704358
 40
1.0
100
AcDbArc
 50
0.0
 51
60.137165643722
  0
ARC
  5
102
100
AcDbEntity
  8
1
  6
CONTINUOUS
 62
           7
100
AcDbCircle
 10
201.133757231353
 20
267.105739704358
 40
2.0
100
AcDbArc
 50
-66.421821521795
 51
0.0
  0
ARC
  5
101
100
AcDbEntity
  8
1
  6
CONTINUOUS
 62
           7
100
AcDbCircle
 10
204.633757231353
 20
267.105739704358
 40
2.0
100
AcDbArc
 50
-66.421821521795
 51
0.0
  0
ARC
  5
100
100
AcDbEntity
  8
1
  6
CONTINUOUS
 62
           7
100
AcDbCircle
 10
205.633757231353
 20
278.105739704358
 40
1.0
100
AcDbArc
 50
0.0
 51
60.137165643722
  0
ARC
  5
FF
100
AcDbEntity
  8
1
  6
CONTINUOUS
 62
           7
100
AcDbCircle
 10
205.633757231353
 20
278.105739704358
 40
1.0
100
AcDbArc
 50
0.0
 51
60.137165643722
  0
ARC
  5
FE
100
AcDbEntity
  8
1
  6
CONTINUOUS
 62
           7
100
AcDbCircle
 10
205.633757231353
 20
278.105739704358
 40
1.0
100
AcDbArc
 50
0.0
 51
60.137165643722
  0
ARC
  5
FD
100
AcDbEntity
  8
1
  6
CONTINUOUS
 62
           7
100
AcDbCircle
 10
205.633757231353
 20
278.105739704358
 40
1.0
100
AcDbArc
 50
0.0
 51
60.137165643722
  0
ARC
  5
FC
100
AcDbEntity
  8
1
  6
CONTINUOUS
 62
           7
100
AcDbCircle
 10
209.133757231353
 20
278.105739704358
 40
1.0
100
AcDbArc
 50
0.0
 51
60.137165643722
  0
ARC
  5
FB
100
AcDbEntity
  8
1
  6
CONTINUOUS
 62
           7
100
AcDbCircle
 10
209.133757231353
 20
278.105739704358
 40
1.0
100
AcDbArc
 50
0.0
 51
60.137165643722
  0
ARC
  5
FA
100
AcDbEntity
  8
1
  6
CONTINUOUS
 62
           7
100
AcDbCircle
 10
209.133757231353
 20
278.105739704358
 40
1.0
100
AcDbArc
 50
0.0
 51
60.137165643722
  0
ARC
  5
F9
100
AcDbEntity
  8
1
  6
CONTINUOUS
 62
           7
100
AcDbCircle
 10
209.133757231353
 20
278.105739704358
 40
1.0
100
AcDbArc
 50
0.0
 51
60.137165643722
  0
ARC
  5
F8
100
AcDbEntity
  8
1
  6
CONTINUOUS
 62
           7
100
AcDbCircle
 10
208.133757231353
 20
267.105739704358
 40
2.0
100
AcDbArc
 50
-66.421821521795
 51
0.0
  0
ARC
  5
F7
100
AcDbEntity
  8
1
  6
CONTINUOUS
 62
           7
100
AcDbCircle
 10
211.633757231353
 20
267.105739704358
 40
2.0
100
AcDbArc
 50
-66.421821521798
 51
0.0
  0
ARC
  5
F6
100
AcDbEntity
  8
1
  6
CONTINUOUS
 62
           7
100
AcDbCircle
 10
212.633757231353
 20
278.105739704358
 40
1.0
100
AcDbArc
 50
0.0
 51
60.137165643722
  0
ARC
  5
F5
100
AcDbEntity
  8
1
  6
CONTINUOUS
 62
           7
100
AcDbCircle
 10
212.633757231353
 20
278.105739704358
 40
1.0
100
AcDbArc
 50
0.0
 51
60.137165643722
  0
ARC
  5
F4
100
AcDbEntity
  8
1
  6
CONTINUOUS
 62
           7
100
AcDbCircle
 10
212.633757231353
 20
278.105739704358
 40
1.0
100
AcDbArc
 50
0.0
 51
60.137165643722
  0
ARC
  5
F3
100
AcDbEntity
  8
1
  6
CONTINUOUS
 62
           7
100
AcDbCircle
 10
212.633757231353
 20
278.105739704358
 40
1.0
100
AcDbArc
 50
0.0
 51
60.137165643722
  0
ARC
  5
F2
100
AcDbEntity
  8
1
  6
CONTINUOUS
 62
           7
100
AcDbCircle
 10
215.133757231353
 20
267.105739704358
 40
2.0
100
AcDbArc
 50
-66.421821521798
 51
0.0
  0
ARC
  5
F1
100
AcDbEntity
  8
1
  6
CONTINUOUS
 62
           7
100
AcDbCircle
 10
216.133757231353
 20
278.105739704358
 40
1.0
100
AcDbArc
 50
0.0
 51
60.137165643722
  0
ARC
  5
F0
100
AcDbEntity
  8
1
  6
CONTINUOUS
 62
           7
100
AcDbCircle
 10
216.133757231353
 20
278.105739704358
 40
1.0
100
AcDbArc
 50
0.0
 51
60.137165643722
  0
ARC
  5
EF
100
AcDbEntity
  8
1
  6
CONTINUOUS
 62
           7
100
AcDbCircle
 10
216.133757231353
 20
278.105739704358
 40
1.0
100
AcDbArc
 50
0.0
 51
60.137165643722
  0
ARC
  5
EE
100
AcDbEntity
  8
1
  6
CONTINUOUS
 62
           7
100
AcDbCircle
 10
216.133757231353
 20
278.105739704358
 40
1.0
100
AcDbArc
 50
0.0
 51
60.137165643722
  0
ARC
  5
ED
100
AcDbEntity
  8
1
  6
CONTINUOUS
 62
           7
100
AcDbCircle
 10
217.633757231353
 20
267.105739704358
 40
2.0
100
AcDbArc
 50
-66.421821521798
 51
0.0
  0
ARC
  5
EC
100
AcDbEntity
  8
1
  6
CONTINUOUS
 62
           7
100
AcDbCircle
 10
218.633757231353
 20
278.105739704358
 40
1.0
100
AcDbArc
 50
0.0
 51
60.137165643722
  0
ARC
  5
EB
100
AcDbEntity
  8
1
  6
CONTINUOUS
 62
           7
100
AcDbCircle
 10
218.633757231353
 20
278.105739704358
 40
1.0
100
AcDbArc
 50
0.0
 51
60.137165643722
  0
ARC
  5
EA
100
AcDbEntity
  8
1
  6
CONTINUOUS
 62
           7
100
AcDbCircle
 10
218.633757231353
 20
278.105739704358
 40
1.0
100
AcDbArc
 50
0.0
 51
60.137165643722
  0
ARC
  5
E9
100
AcDbEntity
  8
1
  6
CONTINUOUS
 62
           7
100
AcDbCircle
 10
218.633757231353
 20
278.105739704358
 40
1.0
100
AcDbArc
 50
0.0
 51
60.137165643722
  0
ARC
  5
E8
100
AcDbEntity
  8
1
  6
CONTINUOUS
 62
           7
100
AcDbCircle
 10
221.133757231353
 20
278.105739704358
 40
1.0
100
AcDbArc
 50
0.0
 51
60.137165643722
  0
ARC
  5
E7
100
AcDbEntity
  8
1
  6
CONTINUOUS
 62
           7
100
AcDbCircle
 10
221.133757231353
 20
278.105739704358
 40
1.0
100
AcDbArc
 50
0.0
 51
60.137165643722
  0
ARC
  5
E6
100
AcDbEntity
  8
1
  6
CONTINUOUS
 62
           7
100
AcDbCircle
 10
221.133757231353
 20
278.105739704358
 40
1.0
100
AcDbArc
 50
0.0
 51
60.137165643722
  0
ARC
  5
E5
100
AcDbEntity
  8
1
  6
CONTINUOUS
 62
           7
100
AcDbCircle
 10
221.133757231353
 20
278.105739704358
 40
1.0
100
AcDbArc
 50
0.0
 51
60.137165643722
  0
ARC
  5
E4
100
AcDbEntity
  8
1
  6
CONTINUOUS
 62
           7
100
AcDbCircle
 10
220.133757231353
 20
267.105739704358
 40
2.0
100
AcDbArc
 50
-66.421821521798
 51
0.0
  0
ARC
  5
E3
100
AcDbEntity
  8
1
  6
CONTINUOUS
 62
           7
100
AcDbCircle
 10
222.633757231353
 20
267.105739704358
 40
2.0
100
AcDbArc
 50
-66.421821521798
 51
0.0
  0
ARC
  5
E2
100
AcDbEntity
  8
1
  6
CONTINUOUS
 62
           7
100
AcDbCircle
 10
223.633757231353
 20
278.105739704358
 40
1.0
100
AcDbArc
 50
0.0
 51
60.137165643722
  0
ARC
  5
E1
100
AcDbEntity
  8
1
  6
CONTINUOUS
 62
           7
100
AcDbCircle
 10
223.633757231353
 20
278.105739704358
 40
1.0
100
AcDbArc
 50
0.0
 51
60.137165643722
  0
ARC
  5
E0
100
AcDbEntity
  8
1
  6
CONTINUOUS
 62
           7
100
AcDbCircle
 10
223.633757231353
 20
278.105739704358
 40
1.0
100
AcDbArc
 50
0.0
 51
60.137165643722
  0
ARC
  5
DF
100
AcDbEntity
  8
1
  6
CONTINUOUS
 62
           7
100
AcDbCircle
 10
223.633757231353
 20
278.105739704358
 40
1.0
100
AcDbArc
 50
0.0
 51
60.137165643722
  0
ARC
  5
DE
100
AcDbEntity
  8
1
  6
CONTINUOUS
 62
           7
100
AcDbCircle
 10
226.133757231353
 20
278.105739704358
 40
1.0
100
AcDbArc
 50
0.0
 51
60.137165643722
  0
ARC
  5
DD
100
AcDbEntity
  8
1
  6
CONTINUOUS
 62
           7
100
AcDbCircle
 10
226.133757231353
 20
278.105739704358
 40
1.0
100
AcDbArc
 50
0.0
 51
60.137165643722
  0
ARC
  5
DC
100
AcDbEntity
  8
1
  6
CONTINUOUS
 62
           7
100
AcDbCircle
 10
225.133757231353
 20
267.105739704358
 40
2.0
100
AcDbArc
 50
-66.421821521798
 51
0.0
  0
ARC
  5
DB
100
AcDbEntity
  8
1
  6
CONTINUOUS
 62
           7
100
AcDbCircle
 10
226.633757231353
 20
267.105739704358
 40
2.0
100
AcDbArc
 50
-66.421821521798
 51
0.0
  0
ARC
  5
DA
100
AcDbEntity
  8
1
  6
CONTINUOUS
 62
           7
100
AcDbCircle
 10
227.633757231353
 20
278.105739704358
 40
1.0
100
AcDbArc
 50
0.0
 51
60.137165643722
  0
ARC
  5
D9
100
AcDbEntity
  8
1
  6
CONTINUOUS
 62
           7
100
AcDbCircle
 10
227.633757231353
 20
278.105739704358
 40
1.0
100
AcDbArc
 50
0.0
 51
60.137165643722
  0
ARC
  5
D8
100
AcDbEntity
  8
1
  6
CONTINUOUS
 62
           7
100
AcDbCircle
 10
228.133757231353
 20
267.105739704358
 40
2.0
100
AcDbArc
 50
-66.421821521798
 51
0.0
  0
ARC
  5
D7
100
AcDbEntity
  8
1
  6
CONTINUOUS
 62
           7
100
AcDbCircle
 10
229.133757231353
 20
278.105739704358
 40
1.0
100
AcDbArc
 50
0.0
 51
60.137165643722
  0
ARC
  5
D6
100
AcDbEntity
  8
1
  6
CONTINUOUS
 62
           7
100
AcDbCircle
 10
229.133757231353
 20
278.105739704358
 40
1.0
100
AcDbArc
 50
0.0
 51
60.137165643722
  0
ARC
  5
D5
100
AcDbEntity
  8
1
  6
CONTINUOUS
 62
           7
100
AcDbCircle
 10
229.633757231353
 20
267.105739704358
 40
2.0
100
AcDbArc
 50
-66.421821521798
 51
0.0
  0
ARC
  5
D4
100
AcDbEntity
  8
1
  6
CONTINUOUS
 62
           7
100
AcDbCircle
 10
230.633757231353
 20
278.105739704358
 40
1.0
100
AcDbArc
 50
0.0
 51
60.137165643722
  0
ARC
  5
D3
100
AcDbEntity
  8
1
  6
CONTINUOUS
 62
           7
100
AcDbCircle
 10
228.933757231353
 20
263.105739704358
 40
1.0
100
AcDbArc
 50
-29.999999999998
 51
0.0
  0
ARC
  5
D2
100
AcDbEntity
  8
1
  6
CONTINUOUS
 62
           7
100
AcDbCircle
 10
232.133757231353
 20
278.105739704358
 40
1.0
100
AcDbArc
 50
0.0
 51
60.137165643722
  0
ARC
  5
D1
100
AcDbEntity
  8
1
  6
CONTINUOUS
 62
           7
100
AcDbCircle
 10
232.933757231353
 20
281.105739704358
 40
2.0
100
AcDbArc
 50
-126.869897645844
 51
-119.862834356274
  0
ARC
  5
D0
100
AcDbEntity
  8
1
  6
CONTINUOUS
 62
           7
100
AcDbCircle
 10
228.933757231353
 20
279.105739704358
 40
2.0
100
AcDbArc
 50
53.130102354157
 51
89.999999999997
  0
ARC
  5
CF
100
AcDbEntity
  8
1
  6
CONTINUOUS
 62
           7
100
AcDbCircle
 10
231.133757231353
 20
267.105739704358
 40
2.0
100
AcDbArc
 50
-66.421821521798
 51
0.0
  0
ARC
  5
CE
100
AcDbEntity
  8
1
  6
CONTINUOUS
 62
           7
100
AcDbCircle
 10
231.933757231353
 20
263.105739704358
 40
2.0
100
AcDbArc
 50
112.619864948037
 51
180.0
  0
ARC
  5
CD
100
AcDbEntity
  8
1
  6
CONTINUOUS
 62
           7
100
AcDbCircle
 10
232.957695128178
 20
259.137518990325
 40
6.757946884469
100
AcDbArc
 50
-176.33675821123
 51
-170.992820256638
  0
ARC
  5
CC
100
AcDbEntity
  8
1
  6
CONTINUOUS
 62
           7
100
AcDbCircle
 10
230.233757231353
 20
258.705739704359
 40
4.0
100
AcDbArc
 50
-170.992820256637
 51
-116.743683950401
  0
ARC
  5
CB
100
AcDbEntity
  8
1
  6
CONTINUOUS
 62
           7
100
AcDbCircle
 10
232.957695128178
 20
259.137518990325
 40
6.757946884468
100
AcDbArc
 50
149.122365221777
 51
-176.33675821123
  0
ARC
  5
CA
100
AcDbEntity
  8
1
  6
CONTINUOUS
 62
           7
100
AcDbCircle
 10
171.133757231353
 20
244.705739704359
 40
10.0
100
AcDbArc
 50
107.004310872224
 51
180.0
  0
ARC
  5
C9
100
AcDbEntity
  8
1
  6
CONTINUOUS
 62
           7
100
AcDbCircle
 10
227.733757231353
 20
244.705739704359
 40
10.0
100
AcDbArc
 50
0.0
 51
72.995689127775
  0
ARC
  5
C8
100
AcDbEntity
  8
1
  6
CONTINUOUS
 62
           7
100
AcDbCircle
 10
165.909819334528
 20
259.137518990325
 40
6.757946884468
100
AcDbArc
 50
-9.007179743361
 51
-3.66324178877
  0
ARC
  5
C7
100
AcDbEntity
  8
1
  6
CONTINUOUS
 62
           7
100
AcDbCircle
 10
168.633757231353
 20
258.705739704359
 40
4.0
100
AcDbArc
 50
-63.256316049596
 51
-9.007179743362
  0
ARC
  5
C6
100
AcDbEntity
  8
1
  6
CONTINUOUS
 62
           7
100
AcDbCircle
 10
165.909819334528
 20
259.137518990325
 40
6.757946884468
100
AcDbArc
 50
-3.66324178877
 51
30.877634778222
  0
ARC
  5
C5
100
AcDbEntity
  8
1
  6
CONTINUOUS
 62
           7
100
AcDbCircle
 10
208.133712000077
 20
300.245700096933
 40
4.33997642788
100
AcDbArc
 50
-114.02067708103
 51
-55.771504196938
  0
ARC
  5
C4
100
AcDbEntity
  8
1
  6
CONTINUOUS
 62
           7
100
AcDbCircle
 10
215.433757231353
 20
311.985562549614
 40
16.079822845255
100
AcDbArc
 50
-107.587953773993
 51
-72.412046226006
  0
ARC
  5
C3
100
AcDbEntity
  8
1
  6
CONTINUOUS
 62
           7
100
AcDbCircle
 10
222.73380246263
 20
300.245700096933
 40
4.33997642788
100
AcDbArc
 50
-124.228495803063
 51
-65.97932291897
  0
ARC
  5
C2
100
AcDbEntity
  8
1
  6
CONTINUOUS
 62
           7
100
AcDbCircle
 10
208.133712000077
 20
304.565779311784
 40
4.33997642788
100
AcDbArc
 50
55.771504196938
 51
114.02067708103
  0
ARC
  5
C1
100
AcDbEntity
  8
1
  6
CONTINUOUS
 62
           7
100
AcDbCircle
 10
215.433757231353
 20
292.825916859103
 40
16.079822845255
100
AcDbArc
 50
72.412046226006
 51
107.587953773993
  0
ARC
  5
C0
100
AcDbEntity
  8
1
  6
CONTINUOUS
 62
           7
100
AcDbCircle
 10
222.73380246263
 20
304.565779311784
 40
4.33997642788
100
AcDbArc
 50
65.97932291897
 51
124.228495803063
  0
LINE
  5
BF
100
AcDbEntity
  8
1
  6
DOT_CENTER
 62
           2
100
AcDbLine
 10
199.433757231353
 20
283.256923136311
 11
199.433757231353
 21
159.770532603767
  0
LINE
  5
BE
100
AcDbEntity
  8
1
  6
CONTINUOUS
 62
           7
100
AcDbLine
 10
170.433757231353
 20
255.13362548446
 11
168.209320679089
 21
254.268567259626
  0
LINE
  5
BD
100
AcDbEntity
  8
1
  6
CONTINUOUS
 62
           7
100
AcDbLine
 10
237.733757231353
 20
244.705739704359
 11
237.733757231353
 21
169.405739704359
  0
LINE
  5
BC
100
AcDbEntity
  8
1
  6
CONTINUOUS
 62
           7
100
AcDbLine
 10
161.133757231353
 20
244.705739704359
 11
161.133757231353
 21
169.405739704359
  0
LINE
  5
BB
100
AcDbEntity
  8
1
  6
CONTINUOUS
 62
           7
100
AcDbLine
 10
230.658193783617
 20
254.268567259626
 11
228.433757231353
 21
255.13362548446
  0
LINE
  5
BA
100
AcDbEntity
  8
1
  6
CONTINUOUS
 62
           2
100
AcDbLine
 10
172.690905062534
 20
254.545129822841
 11
199.433757231353
 21
254.545129822841
  0
LINE
  5
B9
100
AcDbEntity
  8
1
  6
CONTINUOUS
 62
           7
100
AcDbLine
 10
234.233757231353
 20
165.905739704359
 11
164.633757231353
 21
165.905739704359
  0
LINE
  5
B8
100
AcDbEntity
  8
1
  6
CONTINUOUS
 62
           7
100
AcDbLine
 10
222.683757231353
 20
288.105739704358
 11
222.683757231353
 21
285.105739704358
  0
LINE
  5
B7
100
AcDbEntity
  8
1
  6
CONTINUOUS
 62
           7
100
AcDbLine
 10
208.183757231353
 20
288.105739704358
 11
208.183757231353
 21
285.105739704358
  0
LINE
  5
B6
100
AcDbEntity
  8
1
  6
CONTINUOUS
 62
           7
100
AcDbLine
 10
228.933757231353
 20
281.105739704358
 11
199.433757231353
 21
281.105739704358
  0
LINE
  5
B5
100
AcDbEntity
  8
1
  6
CONTINUOUS
 62
           7
100
AcDbLine
 10
165.733757231353
 20
267.105739704358
 11
165.733757231353
 21
278.105739704358
  0
LINE
  5
B4
100
AcDbEntity
  8
1
  6
CONTINUOUS
 62
           7
100
AcDbLine
 10
166.933649637737
 20
265.272451201698
 11
167.702988000584
 21
264.951893550512
  0
LINE
  5
B3
100
AcDbEntity
  8
1
  6
CONTINUOUS
 62
           7
100
AcDbLine
 10
169.933757231353
 20
281.105739704358
 11
174.433757231353
 21
281.105739704358
  0
LINE
  5
B2
100
AcDbEntity
  8
1
  6
CONTINUOUS
 62
           7
100
AcDbLine
 10
199.433757231353
 20
281.105739704358
 11
174.433757231353
 21
281.105739704358
  0
LINE
  5
B1
100
AcDbEntity
  8
1
  6
CONTINUOUS
 62
           7
100
AcDbLine
 10
167.133757231353
 20
279.505739704359
 11
168.733757231353
 21
280.705739704359
  0
LINE
  5
B0
100
AcDbEntity
  8
1
  6
CONTINUOUS
 62
           7
100
AcDbLine
 10
166.23583192015
 20
278.972959621371
 11
166.92960785376
 21
279.371299870334
  0
LINE
  5
AF
100
AcDbEntity
  8
1
  6
CONTINUOUS
 62
           7
100
AcDbLine
 10
166.23583192015
 20
278.972959621371
 11
166.92960785376
 21
279.371299870334
  0
LINE
  5
AE
100
AcDbEntity
  8
1
  6
CONTINUOUS
 62
           7
100
AcDbLine
 10
169.067731827569
 20
262.605739704358
 11
170.308757231353
 21
262.605739704358
  0
LINE
  5
AD
100
AcDbEntity
  8
1
  6
CONTINUOUS
 62
           7
100
AcDbLine
 10
208.565723242603
 20
289.105739704358
 11
222.301791220103
 21
289.105739704358
  0
LINE
  5
AC
100
AcDbEntity
  8
1
  6
CONTINUOUS
 62
           7
100
AcDbLine
 10
170.308757231353
 20
262.605739704358
 11
199.433757231353
 21
262.605739704358
  0
LINE
  5
AB
100
AcDbEntity
  8
1
  6
CONTINUOUS
 62
           7
100
AcDbLine
 10
166.92960785376
 20
279.371299870334
 11
199.433757231353
 21
279.371299870334
  0
LINE
  5
AA
100
AcDbEntity
  8
1
  6
CONTINUOUS
 62
           7
100
AcDbLine
 10
167.702988000584
 20
264.951893550512
 11
199.433757231353
 21
264.951893550512
  0
LINE
  5
A9
100
AcDbEntity
  8
1
  6
CONTINUOUS
 62
           7
100
AcDbLine
 10
167.73583192015
 20
278.972959621371
 11
168.42960785376
 21
279.371299870334
  0
LINE
  5
A8
100
AcDbEntity
  8
1
  6
CONTINUOUS
 62
           7
100
AcDbLine
 10
167.73583192015
 20
278.972959621371
 11
168.42960785376
 21
279.371299870334
  0
LINE
  5
A7
100
AcDbEntity
  8
1
  6
CONTINUOUS
 62
           7
100
AcDbLine
 10
167.233757231353
 20
278.105739704358
 11
167.233757231353
 21
267.105739704358
  0
LINE
  5
A6
100
AcDbEntity
  8
1
  6
CONTINUOUS
 62
           7
100
AcDbLine
 10
168.433649637737
 20
265.272451201698
 11
169.202988000584
 21
264.951893550512
  0
LINE
  5
A5
100
AcDbEntity
  8
1
  6
CONTINUOUS
 62
           7
100
AcDbLine
 10
169.23583192015
 20
278.972959621371
 11
169.92960785376
 21
279.371299870334
  0
LINE
  5
A4
100
AcDbEntity
  8
1
  6
CONTINUOUS
 62
           7
100
AcDbLine
 10
169.23583192015
 20
278.972959621371
 11
169.92960785376
 21
279.371299870334
  0
LINE
  5
A3
100
AcDbEntity
  8
1
  6
CONTINUOUS
 62
           7
100
AcDbLine
 10
168.733757231353
 20
278.105739704358
 11
168.733757231353
 21
267.105739704358
  0
LINE
  5
A2
100
AcDbEntity
  8
1
  6
CONTINUOUS
 62
           7
100
AcDbLine
 10
169.933649637737
 20
265.272451201698
 11
170.702988000584
 21
264.951893550512
  0
LINE
  5
A1
100
AcDbEntity
  8
1
  6
CONTINUOUS
 62
           7
100
AcDbLine
 10
170.73583192015
 20
278.972959621371
 11
171.42960785376
 21
279.371299870334
  0
LINE
  5
A0
100
AcDbEntity
  8
1
  6
CONTINUOUS
 62
           7
100
AcDbLine
 10
170.73583192015
 20
278.972959621371
 11
171.42960785376
 21
279.371299870334
  0
LINE
  5
9F
100
AcDbEntity
  8
1
  6
CONTINUOUS
 62
           7
100
AcDbLine
 10
170.233757231353
 20
278.105739704358
 11
170.233757231353
 21
267.105739704358
  0
LINE
  5
9E
100
AcDbEntity
  8
1
  6
CONTINUOUS
 62
           7
100
AcDbLine
 10
171.433649637737
 20
265.272451201698
 11
172.202988000584
 21
264.951893550512
  0
LINE
  5
9D
100
AcDbEntity
  8
1
  6
CONTINUOUS
 62
           7
100
AcDbLine
 10
172.933649637737
 20
265.272451201698
 11
173.702988000584
 21
264.951893550512
  0
LINE
  5
9C
100
AcDbEntity
  8
1
  6
CONTINUOUS
 62
           7
100
AcDbLine
 10
171.733757231353
 20
278.105739704358
 11
171.733757231353
 21
267.105739704358
  0
LINE
  5
9B
100
AcDbEntity
  8
1
  6
CONTINUOUS
 62
           7
100
AcDbLine
 10
172.23583192015
 20
278.972959621371
 11
172.92960785376
 21
279.371299870334
  0
LINE
  5
9A
100
AcDbEntity
  8
1
  6
CONTINUOUS
 62
           7
100
AcDbLine
 10
172.23583192015
 20
278.972959621371
 11
172.92960785376
 21
279.371299870334
  0
LINE
  5
99
100
AcDbEntity
  8
1
  6
CONTINUOUS
 62
           7
100
AcDbLine
 10
174.73583192015
 20
278.972959621371
 11
175.42960785376
 21
279.371299870334
  0
LINE
  5
98
100
AcDbEntity
  8
1
  6
CONTINUOUS
 62
           7
100
AcDbLine
 10
174.73583192015
 20
278.972959621371
 11
175.42960785376
 21
279.371299870334
  0
LINE
  5
97
100
AcDbEntity
  8
1
  6
CONTINUOUS
 62
           7
100
AcDbLine
 10
174.233757231353
 20
278.105739704358
 11
174.233757231353
 21
267.105739704358
  0
LINE
  5
96
100
AcDbEntity
  8
1
  6
CONTINUOUS
 62
           7
100
AcDbLine
 10
175.433649637737
 20
265.272451201698
 11
176.202988000584
 21
264.951893550512
  0
LINE
  5
95
100
AcDbEntity
  8
1
  6
CONTINUOUS
 62
           7
100
AcDbLine
 10
177.933649637737
 20
265.272451201698
 11
178.702988000584
 21
264.951893550512
  0
LINE
  5
94
100
AcDbEntity
  8
1
  6
CONTINUOUS
 62
           7
100
AcDbLine
 10
176.733757231353
 20
278.105739704358
 11
176.733757231353
 21
267.105739704358
  0
LINE
  5
93
100
AcDbEntity
  8
1
  6
CONTINUOUS
 62
           7
100
AcDbLine
 10
177.23583192015
 20
278.972959621371
 11
177.92960785376
 21
279.371299870334
  0
LINE
  5
92
100
AcDbEntity
  8
1
  6
CONTINUOUS
 62
           7
100
AcDbLine
 10
177.23583192015
 20
278.972959621371
 11
177.92960785376
 21
279.371299870334
  0
LINE
  5
91
100
AcDbEntity
  8
1
  6
CONTINUOUS
 62
           7
100
AcDbLine
 10
179.73583192015
 20
278.972959621371
 11
180.42960785376
 21
279.371299870334
  0
LINE
  5
90
100
AcDbEntity
  8
1
  6
CONTINUOUS
 62
           7
100
AcDbLine
 10
179.73583192015
 20
278.972959621371
 11
180.42960785376
 21
279.371299870334
  0
LINE
  5
8F
100
AcDbEntity
  8
1
  6
CONTINUOUS
 62
           7
100
AcDbLine
 10
179.233757231353
 20
278.105739704358
 11
179.233757231353
 21
267.105739704358
  0
LINE
  5
8E
100
AcDbEntity
  8
1
  6
CONTINUOUS
 62
           7
100
AcDbLine
 10
180.433649637737
 20
265.272451201698
 11
181.202988000584
 21
264.951893550512
  0
LINE
  5
8D
100
AcDbEntity
  8
1
  6
CONTINUOUS
 62
           7
100
AcDbLine
 10
182.23583192015
 20
278.972959621371
 11
182.92960785376
 21
279.371299870334
  0
LINE
  5
8C
100
AcDbEntity
  8
1
  6
CONTINUOUS
 62
           7
100
AcDbLine
 10
182.23583192015
 20
278.972959621371
 11
182.92960785376
 21
279.371299870334
  0
LINE
  5
8B
100
AcDbEntity
  8
1
  6
CONTINUOUS
 62
           7
100
AcDbLine
 10
181.733757231353
 20
278.105739704358
 11
181.733757231353
 21
267.105739704358
  0
LINE
  5
8A
100
AcDbEntity
  8
1
  6
CONTINUOUS
 62
           7
100
AcDbLine
 10
182.933649637737
 20
265.272451201698
 11
183.702988000584
 21
264.951893550512
  0
LINE
  5
89
100
AcDbEntity
  8
1
  6
CONTINUOUS
 62
           7
100
AcDbLine
 10
185.73583192015
 20
278.972959621371
 11
186.42960785376
 21
279.371299870334
  0
LINE
  5
88
100
AcDbEntity
  8
1
  6
CONTINUOUS
 62
           7
100
AcDbLine
 10
185.73583192015
 20
278.972959621371
 11
186.42960785376
 21
279.371299870334
  0
LINE
  5
87
100
AcDbEntity
  8
1
  6
CONTINUOUS
 62
           7
100
AcDbLine
 10
185.233757231353
 20
278.105739704358
 11
185.233757231353
 21
267.105739704358
  0
LINE
  5
86
100
AcDbEntity
  8
1
  6
CONTINUOUS
 62
           7
100
AcDbLine
 10
186.433649637737
 20
265.272451201698
 11
187.202988000584
 21
264.951893550512
  0
LINE
  5
85
100
AcDbEntity
  8
1
  6
CONTINUOUS
 62
           7
100
AcDbLine
 10
189.933649637737
 20
265.272451201698
 11
190.702988000584
 21
264.951893550512
  0
LINE
  5
84
100
AcDbEntity
  8
1
  6
CONTINUOUS
 62
           7
100
AcDbLine
 10
188.733757231353
 20
278.105739704358
 11
188.733757231353
 21
267.105739704358
  0
LINE
  5
83
100
AcDbEntity
  8
1
  6
CONTINUOUS
 62
           7
100
AcDbLine
 10
189.23583192015
 20
278.972959621371
 11
189.92960785376
 21
279.371299870334
  0
LINE
  5
82
100
AcDbEntity
  8
1
  6
CONTINUOUS
 62
           7
100
AcDbLine
 10
189.23583192015
 20
278.972959621371
 11
189.92960785376
 21
279.371299870334
  0
LINE
  5
81
100
AcDbEntity
  8
1
  6
CONTINUOUS
 62
           7
100
AcDbLine
 10
192.73583192015
 20
278.972959621371
 11
193.42960785376
 21
279.371299870334
  0
LINE
  5
80
100
AcDbEntity
  8
1
  6
CONTINUOUS
 62
           7
100
AcDbLine
 10
192.73583192015
 20
278.972959621371
 11
193.42960785376
 21
279.371299870334
  0
LINE
  5
7F
100
AcDbEntity
  8
1
  6
CONTINUOUS
 62
           7
100
AcDbLine
 10
192.233757231353
 20
278.105739704358
 11
192.233757231353
 21
267.105739704358
  0
LINE
  5
7E
100
AcDbEntity
  8
1
  6
CONTINUOUS
 62
           7
100
AcDbLine
 10
193.433649637737
 20
265.272451201698
 11
194.202988000584
 21
264.951893550512
  0
LINE
  5
7D
100
AcDbEntity
  8
1
  6
CONTINUOUS
 62
           7
100
AcDbLine
 10
196.933649637737
 20
265.272451201698
 11
197.702988000584
 21
264.951893550512
  0
LINE
  5
7C
100
AcDbEntity
  8
1
  6
CONTINUOUS
 62
           7
100
AcDbLine
 10
195.733757231353
 20
278.105739704358
 11
195.733757231353
 21
267.105739704358
  0
LINE
  5
7B
100
AcDbEntity
  8
1
  6
CONTINUOUS
 62
           7
100
AcDbLine
 10
195.733757231353
 20
278.105739704358
 11
195.733757231353
 21
267.105739704358
  0
LINE
  5
7A
100
AcDbEntity
  8
1
  6
CONTINUOUS
 62
           7
100
AcDbLine
 10
196.23583192015
 20
278.972959621371
 11
196.92960785376
 21
279.371299870334
  0
LINE
  5
79
100
AcDbEntity
  8
1
  6
CONTINUOUS
 62
           7
100
AcDbLine
 10
196.23583192015
 20
278.972959621371
 11
196.92960785376
 21
279.371299870334
  0
LINE
  5
78
100
AcDbEntity
  8
1
  6
CONTINUOUS
 62
           7
100
AcDbLine
 10
207.966093840124
 20
308.905739704358
 11
222.901420622582
 21
308.905739704358
  0
LINE
  5
77
100
AcDbEntity
  8
1
  6
CONTINUOUS
 62
           7
100
AcDbLine
 10
219.933757231353
 20
295.905739704358
 11
219.933757231353
 21
290.605739704358
  0
LINE
  5
76
100
AcDbEntity
  8
1
  6
CONTINUOUS
 62
           7
100
AcDbLine
 10
210.933757231353
 20
295.905739704358
 11
210.933757231353
 21
290.605739704358
  0
LINE
  5
75
100
AcDbEntity
  8
1
  6
DOT_CENTER
 62
           2
100
AcDbLine
 10
215.433757231353
 20
311.985562549614
 11
215.433757231353
 21
272.63644976353
  0
LINE
  5
74
100
AcDbEntity
  8
1
  6
CONTINUOUS
 62
           7
100
AcDbLine
 10
210.933757231353
 20
290.605739704358
 11
211.533757231353
 21
289.81079473901
  0
LINE
  5
73
100
AcDbEntity
  8
1
  6
CONTINUOUS
 62
           7
100
AcDbLine
 10
219.933757231353
 20
290.605739704358
 11
219.333757231353
 21
289.81079473901
  0
LINE
  5
72
100
AcDbEntity
  8
1
  6
CONTINUOUS
 62
           7
100
AcDbLine
 10
219.333757231353
 20
289.105739704358
 11
219.333757231353
 21
289.81079473901
  0
LINE
  5
71
100
AcDbEntity
  8
1
  6
CONTINUOUS
 62
           7
100
AcDbLine
 10
211.533757231353
 20
289.81079473901
 11
211.533757231353
 21
289.105739704358
  0
LINE
  5
70
100
AcDbEntity
  8
1
  6
CONTINUOUS
 62
           7
100
AcDbLine
 10
219.933757231353
 20
290.605739704358
 11
210.933757231353
 21
290.605739704358
  0
LINE
  5
6F
100
AcDbEntity
  8
1
  6
CONTINUOUS
 62
           7
100
AcDbLine
 10
211.533757231353
 20
289.81079473901
 11
219.333757231353
 21
289.81079473901
  0
LINE
  5
6E
100
AcDbEntity
  8
1
  6
CONTINUOUS
 62
           2
100
AcDbLine
 10
199.433757231353
 20
254.545129822841
 11
226.176609400172
 21
254.545129822841
  0
LINE
  5
6D
100
AcDbEntity
  8
1
  6
CONTINUOUS
 62
           7
100
AcDbLine
 10
199.433757231353
 20
264.951893550512
 11
231.164526462122
 21
264.951893550512
  0
LINE
  5
6C
100
AcDbEntity
  8
1
  6
CONTINUOUS
 62
           7
100
AcDbLine
 10
201.937906608946
 20
279.371299870334
 11
202.631682542556
 21
278.972959621371
  0
LINE
  5
6B
100
AcDbEntity
  8
1
  6
CONTINUOUS
 62
           7
100
AcDbLine
 10
201.937906608946
 20
279.371299870334
 11
202.631682542556
 21
278.972959621371
  0
LINE
  5
6A
100
AcDbEntity
  8
1
  6
CONTINUOUS
 62
           7
100
AcDbLine
 10
203.133757231353
 20
267.105739704358
 11
203.133757231353
 21
278.105739704358
  0
LINE
  5
69
100
AcDbEntity
  8
1
  6
CONTINUOUS
 62
           7
100
AcDbLine
 10
203.133757231353
 20
267.105739704358
 11
203.133757231353
 21
278.105739704358
  0
LINE
  5
68
100
AcDbEntity
  8
1
  6
CONTINUOUS
 62
           7
100
AcDbLine
 10
201.164526462122
 20
264.951893550512
 11
201.933864824969
 21
265.272451201698
  0
LINE
  5
67
100
AcDbEntity
  8
1
  6
CONTINUOUS
 62
           7
100
AcDbLine
 10
204.664526462122
 20
264.951893550512
 11
205.433864824969
 21
265.272451201698
  0
LINE
  5
66
100
AcDbEntity
  8
1
  6
CONTINUOUS
 62
           7
100
AcDbLine
 10
206.633757231353
 20
267.105739704358
 11
206.633757231353
 21
278.105739704358
  0
LINE
  5
65
100
AcDbEntity
  8
1
  6
CONTINUOUS
 62
           7
100
AcDbLine
 10
205.437906608946
 20
279.371299870334
 11
206.131682542556
 21
278.972959621371
  0
LINE
  5
64
100
AcDbEntity
  8
1
  6
CONTINUOUS
 62
           7
100
AcDbLine
 10
205.437906608946
 20
279.371299870334
 11
206.131682542556
 21
278.972959621371
  0
LINE
  5
63
100
AcDbEntity
  8
1
  6
CONTINUOUS
 62
           7
100
AcDbLine
 10
208.937906608946
 20
279.371299870334
 11
209.631682542556
 21
278.972959621371
  0
LINE
  5
62
100
AcDbEntity
  8
1
  6
CONTINUOUS
 62
           7
100
AcDbLine
 10
208.937906608946
 20
279.371299870334
 11
209.631682542556
 21
278.972959621371
  0
LINE
  5
61
100
AcDbEntity
  8
1
  6
CONTINUOUS
 62
           7
100
AcDbLine
 10
210.133757231353
 20
267.105739704358
 11
210.133757231353
 21
278.105739704358
  0
LINE
  5
60
100
AcDbEntity
  8
1
  6
CONTINUOUS
 62
           7
100
AcDbLine
 10
208.164526462122
 20
264.951893550512
 11
208.933864824969
 21
265.272451201698
  0
LINE
  5
5F
100
AcDbEntity
  8
1
  6
CONTINUOUS
 62
           7
100
AcDbLine
 10
211.664526462122
 20
264.951893550512
 11
212.433864824969
 21
265.272451201698
  0
LINE
  5
5E
100
AcDbEntity
  8
1
  6
CONTINUOUS
 62
           7
100
AcDbLine
 10
213.633757231353
 20
267.105739704358
 11
213.633757231353
 21
278.105739704358
  0
LINE
  5
5D
100
AcDbEntity
  8
1
  6
CONTINUOUS
 62
           7
100
AcDbLine
 10
212.437906608946
 20
279.371299870334
 11
213.131682542556
 21
278.972959621371
  0
LINE
  5
5C
100
AcDbEntity
  8
1
  6
CONTINUOUS
 62
           7
100
AcDbLine
 10
212.437906608946
 20
279.371299870334
 11
213.131682542556
 21
278.972959621371
  0
LINE
  5
5B
100
AcDbEntity
  8
1
  6
CONTINUOUS
 62
           7
100
AcDbLine
 10
215.164526462122
 20
264.951893550512
 11
215.933864824969
 21
265.272451201698
  0
LINE
  5
5A
100
AcDbEntity
  8
1
  6
CONTINUOUS
 62
           7
100
AcDbLine
 10
217.133757231353
 20
267.105739704358
 11
217.133757231353
 21
278.105739704358
  0
LINE
  5
59
100
AcDbEntity
  8
1
  6
CONTINUOUS
 62
           7
100
AcDbLine
 10
215.937906608946
 20
279.371299870334
 11
216.631682542556
 21
278.972959621371
  0
LINE
  5
58
100
AcDbEntity
  8
1
  6
CONTINUOUS
 62
           7
100
AcDbLine
 10
215.937906608946
 20
279.371299870334
 11
216.631682542556
 21
278.972959621371
  0
LINE
  5
57
100
AcDbEntity
  8
1
  6
CONTINUOUS
 62
           7
100
AcDbLine
 10
217.664526462122
 20
264.951893550512
 11
218.433864824969
 21
265.272451201698
  0
LINE
  5
56
100
AcDbEntity
  8
1
  6
CONTINUOUS
 62
           7
100
AcDbLine
 10
219.633757231353
 20
267.105739704358
 11
219.633757231353
 21
278.105739704358
  0
LINE
  5
55
100
AcDbEntity
  8
1
  6
CONTINUOUS
 62
           7
100
AcDbLine
 10
218.437906608946
 20
279.371299870334
 11
219.131682542556
 21
278.972959621371
  0
LINE
  5
54
100
AcDbEntity
  8
1
  6
CONTINUOUS
 62
           7
100
AcDbLine
 10
218.437906608946
 20
279.371299870334
 11
219.131682542556
 21
278.972959621371
  0
LINE
  5
53
100
AcDbEntity
  8
1
  6
CONTINUOUS
 62
           7
100
AcDbLine
 10
220.937906608946
 20
279.371299870334
 11
221.631682542556
 21
278.972959621371
  0
LINE
  5
52
100
AcDbEntity
  8
1
  6
CONTINUOUS
 62
           7
100
AcDbLine
 10
220.937906608946
 20
279.371299870334
 11
221.631682542556
 21
278.972959621371
  0
LINE
  5
51
100
AcDbEntity
  8
1
  6
CONTINUOUS
 62
           7
100
AcDbLine
 10
222.133757231353
 20
267.105739704358
 11
222.133757231353
 21
278.105739704358
  0
LINE
  5
50
100
AcDbEntity
  8
1
  6
CONTINUOUS
 62
           7
100
AcDbLine
 10
220.164526462122
 20
264.951893550512
 11
220.933864824969
 21
265.272451201698
  0
LINE
  5
4F
100
AcDbEntity
  8
1
  6
CONTINUOUS
 62
           7
100
AcDbLine
 10
222.664526462122
 20
264.951893550512
 11
223.433864824969
 21
265.272451201698
  0
LINE
  5
4E
100
AcDbEntity
  8
1
  6
CONTINUOUS
 62
           7
100
AcDbLine
 10
224.633757231353
 20
267.105739704358
 11
224.633757231353
 21
278.105739704358
  0
LINE
  5
4D
100
AcDbEntity
  8
1
  6
CONTINUOUS
 62
           7
100
AcDbLine
 10
223.437906608946
 20
279.371299870334
 11
224.131682542556
 21
278.972959621371
  0
LINE
  5
4C
100
AcDbEntity
  8
1
  6
CONTINUOUS
 62
           7
100
AcDbLine
 10
223.437906608946
 20
279.371299870334
 11
224.131682542556
 21
278.972959621371
  0
LINE
  5
4B
100
AcDbEntity
  8
1
  6
CONTINUOUS
 62
           7
100
AcDbLine
 10
225.937906608946
 20
279.371299870334
 11
226.631682542556
 21
278.972959621371
  0
LINE
  5
4A
100
AcDbEntity
  8
1
  6
CONTINUOUS
 62
           7
100
AcDbLine
 10
225.937906608946
 20
279.371299870334
 11
226.631682542556
 21
278.972959621371
  0
LINE
  5
49
100
AcDbEntity
  8
1
  6
CONTINUOUS
 62
           7
100
AcDbLine
 10
227.133757231353
 20
267.105739704358
 11
227.133757231353
 21
278.105739704358
  0
LINE
  5
48
100
AcDbEntity
  8
1
  6
CONTINUOUS
 62
           7
100
AcDbLine
 10
225.164526462122
 20
264.951893550512
 11
225.933864824969
 21
265.272451201698
  0
LINE
  5
47
100
AcDbEntity
  8
1
  6
CONTINUOUS
 62
           7
100
AcDbLine
 10
226.664526462122
 20
264.951893550512
 11
227.433864824969
 21
265.272451201698
  0
LINE
  5
46
100
AcDbEntity
  8
1
  6
CONTINUOUS
 62
           7
100
AcDbLine
 10
228.633757231353
 20
267.105739704358
 11
228.633757231353
 21
278.105739704358
  0
LINE
  5
45
100
AcDbEntity
  8
1
  6
CONTINUOUS
 62
           7
100
AcDbLine
 10
227.437906608946
 20
279.371299870334
 11
228.131682542556
 21
278.972959621371
  0
LINE
  5
44
100
AcDbEntity
  8
1
  6
CONTINUOUS
 62
           7
100
AcDbLine
 10
227.437906608946
 20
279.371299870334
 11
228.131682542556
 21
278.972959621371
  0
LINE
  5
43
100
AcDbEntity
  8
1
  6
CONTINUOUS
 62
           7
100
AcDbLine
 10
228.164526462122
 20
264.951893550512
 11
228.933864824969
 21
265.272451201698
  0
LINE
  5
42
100
AcDbEntity
  8
1
  6
CONTINUOUS
 62
           7
100
AcDbLine
 10
230.133757231353
 20
267.105739704358
 11
230.133757231353
 21
278.105739704358
  0
LINE
  5
41
100
AcDbEntity
  8
1
  6
CONTINUOUS
 62
           7
100
AcDbLine
 10
228.937906608946
 20
279.371299870334
 11
229.631682542556
 21
278.972959621371
  0
LINE
  5
40
100
AcDbEntity
  8
1
  6
CONTINUOUS
 62
           7
100
AcDbLine
 10
228.937906608946
 20
279.371299870334
 11
229.631682542556
 21
278.972959621371
  0
LINE
  5
3F
100
AcDbEntity
  8
1
  6
CONTINUOUS
 62
           7
100
AcDbLine
 10
229.664526462122
 20
264.951893550512
 11
230.433864824969
 21
265.272451201698
  0
LINE
  5
3E
100
AcDbEntity
  8
1
  6
CONTINUOUS
 62
           7
100
AcDbLine
 10
231.633757231353
 20
267.105739704358
 11
231.633757231353
 21
278.105739704358
  0
LINE
  5
3D
100
AcDbEntity
  8
1
  6
CONTINUOUS
 62
           7
100
AcDbLine
 10
230.437906608946
 20
279.371299870334
 11
231.131682542556
 21
278.972959621371
  0
LINE
  5
3C
100
AcDbEntity
  8
1
  6
CONTINUOUS
 62
           7
100
AcDbLine
 10
230.437906608946
 20
279.371299870334
 11
231.131682542556
 21
278.972959621371
  0
LINE
  5
3B
100
AcDbEntity
  8
1
  6
CONTINUOUS
 62
           7
100
AcDbLine
 10
199.433757231353
 20
264.951893550512
 11
231.164526462122
 21
264.951893550512
  0
LINE
  5
3A
100
AcDbEntity
  8
1
  6
CONTINUOUS
 62
           7
100
AcDbLine
 10
199.433757231353
 20
279.371299870334
 11
231.937906608946
 21
279.371299870334
  0
LINE
  5
39
100
AcDbEntity
  8
1
  6
CONTINUOUS
 62
           7
100
AcDbLine
 10
199.433757231353
 20
262.605739704358
 11
228.558757231353
 21
262.605739704358
  0
LINE
  5
38
100
AcDbEntity
  8
1
  6
CONTINUOUS
 62
           7
100
AcDbLine
 10
228.558757231353
 20
262.605739704358
 11
229.799782635138
 21
262.605739704358
  0
LINE
  5
37
100
AcDbEntity
  8
1
  6
CONTINUOUS
 62
           7
100
AcDbLine
 10
231.937906608946
 20
279.371299870334
 11
232.631682542556
 21
278.972959621371
  0
LINE
  5
36
100
AcDbEntity
  8
1
  6
CONTINUOUS
 62
           7
100
AcDbLine
 10
231.937906608946
 20
279.371299870334
 11
232.631682542556
 21
278.972959621371
  0
LINE
  5
35
100
AcDbEntity
  8
1
  6
CONTINUOUS
 62
           7
100
AcDbLine
 10
230.133757231353
 20
280.705739704359
 11
231.733757231353
 21
279.505739704359
  0
LINE
  5
34
100
AcDbEntity
  8
1
  6
CONTINUOUS
 62
           7
100
AcDbLine
 10
224.433757231353
 20
281.105739704358
 11
199.433757231353
 21
281.105739704358
  0
LINE
  5
33
100
AcDbEntity
  8
1
  6
CONTINUOUS
 62
           7
100
AcDbLine
 10
224.433757231353
 20
281.105739704358
 11
228.933757231353
 21
281.105739704358
  0
LINE
  5
32
100
AcDbEntity
  8
1
  6
CONTINUOUS
 62
           7
100
AcDbLine
 10
231.164526462122
 20
264.951893550512
 11
231.933864824969
 21
265.272451201698
  0
LINE
  5
31
100
AcDbEntity
  8
1
  6
CONTINUOUS
 62
           7
100
AcDbLine
 10
233.133757231353
 20
278.105739704358
 11
233.133757231353
 21
267.105739704358
  0
LINE
  5
30
100
AcDbEntity
  8
1
  6
CONTINUOUS
 62
           7
100
AcDbLine
 10
207.018013869123
 20
295.905739704358
 11
223.849500593584
 21
295.905739704358
  0
LINE
  5
2F
100
AcDbEntity
  8
1
  6
CONTINUOUS
 62
           7
100
AcDbLine
 10
207.018013869123
 20
295.905739704358
 11
205.716093840124
 21
296.657403583564
  0
LINE
  5
2E
100
AcDbEntity
  8
1
  6
CONTINUOUS
 62
           7
100
AcDbLine
 10
205.716093840124
 20
308.154075825153
 11
207.018013869123
 21
308.905739704358
  0
LINE
  5
2D
100
AcDbEntity
  8
1
  6
CONTINUOUS
 62
           7
100
AcDbLine
 10
223.849500593584
 20
308.905739704358
 11
225.151420622582
 21
308.154075825153
  0
LINE
  5
2C
100
AcDbEntity
  8
1
  6
CONTINUOUS
 62
           7
100
AcDbLine
 10
225.151420622582
 20
296.657403583564
 11
223.849500593584
 21
295.905739704358
  0
LINE
  5
2B
100
AcDbEntity
  8
1
  6
CONTINUOUS
 62
           7
100
AcDbLine
 10
205.716093840124
 20
296.657403583564
 11
205.716093840124
 21
308.154075825153
  0
LINE
  5
2A
100
AcDbEntity
  8
1
  6
CONTINUOUS
 62
           7
100
AcDbLine
 10
225.151420622582
 20
308.154075825153
 11
225.151420622582
 21
296.657403583564
  0
LINE
  5
29
100
AcDbEntity
  8
1
  6
CONTINUOUS
 62
           7
100
AcDbLine
 10
210.574925535739
 20
296.657403583564
 11
210.574925535739
 21
308.154075825153
  0
LINE
  5
28
100
AcDbEntity
  8
1
  6
CONTINUOUS
 62
           7
100
AcDbLine
 10
220.292588926968
 20
296.657403583564
 11
220.292588926968
 21
308.154075825153
  0
ENDSEC
  0
SECTION
  2
OBJECTS
  0
DICTIONARY
  5
19
100
AcDbDictionary
  3
ACAD_GROUP
350
1A
  3
ACAD_MLINESTYLE
350
1B
  0
DICTIONARY
  5
1A
102
{ACAD_REACTORS
330
19
102
}
100
AcDbDictionary
  0
DICTIONARY
  5
1B
102
{ACAD_REACTORS
330
19
102
}
100
AcDbDictionary
  3
STANDARD
350
1C
  0
MLINESTYLE
  5
1C
102
{ACAD_REACTORS
330
1B
102
}
100
AcDbMlineStyle
  2
STANDARD
 70
           0
  3

 62
           0
 51
90.0
 52
90.0
 71
           2
 49
0.5
 62
         256
  6
BYLAYER
 49
-0.5
 62
         256
  6
BYLAYER
  0
ENDSEC
  0
EOF
