  0
SECTION
  2
HEADER
  9
$ACADVER
  1
AC1014
  9
$ACADMAINTVER
 70
           0
  9
$DWGCODEPAGE
  3
DOS932
  9
$INSBASE
 10
0.0
 20
0.0
 30
0.0
  9
$EXTMIN
 10
1.000000000000E+20
 20
1.000000000000E+20
 30
1.000000000000E+20
  9
$EXTMAX
 10
-1.000000000000E+20
 20
-1.000000000000E+20
 30
-1.000000000000E+20
  9
$LIMMIN
 10
0.0
 20
0.0
  9
$LIMMAX
 10
0.0
 20
0.0
  9
$ORTHOMODE
 70
           0
  9
$REGENMODE
 70
           1
  9
$FILLMODE
 70
           1
  9
$QTEXTMODE
 70
           0
  9
$MIRRTEXT
 70
           1
  9
$DRAGMODE
 70
           2
  9
$LTSCALE
 40
1.0
  9
$OSMODE
 70
           0
  9
$ATTMODE
 70
           1
  9
$TEXTSIZE
 40
0.2
  9
$TRACEWID
 40
0.05
  9
$TEXTSTYLE
  7
STANDARD
  9
$CLAYER
  8
0
  9
$CELTYPE
  6
CONTINUOUS
  9
$CECOLOR
 62
         256
  9
$CELTSCALE
 40
1.0
  9
$DELOBJ
 70
           1
  9
$DISPSILH
 70
           0
  9
$DIMSCALE
 40
1.0
  9
$DIMASZ
 40
0.18
  9
$DIMEXO
 40
0.0625
  9
$DIMDLI
 40
0.38
  9
$DIMRND
 40
0.0
  9
$DIMDLE
 40
0.0
  9
$DIMEXE
 40
0.18
  9
$DIMTP
 40
0.0
  9
$DIMTM
 40
0.0
  9
$DIMTXT
 40
0.18
  9
$DIMCEN
 40
0.09
  9
$DIMTSZ
 40
0.0
  9
$DIMTOL
 70
           0
  9
$DIMLIM
 70
           0
  9
$DIMTIH
 70
           1
  9
$DIMTOH
 70
           1
  9
$DIMSE1
 70
           0
  9
$DIMSE2
 70
           0
  9
$DIMTAD
 70
           0
  9
$DIMZIN
 70
           0
  9
$DIMBLK
  1

  9
$DIMASO
 70
           1
  9
$DIMSHO
 70
           1
  9
$DIMPOST
  1

  9
$DIMAPOST
  1

  9
$DIMALT
 70
           0
  9
$DIMALTD
 70
           2
  9
$DIMALTF
 40
25.4
  9
$DIMLFAC
 40
1.0
  9
$DIMTOFL
 70
           0
  9
$DIMTVP
 40
0.0
  9
$DIMTIX
 70
           0
  9
$DIMSOXD
 70
           0
  9
$DIMSAH
 70
           0
  9
$DIMBLK1
  1

  9
$DIMBLK2
  1

  9
$DIMSTYLE
  2
STANDARD
  9
$DIMCLRD
 70
           0
  9
$DIMCLRE
 70
           0
  9
$DIMCLRT
 70
           0
  9
$DIMTFAC
 40
1.0
  9
$DIMGAP
 40
0.09
  9
$DIMJUST
 70
           0
  9
$DIMSD1
 70
           0
  9
$DIMSD2
 70
           0
  9
$DIMTOLJ
 70
           1
  9
$DIMTZIN
 70
           0
  9
$DIMALTZ
 70
           0
  9
$DIMALTTZ
 70
           0
  9
$DIMFIT
 70
           3
  9
$DIMUPT
 70
           0
  9
$DIMUNIT
 70
           2
  9
$DIMDEC
 70
           4
  9
$DIMTDEC
 70
           4
  9
$DIMALTU
 70
           2
  9
$DIMALTTD
 70
           2
  9
$DIMTXSTY
  7
STANDARD
  9
$DIMAUNIT
 70
           0
  9
$LUNITS
 70
           2
  9
$LUPREC
 70
           4
  9
$SKETCHINC
 40
0.1
  9
$FILLETRAD
 40
0.0
  9
$AUNITS
 70
           0
  9
$AUPREC
 70
           0
  9
$MENU
  1
acad
  9
$ELEVATION
 40
0.0
  9
$PELEVATION
 40
0.0
  9
$THICKNESS
 40
0.0
  9
$LIMCHECK
 70
           0
  9
$BLIPMODE
 70
           1
  9
$CHAMFERA
 40
0.0
  9
$CHAMFERB
 40
0.0
  9
$CHAMFERC
 40
0.0
  9
$CHAMFERD
 40
0.0
  9
$SKPOLY
 70
           0
  9
$TDCREATE
 40
0.000000000
  9
$TDUPDATE
 40
0.000000000
  9
$TDINDWG
 40
0.0000000000
  9
$TDUSRTIMER
 40
0.0000000000
  9
$USRTIMER
 70
           1
  9
$ANGBASE
 50
0.0
  9
$ANGDIR
 70
           0
  9
$PDMODE
 70
           0
  9
$PDSIZE
 40
0.0
  9
$PLINEWID
 40
0.0
  9
$COORDS
 70
           0
  9
$SPLFRAME
 70
           0
  9
$SPLINETYPE
 70
           6
  9
$SPLINESEGS
 70
           8
  9
$ATTDIA
 70
           0
  9
$ATTREQ
 70
           1
  9
$HANDLING
 70
           1
  9
$HANDSEED
  5
474
  9
$SURFTAB1
 70
           6
  9
$SURFTAB2
 70
           6
  9
$SURFTYPE
 70
           6
  9
$SURFU
 70
           6
  9
$SURFV
 70
           6
  9
$UCSNAME
  2

  9
$UCSORG
 10
0.0
 20
0.0
 30
0.0
  9
$UCSXDIR
 10
1.0
 20
0.0
 30
0.0
  9
$UCSYDIR
 10
0.0
 20
1.0
 30
0.0
  9
$PUCSNAME
  2

  9
$PUCSORG
 10
0.0
 20
0.0
 30
0.0
  9
$PUCSXDIR
 10
1.0
 20
0.0
 30
0.0
  9
$PUCSYDIR
 10
0.0
 20
1.0
 30
0.0
  9
$USERI1
 70
           0
  9
$USERI2
 70
           0
  9
$USERI3
 70
           0
  9
$USERI4
 70
           0
  9
$USERI5
 70
           0
  9
$USERR1
 40
0.0
  9
$USERR2
 40
0.0
  9
$USERR3
 40
0.0
  9
$USERR4
 40
0.0
  9
$USERR5
 40
0.0
  9
$WORLDVIEW
 70
           1
  9
$SHADEDGE
 70
           3
  9
$SHADEDIF
 70
          70
  9
$TILEMODE
 70
           1
  9
$MAXACTVP
 70
          16
  9
$PINSBASE
 10
0.0
 20
0.0
 30
0.0
  9
$PLIMCHECK
 70
           0
  9
$PEXTMIN
 10
1.000000000000E+20
 20
1.000000000000E+20
 30
1.000000000000E+20
  9
$PEXTMAX
 10
-1.000000000000E+20
 20
-1.000000000000E+20
 30
-1.000000000000E+20
  9
$PLIMMIN
 10
0.0
 20
0.0
  9
$PLIMMAX
 10
12.0
 20
9.0
  9
$UNITMODE
 70
           0
  9
$VISRETAIN
 70
           0
  9
$PLINEGEN
 70
           1
  9
$PSLTSCALE
 70
           0
  9
$TREEDEPTH
 70
        3020
  9
$PICKSTYLE
 70
           1
  9
$CMLSTYLE
  2
STANDARD
  9
$CMLJUST
 70
           0
  9
$CMLSCALE
 40
1.0
  9
$PROXYGRAPHICS
 70
           0
  9
$MEASUREMENT
 70
           0
  0
ENDSEC
  0
SECTION
  2
CLASSES
  0
CLASS
  1
LWPOLYLINE
  2
AcDbPolyline
  3
"AutoCAD"
 90
        0
280
           0
281
           1
  0
CLASS
  1
IMAGE
  2
AcDbRasterImage
  3
ISM
 90
      127
280
           0
281
           1
  0
CLASS
  1
OLE2FRAME
  2
AcDbOle2Frame
  3
""
 90
        0
280
           0
281
           1
  0
CLASS
  1
HATCH
  2
AcDbHatch
  3
"ACAD_SEDONA"
 90
        0
280
           0
281
           1
  0
CLASS
  1
DICTIONARYVAR
  2
AcDbDictionaryVar
  3
"AutoCAD"
 90
        0
280
           0
281
           0
  0
CLASS
  1
RASTERVARIABLES
  2
AcDbRasterVariables
  3
ISM
 90
        0
280
           0
281
           0
  0
CLASS
  1
IMAGEDEF
  2
AcDbRasterImageDef
  3
ISM
 90
        0
280
           0
281
           0
  0
CLASS
  1
IMAGEDEF_REACTOR
  2
AcDbRasterImageDefReactor
  3
ISM
 90
        1
280
           0
281
           0
  0
CLASS
  1
IDBUFFER
  2
AcDbIdBuffer
  3
"Acad"
 90
        0
280
           0
281
           0
  0
CLASS
  1
SPATIAL_FILTER
  2
AcDbSpatialFilter
  3
"Acad"
 90
        0
280
           0
281
           0
  0
CLASS
  1
XRECORD
  2
AcDbXrecord
  3
"<Built In>"
 90
        0
280
           0
281
           0
  0
CLASS
  1
SORTENTSTABLE
  2
AcDbSortentsTable
  3
"AutoCAD"
 90
        0
280
           0
281
           0
  0
CLASS
  1
LAYER_INDEX
  2
AcDbLayerIndex
  3
"Acad"
 90
        0
280
           0
281
           0
  0
CLASS
  1
SPATIAL_INDEX
  2
AcDbSpatialIndex
  3
"Acad"
 90
        0
280
           0
281
           0
  0
CLASS
  1
OBJECT_PTR
  2
CAseDLPNTableRecord
  3
"ASE-LPNTableRecord"
 90
        1
280
           0
281
           0
  0
CLASS
  1
LAYOUT
  2
AcDbLayout
  3
"AutoCAD 2000"
 90
        1
280
           0
281
           0
  0
CLASS
  1
PLOTSETTINGS
  2
AcDbPlotSettings
  3
"AutoCAD 2000"
 90
        1
280
           0
281
           0
  0
CLASS
  1
ACDBDICTIONARYWDFLT
  2
AcDbDictionaryWithDefault
  3
"AutoCAD 2000"
 90
        1
280
           0
281
           0
  0
CLASS
  1
ACDBPLACEHOLDER
  2
AcDbPlaceHolder
  3
"AutoCAD 2000"
 90
        1
280
           0
281
           0
  0
CLASS
  1
VBA_PROJECT
  2
AcDbVbaProject
  3
"acadvba"
 90
        1
280
           0
281
           0
  0
CLASS
  1
WIPEOUT
  2
AcDbWipeout
  3
WipeOut|AutoCAD Express Tool|expresstools@autodesk.com
 90
      127
280
           0
281
           1
  0
CLASS
  1
WIPEOUTVARIABLES
  2
AcDbWipeoutVariables
  3
WipeOut|AutoCAD Express Tool|expresstools@autodesk.com
 90
        0
280
           0
281
           0
  0
CLASS
  1
RTEXT
  2
RText
  3
RText|AutoCAD Express Tool|expresstools@autodesk.com
 90
        0
280
           0
281
           1
  0
CLASS
  1
ARCALIGNEDTEXT
  2
AcDbArcAlignedText
  3
ATEXT|AutoCAD Express Tool|expresstools@autodesk.com
 90
        0
280
           0
281
           1
  0
ENDSEC
  0
SECTION
  2
TABLES
  0
TABLE
  2
VPORT
  5
7
100
AcDbSymbolTable
 70
           1
  0
VPORT
  5
15
100
AcDbSymbolTableRecord
100
AcDbViewportTableRecord
  2
*ACTIVE
 70
           0
 10
0.0
 20
0.0
 11
1.0
 21
1.0
 12
6.591288
 22
4.579184
 13
0.0
 23
0.0
 14
1.0
 24
1.0
 15
0.0
 25
0.0
 16
0.0
 26
0.0
 36
1.0
 17
0.0
 27
0.0
 37
0.0
 40
9.158369
 41
0.688564
 42
50.0
 43
0.0
 44
0.0
 50
0.0
 51
0.0
 71
           0
 72
         100
 73
           1
 74
           1
 75
           0
 76
           0
 77
           0
 78
           0
  0
ENDTAB
  0
TABLE
  2
LTYPE
  5
4
100
AcDbSymbolTable
 70
          10
  0
LTYPE
  5
11
100
AcDbSymbolTableRecord
100
AcDbLinetypeTableRecord
  2
BYBLOCK
 70
          64
  3

 72
          65
 73
           0
 40
0.0
  0
LTYPE
  5
12
100
AcDbSymbolTableRecord
100
AcDbLinetypeTableRecord
  2
BYLAYER
 70
          64
  3

 72
          65
 73
           0
 40
0.0
  0
LTYPE
  5
13
100
AcDbSymbolTableRecord
100
AcDbLinetypeTableRecord
  2
CONTINUOUS
 70
          64
  3
Solid line
 72
          65
 73
           0
 40
0.0
  0
LTYPE
  5
1D
100
AcDbSymbolTableRecord
100
AcDbLinetypeTableRecord
  2
DASHED
 70
          64
  3
Dashed
 72
          65
 73
           2
 40
15.0
 49
12.0
 74
           0
 49
-3.0
 74
           0
  0
LTYPE
  5
1E
100
AcDbSymbolTableRecord
100
AcDbLinetypeTableRecord
  2
DOTTED
 70
          64
  3
Dotted
 72
          65
 73
           2
 40
3.5
 49
0.5
 74
           0
 49
-3.0
 74
           0
  0
LTYPE
  5
1F
100
AcDbSymbolTableRecord
100
AcDbLinetypeTableRecord
  2
DOT_CENTER
 70
          64
  3
Dot_Center
 72
          65
 73
           4
 40
2.0
 49
1.25
 74
           0
 49
-0.25
 74
           0
 49
0.25
 74
           0
 49
-0.25
 74
           0
  0
LTYPE
  5
20
100
AcDbSymbolTableRecord
100
AcDbLinetypeTableRecord
  2
LONG_DASHED
 70
          64
  3
Long_Dashed
 72
          65
 73
           2
 40
2.0
 49
1.5
 74
           0
 49
-0.5
 74
           0
  0
LTYPE
  5
21
100
AcDbSymbolTableRecord
100
AcDbLinetypeTableRecord
  2
DASH_CENTER
 70
          64
  3
Dash_Center
 72
          65
 73
           4
 40
36.0
 49
24.0
 74
           0
 49
-3.0
 74
           0
 49
6.0
 74
           0
 49
-3.0
 74
           0
  0
LTYPE
  5
22
100
AcDbSymbolTableRecord
100
AcDbLinetypeTableRecord
  2
PHANTOM
 70
          64
  3
Phantom
 72
          65
 73
           6
 40
2.5
 49
1.25
 74
           0
 49
-0.25
 74
           0
 49
0.25
 74
           0
 49
-0.25
 74
           0
 49
0.25
 74
           0
 49
-0.25
 74
           0
  0
LTYPE
  5
23
100
AcDbSymbolTableRecord
100
AcDbLinetypeTableRecord
  2
CENTER_DASH_DASH
 70
          64
  3
Center_Dash_Dash
 72
          65
 73
           6
 40
22.0
 49
12.0
 74
           0
 49
-3.0
 74
           0
 49
0.5
 74
           0
 49
-3.0
 74
           0
 49
0.5
 74
           0
 49
-3.0
 74
           0
  0
ENDTAB
  0
TABLE
  2
LAYER
  5
2
100
AcDbSymbolTable
 70
           3
  0
LAYER
  5
14
100
AcDbSymbolTableRecord
100
AcDbLayerTableRecord
  2
0
 70
           0
 62
           7
  6
CONTINUOUS
  0
LAYER
  5
24
100
AcDbSymbolTableRecord
100
AcDbLayerTableRecord
  2
976
 70
           0
 62
           7
  6
CONTINUOUS
  0
LAYER
  5
25
100
AcDbSymbolTableRecord
100
AcDbLayerTableRecord
  2
1
 70
           0
 62
           7
  6
CONTINUOUS
  0
ENDTAB
  0
TABLE
  2
STYLE
  5
3
100
AcDbSymbolTable
 70
           2
  0
STYLE
  5
17
100
AcDbSymbolTableRecord
100
AcDbTextStyleTableRecord
  2
STANDARD
 70
           0
 40
0.0
 41
1.0
 50
0.0
 71
           0
 42
0.0
  3
txt
  4

  0
STYLE
  5
457
100
AcDbSymbolTableRecord
100
AcDbTextStyleTableRecord
  2
CONVERTER_1
 70
           0
 40
0.0
 41
0.9
 50
0.0
 71
           0
 42
0.0
  3
txt.shx
  4

  0
ENDTAB
  0
TABLE
  2
VIEW
  5
5
100
AcDbSymbolTable
 70
           0
  0
ENDTAB
  0
TABLE
  2
UCS
  5
6
100
AcDbSymbolTable
 70
           0
  0
ENDTAB
  0
TABLE
  2
APPID
  5
8
100
AcDbSymbolTable
 70
           1
  0
APPID
  5
16
100
AcDbSymbolTableRecord
100
AcDbRegAppTableRecord
  2
ACAD
 70
           0
  0
ENDTAB
  0
TABLE
  2
DIMSTYLE
  5
9
100
AcDbSymbolTable
 70
           4
  0
DIMSTYLE
105
18
100
AcDbSymbolTableRecord
100
AcDbDimStyleTableRecord
  2
STANDARD
 70
           0
  3

  4

  5

  6

  7

 40
1.0
 41
0.18
 42
0.0625
 43
0.38
 44
0.18
 45
0.0
 46
0.0
 47
0.0
 48
0.0
 71
           0
 72
           0
 73
           1
 74
           1
 75
           0
 76
           0
 77
           0
 78
           0
140
0.18
141
0.09
142
0.0
143
25.4
144
1.0
145
0.0
146
1.0
147
0.09
170
           0
171
           2
172
           0
173
           0
174
           0
175
           0
176
           0
177
           0
178
           0
270
           2
271
           4
272
           4
273
           2
274
           2
275
           0
280
           0
281
           0
282
           0
283
           1
284
           0
285
           0
286
           0
287
           0
288
           0
340
17
  0
DIMSTYLE
105
45A
100
AcDbSymbolTableRecord
100
AcDbDimStyleTableRecord
  2
ME10_DIM_0
 70
           0
  3

  4

  5

  6

  7

 40
1.0
 41
2.8
 42
0.8
 43
0.38
 44
1.0
 45
0.0
 46
0.0
 47
0.0
 48
0.0
 71
           0
 72
           0
 73
           0
 74
           0
 75
           0
 76
           0
 77
           1
 78
           8
140
2.8
141
0.09
142
0.0
143
25.4
144
1.0
145
0.0
146
1.0
147
0.09
170
           0
171
           2
172
           0
173
           1
174
           0
175
           0
176
           2
177
           2
178
           2
270
           2
271
           3
272
           4
273
           2
274
           2
275
           0
280
           0
281
           0
282
           0
283
           1
284
           0
285
           0
286
           0
287
           3
288
           0
340
17
  0
DIMSTYLE
105
465
100
AcDbSymbolTableRecord
100
AcDbDimStyleTableRecord
  2
ME10_DIM_1
 70
           0
  3

  4

  5

  6

  7

 40
1.0
 41
2.8
 42
0.8
 43
0.38
 44
1.0
 45
0.0
 46
0.0
 47
0.0
 48
0.0
 71
           0
 72
           0
 73
           0
 74
           0
 75
           0
 76
           0
 77
           1
 78
           8
140
2.8
141
0.09
142
0.0
143
25.4
144
1.0
145
0.0
146
1.0
147
0.09
170
           0
171
           2
172
           0
173
           1
174
           0
175
           0
176
           2
177
           2
178
           2
270
           2
271
           0
272
           4
273
           2
274
           2
275
           0
280
           0
281
           0
282
           0
283
           1
284
           0
285
           0
286
           0
287
           3
288
           0
340
17
  0
DIMSTYLE
105
470
100
AcDbSymbolTableRecord
100
AcDbDimStyleTableRecord
  2
ME10_DIM_2
 70
           0
  3

  4

  5

  6

  7

 40
1.0
 41
2.8
 42
0.8
 43
0.38
 44
1.0
 45
0.0
 46
0.0
 47
0.0
 48
0.0
 71
           0
 72
           0
 73
           0
 74
           0
 75
           0
 76
           0
 77
           1
 78
           8
140
2.8
141
0.09
142
0.0
143
25.4
144
1.0
145
0.0
146
1.0
147
0.09
170
           0
171
           2
172
           0
173
           1
174
           0
175
           0
176
           2
177
           2
178
           2
270
           2
271
           0
272
           4
273
           2
274
           2
275
           0
280
           0
281
           0
282
           0
283
           1
284
           0
285
           0
286
           0
287
           3
288
           0
340
17
  0
ENDTAB
  0
TABLE
  2
BLOCK_RECORD
  5
1
100
AcDbSymbolTable
 70
           3
  0
BLOCK_RECORD
  5
A
100
AcDbSymbolTableRecord
100
AcDbBlockTableRecord
  2
*MODEL_SPACE
  0
BLOCK_RECORD
  5
B
100
AcDbSymbolTableRecord
100
AcDbBlockTableRecord
  2
*PAPER_SPACE
  0
BLOCK_RECORD
  5
450
100
AcDbSymbolTableRecord
100
AcDbBlockTableRecord
  2
*D0
  0
BLOCK_RECORD
  5
45C
100
AcDbSymbolTableRecord
100
AcDbBlockTableRecord
  2
*D1
  0
BLOCK_RECORD
  5
467
100
AcDbSymbolTableRecord
100
AcDbBlockTableRecord
  2
*D2
  0
ENDTAB
  0
ENDSEC
  0
SECTION
  2
BLOCKS
  0
BLOCK
  5
D
100
AcDbEntity
  8
0
100
AcDbBlockBegin
  2
*MODEL_SPACE
 70
           0
 10
0.0
 20
0.0
 30
0.0
  3
*MODEL_SPACE
  1

  0
ENDBLK
  5
E
100
AcDbEntity
  8
0
100
AcDbBlockEnd
  0
BLOCK
  5
F
100
AcDbEntity
 67
           1
  8
0
100
AcDbBlockBegin
  2
*PAPER_SPACE
 70
           0
 10
0.0
 20
0.0
 30
0.0
  3
*PAPER_SPACE
  1

  0
ENDBLK
  5
10
100
AcDbEntity
 67
           1
  8
0
100
AcDbBlockEnd
  0
BLOCK
  5
451
100
AcDbEntity
  8
0
100
AcDbBlockBegin
  2
*D0
 70
           1
 10
0.0
 20
0.0
 30
0.0
  3
*D0
  1

  0
LINE
  5
452
100
AcDbEntity
  8
0
  6
CONTINUOUS
 62
           2
100
AcDbLine
 10
-71.593738353786
 20
196.063347059312
 11
117.406261646214
 21
196.063347059312
  0
LINE
  5
453
100
AcDbEntity
  8
0
  6
CONTINUOUS
 62
           2
100
AcDbLine
 10
117.406261646214
 20
106.389781682405
 11
117.406261646214
 21
197.063347059312
  0
LINE
  5
454
100
AcDbEntity
  8
0
  6
CONTINUOUS
 62
           2
100
AcDbLine
 10
-71.593738353786
 20
106.389781682405
 11
-71.593738353786
 21
197.063347059312
  0
SOLID
  5
455
100
AcDbEntity
  8
0
 62
           2
100
AcDbTrace
 10
114.606261646214
 20
195.694720066067
 11
114.606261646214
 21
196.431974052557
 12
117.406261646214
 22
196.063347059312
 13
117.406261646214
 23
196.063347059312
  0
SOLID
  5
456
100
AcDbEntity
  8
0
 62
           2
100
AcDbTrace
 10
-68.793738353786
 20
196.431974052557
 11
-68.793738353786
 21
195.694720066067
 12
-71.593738353786
 22
196.063347059312
 13
-71.593738353786
 23
196.063347059312
  0
TEXT
  5
458
100
AcDbEntity
  8
0
 62
           2
100
AcDbText
 10
13.730208764886
 20
197.063347059312
 40
2.8
  1
189
 41
0.9
  7
CONVERTER_1
100
AcDbText
  0
ENDBLK
  5
459
100
AcDbEntity
  8
0
100
AcDbBlockEnd
  0
BLOCK
  5
45D
100
AcDbEntity
  8
0
100
AcDbBlockBegin
  2
*D1
 70
           1
 10
0.0
 20
0.0
 30
0.0
  3
*D1
  1

  0
LINE
  5
45E
100
AcDbEntity
  8
0
  6
CONTINUOUS
 62
           2
100
AcDbLine
 10
-92.794089765757
 20
34.596824285209
 11
-92.794089765757
 21
176.5827390796
  0
LINE
  5
45F
100
AcDbEntity
  8
0
  6
CONTINUOUS
 62
           2
100
AcDbLine
 10
-4.393738353786
 20
176.5827390796
 11
-93.794089765757
 21
176.5827390796
  0
LINE
  5
460
100
AcDbEntity
  8
0
  6
CONTINUOUS
 62
           2
100
AcDbLine
 10
-4.393738353786
 20
34.596824285209
 11
-93.794089765757
 21
34.596824285209
  0
SOLID
  5
461
100
AcDbEntity
  8
0
 62
           2
100
AcDbTrace
 10
-92.425462772512
 20
173.7827390796
 11
-93.162716759002
 21
173.7827390796
 12
-92.794089765757
 22
176.5827390796
 13
-92.794089765757
 23
176.5827390796
  0
SOLID
  5
462
100
AcDbEntity
  8
0
 62
           2
100
AcDbTrace
 10
-93.162716759002
 20
37.396824285209
 11
-92.425462772512
 21
37.396824285209
 12
-92.794089765757
 22
34.596824285209
 13
-92.794089765757
 23
34.596824285209
  0
MTEXT
  5
463
100
AcDbEntity
  8
0
 62
           2
100
AcDbMText
 10
-93.794089765757
 20
101.584071921683
 30
0.0
 40
2.8
 41
0.0
 71
           7
 72
           1
  1
142
  7
CONVERTER_1
 11
0.0
 21
1.0
 31
0.0
  0
ENDBLK
  5
464
100
AcDbEntity
  8
0
100
AcDbBlockEnd
  0
BLOCK
  5
468
100
AcDbEntity
  8
0
100
AcDbBlockBegin
  2
*D2
 70
           1
 10
0.0
 20
0.0
 30
0.0
  3
*D2
  1

  0
LINE
  5
469
100
AcDbEntity
  8
0
  6
CONTINUOUS
 62
           2
100
AcDbLine
 10
-343.191307467611
 20
-277.47627471263
 11
-343.191307467611
 21
-14.838846372149
  0
LINE
  5
46A
100
AcDbEntity
  8
0
  6
CONTINUOUS
 62
           2
100
AcDbLine
 10
-258.461892626739
 20
-14.838846372149
 11
-344.191307467611
 21
-14.838846372149
  0
LINE
  5
46B
100
AcDbEntity
  8
0
  6
CONTINUOUS
 62
           2
100
AcDbLine
 10
-257.211892626739
 20
-277.47627471263
 11
-344.191307467611
 21
-277.47627471263
  0
SOLID
  5
46C
100
AcDbEntity
  8
0
 62
           2
100
AcDbTrace
 10
-343.559934460856
 20
-274.67627471263
 11
-342.822680474366
 21
-274.67627471263
 12
-343.191307467611
 22
-277.47627471263
 13
-343.191307467611
 23
-277.47627471263
  0
SOLID
  5
46D
100
AcDbEntity
  8
0
 62
           2
100
AcDbTrace
 10
-342.822680474366
 20
-17.638846372149
 11
-343.559934460856
 21
-17.638846372149
 12
-343.191307467611
 22
-14.838846372149
 13
-343.191307467611
 23
-14.838846372149
  0
MTEXT
  5
46E
100
AcDbEntity
  8
0
 62
           2
100
AcDbMText
 10
-344.191307467611
 20
-153.266061826501
 30
0.0
 40
2.8
 41
0.0
 71
           7
 72
           1
  1
263
  7
CONVERTER_1
 11
0.0
 21
1.0
 31
0.0
  0
ENDBLK
  5
46F
100
AcDbEntity
  8
0
100
AcDbBlockEnd
  0
ENDSEC
  0
SECTION
  2
ENTITIES
  0
HATCH
  5
472
100
AcDbEntity
  8
0
  6
CONTINUOUS
 62
           7
100
AcDbHatch
 10
0.0
 20
0.0
 30
0.0
210
0.0
220
0.0
230
1.0
  2
USER
 70
           0
 71
           1
 91
        1
 92
        1
 93
        4
 72
           1
 10
73.90626164621392
 20
-41.338846372149042
 11
73.90626164621392
 21
-37.338846372148979
 72
           1
 10
84.906261646213579
 20
-41.338846372149042
 11
73.90626164621392
 21
-41.338846372149042
 72
           1
 10
84.906261646213579
 20
-37.338846372148979
 11
84.906261646213579
 21
-41.338846372149042
 72
           1
 10
73.90626164621392
 20
-37.338846372148979
 11
84.906261646213579
 21
-37.338846372148979
 97
        4
330
124
330
121
330
122
330
123
 75
           1
 76
           0
 52
90.0
 41
1.0
 77
           0
 78
           1
 53
90.0
 43
0.0
 44
0.0
 45
-1.0
 46
-0.0000000000000004
 79
           0
 98
        1
 10
0.0
 20
0.0
  0
DIMENSION
  5
471
100
AcDbEntity
  8
0
100
AcDbDimension
  2
*D2
 10
-343.191307467611
 20
-277.47627471263
 11
-345.591307467611
 21
-149.906061826501
 31
0.0
 53
90.0
  1
<>
  3
ME10_DIM_2
100
AcDbAlignedDimension
 13
-257.661892626739
 23
-14.838846372149
 14
-256.411892626739
 24
-277.476274712631
 50
90.0
100
AcDbRotatedDimension
  0
DIMENSION
  5
466
100
AcDbEntity
  8
0
100
AcDbDimension
  2
*D1
 10
-92.794089765757
 20
176.5827390796
 11
-95.194089765757
 21
104.524071921683
 31
0.0
 70
           1
  1
<>
  3
ME10_DIM_1
100
AcDbAlignedDimension
 13
-3.593738353786
 23
34.596824285209
 14
-3.593738353786
 24
176.5827390796
  0
DIMENSION
  5
45B
100
AcDbEntity
  8
0
100
AcDbDimension
  2
*D0
 10
117.406261646214
 20
196.063347059312
 11
16.670208764886
 21
198.463347059312
 31
0.0
  1
<>
  3
ME10_DIM_0
100
AcDbAlignedDimension
 13
-71.593738353786
 23
105.589781682405
 14
117.406261646214
 24
105.589781682405
100
AcDbRotatedDimension
  0
ARC
  5
44F
100
AcDbEntity
  8
1
  6
CONTINUOUS
 62
           7
100
AcDbCircle
 10
4.606261646214
 20
-15.838846372149
 40
1.0
100
AcDbArc
 50
29.999999999976
 51
90.0
  0
ARC
  5
44E
100
AcDbEntity
  8
1
  6
CONTINUOUS
 62
           7
100
AcDbCircle
 10
1.206261646214
 20
-15.838846372149
 40
1.0
100
AcDbArc
 50
90.0
 51
150.000000000014
  0
ARC
  5
44D
100
AcDbEntity
  8
1
  6
CONTINUOUS
 62
           7
100
AcDbCircle
 10
55.428707868397
 20
-5.431401714895
 40
10.0
100
AcDbArc
 50
-105.510494528317
 51
-92.835641964528
  0
ARC
  5
44C
100
AcDbEntity
  8
1
  6
CONTINUOUS
 62
           7
100
AcDbCircle
 10
41.403246559567
 20
-4.945585071819
 40
10.0
100
AcDbArc
 50
-91.1320163359
 51
-78.457163772109
  0
ARC
  5
44B
100
AcDbEntity
  8
1
  6
CONTINUOUS
 62
           7
100
AcDbCircle
 10
66.106261646214
 20
-34.838846372149
 40
3.0
100
AcDbArc
 50
90.0
 51
180.0
  0
ARC
  5
44A
100
AcDbEntity
  8
1
  6
CONTINUOUS
 62
           7
100
AcDbCircle
 10
68.706261646214
 20
-34.838846372149
 40
3.0
100
AcDbArc
 50
0.0
 51
90.0
  0
ARC
  5
449
100
AcDbEntity
  8
1
  6
CONTINUOUS
 62
           7
100
AcDbCircle
 10
-236.189877294435
 20
-271.729761807323
 40
0.6
100
AcDbArc
 50
-45.000000000013
 51
16.577119155555
  0
ARC
  5
448
100
AcDbEntity
  8
1
  6
CONTINUOUS
 62
           7
100
AcDbCircle
 10
-244.828831222955
 20
-280.368715735843
 40
0.6
100
AcDbArc
 50
-106.577119155533
 51
-44.999999999958
  0
ARC
  5
447
100
AcDbEntity
  8
1
  6
CONTINUOUS
 62
           7
100
AcDbCircle
 10
-244.424952656379
 20
-280.772594302419
 40
0.6
100
AcDbArc
 50
135.000000000013
 51
-134.999999999982
  0
ARC
  5
446
100
AcDbEntity
  8
1
  6
CONTINUOUS
 62
           7
100
AcDbCircle
 10
-235.785998727858
 20
-272.133640373899
 40
0.6
100
AcDbArc
 50
45.000000000025
 51
134.999999999988
  0
ARC
  5
445
100
AcDbEntity
  8
1
  6
CONTINUOUS
 62
           7
100
AcDbCircle
 10
-236.896984075621
 20
-273.285396725933
 40
2.2
100
AcDbArc
 50
-45.0
 51
44.999999999996
  0
ARC
  5
444
100
AcDbEntity
  8
1
  6
CONTINUOUS
 62
           7
100
AcDbCircle
 10
-243.273196304345
 20
-279.661608954656
 40
2.2
100
AcDbArc
 50
-135.0
 51
-45.0
  0
ARC
  5
443
100
AcDbEntity
  8
1
  6
CONTINUOUS
 62
           7
100
AcDbCircle
 10
-247.411892626739
 20
-22.225693552607
 40
2.5
100
AcDbArc
 50
0.0
 51
28.995365443391
  0
ARC
  5
442
100
AcDbEntity
  8
1
  6
CONTINUOUS
 62
           7
100
AcDbCircle
 10
9.745638654782
 20
101.589781682405
 40
10.0
100
AcDbArc
 50
76.759480084813
 51
90.0
  0
ARC
  5
441
100
AcDbEntity
  8
1
  6
CONTINUOUS
 62
           7
100
AcDbCircle
 10
9.745638654782
 20
109.589781682405
 40
10.0
100
AcDbArc
 50
-90.0
 51
-76.759480084813
  0
ARC
  5
440
100
AcDbEntity
  8
1
  6
CONTINUOUS
 62
           7
100
AcDbCircle
 10
21.147196133363
 20
86.589781682404
 40
15.0
100
AcDbArc
 50
90.0
 51
103.240519915187
  0
ARC
  5
43F
100
AcDbEntity
  8
1
  6
CONTINUOUS
 62
           7
100
AcDbCircle
 10
21.147196133363
 20
124.589781682405
 40
15.0
100
AcDbArc
 50
-103.240519915187
 51
-90.0
  0
ARC
  5
43E
100
AcDbEntity
  8
1
  6
CONTINUOUS
 62
           7
100
AcDbCircle
 10
8.006261646214
 20
105.589781682405
 40
1.4
100
AcDbArc
 50
0.0
 51
90.0
  0
ARC
  5
43D
100
AcDbEntity
  8
1
  6
CONTINUOUS
 62
           7
100
AcDbCircle
 10
8.006261646214
 20
105.589781682405
 40
1.4
100
AcDbArc
 50
-90.0
 51
0.0
  0
ARC
  5
43C
100
AcDbEntity
  8
1
  6
CONTINUOUS
 62
           7
100
AcDbCircle
 10
-252.911892626739
 20
-17.838846372149
 40
2.5
100
AcDbArc
 50
0.0
 51
90.0
  0
ARC
  5
43B
100
AcDbEntity
  8
1
  6
CONTINUOUS
 62
           7
100
AcDbCircle
 10
-252.911892626739
 20
-22.838846372149
 40
2.5
100
AcDbArc
 50
-90.0
 51
0.0
  0
ARC
  5
43A
100
AcDbEntity
  8
1
  6
CONTINUOUS
 62
           7
100
AcDbCircle
 10
-259.911892626739
 20
-22.838846372149
 40
2.5
100
AcDbArc
 50
180.0
 51
-90.0
  0
ARC
  5
439
100
AcDbEntity
  8
1
  6
CONTINUOUS
 62
           7
100
AcDbCircle
 10
-259.911892626739
 20
-17.838846372149
 40
2.5
100
AcDbArc
 50
90.0
 51
180.0
  0
ARC
  5
438
100
AcDbEntity
  8
1
  6
CONTINUOUS
 62
           7
100
AcDbCircle
 10
82.110253577633
 20
71.589781682404
 40
30.0
100
AcDbArc
 50
55.012494871291
 51
90.0
  0
ARC
  5
437
100
AcDbEntity
  8
1
  6
CONTINUOUS
 62
           7
100
AcDbCircle
 10
82.110253577633
 20
139.589781682404
 40
30.0
100
AcDbArc
 50
-90.0
 51
-55.012494871291
  0
ARC
  5
436
100
AcDbEntity
  8
1
  6
CONTINUOUS
 62
           7
100
AcDbCircle
 10
-265.411892626739
 20
-24.838846372149
 40
2.5
100
AcDbArc
 50
180.0
 51
-90.0
  0
ARC
  5
435
100
AcDbEntity
  8
1
  6
CONTINUOUS
 62
           7
100
AcDbCircle
 10
-265.411892626739
 20
-22.225693552607
 40
2.5
100
AcDbArc
 50
120.2811942894
 51
180.0
  0
ARC
  5
434
100
AcDbEntity
  8
1
  6
CONTINUOUS
 62
           7
100
AcDbCircle
 10
-247.411892626739
 20
-24.838846372149
 40
2.5
100
AcDbArc
 50
-90.0
 51
0.0
  0
ARC
  5
433
100
AcDbEntity
  8
1
  6
CONTINUOUS
 62
           7
100
AcDbCircle
 10
54.078419029762
 20
-288.052191313785
 40
9.087904324484
100
AcDbArc
 50
40.82439623286
 51
80.506474492137
  0
ARC
  5
432
100
AcDbEntity
  8
1
  6
CONTINUOUS
 62
           7
100
AcDbCircle
 10
57.968963036172
 20
-284.257842796967
 40
8.280522845162
100
AcDbArc
 50
-115.006844188776
 51
-75.3247659295
  0
ARC
  5
431
100
AcDbEntity
  8
1
  6
CONTINUOUS
 62
           7
100
AcDbCircle
 10
63.16426917184
 20
-296.205184372894
 40
5.0
100
AcDbArc
 50
84.999999999997
 51
124.682078259272
  0
ARC
  5
430
100
AcDbEntity
  8
1
  6
CONTINUOUS
 62
           7
100
AcDbCircle
 10
64.689494669924
 20
-278.771777156288
 40
5.0
100
AcDbArc
 50
-134.682078259277
 51
-95.000000000003
  0
ARC
  5
42F
100
AcDbEntity
  8
976
  6
CONTINUOUS
 62
           7
100
AcDbCircle
 10
-18.311350173723
 20
-246.338846372148
 40
1.0
100
AcDbArc
 50
90.0
 51
175.000000000021
  0
ARC
  5
42E
100
AcDbEntity
  8
976
  6
CONTINUOUS
 62
           7
100
AcDbCircle
 10
12.377368110778
 20
-271.581117087356
 40
3.0
100
AcDbArc
 50
84.999999999989
 51
147.282252310396
  0
ARC
  5
42D
100
AcDbEntity
  8
976
  6
CONTINUOUS
 62
           7
100
AcDbCircle
 10
14.603329097875
 20
-254.710926200941
 40
3.0
100
AcDbArc
 50
180.0
 51
-95.000000000006
  0
ARC
  5
42C
100
AcDbEntity
  8
1
  6
CONTINUOUS
 62
           7
100
AcDbCircle
 10
14.518985448429
 20
-273.776124001098
 40
5.0
100
AcDbArc
 50
84.999999999997
 51
145.326985197525
  0
ARC
  5
42B
100
AcDbEntity
  8
1
  6
CONTINUOUS
 62
           7
100
AcDbCircle
 10
18.406261646214
 20
-33.338846372149
 40
2.0
100
AcDbArc
 50
180.0
 51
-90.0
  0
ARC
  5
42A
100
AcDbEntity
  8
1
  6
CONTINUOUS
 62
           7
100
AcDbCircle
 10
35.683775595194
 20
-22.338846372149
 40
5.0
100
AcDbArc
 50
-90.0
 51
-26.000000000003
  0
ARC
  5
429
100
AcDbEntity
  8
1
  6
CONTINUOUS
 62
           7
100
AcDbCircle
 10
61.156000350032
 20
-33.338846372149
 40
1.999999999999
100
AcDbArc
 50
-154.000000000003
 51
-90.0
  0
ARC
  5
428
100
AcDbEntity
  8
1
  6
CONTINUOUS
 62
           7
100
AcDbCircle
 10
49.526740522987
 20
-16.338846372149
 40
1.0
100
AcDbArc
 50
25.999999999982
 51
90.0
  0
ARC
  5
427
100
AcDbEntity
  8
1
  6
CONTINUOUS
 62
           7
100
AcDbCircle
 10
45.28578276944
 20
-16.338846372149
 40
1.0
100
AcDbArc
 50
90.0
 51
154.000000000012
  0
ARC
  5
426
100
AcDbEntity
  8
1
  6
CONTINUOUS
 62
           7
100
AcDbCircle
 10
86.406261646214
 20
-48.338846372149
 40
2.0
100
AcDbArc
 50
-179.999999999992
 51
-97.180755781457
  0
ARC
  5
425
100
AcDbEntity
  8
1
  6
CONTINUOUS
 62
           7
100
AcDbCircle
 10
81.406261646214
 20
-148.951220093616
 40
8.0
100
AcDbArc
 50
-44.49703551294
 51
0.0
  0
ARC
  5
424
100
AcDbEntity
  8
1
  6
CONTINUOUS
 62
           7
100
AcDbCircle
 10
94.562321375596
 20
-158.338846372149
 40
3.0
100
AcDbArc
 50
90.0
 51
137.156356956409
  0
ARC
  5
423
100
AcDbEntity
  8
1
  6
CONTINUOUS
 62
           7
100
AcDbCircle
 10
63.393767745789
 20
-203.251845760781
 40
25.0
100
AcDbArc
 50
107.533042802436
 51
142.888678111084
  0
ARC
  5
422
100
AcDbEntity
  8
1
  6
CONTINUOUS
 62
           7
100
AcDbCircle
 10
23.906261646214
 20
-227.266188934688
 40
8.0
100
AcDbArc
 50
143.506257400671
 51
180.0
  0
ARC
  5
421
100
AcDbEntity
  8
1
  6
CONTINUOUS
 62
           7
100
AcDbCircle
 10
-29.093738353786
 20
-227.266188934688
 40
8.0
100
AcDbArc
 50
0.0
 51
36.493742599328
  0
ARC
  5
420
100
AcDbEntity
  8
1
  6
CONTINUOUS
 62
           7
100
AcDbCircle
 10
108.406261646214
 20
-149.338846372149
 40
6.0
100
AcDbArc
 50
-90.0
 51
0.0
  0
ARC
  5
41F
100
AcDbEntity
  8
1
  6
CONTINUOUS
 62
           7
100
AcDbCircle
 10
62.508535409248
 20
-167.174005838146
 40
4.0
100
AcDbArc
 50
155.209638518717
 51
-64.836950119041
  0
ARC
  5
41E
100
AcDbEntity
  8
1
  6
CONTINUOUS
 62
           7
100
AcDbCircle
 10
86.406261646214
 20
-48.338846372149
 40
2.0
100
AcDbArc
 50
-97.180755781457
 51
-90.0
  0
ARC
  5
41D
100
AcDbEntity
  8
1
  6
CONTINUOUS
 62
           7
100
AcDbCircle
 10
-70.593738353786
 20
-42.193340270132
 40
1.0
100
AcDbArc
 50
0.0
 51
98.972626614913
  0
ARC
  5
41C
100
AcDbEntity
  8
1
  6
CONTINUOUS
 62
           7
100
AcDbCircle
 10
81.406261646214
 20
-68.338846372149
 40
8.0
100
AcDbArc
 50
0.0
 51
86.714435265008
  0
ARC
  5
41B
100
AcDbEntity
  8
1
  6
CONTINUOUS
 62
           7
100
AcDbCircle
 10
81.406261646214
 20
-68.338846372149
 40
8.0
100
AcDbArc
 50
86.714435265008
 51
90.0
  0
ARC
  5
41A
100
AcDbEntity
  8
1
  6
CONTINUOUS
 62
           7
100
AcDbCircle
 10
69.406261646214
 20
-65.338846372149
 40
5.0
100
AcDbArc
 50
90.0
 51
180.0
  0
ARC
  5
419
100
AcDbEntity
  8
1
  6
CONTINUOUS
 62
           7
100
AcDbCircle
 10
113.406261646214
 20
-51.338846372149
 40
1.0
100
AcDbArc
 50
0.0
 51
90.0
  0
ARC
  5
418
100
AcDbEntity
  8
1
  6
CONTINUOUS
 62
           7
100
AcDbCircle
 10
-7.593738353786
 20
-40.338846372149
 40
3.0
100
AcDbArc
 50
0.0
 51
90.0
  0
ARC
  5
417
100
AcDbEntity
  8
1
  6
CONTINUOUS
 62
           7
100
AcDbCircle
 10
15.406261646214
 20
-243.838846372149
 40
0.5
100
AcDbArc
 50
-90.0
 51
0.0
  0
ARC
  5
416
100
AcDbEntity
  8
1
  6
CONTINUOUS
 62
           7
100
AcDbCircle
 10
-20.593738353786
 20
-243.838846372149
 40
0.5
100
AcDbArc
 50
180.0
 51
-90.0
  0
ARC
  5
415
100
AcDbEntity
  8
1
  6
CONTINUOUS
 62
           7
100
AcDbCircle
 10
67.322846840872
 20
76.985786490926
 40
5.0
100
AcDbArc
 50
90.0
 51
129.682078259273
  0
ARC
  5
414
100
AcDbEntity
  8
1
  6
CONTINUOUS
 62
           7
100
AcDbCircle
 10
67.322846840872
 20
94.485786490926
 40
5.0
100
AcDbArc
 50
-98.670337656234
 51
-90.0
  0
ARC
  5
413
100
AcDbEntity
  8
1
  6
CONTINUOUS
 62
           7
100
AcDbCircle
 10
61.106030984646
 20
88.4348640601
 40
8.280522845162
100
AcDbArc
 50
-70.466298626591
 51
-70.324765929501
  0
ARC
  5
412
100
AcDbEntity
  8
1
  6
CONTINUOUS
 62
           7
100
AcDbCircle
 10
-264.779401478324
 20
-271.934883152231
 40
0.4
100
AcDbArc
 50
-121.313541721382
 51
-52.679561020173
  0
ARC
  5
411
100
AcDbEntity
  8
1
  6
CONTINUOUS
 62
           7
100
AcDbCircle
 10
-262.230500366975
 20
-273.191862076699
 40
0.4
100
AcDbArc
 50
178.872082190041
 51
-111.186458278628
  0
ARC
  5
410
100
AcDbEntity
  8
1
  6
CONTINUOUS
 62
           7
100
AcDbCircle
 10
-263.030420898404
 20
-273.185241803848
 40
0.4
100
AcDbArc
 50
0.179561020246
 51
66.19852835198
  0
ARC
  5
40F
100
AcDbEntity
  8
1
  6
CONTINUOUS
 62
           7
100
AcDbCircle
 10
-264.287188496938
 20
-272.565472611047
 40
0.4
100
AcDbArc
 50
61.301471648001
 51
128.627917809913
  0
ARC
  5
40E
100
AcDbEntity
  8
1
  6
CONTINUOUS
 62
           7
100
AcDbCircle
 10
-263.030420898404
 20
-274.755947824633
 40
0.4
100
AcDbArc
 50
0.179561020222
 51
66.198528351993
  0
ARC
  5
40D
100
AcDbEntity
  8
1
  6
CONTINUOUS
 62
           7
100
AcDbCircle
 10
-262.230500366975
 20
-274.762568097485
 40
0.4
100
AcDbArc
 50
178.872082190065
 51
-111.186458278605
  0
ARC
  5
40C
100
AcDbEntity
  8
1
  6
CONTINUOUS
 62
           7
100
AcDbCircle
 10
-263.030420898404
 20
-274.755947824633
 40
0.4
100
AcDbArc
 50
0.179561020222
 51
66.198528351993
  0
ARC
  5
40B
100
AcDbEntity
  8
1
  6
CONTINUOUS
 62
           7
100
AcDbCircle
 10
-264.287188496938
 20
-274.136178631832
 40
0.4
100
AcDbArc
 50
61.301471647991
 51
128.627917809897
  0
ARC
  5
40A
100
AcDbEntity
  8
1
  6
CONTINUOUS
 62
           7
100
AcDbCircle
 10
-264.779401478324
 20
-273.505589173016
 40
0.4
100
AcDbArc
 50
-121.313541721402
 51
-52.679561020209
  0
ARC
  5
409
100
AcDbEntity
  8
1
  6
CONTINUOUS
 62
           7
100
AcDbCircle
 10
-269.192771299508
 20
-268.456704031697
 40
0.4
100
AcDbArc
 50
38.801471648006
 51
106.127917809918
  0
ARC
  5
408
100
AcDbEntity
  8
1
  6
CONTINUOUS
 62
           7
100
AcDbCircle
 10
-268.268844840076
 20
-269.510240242099
 40
0.4
100
AcDbArc
 50
-22.32043897979
 51
43.698528351983
  0
ARC
  5
407
100
AcDbEntity
  8
1
  6
CONTINUOUS
 62
           7
100
AcDbCircle
 10
-267.53234810219
 20
-269.822472911273
 40
0.4
100
AcDbArc
 50
156.372082190064
 51
-133.686458278604
  0
ARC
  5
406
100
AcDbEntity
  8
1
  6
CONTINUOUS
 62
           7
100
AcDbCircle
 10
-269.406200660135
 20
-267.685753584108
 40
0.4
100
AcDbArc
 50
-143.813541721382
 51
-75.179561020172
  0
ARC
  5
405
100
AcDbEntity
  8
1
  6
CONTINUOUS
 62
           7
100
AcDbCircle
 10
-267.53234810219
 20
-271.393178932059
 40
0.4
100
AcDbArc
 50
180.0
 51
-133.686458278604
  0
ARC
  5
404
100
AcDbEntity
  8
1
  6
CONTINUOUS
 62
           7
100
AcDbCircle
 10
-268.268844840076
 20
-271.080946262885
 40
0.4
100
AcDbArc
 50
32.728511384285
 51
43.698528352008
  0
ARC
  5
403
100
AcDbEntity
  8
1
  6
CONTINUOUS
 62
           7
100
AcDbCircle
 10
-269.406200660135
 20
-269.256459604894
 40
0.4
100
AcDbArc
 50
-143.813541721367
 51
-75.17956102021
  0
ARC
  5
402
100
AcDbEntity
  8
1
  6
CONTINUOUS
 62
           7
100
AcDbCircle
 10
-269.192771299508
 20
-270.027410052483
 40
0.4
100
AcDbArc
 50
38.80147164801
 51
106.127917809918
  0
ARC
  5
401
100
AcDbEntity
  8
1
  6
CONTINUOUS
 62
           7
100
AcDbCircle
 10
-271.141207298448
 20
-266.251339955867
 40
0.4
100
AcDbArc
 50
180.0
 51
-156.186458278606
  0
ARC
  5
400
100
AcDbEntity
  8
1
  6
CONTINUOUS
 62
           7
100
AcDbCircle
 10
-272.152581183104
 20
-262.783411572772
 40
0.4
100
AcDbArc
 50
16.301471648001
 51
83.62791780993
  0
ARC
  5
3FF
100
AcDbEntity
  8
1
  6
CONTINUOUS
 62
           7
100
AcDbCircle
 10
-271.702155290806
 20
-264.11032346307
 40
0.4
100
AcDbArc
 50
-44.820438979785
 51
21.198528351973
  0
ARC
  5
3FE
100
AcDbEntity
  8
1
  6
CONTINUOUS
 62
           7
100
AcDbCircle
 10
-271.141207298448
 20
-264.680633935081
 40
0.4
100
AcDbArc
 50
133.872082190035
 51
-156.186458278617
  0
ARC
  5
3FD
100
AcDbEntity
  8
1
  6
CONTINUOUS
 62
           7
100
AcDbCircle
 10
-272.054734237557
 20
-261.989470353372
 40
0.4
100
AcDbArc
 50
-166.313541721395
 51
-97.679561020216
  0
ARC
  5
3FC
100
AcDbEntity
  8
1
  6
CONTINUOUS
 62
           7
100
AcDbCircle
 10
-272.054734237557
 20
-263.560176374158
 40
0.4
100
AcDbArc
 50
-166.313541721426
 51
-97.679561020179
  0
ARC
  5
3FB
100
AcDbEntity
  8
1
  6
CONTINUOUS
 62
           7
100
AcDbCircle
 10
-272.152581183104
 20
-264.354117593558
 40
0.4
100
AcDbArc
 50
16.301471647994
 51
83.627917809888
  0
ARC
  5
3FA
100
AcDbEntity
  8
1
  6
CONTINUOUS
 62
           7
100
AcDbCircle
 10
-272.507661857508
 20
-260.119849542148
 40
0.4
100
AcDbArc
 50
180.0
 51
-178.6864582786
  0
ARC
  5
3F9
100
AcDbEntity
  8
1
  6
CONTINUOUS
 62
           7
100
AcDbCircle
 10
-272.321786982445
 20
-255.713240944965
 40
0.4
100
AcDbArc
 50
171.18645827861
 51
-120.17956102017
  0
ARC
  5
3F8
100
AcDbEntity
  8
1
  6
CONTINUOUS
 62
           7
100
AcDbCircle
 10
-272.507661857508
 20
-258.549143521363
 40
0.4
100
AcDbArc
 50
111.372082190029
 51
-178.686458278599
  0
ARC
  5
3F7
100
AcDbEntity
  8
1
  6
CONTINUOUS
 62
           7
100
AcDbCircle
 10
-272.807661857508
 20
-257.807579846001
 40
0.4
100
AcDbArc
 50
-67.320438979767
 51
-1.301471648017
  0
ARC
  5
3F6
100
AcDbEntity
  8
1
  6
CONTINUOUS
 62
           7
100
AcDbCircle
 10
-272.71601392369
 20
-256.409302582618
 40
0.4
100
AcDbArc
 50
-6.198528351995
 51
61.127917809887
  0
ARC
  5
3F5
100
AcDbEntity
  8
1
  6
CONTINUOUS
 62
           7
100
AcDbCircle
 10
-272.321786982444
 20
-257.283946965751
 40
0.4
100
AcDbArc
 50
179.542230383003
 51
-120.17956102021
  0
ARC
  5
3F4
100
AcDbEntity
  8
1
  6
CONTINUOUS
 62
           7
100
AcDbCircle
 10
-272.71601392369
 20
-257.980008603404
 40
0.4
100
AcDbArc
 50
39.078490681373
 51
61.12791780992
  0
ARC
  5
3F3
100
AcDbEntity
  8
1
  6
CONTINUOUS
 62
           7
100
AcDbCircle
 10
-271.423681459695
 20
-252.361465503507
 40
0.4
100
AcDbArc
 50
88.872082190073
 51
158.813541721395
  0
ARC
  5
3F2
100
AcDbEntity
  8
1
  6
CONTINUOUS
 62
           7
100
AcDbCircle
 10
-271.417061186844
 20
-251.561544972077
 40
0.4
100
AcDbArc
 50
-89.820438979786
 51
-23.80147164802
  0
ARC
  5
3F1
100
AcDbEntity
  8
1
  6
CONTINUOUS
 62
           7
100
AcDbCircle
 10
-270.166702535227
 20
-249.812564392157
 40
0.4
100
AcDbArc
 50
148.686458278614
 51
-142.679561020173
  0
ARC
  5
3F0
100
AcDbEntity
  8
1
  6
CONTINUOUS
 62
           7
100
AcDbCircle
 10
-267.742059625096
 20
-246.323121030406
 40
0.4
100
AcDbArc
 50
-112.320438979776
 51
-46.30147164799
  0
ARC
  5
3EF
100
AcDbEntity
  8
1
  6
CONTINUOUS
 62
           7
100
AcDbCircle
 10
-268.054292294269
 20
-247.059617768292
 40
0.4
100
AcDbArc
 50
66.372082190065
 51
136.313541721384
  0
ARC
  5
3EE
100
AcDbEntity
  8
1
  6
CONTINUOUS
 62
           7
100
AcDbCircle
 10
-270.797291994043
 20
-250.304777373544
 40
0.4
100
AcDbArc
 50
-28.698528351968
 51
38.627917809896
  0
ARC
  5
3ED
100
AcDbEntity
  8
1
  6
CONTINUOUS
 62
           7
100
AcDbCircle
 10
-266.688523414694
 20
-245.399194570973
 40
0.4
100
AcDbArc
 50
-51.198528351986
 51
16.127917809908
  0
ARC
  5
3EC
100
AcDbEntity
  8
1
  6
CONTINUOUS
 62
           7
100
AcDbCircle
 10
-265.917572967105
 20
-245.185765210346
 40
0.4
100
AcDbArc
 50
126.186458278608
 51
-165.179561020194
  0
ARC
  5
3EB
100
AcDbEntity
  8
1
  6
CONTINUOUS
 62
           7
100
AcDbCircle
 10
-262.342142846067
 20
-242.889810579676
 40
0.4
100
AcDbArc
 50
-134.820438979802
 51
-68.801471648029
  0
ARC
  5
3EA
100
AcDbEntity
  8
1
  6
CONTINUOUS
 62
           7
100
AcDbCircle
 10
-262.912453318078
 20
-243.450758572034
 40
0.4
100
AcDbArc
 50
43.872082190084
 51
113.81354172138
  0
ARC
  5
3E9
100
AcDbEntity
  8
1
  6
CONTINUOUS
 62
           7
100
AcDbCircle
 10
-253.945060327962
 20
-242.270178888037
 40
0.4
100
AcDbArc
 50
81.186458278583
 51
149.820438979819
  0
ARC
  5
3E8
100
AcDbEntity
  8
1
  6
CONTINUOUS
 62
           7
100
AcDbCircle
 10
-261.015230955769
 20
-242.439384687378
 40
0.4
100
AcDbArc
 50
-73.698528351999
 51
-6.372082190091
  0
ARC
  5
3E7
100
AcDbEntity
  8
1
  6
CONTINUOUS
 62
           7
100
AcDbCircle
 10
-256.780962904359
 20
-242.084304012973
 40
0.4
100
AcDbArc
 50
21.372082190068
 51
91.3135417214
  0
ARC
  5
3E6
100
AcDbEntity
  8
1
  6
CONTINUOUS
 62
           7
100
AcDbCircle
 10
-256.039399228998
 20
-241.784304012974
 40
0.4
100
AcDbArc
 50
-157.32043897978
 51
-91.301471648009
  0
ARC
  5
3E5
100
AcDbEntity
  8
1
  6
CONTINUOUS
 62
           7
100
AcDbCircle
 10
-254.641121965614
 20
-241.875951946792
 40
0.4
100
AcDbArc
 50
-96.198528352001
 51
-28.872082190093
  0
ARC
  5
3E4
100
AcDbEntity
  8
1
  6
CONTINUOUS
 62
           7
100
AcDbCircle
 10
-260.221289736368
 20
-242.537231632924
 40
0.4
100
AcDbArc
 50
103.686458278605
 51
172.320438979799
  0
ARC
  5
3E3
100
AcDbEntity
  8
1
  6
CONTINUOUS
 62
           7
100
AcDbCircle
 10
-248.53659675654
 20
-243.794673876439
 40
0.4
100
AcDbArc
 50
-118.698528351987
 51
-51.372082190105
  0
ARC
  5
3E2
100
AcDbEntity
  8
1
  6
CONTINUOUS
 62
           7
100
AcDbCircle
 10
-249.793364355073
 20
-243.174904683638
 40
0.4
100
AcDbArc
 50
-179.820438979782
 51
-113.80147164802
  0
ARC
  5
3E1
100
AcDbEntity
  8
1
  6
CONTINUOUS
 62
           7
100
AcDbCircle
 10
-250.593284886503
 20
-243.168284410787
 40
0.4
100
AcDbArc
 50
-1.127917809931
 51
68.813541721395
  0
ARC
  5
3E0
100
AcDbEntity
  8
1
  6
CONTINUOUS
 62
           7
100
AcDbCircle
 10
-248.044383775154
 20
-244.425263335255
 40
0.4
100
AcDbArc
 50
58.686458278629
 51
127.320438979809
  0
ARC
  5
3DF
100
AcDbEntity
  8
1
  6
CONTINUOUS
 62
           7
100
AcDbCircle
 10
-243.417584593343
 20
-248.674392903377
 40
0.4
100
AcDbArc
 50
36.186458278615
 51
104.820438979831
  0
ARC
  5
3DE
100
AcDbEntity
  8
1
  6
CONTINUOUS
 62
           7
100
AcDbCircle
 10
-245.291437151288
 20
-246.537673576213
 40
0.4
100
AcDbArc
 50
-23.62791780994
 51
46.313541721396
  0
ARC
  5
3DD
100
AcDbEntity
  8
1
  6
CONTINUOUS
 62
           7
100
AcDbCircle
 10
-244.554940413402
 20
-246.849906245386
 40
0.4
100
AcDbArc
 50
157.679561020215
 51
-136.301471648014
  0
ARC
  5
3DC
100
AcDbEntity
  8
1
  6
CONTINUOUS
 62
           7
100
AcDbCircle
 10
-243.631013953969
 20
-247.903442455788
 40
0.4
100
AcDbArc
 50
-141.198528351971
 51
-73.872082190097
  0
ARC
  5
3DB
100
AcDbEntity
  8
1
  6
CONTINUOUS
 62
           7
100
AcDbCircle
 10
-240.769051015921
 20
-254.370676134113
 40
0.4
100
AcDbArc
 50
13.686458278608
 51
82.320438979824
  0
ARC
  5
3DA
100
AcDbEntity
  8
1
  6
CONTINUOUS
 62
           7
100
AcDbCircle
 10
-240.01612339597
 20
-258.552566641484
 40
0.4
100
AcDbArc
 50
112.67956102021
 51
178.698528351991
  0
ARC
  5
3D9
100
AcDbEntity
  8
1
  6
CONTINUOUS
 62
           7
100
AcDbCircle
 10
-240.31612339597
 20
-257.811002966123
 40
0.4
100
AcDbArc
 50
-68.627917809944
 51
1.313541721384
  0
ARC
  5
3D8
100
AcDbEntity
  8
1
  6
CONTINUOUS
 62
           7
100
AcDbCircle
 10
-241.68257795503
 20
-251.679512552404
 40
0.4
100
AcDbArc
 50
-44.820438979595
 51
23.813541721395
  0
ARC
  5
3D7
100
AcDbEntity
  8
1
  6
CONTINUOUS
 62
           7
100
AcDbCircle
 10
-241.121629962672
 20
-252.249823024415
 40
0.4
100
AcDbArc
 50
133.872082189859
 51
-158.801471647997
  0
ARC
  5
3D6
100
AcDbEntity
  8
1
  6
CONTINUOUS
 62
           7
100
AcDbCircle
 10
-240.671204070374
 20
-253.576734914713
 40
0.4
100
AcDbArc
 50
-163.698528351995
 51
-96.372082190087
  0
ARC
  5
3D5
100
AcDbEntity
  8
1
  6
CONTINUOUS
 62
           7
100
AcDbCircle
 10
-240.107771329788
 20
-259.950843904867
 40
0.4
100
AcDbArc
 50
173.801471647994
 51
-118.87208219012
  0
ARC
  5
3D4
100
AcDbEntity
  8
1
  6
CONTINUOUS
 62
           7
100
AcDbCircle
 10
-240.501998271033
 20
-260.64690554252
 40
0.4
100
AcDbArc
 50
-8.813541721393
 51
59.820438979834
  0
ARC
  5
3D3
100
AcDbEntity
  8
1
  6
CONTINUOUS
 62
           7
100
AcDbCircle
 10
-240.31612339597
 20
-259.381708986908
 40
0.4
100
AcDbArc
 50
-68.627917809944
 51
1.313541721368
  0
ARC
  5
3D2
100
AcDbEntity
  8
1
  6
CONTINUOUS
 62
           7
100
AcDbCircle
 10
-240.01612339597
 20
-260.12327266227
 40
0.4
100
AcDbArc
 50
112.679561020206
 51
178.698528352015
  0
ARC
  5
3D1
100
AcDbEntity
  8
1
  6
CONTINUOUS
 62
           7
100
AcDbCircle
 10
-242.026493259435
 20
-266.055369113941
 40
0.4
100
AcDbArc
 50
151.301471648015
 51
-141.372082190087
  0
ARC
  5
3D0
100
AcDbEntity
  8
1
  6
CONTINUOUS
 62
           7
100
AcDbCircle
 10
-241.406724066634
 20
-264.798601515408
 40
0.4
100
AcDbArc
 50
90.179561020242
 51
156.198528351979
  0
ARC
  5
3CF
100
AcDbEntity
  8
1
  6
CONTINUOUS
 62
           7
100
AcDbCircle
 10
-241.400103793783
 20
-263.998680983979
 40
0.4
100
AcDbArc
 50
-91.127917809956
 51
-21.18645827859
  0
ARC
  5
3CE
100
AcDbEntity
  8
1
  6
CONTINUOUS
 62
           7
100
AcDbCircle
 10
-242.657082718251
 20
-266.547582095328
 40
0.4
100
AcDbArc
 50
-31.313541721382
 51
37.320438979824
  0
ARC
  5
3CD
100
AcDbEntity
  8
1
  6
CONTINUOUS
 62
           7
100
AcDbCircle
 10
-241.400103793783
 20
-265.569387004764
 40
0.4
100
AcDbArc
 50
-91.127917809926
 51
-21.186458278658
  0
ARC
  5
3CC
100
AcDbEntity
  8
1
  6
CONTINUOUS
 62
           7
100
AcDbCircle
 10
-241.406724066634
 20
-266.369307536194
 40
0.4
100
AcDbArc
 50
90.179561020213
 51
156.198528351979
  0
ARC
  5
3CB
100
AcDbEntity
  8
1
  6
CONTINUOUS
 62
           7
100
AcDbCircle
 10
-240.501998271033
 20
-262.217611563306
 40
0.4
100
AcDbArc
 50
-8.813541721385
 51
0.0
  0
ARC
  5
3CA
100
AcDbEntity
  8
1
  6
CONTINUOUS
 62
           7
100
AcDbCircle
 10
-242.657082718251
 20
-268.118288116114
 40
0.4
100
AcDbArc
 50
-31.313541721382
 51
0.0
  0
ARC
  5
3C9
100
AcDbEntity
  8
1
  6
CONTINUOUS
 62
           7
100
AcDbCircle
 10
-246.906212286373
 20
-272.745087297925
 40
0.4
100
AcDbArc
 50
-53.813541721405
 51
0.0
  0
ARC
  5
3C8
100
AcDbEntity
  8
1
  6
CONTINUOUS
 62
           7
100
AcDbCircle
 10
-246.135261838784
 20
-272.531657937298
 40
0.4
100
AcDbArc
 50
128.801471648032
 51
158.02942539054
  0
ARC
  5
3C7
100
AcDbEntity
  8
1
  6
CONTINUOUS
 62
           7
100
AcDbCircle
 10
-246.906212286373
 20
-271.174381277139
 40
0.4
100
AcDbArc
 50
-53.81354172139
 51
14.820438979829
  0
ARC
  5
3C6
100
AcDbEntity
  8
1
  6
CONTINUOUS
 62
           7
100
AcDbCircle
 10
-244.769492959209
 20
-269.300528719194
 40
0.4
100
AcDbArc
 50
-113.627917809919
 51
-43.686458278607
  0
ARC
  5
3C5
100
AcDbEntity
  8
1
  6
CONTINUOUS
 62
           7
100
AcDbCircle
 10
-245.081725628382
 20
-270.037025457079
 40
0.4
100
AcDbArc
 50
67.679561020194
 51
133.698528351986
  0
ARC
  5
3C4
100
AcDbEntity
  8
1
  6
CONTINUOUS
 62
           7
100
AcDbCircle
 10
-246.135261838784
 20
-270.960951916512
 40
0.4
100
AcDbArc
 50
128.801471648016
 51
-163.872082190114
  0
ARC
  5
3C3
100
AcDbEntity
  8
1
  6
CONTINUOUS
 62
           7
100
AcDbCircle
 10
-245.081725628382
 20
-271.607731477865
 40
0.4
100
AcDbArc
 50
67.679561020229
 51
133.69852835199
  0
ARC
  5
3C2
100
AcDbEntity
  8
1
  6
CONTINUOUS
 62
           7
100
AcDbCircle
 10
-244.769492959209
 20
-270.87123473998
 40
0.4
100
AcDbArc
 50
-113.627917809919
 51
-43.686458278607
  0
ARC
  5
3C1
100
AcDbEntity
  8
1
  6
CONTINUOUS
 62
           7
100
AcDbCircle
 10
-252.60249551711
 20
-273.822914854561
 40
0.4
100
AcDbArc
 50
-76.313541721395
 51
-7.6795610202
  0
ARC
  5
3C0
100
AcDbEntity
  8
1
  6
CONTINUOUS
 62
           7
100
AcDbCircle
 10
-258.182663287863
 20
-274.484194540694
 40
0.4
100
AcDbArc
 50
83.801471648002
 51
151.127917809892
  0
ARC
  5
3BF
100
AcDbEntity
  8
1
  6
CONTINUOUS
 62
           7
100
AcDbCircle
 10
-256.78438602448
 20
-274.575842474512
 40
0.4
100
AcDbArc
 50
22.679561020229
 51
88.698528351982
  0
ARC
  5
3BE
100
AcDbEntity
  8
1
  6
CONTINUOUS
 62
           7
100
AcDbCircle
 10
-256.042822349119
 20
-274.275842474512
 40
0.4
100
AcDbArc
 50
-158.627917809937
 51
-88.6864582786
  0
ARC
  5
3BD
100
AcDbEntity
  8
1
  6
CONTINUOUS
 62
           7
100
AcDbCircle
 10
-249.9113319354
 20
-272.909387915452
 40
0.4
100
AcDbArc
 50
-136.127917809973
 51
-66.186458278606
  0
ARC
  5
3BC
100
AcDbEntity
  8
1
  6
CONTINUOUS
 62
           7
100
AcDbCircle
 10
-250.481642407411
 20
-273.47033590781
 40
0.4
100
AcDbArc
 50
45.179561020243
 51
111.198528351989
  0
ARC
  5
3BB
100
AcDbEntity
  8
1
  6
CONTINUOUS
 62
           7
100
AcDbCircle
 10
-251.808554297709
 20
-273.920761800108
 40
0.4
100
AcDbArc
 50
106.301471648002
 51
173.627917809905
  0
ARC
  5
3BA
100
AcDbEntity
  8
1
  6
CONTINUOUS
 62
           7
100
AcDbCircle
 10
-258.878724925516
 20
-274.089967599448
 40
0.4
100
AcDbArc
 50
-98.813541721384
 51
-30.179561020154
  0
ARC
  5
3B9
100
AcDbEntity
  8
1
  6
CONTINUOUS
 62
           7
100
AcDbCircle
 10
-251.808554297709
 20
-275.491467820894
 40
0.4
100
AcDbArc
 50
106.301471648022
 51
173.627917809883
  0
ARC
  5
3B8
100
AcDbEntity
  8
1
  6
CONTINUOUS
 62
           7
100
AcDbCircle
 10
-252.60249551711
 20
-275.393620875347
 40
0.4
100
AcDbArc
 50
-76.313541721395
 51
-7.679561020176
  0
ARC
  5
3B7
100
AcDbEntity
  8
1
  6
CONTINUOUS
 62
           7
100
AcDbCircle
 10
-250.481642407411
 20
-275.041041928595
 40
0.4
100
AcDbArc
 50
45.1795610202
 51
111.198528351974
  0
ARC
  5
3B6
100
AcDbEntity
  8
1
  6
CONTINUOUS
 62
           7
100
AcDbCircle
 10
-249.9113319354
 20
-274.480093936237
 40
0.4
100
AcDbArc
 50
-136.127917809936
 51
-66.186458278606
  0
ARC
  5
3B5
100
AcDbEntity
  8
1
  6
CONTINUOUS
 62
           7
100
AcDbCircle
 10
-256.78438602448
 20
-276.146548495298
 40
0.4
100
AcDbArc
 50
22.679561020197
 51
88.698528351983
  0
ARC
  5
3B4
100
AcDbEntity
  8
1
  6
CONTINUOUS
 62
           7
100
AcDbCircle
 10
-256.042822349119
 20
-275.846548495298
 40
0.4
100
AcDbArc
 50
-158.627917809936
 51
-88.6864582786
  0
ARC
  5
3B3
100
AcDbEntity
  8
1
  6
CONTINUOUS
 62
           7
100
AcDbCircle
 10
-258.878724925516
 20
-275.660673620234
 40
0.4
100
AcDbArc
 50
-98.813541721388
 51
-30.179561020207
  0
ARC
  5
3B2
100
AcDbEntity
  8
1
  6
CONTINUOUS
 62
           7
100
AcDbCircle
 10
-258.182663287863
 20
-276.05490056148
 40
0.4
100
AcDbArc
 50
83.801471648027
 51
151.127917809892
  0
ARC
  5
3B1
100
AcDbEntity
  8
1
  6
CONTINUOUS
 62
           7
100
AcDbCircle
 10
-256.78438602448
 20
-276.146548495298
 40
0.4
100
AcDbArc
 50
22.679561020197
 51
88.698528351983
  0
ARC
  5
3B0
100
AcDbEntity
  8
1
  6
CONTINUOUS
 62
           7
100
AcDbCircle
 10
69.085464464877
 20
95.089781682404
 40
3.0
100
AcDbArc
 50
90.0
 51
111.487649234026
  0
ARC
  5
3AF
100
AcDbEntity
  8
1
  6
CONTINUOUS
 62
           7
100
AcDbCircle
 10
-229.911892626739
 20
-226.079602965845
 40
8.0
100
AcDbArc
 50
142.177636626527
 51
180.0
  0
ARC
  5
3AE
100
AcDbEntity
  8
1
  6
CONTINUOUS
 62
           7
100
AcDbCircle
 10
-282.911892626739
 20
-226.079602965845
 40
8.0
100
AcDbArc
 50
0.0
 51
37.822363373473
  0
ARC
  5
3AD
100
AcDbEntity
  8
1
  6
CONTINUOUS
 62
           7
100
AcDbCircle
 10
82.406261646214
 20
111.089781682405
 40
2.0
100
AcDbArc
 50
0.0
 51
90.0
  0
ARC
  5
3AC
100
AcDbEntity
  8
1
  6
CONTINUOUS
 62
           7
100
AcDbCircle
 10
90.254759037353
 20
121.089781682405
 40
8.0
100
AcDbArc
 50
-90.0
 51
-59.441568214065
  0
ARC
  5
3AB
100
AcDbEntity
  8
1
  6
CONTINUOUS
 62
           7
100
AcDbCircle
 10
69.085464464877
 20
116.089781682405
 40
3.0
100
AcDbArc
 50
-111.487649234026
 51
-90.0
  0
ARC
  5
3AA
100
AcDbEntity
  8
1
  6
CONTINUOUS
 62
           7
100
AcDbCircle
 10
-66.593738353786
 20
142.691230957767
 40
5.0
100
AcDbArc
 50
119.7973908688
 51
180.0
  0
ARC
  5
3A9
100
AcDbEntity
  8
1
  6
CONTINUOUS
 62
           7
100
AcDbCircle
 10
82.406261646214
 20
100.089781682405
 40
2.0
100
AcDbArc
 50
-90.0
 51
0.0
  0
ARC
  5
3A8
100
AcDbEntity
  8
1
  6
CONTINUOUS
 62
           7
100
AcDbCircle
 10
90.254759037353
 20
90.089781682404
 40
8.0
100
AcDbArc
 50
59.441568214065
 51
90.0
  0
ARC
  5
3A7
100
AcDbEntity
  8
1
  6
CONTINUOUS
 62
           7
100
AcDbCircle
 10
-66.593738353786
 20
68.488332407042
 40
5.0
100
AcDbArc
 50
180.0
 51
-119.797390868801
  0
ARC
  5
3A6
100
AcDbEntity
  8
1
  6
CONTINUOUS
 62
           7
100
AcDbCircle
 10
-246.261892626739
 20
-32.338846372149
 40
3.0
100
AcDbArc
 50
180.0
 51
-160.528779365509
  0
ARC
  5
3A5
100
AcDbEntity
  8
1
  6
CONTINUOUS
 62
           7
100
AcDbCircle
 10
-186.911892626739
 20
-36.838846372149
 40
1.5
100
AcDbArc
 50
0.0
 51
90.0
  0
ARC
  5
3A4
100
AcDbEntity
  8
1
  6
CONTINUOUS
 62
           7
100
AcDbCircle
 10
-186.911892626739
 20
-40.838846372149
 40
1.5
100
AcDbArc
 50
-90.0
 51
0.0
  0
ARC
  5
3A3
100
AcDbEntity
  8
1
  6
CONTINUOUS
 62
           7
100
AcDbCircle
 10
-325.911892626739
 20
-40.838846372149
 40
1.5
100
AcDbArc
 50
180.0
 51
-90.0
  0
ARC
  5
3A2
100
AcDbEntity
  8
1
  6
CONTINUOUS
 62
           7
100
AcDbCircle
 10
-325.911892626739
 20
-36.838846372149
 40
1.5
100
AcDbArc
 50
90.0
 51
180.0
  0
ARC
  5
3A1
100
AcDbEntity
  8
1
  6
CONTINUOUS
 62
           7
100
AcDbCircle
 10
-266.561892626739
 20
-32.338846372149
 40
3.0
100
AcDbArc
 50
-19.471220634491
 51
0.0
  0
ARC
  5
3A0
100
AcDbEntity
  8
1
  6
CONTINUOUS
 62
           7
100
AcDbCircle
 10
70.406261646214
 20
111.089781682405
 40
2.0
100
AcDbArc
 50
0.0
 51
90.0
  0
ARC
  5
39F
100
AcDbEntity
  8
1
  6
CONTINUOUS
 62
           7
100
AcDbCircle
 10
70.406261646214
 20
100.089781682405
 40
2.0
100
AcDbArc
 50
-90.0
 51
0.0
  0
ARC
  5
39E
100
AcDbEntity
  8
1
  6
CONTINUOUS
 62
           7
100
AcDbCircle
 10
-249.561892626739
 20
-15.638846372149
 40
0.3
100
AcDbArc
 50
0.0
 51
90.0
  0
ARC
  5
39D
100
AcDbEntity
  8
1
  6
CONTINUOUS
 62
           7
100
AcDbCircle
 10
-263.261892626739
 20
-15.638846372149
 40
0.3
100
AcDbArc
 50
90.0
 51
180.0
  0
ARC
  5
39C
100
AcDbEntity
  8
1
  6
CONTINUOUS
 62
           7
100
AcDbCircle
 10
-325.911892626739
 20
-40.838846372149
 40
1.5
100
AcDbArc
 50
180.0
 51
-90.0
  0
ARC
  5
39B
100
AcDbEntity
  8
1
  6
CONTINUOUS
 62
           7
100
AcDbCircle
 10
-186.911892626739
 20
-40.838846372149
 40
1.5
100
AcDbArc
 50
-90.0
 51
0.0
  0
ARC
  5
39A
100
AcDbEntity
  8
1
  6
CONTINUOUS
 62
           7
100
AcDbCircle
 10
45.556261646214
 20
97.861859525582
 40
0.5
100
AcDbArc
 50
-55.303397643735
 51
0.0
  0
ARC
  5
399
100
AcDbEntity
  8
1
  6
CONTINUOUS
 62
           7
100
AcDbCircle
 10
49.256261646214
 20
97.861859525582
 40
0.5
100
AcDbArc
 50
180.0
 51
-124.696602356264
  0
ARC
  5
398
100
AcDbEntity
  8
1
  6
CONTINUOUS
 62
           7
100
AcDbCircle
 10
46.906261646214
 20
97.022811960387
 40
0.5
100
AcDbArc
 50
-74.742476709553
 51
0.0
  0
ARC
  5
397
100
AcDbEntity
  8
1
  6
CONTINUOUS
 62
           7
100
AcDbCircle
 10
47.906261646214
 20
97.022811960387
 40
0.5
100
AcDbArc
 50
180.0
 51
-105.257523290475
  0
ARC
  5
396
100
AcDbEntity
  8
1
  6
CONTINUOUS
 62
           7
100
AcDbCircle
 10
48.806261646214
 20
112.739781682405
 40
0.05
100
AcDbArc
 50
90.0
 51
180.0
  0
ARC
  5
395
100
AcDbEntity
  8
1
  6
CONTINUOUS
 62
           7
100
AcDbCircle
 10
48.806261646214
 20
112.739781682405
 40
1.4
100
AcDbArc
 50
90.0
 51
-179.999999999987
  0
ARC
  5
394
100
AcDbEntity
  8
1
  6
CONTINUOUS
 62
           7
100
AcDbCircle
 10
46.006261646214
 20
112.739781682404
 40
1.4
100
AcDbArc
 50
0.0
 51
90.0
  0
ARC
  5
393
100
AcDbEntity
  8
1
  6
CONTINUOUS
 62
           7
100
AcDbCircle
 10
46.006261646214
 20
112.739781682404
 40
0.05
100
AcDbArc
 50
0.000000000342
 51
90.0
  0
ARC
  5
392
100
AcDbEntity
  8
1
  6
CONTINUOUS
 62
           7
100
AcDbCircle
 10
1.506261646214
 20
99.101173177785
 40
0.5
100
AcDbArc
 50
-51.521404866695
 51
0.0
  0
ARC
  5
391
100
AcDbEntity
  8
1
  6
CONTINUOUS
 62
           7
100
AcDbCircle
 10
4.306261646214
 20
99.101173177785
 40
0.5
100
AcDbArc
 50
180.0
 51
-128.478595133304
  0
ARC
  5
390
100
AcDbEntity
  8
1
  6
CONTINUOUS
 62
           7
100
AcDbCircle
 10
3.406261646214
 20
98.593775302803
 40
0.5
100
AcDbArc
 50
180.0
 51
-111.738460791519
  0
ARC
  5
38F
100
AcDbEntity
  8
1
  6
CONTINUOUS
 62
           7
100
AcDbCircle
 10
2.406261646214
 20
98.593775302803
 40
0.5
100
AcDbArc
 50
-68.261539208504
 51
0.0
  0
ARC
  5
38E
100
AcDbEntity
  8
1
  6
CONTINUOUS
 62
           7
100
AcDbCircle
 10
3.856261646214
 20
111.589781682405
 40
0.05
100
AcDbArc
 50
90.0
 51
180.0
  0
ARC
  5
38D
100
AcDbEntity
  8
1
  6
CONTINUOUS
 62
           7
100
AcDbCircle
 10
3.806261646214
 20
111.639781682404
 40
0.9
100
AcDbArc
 50
90.0
 51
180.0
  0
ARC
  5
38C
100
AcDbEntity
  8
1
  6
CONTINUOUS
 62
           7
100
AcDbCircle
 10
2.006261646214
 20
111.639781682404
 40
0.9
100
AcDbArc
 50
0.0
 51
90.0
  0
ARC
  5
38B
100
AcDbEntity
  8
1
  6
CONTINUOUS
 62
           7
100
AcDbCircle
 10
1.956261646214
 20
111.589781682405
 40
0.05
100
AcDbArc
 50
0.0
 51
90.0
  0
ARC
  5
38A
100
AcDbEntity
  8
1
  6
CONTINUOUS
 62
           7
100
AcDbCircle
 10
-243.936892626739
 20
-20.338846372149
 40
0.675
100
AcDbArc
 50
0.0
 51
90.0
  0
ARC
  5
389
100
AcDbEntity
  8
1
  6
CONTINUOUS
 62
           7
100
AcDbCircle
 10
-243.936892626739
 20
-20.338846372149
 40
0.675
100
AcDbArc
 50
-90.0
 51
0.0
  0
ARC
  5
388
100
AcDbEntity
  8
1
  6
CONTINUOUS
 62
           7
100
AcDbCircle
 10
-246.861892626739
 20
-20.338846372149
 40
0.45
100
AcDbArc
 50
0.0
 51
90.0
  0
ARC
  5
387
100
AcDbEntity
  8
1
  6
CONTINUOUS
 62
           7
100
AcDbCircle
 10
-246.861892626739
 20
-20.338846372149
 40
0.45
100
AcDbArc
 50
-90.0
 51
0.0
  0
LWPOLYLINE
  5
386
100
AcDbEntity
  8
1
  6
CONTINUOUS
 62
           7
 60
           1
100
AcDbPolyline
 90
        2
 70
           0
 10
30.599869174681
 20
-261.631451219788
 10
29.329095416392
 20
-261.520272922032
  0
LWPOLYLINE
  5
385
100
AcDbEntity
  8
1
  6
CONTINUOUS
 62
           2
 60
           1
100
AcDbPolyline
 90
        2
 70
           0
 10
19.9513759674
 20
-262.205558536833
 10
20.034914746823
 20
-261.250705918713
  0
SPLINE
  5
384
100
AcDbEntity
  8
976
  6
CONTINUOUS
 62
           7
100
AcDbSpline
210
0.0
220
0.0
230
1.0
 70
           0
 71
           4
 72
           8
 73
           4
 74
           3
 42
0.00000000001
 43
0.00000000001
 44
0.00000000001
 40
0.0
 40
0.0
 40
0.0
 40
0.0
 40
11.292433620432679
 40
11.292433620432679
 40
11.292433620432679
 40
11.292433620432679
 10
11.60332909787534
 20
-257.45991972299339
 30
0.0
 10
10.29936189529972
 20
-260.92091496736668
 30
0.0
 10
9.9621047606214361
 20
-264.7956452343775
 30
0.0
 10
10.7105063745257
 20
-268.42382606913878
 30
0.0
 11
11.60332909787534
 21
-257.45991972299339
 31
0.0
 11
10.387279430020563
 21
-262.87917829967057
 31
0.0
 11
10.7105063745257
 21
-268.42382606913878
 31
0.0
  0
CIRCLE
  5
383
100
AcDbEntity
  8
1
  6
CONTINUOUS
 62
           7
100
AcDbCircle
 10
2.906261646214
 20
-20.338846372149
 40
1.0
  0
CIRCLE
  5
382
100
AcDbEntity
  8
1
  6
CONTINUOUS
 62
           7
100
AcDbCircle
 10
47.406261646214
 20
-20.338846372149
 40
1.5
  0
CIRCLE
  5
381
100
AcDbEntity
  8
1
  6
CONTINUOUS
 62
           7
100
AcDbCircle
 10
-256.411892626739
 20
-258.011508682683
 40
15.7
  0
CIRCLE
  5
380
100
AcDbEntity
  8
1
  6
CONTINUOUS
 62
           7
100
AcDbCircle
 10
-256.411892626739
 20
-256.59206026378
 40
8.5
  0
CIRCLE
  5
37F
100
AcDbEntity
  8
1
  6
CONTINUOUS
 62
           7
100
AcDbCircle
 10
-256.411892626739
 20
-256.59206026378
 40
6.0
  0
CIRCLE
  5
37E
100
AcDbEntity
  8
1
  6
CONTINUOUS
 62
           7
100
AcDbCircle
 10
-256.411892626739
 20
-256.59206026378
 40
3.0
  0
CIRCLE
  5
37D
100
AcDbEntity
  8
1
  6
CONTINUOUS
 62
           7
100
AcDbCircle
 10
8.406261646214
 20
43.455974459605
 40
2.15
  0
CIRCLE
  5
37C
100
AcDbEntity
  8
1
  6
CONTINUOUS
 62
           7
100
AcDbCircle
 10
8.406261646214
 20
167.723588905204
 40
2.15
  0
CIRCLE
  5
37B
100
AcDbEntity
  8
1
  6
CONTINUOUS
 62
           7
100
AcDbCircle
 10
-262.911892626739
 20
-20.338846372149
 40
0.45
  0
CIRCLE
  5
37A
100
AcDbEntity
  8
1
  6
CONTINUOUS
 62
           7
100
AcDbCircle
 10
-264.286892626739
 20
-20.338846372149
 40
0.675
  0
CIRCLE
  5
379
100
AcDbEntity
  8
1
  6
CONTINUOUS
 62
           7
100
AcDbCircle
 10
-281.791189100951
 20
-234.699734387973
 40
6.0
  0
ARC
  5
378
100
AcDbEntity
  8
1
  6
CONTINUOUS
 62
           7
100
AcDbCircle
 10
-256.411892626739
 20
-261.738846372148
 40
15.737428340483
100
AcDbArc
 50
-143.317052641288
 51
-90.0
  0
ARC
  5
377
100
AcDbEntity
  8
1
  6
CONTINUOUS
 62
           7
100
AcDbCircle
 10
-256.411892626739
 20
-261.738846372148
 40
15.737428340483
100
AcDbArc
 50
-90.0
 51
-36.682947358712
  0
ARC
  5
376
100
AcDbEntity
  8
1
  6
CONTINUOUS
 62
           7
100
AcDbCircle
 10
11.039523836218
 20
-262.931602260651
 40
9.814660963244
100
AcDbArc
 50
-35.000989610097
 51
-4.999999999998
  0
ARC
  5
375
100
AcDbEntity
  8
1
  6
CONTINUOUS
 62
           7
100
AcDbCircle
 10
27.107468823201
 20
-264.33736529317
 40
9.814660963244
100
AcDbArc
 50
174.999999999999
 51
-154.999010389902
  0
ARC
  5
374
100
AcDbEntity
  8
1
  6
CONTINUOUS
 62
           7
100
AcDbCircle
 10
17.239687994991
 20
-270.863380917693
 40
2.946790240811
100
AcDbArc
 50
-61.375218884271
 51
51.375218884279
  0
ARC
  5
373
100
AcDbEntity
  8
1
  6
CONTINUOUS
 62
           7
100
AcDbCircle
 10
19.624160180239
 20
-271.071995202395
 40
2.946790240811
100
AcDbArc
 50
118.62478111572
 51
-128.624781115724
  0
ARC
  5
372
100
AcDbEntity
  8
1
  6
CONTINUOUS
 62
           7
100
AcDbCircle
 10
11.039523836218
 20
-262.931602260651
 40
9.814660963245
100
AcDbArc
 50
-4.999999999998
 51
25.0009896101
  0
ARC
  5
371
100
AcDbEntity
  8
1
  6
CONTINUOUS
 62
           7
100
AcDbCircle
 10
27.107468823201
 20
-264.33736529317
 40
9.814660963244
100
AcDbArc
 50
144.9990103899
 51
174.999999999999
  0
ARC
  5
370
100
AcDbEntity
  8
1
  6
CONTINUOUS
 62
           7
100
AcDbCircle
 10
18.522832479179
 20
-256.196972351425
 40
2.946790240811
100
AcDbArc
 50
-61.375218884277
 51
51.375218884272
  0
ARC
  5
36F
100
AcDbEntity
  8
1
  6
CONTINUOUS
 62
           7
100
AcDbCircle
 10
20.907304664427
 20
-256.405586636127
 40
2.946790240811
100
AcDbArc
 50
118.624781115712
 51
-128.624781115727
  0
ARC
  5
36E
100
AcDbEntity
  8
1
  6
CONTINUOUS
 62
           7
100
AcDbCircle
 10
-42.047532719173
 20
-253.058181761588
 40
1.766499404653
100
AcDbArc
 50
140.39597330064
 51
-150.39597330065
  0
ARC
  5
36D
100
AcDbEntity
  8
1
  6
CONTINUOUS
 62
           7
100
AcDbCircle
 10
-42.167174035518
 20
-247.548568554474
 40
1.167118928319
100
AcDbArc
 50
132.075071000263
 51
-142.075071000273
  0
ARC
  5
36C
100
AcDbEntity
  8
1
  6
CONTINUOUS
 62
           7
100
AcDbCircle
 10
-42.493156576512
 20
-243.654151316517
 40
0.502956022366
100
AcDbArc
 50
107.251528684888
 51
-117.251528684861
  0
ARC
  5
36B
100
AcDbEntity
  8
1
  6
CONTINUOUS
 62
           7
100
AcDbCircle
 10
-42.405385913561
 20
-259.320354880569
 40
1.955792299108
100
AcDbArc
 50
142.163168933357
 51
-152.163168933372
  0
ARC
  5
36A
100
AcDbEntity
  8
1
  6
CONTINUOUS
 62
           7
100
AcDbCircle
 10
-43.282391612041
 20
-265.378210573548
 40
1.610100784466
100
AcDbArc
 50
138.698498808667
 51
-148.698498808678
  0
ARC
  5
369
100
AcDbEntity
  8
1
  6
CONTINUOUS
 62
           7
100
AcDbCircle
 10
-44.381347852427
 20
-270.318923148295
 40
0.945937878514
100
AcDbArc
 50
127.039288971469
 51
-137.039288971493
  0
ARC
  5
368
100
AcDbEntity
  8
1
  6
CONTINUOUS
 62
           7
100
AcDbCircle
 10
-45.254030274157
 20
-273.416609161857
 40
0.34655740218
100
AcDbArc
 50
90.639758474804
 51
-100.639758474808
  0
ARC
  5
367
100
AcDbEntity
  8
1
  6
CONTINUOUS
 62
           7
100
AcDbCircle
 10
114.906261646214
 20
-24.838846372149
 40
2.5
100
AcDbArc
 50
-90.0
 51
90.0
  0
ARC
  5
366
100
AcDbEntity
  8
1
  6
CONTINUOUS
 62
           7
100
AcDbCircle
 10
32.078354676452
 20
-476.853464208592
 40
461.999999999999
100
AcDbArc
 50
79.672106389602
 51
87.164358035469
  0
ARC
  5
365
100
AcDbEntity
  8
1
  6
CONTINUOUS
 62
           7
100
AcDbCircle
 10
32.078354676452
 20
-476.853464208592
 40
462.0
100
AcDbArc
 50
88.8679836641
 51
92.626615962575
  0
ARC
  5
364
100
AcDbEntity
  8
1
  6
CONTINUOUS
 62
           7
100
AcDbCircle
 10
47.406261646214
 20
-34.338846372149
 40
20.0
100
AcDbArc
 50
74.48950547168
 51
101.54283622789
  0
ARC
  5
363
100
AcDbEntity
  8
1
  6
CONTINUOUS
 62
           7
100
AcDbCircle
 10
66.500488787445
 20
-520.971180355595
 40
495.999999999999
100
AcDbArc
 50
84.399459744538
 51
91.338357106515
  0
ARC
  5
362
100
AcDbEntity
  8
1
  6
CONTINUOUS
 62
           7
100
AcDbCircle
 10
-1.366016096477
 20
105.589781676975
 40
8.070883511612
100
AcDbArc
 50
-9.989228969277
 51
9.989229047547
  0
ARC
  5
361
100
AcDbEntity
  8
1
  6
CONTINUOUS
 62
           7
100
AcDbCircle
 10
-1.366016096477
 20
105.589781676975
 40
8.070883511612
100
AcDbArc
 50
179.999999960671
 51
-70.93328483803
  0
ARC
  5
360
100
AcDbEntity
  8
1
  6
CONTINUOUS
 62
           7
100
AcDbCircle
 10
-1.366016096477
 20
105.589781676975
 40
8.070883511612
100
AcDbArc
 50
48.022971133565
 51
48.556445465251
  0
ARC
  5
35F
100
AcDbEntity
  8
1
  6
CONTINUOUS
 62
           7
100
AcDbCircle
 10
-1.366016096477
 20
105.589781676975
 40
2.000000065726
100
AcDbArc
 50
90.014069263397
 51
-90.015283617209
  0
ARC
  5
35E
100
AcDbEntity
  8
1
  6
CONTINUOUS
 62
           7
100
AcDbCircle
 10
-1.366016096477
 20
105.589781676975
 40
3.507695406932
100
AcDbArc
 50
77.281175386866
 51
90.527024936322
  0
ARC
  5
35D
100
AcDbEntity
  8
1
  6
CONTINUOUS
 62
           7
100
AcDbCircle
 10
-1.366016096477
 20
105.589781676975
 40
3.507695406932
100
AcDbArc
 50
90.527024936322
 51
-77.281175386866
  0
ARC
  5
35C
100
AcDbEntity
  8
1
  6
CONTINUOUS
 62
           7
100
AcDbCircle
 10
-1.366016096477
 20
105.589781676975
 40
13.182728381812
100
AcDbArc
 50
26.974962619854
 51
180.0
  0
ARC
  5
35B
100
AcDbEntity
  8
1
  6
CONTINUOUS
 62
           7
100
AcDbCircle
 10
-1.366016096477
 20
105.589781676975
 40
13.182728381812
100
AcDbArc
 50
180.0
 51
-26.974962565123
  0
ARC
  5
35A
100
AcDbEntity
  8
1
  6
CONTINUOUS
 62
           7
100
AcDbCircle
 10
-1.366016096477
 20
105.589781676975
 40
8.070883511612
100
AcDbArc
 50
-50.144287616762
 51
-48.022971018314
  0
ARC
  5
359
100
AcDbEntity
  8
1
  6
CONTINUOUS
 62
           7
100
AcDbCircle
 10
-1.366016096477
 20
105.589781676975
 40
8.070883511612
100
AcDbArc
 50
55.859741850321
 51
179.999999960671
  0
ARC
  5
358
100
AcDbEntity
  8
1
  6
CONTINUOUS
 62
           7
100
AcDbCircle
 10
105.906261646214
 20
105.589781682405
 40
11.5
100
AcDbArc
 50
-124.987505128708
 51
0.0
  0
ARC
  5
357
100
AcDbEntity
  8
1
  6
CONTINUOUS
 62
           7
100
AcDbCircle
 10
105.906261646214
 20
105.589781682405
 40
11.5
100
AcDbArc
 50
0.0
 51
124.987505128709
  0
ARC
  5
356
100
AcDbEntity
  8
1
  6
CONTINUOUS
 62
           7
100
AcDbCircle
 10
26.524531726341
 20
-271.687660807034
 40
4.383427351474
100
AcDbArc
 50
140.771504196936
 51
-160.979322918973
  0
ARC
  5
355
100
AcDbEntity
  8
1
  6
CONTINUOUS
 62
           7
100
AcDbCircle
 10
38.97942098017
 20
-265.376026520827
 40
16.240810621445
100
AcDbArc
 50
175.0
 51
-167.412046226006
  0
ARC
  5
354
100
AcDbEntity
  8
1
  6
CONTINUOUS
 62
           7
100
AcDbCircle
 10
77.925013585683
 20
-288.713158595804
 40
3.750328947368
100
AcDbArc
 50
-95.758873402834
 51
85.758873402834
  0
ARC
  5
353
100
AcDbEntity
  8
1
  6
CONTINUOUS
 62
           7
100
AcDbCircle
 10
73.684933604067
 20
-287.058151463288
 40
19.907399643481
100
AcDbArc
 50
156.365858122975
 51
-166.365858122978
  0
ARC
  5
352
100
AcDbEntity
  8
1
  6
CONTINUOUS
 62
           7
100
AcDbCircle
 10
41.024855375523
 20
-278.747433987298
 40
9.679513396757
100
AcDbArc
 50
41.921936633941
 51
93.525645024904
  0
ARC
  5
351
100
AcDbEntity
  8
1
  6
CONTINUOUS
 62
           7
100
AcDbCircle
 10
27.809753271991
 20
-256.997511319621
 40
4.383427351474
100
AcDbArc
 50
150.979322918974
 51
-150.771504196937
  0
ARC
  5
350
100
AcDbEntity
  8
1
  6
CONTINUOUS
 62
           7
100
AcDbCircle
 10
38.97942098017
 20
-265.376026520827
 40
16.240810621445
100
AcDbArc
 50
157.412046226007
 51
175.0
  0
ARC
  5
34F
100
AcDbEntity
  8
1
  6
CONTINUOUS
 62
           7
100
AcDbCircle
 10
-57.696608555685
 20
-264.307304482891
 40
4.34489867232
100
AcDbArc
 50
174.999999999994
 51
-150.615752531963
  0
ARC
  5
34E
100
AcDbEntity
  8
1
  6
CONTINUOUS
 62
           7
100
AcDbCircle
 10
-63.36475450363
 20
-263.811405969235
 40
4.344898672319
100
AcDbArc
 50
-39.38424746805
 51
-5.000000000005
  0
ARC
  5
34D
100
AcDbEntity
  8
1
  6
CONTINUOUS
 62
           7
100
AcDbCircle
 10
-57.696608555685
 20
-264.307304482891
 40
4.344898672319
100
AcDbArc
 50
140.615752531947
 51
174.999999999994
  0
ARC
  5
34C
100
AcDbEntity
  8
1
  6
CONTINUOUS
 62
           7
100
AcDbCircle
 10
-74.573826674221
 20
-255.441404644514
 40
16.240810621445
100
AcDbArc
 50
-22.587953773999
 51
-5.000000000003
  0
ARC
  5
34B
100
AcDbEntity
  8
1
  6
CONTINUOUS
 62
           7
100
AcDbCircle
 10
-45.204391900905
 20
-258.010897241345
 40
16.240810621445
100
AcDbArc
 50
174.999999999997
 51
-167.41204622601
  0
ARC
  5
34A
100
AcDbEntity
  8
1
  6
CONTINUOUS
 62
           7
100
AcDbCircle
 10
-63.36475450363
 20
-263.811405969235
 40
4.344898672319
100
AcDbArc
 50
-5.000000000005
 51
29.384247468032
  0
ARC
  5
349
100
AcDbEntity
  8
1
  6
CONTINUOUS
 62
           7
100
AcDbCircle
 10
-62.081610019442
 20
-249.144997402967
 40
4.344898672319
100
AcDbArc
 50
-39.384247468046
 51
-5.000000000001
  0
ARC
  5
348
100
AcDbEntity
  8
1
  6
CONTINUOUS
 62
           7
100
AcDbCircle
 10
-45.204391900905
 20
-258.010897241345
 40
16.240810621446
100
AcDbArc
 50
157.412046226001
 51
174.999999999997
  0
ARC
  5
347
100
AcDbEntity
  8
1
  6
CONTINUOUS
 62
           7
100
AcDbCircle
 10
-74.573826674221
 20
-255.441404644514
 40
16.240810621445
100
AcDbArc
 50
-5.000000000003
 51
12.587953773992
  0
ARC
  5
346
100
AcDbEntity
  8
1
  6
CONTINUOUS
 62
           7
100
AcDbCircle
 10
-56.413464071496
 20
-249.640895916623
 40
4.344898672319
100
AcDbArc
 50
175.000000000005
 51
-150.615752531965
  0
ARC
  5
345
100
AcDbEntity
  8
1
  6
CONTINUOUS
 62
           7
100
AcDbCircle
 10
-62.081610019442
 20
-249.144997402967
 40
4.344898672319
100
AcDbArc
 50
-5.000000000001
 51
29.384247468035
  0
ARC
  5
344
100
AcDbEntity
  8
1
  6
CONTINUOUS
 62
           7
100
AcDbCircle
 10
-56.413464071496
 20
-249.640895916623
 40
4.344898672319
100
AcDbArc
 50
140.615752531955
 51
175.000000000005
  0
ARC
  5
343
100
AcDbEntity
  8
1
  6
CONTINUOUS
 62
           7
100
AcDbCircle
 10
9.149186920861
 20
-206.317873835119
 40
48.291798209944
100
AcDbArc
 50
-127.268171735047
 51
-112.106035632535
  0
ARC
  5
342
100
AcDbEntity
  8
1
  6
CONTINUOUS
 62
           7
100
AcDbCircle
 10
-2.093738353786
 20
-262.284500622683
 40
14.2
100
AcDbArc
 50
-95.000000000001
 51
-32.71774768961
  0
ARC
  5
341
100
AcDbEntity
  8
1
  6
CONTINUOUS
 62
           7
100
AcDbCircle
 10
-2.093738353786
 20
-262.284500622683
 40
15.199999999999
100
AcDbArc
 50
-95.0
 51
-34.673014802473
  0
ARC
  5
340
100
AcDbEntity
  8
1
  6
CONTINUOUS
 62
           7
100
AcDbCircle
 10
33.406261646214
 20
-30.338846372149
 40
3.0
100
AcDbArc
 50
90.0
 51
143.130102354163
  0
ARC
  5
33F
100
AcDbEntity
  8
1
  6
CONTINUOUS
 62
           7
100
AcDbCircle
 10
22.906261646214
 20
-29.338846372149
 40
6.0
100
AcDbArc
 50
-90.0
 51
-36.869897645842
  0
ARC
  5
33E
100
AcDbEntity
  8
1
  6
CONTINUOUS
 62
           7
100
AcDbCircle
 10
-9.593738353786
 20
-140.338846372149
 40
60.0
100
AcDbArc
 50
180.0
 51
-149.098920312287
  0
ARC
  5
33D
100
AcDbEntity
  8
1
  6
CONTINUOUS
 62
           7
100
AcDbCircle
 10
30.406261646214
 20
-98.838846372149
 40
84.5
100
AcDbArc
 50
-72.466957197563
 51
-61.045909519874
  0
ARC
  5
33C
100
AcDbEntity
  8
1
  6
CONTINUOUS
 62
           7
100
AcDbCircle
 10
30.406261646214
 20
-98.838846372149
 40
79.5
100
AcDbArc
 50
-64.836950119035
 51
-60.110512033419
  0
ARC
  5
33B
100
AcDbEntity
  8
1
  6
CONTINUOUS
 62
           7
100
AcDbCircle
 10
30.406261646214
 20
-98.838846372149
 40
79.5
100
AcDbArc
 50
-60.110512033419
 51
-44.497035512942
  0
ARC
  5
33A
100
AcDbEntity
  8
1
  6
CONTINUOUS
 62
           7
100
AcDbCircle
 10
30.406261646214
 20
-98.838846372149
 40
84.5
100
AcDbArc
 50
-61.045909519874
 51
-42.843643043596
  0
ARC
  5
339
100
AcDbEntity
  8
1
  6
CONTINUOUS
 62
           7
100
AcDbCircle
 10
4.406261646214
 20
-140.338846372149
 40
60.0
100
AcDbArc
 50
-24.790361481285
 51
-4.371846339193
  0
ARC
  5
338
100
AcDbEntity
  8
1
  6
CONTINUOUS
 62
           7
100
AcDbCircle
 10
-9.593738353786
 20
-140.338846372149
 40
60.0
100
AcDbArc
 50
-149.098920312287
 51
-142.915687017696
  0
ARC
  5
337
100
AcDbEntity
  8
1
  6
CONTINUOUS
 62
           7
100
AcDbCircle
 10
4.406261646214
 20
-140.338846372149
 40
60.0
100
AcDbArc
 50
-4.371846339193
 51
0.0
  0
ARC
  5
336
100
AcDbEntity
  8
1
  6
CONTINUOUS
 62
           7
100
AcDbCircle
 10
102.406261646213
 20
-34.266563510051
 40
8.0
100
AcDbArc
 50
98.989299345163
 51
142.537348927453
  0
ARC
  5
335
100
AcDbEntity
  8
1
  6
CONTINUOUS
 62
           7
100
AcDbCircle
 10
102.406261646213
 20
-34.266563510051
 40
8.0
100
AcDbArc
 50
37.462651072543
 51
81.010700654834
  0
ARC
  5
334
100
AcDbEntity
  8
1
  6
CONTINUOUS
 62
           7
100
AcDbCircle
 10
79.406261646214
 20
-42.338846372149
 40
7.0
100
AcDbArc
 50
45.58469140281
 51
134.415308597194
  0
ARC
  5
333
100
AcDbEntity
  8
1
  6
CONTINUOUS
 62
           7
100
AcDbCircle
 10
67.406261646214
 20
105.589781682405
 40
4.3
100
AcDbArc
 50
-111.528904405578
 51
-68.471095594422
  0
ARC
  5
332
100
AcDbEntity
  8
1
  6
CONTINUOUS
 62
           7
100
AcDbCircle
 10
67.406261646214
 20
105.589781682405
 40
4.3
100
AcDbArc
 50
68.471095594425
 51
111.528904405576
  0
ARC
  5
331
100
AcDbEntity
  8
1
  6
CONTINUOUS
 62
           7
100
AcDbCircle
 10
81.374449094544
 20
85.735786490926
 40
3.750328947368
100
AcDbArc
 50
-90.758873402837
 51
90.758873402837
  0
ARC
  5
330
100
AcDbEntity
  8
1
  6
CONTINUOUS
 62
           7
100
AcDbCircle
 10
-256.411892626739
 20
-258.180073243743
 40
16.5
100
AcDbArc
 50
-127.5
 51
-121.313541721393
  0
ARC
  5
32F
100
AcDbEntity
  8
1
  6
CONTINUOUS
 62
           7
100
AcDbCircle
 10
-256.411892626739
 20
-258.180073243743
 40
16.0
100
AcDbArc
 50
-116.25
 51
-113.801901714885
  0
ARC
  5
32E
100
AcDbEntity
  8
1
  6
CONTINUOUS
 62
           7
100
AcDbCircle
 10
-256.411892626739
 20
-258.180073243743
 40
16.0
100
AcDbArc
 50
-118.698528351989
 51
-116.25
  0
ARC
  5
32D
100
AcDbEntity
  8
1
  6
CONTINUOUS
 62
           7
100
AcDbCircle
 10
-256.411892626739
 20
-258.180073243743
 40
16.5
100
AcDbArc
 50
-111.184815245195
 51
-105.0
  0
ARC
  5
32C
100
AcDbEntity
  8
1
  6
CONTINUOUS
 62
           7
100
AcDbCircle
 10
-256.411892626739
 20
-258.180073243743
 40
16.5
100
AcDbArc
 50
-105.0
 51
-98.813541721393
  0
ARC
  5
32B
100
AcDbEntity
  8
1
  6
CONTINUOUS
 62
           7
100
AcDbCircle
 10
-256.411892626739
 20
-259.750779264528
 40
16.0
100
AcDbArc
 50
-116.25
 51
-113.801901714885
  0
ARC
  5
32A
100
AcDbEntity
  8
1
  6
CONTINUOUS
 62
           7
100
AcDbCircle
 10
-256.411892626739
 20
-259.750779264528
 40
16.0
100
AcDbArc
 50
-118.698528351989
 51
-116.25
  0
ARC
  5
329
100
AcDbEntity
  8
1
  6
CONTINUOUS
 62
           7
100
AcDbCircle
 10
-256.411892626739
 20
-259.750779264528
 40
16.0
100
AcDbArc
 50
-116.25
 51
-113.801901714885
  0
ARC
  5
328
100
AcDbEntity
  8
1
  6
CONTINUOUS
 62
           7
100
AcDbCircle
 10
-256.411892626739
 20
-258.180073243743
 40
16.5
100
AcDbArc
 50
-133.684815245195
 51
-127.5
  0
ARC
  5
327
100
AcDbEntity
  8
1
  6
CONTINUOUS
 62
           7
100
AcDbCircle
 10
-256.411892626739
 20
-258.180073243743
 40
16.0
100
AcDbArc
 50
-141.198528351989
 51
-138.749999999999
  0
ARC
  5
326
100
AcDbEntity
  8
1
  6
CONTINUOUS
 62
           7
100
AcDbCircle
 10
-256.411892626739
 20
-258.180073243743
 40
16.0
100
AcDbArc
 50
-138.749999999999
 51
-136.301901714885
  0
ARC
  5
325
100
AcDbEntity
  8
1
  6
CONTINUOUS
 62
           7
100
AcDbCircle
 10
-256.411892626739
 20
-258.180073243743
 40
16.5
100
AcDbArc
 50
-150.0
 51
-143.813541721393
  0
ARC
  5
324
100
AcDbEntity
  8
1
  6
CONTINUOUS
 62
           7
100
AcDbCircle
 10
-256.411892626739
 20
-258.180073243743
 40
16.5
100
AcDbArc
 50
-156.184815245195
 51
-150.0
  0
ARC
  5
323
100
AcDbEntity
  8
1
  6
CONTINUOUS
 62
           7
100
AcDbCircle
 10
-256.411892626739
 20
-259.750779264528
 40
16.0
100
AcDbArc
 50
-138.749999999999
 51
-136.301901714885
  0
ARC
  5
322
100
AcDbEntity
  8
1
  6
CONTINUOUS
 62
           7
100
AcDbCircle
 10
-256.411892626739
 20
-259.750779264528
 40
16.0
100
AcDbArc
 50
-138.749999999999
 51
-136.301901714885
  0
ARC
  5
321
100
AcDbEntity
  8
1
  6
CONTINUOUS
 62
           7
100
AcDbCircle
 10
-256.411892626739
 20
-259.750779264528
 40
16.0
100
AcDbArc
 50
-141.198528351989
 51
-138.749999999999
  0
ARC
  5
320
100
AcDbEntity
  8
1
  6
CONTINUOUS
 62
           7
100
AcDbCircle
 10
-256.411892626739
 20
-258.180073243743
 40
16.0
100
AcDbArc
 50
-163.698528351989
 51
-161.25
  0
ARC
  5
31F
100
AcDbEntity
  8
1
  6
CONTINUOUS
 62
           7
100
AcDbCircle
 10
-256.411892626739
 20
-258.180073243743
 40
16.0
100
AcDbArc
 50
-161.25
 51
-158.801901714885
  0
ARC
  5
31E
100
AcDbEntity
  8
1
  6
CONTINUOUS
 62
           7
100
AcDbCircle
 10
-256.411892626739
 20
-258.180073243743
 40
16.5
100
AcDbArc
 50
-178.684815245195
 51
-172.5
  0
ARC
  5
31D
100
AcDbEntity
  8
1
  6
CONTINUOUS
 62
           7
100
AcDbCircle
 10
-256.411892626739
 20
-258.180073243743
 40
16.5
100
AcDbArc
 50
-172.5
 51
-166.313541721393
  0
ARC
  5
31C
100
AcDbEntity
  8
1
  6
CONTINUOUS
 62
           7
100
AcDbCircle
 10
-256.411892626739
 20
-259.750779264528
 40
16.0
100
AcDbArc
 50
-163.698528351989
 51
-161.25
  0
ARC
  5
31B
100
AcDbEntity
  8
1
  6
CONTINUOUS
 62
           7
100
AcDbCircle
 10
-256.411892626739
 20
-259.750779264528
 40
16.0
100
AcDbArc
 50
-161.25
 51
-161.011194435964
  0
ARC
  5
31A
100
AcDbEntity
  8
1
  6
CONTINUOUS
 62
           7
100
AcDbCircle
 10
-256.411892626739
 20
-259.750779264528
 40
16.5
100
AcDbArc
 50
-178.684815245195
 51
-172.499999999999
  0
ARC
  5
319
100
AcDbEntity
  8
1
  6
CONTINUOUS
 62
           7
100
AcDbCircle
 10
-256.411892626739
 20
-258.180073243743
 40
16.5
100
AcDbArc
 50
158.815184754804
 51
165.0
  0
ARC
  5
318
100
AcDbEntity
  8
1
  6
CONTINUOUS
 62
           7
100
AcDbCircle
 10
-256.411892626739
 20
-258.180073243743
 40
16.5
100
AcDbArc
 50
165.0
 51
171.186458278606
  0
ARC
  5
317
100
AcDbEntity
  8
1
  6
CONTINUOUS
 62
           7
100
AcDbCircle
 10
-256.411892626739
 20
-258.180073243743
 40
16.0
100
AcDbArc
 50
176.25
 51
178.698098285114
  0
ARC
  5
316
100
AcDbEntity
  8
1
  6
CONTINUOUS
 62
           7
100
AcDbCircle
 10
-256.411892626739
 20
-258.180073243743
 40
16.0
100
AcDbArc
 50
173.80147164801
 51
176.25
  0
ARC
  5
315
100
AcDbEntity
  8
1
  6
CONTINUOUS
 62
           7
100
AcDbCircle
 10
-256.411892626739
 20
-258.180073243743
 40
16.0
100
AcDbArc
 50
153.75
 51
156.198098285114
  0
ARC
  5
314
100
AcDbEntity
  8
1
  6
CONTINUOUS
 62
           7
100
AcDbCircle
 10
-256.411892626739
 20
-258.180073243743
 40
16.0
100
AcDbArc
 50
151.30147164801
 51
153.75
  0
ARC
  5
313
100
AcDbEntity
  8
1
  6
CONTINUOUS
 62
           7
100
AcDbCircle
 10
-256.411892626739
 20
-258.180073243743
 40
16.5
100
AcDbArc
 50
142.499999999999
 51
148.686458278606
  0
ARC
  5
312
100
AcDbEntity
  8
1
  6
CONTINUOUS
 62
           7
100
AcDbCircle
 10
-256.411892626739
 20
-258.180073243743
 40
16.5
100
AcDbArc
 50
136.315184754804
 51
142.499999999999
  0
ARC
  5
311
100
AcDbEntity
  8
1
  6
CONTINUOUS
 62
           7
100
AcDbCircle
 10
-256.411892626739
 20
-258.180073243743
 40
16.0
100
AcDbArc
 50
128.801471648011
 51
131.25
  0
ARC
  5
310
100
AcDbEntity
  8
1
  6
CONTINUOUS
 62
           7
100
AcDbCircle
 10
-256.411892626739
 20
-258.180073243743
 40
16.0
100
AcDbArc
 50
131.25
 51
133.698098285114
  0
ARC
  5
30F
100
AcDbEntity
  8
1
  6
CONTINUOUS
 62
           7
100
AcDbCircle
 10
-256.411892626739
 20
-258.180073243743
 40
16.5
100
AcDbArc
 50
120.0
 51
126.186458278607
  0
ARC
  5
30E
100
AcDbEntity
  8
1
  6
CONTINUOUS
 62
           7
100
AcDbCircle
 10
-256.411892626739
 20
-258.180073243743
 40
16.5
100
AcDbArc
 50
113.815184754805
 51
120.0
  0
ARC
  5
30D
100
AcDbEntity
  8
1
  6
CONTINUOUS
 62
           7
100
AcDbCircle
 10
-256.411892626739
 20
-258.180073243743
 40
16.0
100
AcDbArc
 50
108.75
 51
111.198098285114
  0
ARC
  5
30C
100
AcDbEntity
  8
1
  6
CONTINUOUS
 62
           7
100
AcDbCircle
 10
-256.411892626739
 20
-258.180073243743
 40
16.5
100
AcDbArc
 50
75.0
 51
81.186458278606
  0
ARC
  5
30B
100
AcDbEntity
  8
1
  6
CONTINUOUS
 62
           7
100
AcDbCircle
 10
-256.411892626739
 20
-258.180073243743
 40
16.5
100
AcDbArc
 50
68.815184754805
 51
75.0
  0
ARC
  5
30A
100
AcDbEntity
  8
1
  6
CONTINUOUS
 62
           7
100
AcDbCircle
 10
-256.411892626739
 20
-258.180073243743
 40
16.0
100
AcDbArc
 50
106.301471648011
 51
108.75
  0
ARC
  5
309
100
AcDbEntity
  8
1
  6
CONTINUOUS
 62
           7
100
AcDbCircle
 10
-256.411892626739
 20
-258.180073243743
 40
16.0
100
AcDbArc
 50
86.25
 51
88.698098285114
  0
ARC
  5
308
100
AcDbEntity
  8
1
  6
CONTINUOUS
 62
           7
100
AcDbCircle
 10
-256.411892626739
 20
-258.180073243743
 40
16.0
100
AcDbArc
 50
83.801471648011
 51
86.25
  0
ARC
  5
307
100
AcDbEntity
  8
1
  6
CONTINUOUS
 62
           7
100
AcDbCircle
 10
-256.411892626739
 20
-258.180073243743
 40
16.5
100
AcDbArc
 50
91.315184754805
 51
97.5
  0
ARC
  5
306
100
AcDbEntity
  8
1
  6
CONTINUOUS
 62
           7
100
AcDbCircle
 10
-256.411892626739
 20
-258.180073243743
 40
16.5
100
AcDbArc
 50
97.5
 51
103.686458278606
  0
ARC
  5
305
100
AcDbEntity
  8
1
  6
CONTINUOUS
 62
           7
100
AcDbCircle
 10
-256.411892626739
 20
-258.180073243743
 40
16.0
100
AcDbArc
 50
61.30147164801
 51
63.75
  0
ARC
  5
304
100
AcDbEntity
  8
1
  6
CONTINUOUS
 62
           7
100
AcDbCircle
 10
-256.411892626739
 20
-258.180073243743
 40
16.0
100
AcDbArc
 50
63.75
 51
66.198098285114
  0
ARC
  5
303
100
AcDbEntity
  8
1
  6
CONTINUOUS
 62
           7
100
AcDbCircle
 10
-256.411892626739
 20
-258.180073243743
 40
16.5
100
AcDbArc
 50
46.315184754805
 51
52.5
  0
ARC
  5
302
100
AcDbEntity
  8
1
  6
CONTINUOUS
 62
           7
100
AcDbCircle
 10
-256.411892626739
 20
-258.180073243743
 40
16.5
100
AcDbArc
 50
52.5
 51
58.686458278607
  0
ARC
  5
301
100
AcDbEntity
  8
1
  6
CONTINUOUS
 62
           7
100
AcDbCircle
 10
-256.411892626739
 20
-258.180073243743
 40
16.5
100
AcDbArc
 50
30.0
 51
36.186458278606
  0
ARC
  5
300
100
AcDbEntity
  8
1
  6
CONTINUOUS
 62
           7
100
AcDbCircle
 10
-256.411892626739
 20
-258.180073243743
 40
16.0
100
AcDbArc
 50
41.25
 51
43.698098285114
  0
ARC
  5
2FF
100
AcDbEntity
  8
1
  6
CONTINUOUS
 62
           7
100
AcDbCircle
 10
-256.411892626739
 20
-258.180073243743
 40
16.0
100
AcDbArc
 50
38.80147164801
 51
41.25
  0
ARC
  5
2FE
100
AcDbEntity
  8
1
  6
CONTINUOUS
 62
           7
100
AcDbCircle
 10
-256.411892626739
 20
-258.180073243743
 40
16.5
100
AcDbArc
 50
7.5
 51
13.686458278606
  0
ARC
  5
2FD
100
AcDbEntity
  8
1
  6
CONTINUOUS
 62
           7
100
AcDbCircle
 10
-256.411892626739
 20
-258.180073243743
 40
16.5
100
AcDbArc
 50
1.315184754804
 51
7.5
  0
ARC
  5
2FC
100
AcDbEntity
  8
1
  6
CONTINUOUS
 62
           7
100
AcDbCircle
 10
-256.411892626739
 20
-258.180073243743
 40
16.0
100
AcDbArc
 50
-3.75
 51
-1.301901714886
  0
ARC
  5
2FB
100
AcDbEntity
  8
1
  6
CONTINUOUS
 62
           7
100
AcDbCircle
 10
-256.411892626739
 20
-258.180073243743
 40
16.0
100
AcDbArc
 50
18.75
 51
21.198098285115
  0
ARC
  5
2FA
100
AcDbEntity
  8
1
  6
CONTINUOUS
 62
           7
100
AcDbCircle
 10
-256.411892626739
 20
-258.180073243743
 40
16.0
100
AcDbArc
 50
16.301471648011
 51
18.75
  0
ARC
  5
2F9
100
AcDbEntity
  8
1
  6
CONTINUOUS
 62
           7
100
AcDbCircle
 10
-256.411892626739
 20
-258.180073243743
 40
16.5
100
AcDbArc
 50
23.815184754804
 51
30.0
  0
ARC
  5
2F8
100
AcDbEntity
  8
1
  6
CONTINUOUS
 62
           7
100
AcDbCircle
 10
-256.411892626739
 20
-258.180073243743
 40
16.0
100
AcDbArc
 50
-6.198528351989
 51
-3.75
  0
ARC
  5
2F7
100
AcDbEntity
  8
1
  6
CONTINUOUS
 62
           7
100
AcDbCircle
 10
-256.411892626739
 20
-258.180073243743
 40
16.5
100
AcDbArc
 50
-15.0
 51
-8.813541721394
  0
ARC
  5
2F6
100
AcDbEntity
  8
1
  6
CONTINUOUS
 62
           7
100
AcDbCircle
 10
-256.411892626739
 20
-259.750779264528
 40
16.0
100
AcDbArc
 50
-1.619603582077
 51
-1.301471648011
  0
ARC
  5
2F5
100
AcDbEntity
  8
1
  6
CONTINUOUS
 62
           7
100
AcDbCircle
 10
-256.411892626739
 20
-258.180073243743
 40
16.5
100
AcDbArc
 50
-21.184815245195
 51
-15.0
  0
ARC
  5
2F4
100
AcDbEntity
  8
1
  6
CONTINUOUS
 62
           7
100
AcDbCircle
 10
-256.411892626739
 20
-258.180073243743
 40
16.0
100
AcDbArc
 50
-28.69852835199
 51
-26.249999999999
  0
ARC
  5
2F3
100
AcDbEntity
  8
1
  6
CONTINUOUS
 62
           7
100
AcDbCircle
 10
-256.411892626739
 20
-258.180073243743
 40
16.0
100
AcDbArc
 50
-26.249999999999
 51
-23.801901714885
  0
ARC
  5
2F2
100
AcDbEntity
  8
1
  6
CONTINUOUS
 62
           7
100
AcDbCircle
 10
-256.411892626739
 20
-258.180073243743
 40
16.5
100
AcDbArc
 50
-37.5
 51
-31.313541721393
  0
ARC
  5
2F1
100
AcDbEntity
  8
1
  6
CONTINUOUS
 62
           7
100
AcDbCircle
 10
-256.411892626739
 20
-259.750779264528
 40
16.5
100
AcDbArc
 50
-37.5
 51
-31.313541721393
  0
ARC
  5
2F0
100
AcDbEntity
  8
1
  6
CONTINUOUS
 62
           7
100
AcDbCircle
 10
-256.411892626739
 20
-259.750779264528
 40
16.0
100
AcDbArc
 50
-27.788370701362
 51
-26.249999999999
  0
ARC
  5
2EF
100
AcDbEntity
  8
1
  6
CONTINUOUS
 62
           7
100
AcDbCircle
 10
-256.411892626739
 20
-259.750779264528
 40
16.0
100
AcDbArc
 50
-26.249999999999
 51
-23.801901714885
  0
ARC
  5
2EE
100
AcDbEntity
  8
1
  6
CONTINUOUS
 62
           7
100
AcDbCircle
 10
-256.411892626739
 20
-259.750779264528
 40
16.5
100
AcDbArc
 50
-21.184815245195
 51
-15.0
  0
ARC
  5
2ED
100
AcDbEntity
  8
1
  6
CONTINUOUS
 62
           7
100
AcDbCircle
 10
-256.411892626739
 20
-259.750779264528
 40
16.5
100
AcDbArc
 50
-15.0
 51
-8.813541721393
  0
ARC
  5
2EC
100
AcDbEntity
  8
1
  6
CONTINUOUS
 62
           7
100
AcDbCircle
 10
-256.411892626739
 20
-258.180073243743
 40
16.5
100
AcDbArc
 50
-60.0
 51
-53.813541721393
  0
ARC
  5
2EB
100
AcDbEntity
  8
1
  6
CONTINUOUS
 62
           7
100
AcDbCircle
 10
-256.411892626739
 20
-258.180073243743
 40
16.0
100
AcDbArc
 50
-48.75
 51
-46.301901714885
  0
ARC
  5
2EA
100
AcDbEntity
  8
1
  6
CONTINUOUS
 62
           7
100
AcDbCircle
 10
-256.411892626739
 20
-258.180073243743
 40
16.0
100
AcDbArc
 50
-51.198528351989
 51
-48.75
  0
ARC
  5
2E9
100
AcDbEntity
  8
1
  6
CONTINUOUS
 62
           7
100
AcDbCircle
 10
-256.411892626739
 20
-258.180073243743
 40
16.5
100
AcDbArc
 50
-43.684815245195
 51
-37.5
  0
ARC
  5
2E8
100
AcDbEntity
  8
1
  6
CONTINUOUS
 62
           7
100
AcDbCircle
 10
-256.411892626739
 20
-259.750779264528
 40
16.0
100
AcDbArc
 50
-51.198528351989
 51
-48.75
  0
ARC
  5
2E7
100
AcDbEntity
  8
1
  6
CONTINUOUS
 62
           7
100
AcDbCircle
 10
-256.411892626739
 20
-259.750779264528
 40
16.0
100
AcDbArc
 50
-48.75
 51
-46.301901714885
  0
ARC
  5
2E6
100
AcDbEntity
  8
1
  6
CONTINUOUS
 62
           7
100
AcDbCircle
 10
-256.411892626739
 20
-258.180073243743
 40
16.5
100
AcDbArc
 50
-66.184815245196
 51
-60.0
  0
ARC
  5
2E5
100
AcDbEntity
  8
1
  6
CONTINUOUS
 62
           7
100
AcDbCircle
 10
-256.411892626739
 20
-258.180073243743
 40
16.5
100
AcDbArc
 50
-82.5
 51
-76.313541721393
  0
ARC
  5
2E4
100
AcDbEntity
  8
1
  6
CONTINUOUS
 62
           7
100
AcDbCircle
 10
-256.411892626739
 20
-258.180073243743
 40
16.0
100
AcDbArc
 50
-96.198528351989
 51
-93.749999999999
  0
ARC
  5
2E3
100
AcDbEntity
  8
1
  6
CONTINUOUS
 62
           7
100
AcDbCircle
 10
-256.411892626739
 20
-258.180073243743
 40
16.0
100
AcDbArc
 50
-93.749999999999
 51
-91.301901714885
  0
ARC
  5
2E2
100
AcDbEntity
  8
1
  6
CONTINUOUS
 62
           7
100
AcDbCircle
 10
-256.411892626739
 20
-258.180073243743
 40
16.0
100
AcDbArc
 50
-71.249999999999
 51
-68.801901714885
  0
ARC
  5
2E1
100
AcDbEntity
  8
1
  6
CONTINUOUS
 62
           7
100
AcDbCircle
 10
-256.411892626739
 20
-258.180073243743
 40
16.0
100
AcDbArc
 50
-73.698528351989
 51
-71.249999999999
  0
ARC
  5
2E0
100
AcDbEntity
  8
1
  6
CONTINUOUS
 62
           7
100
AcDbCircle
 10
-256.411892626739
 20
-259.750779264528
 40
16.5
100
AcDbArc
 50
-88.684815245195
 51
-82.499999999999
  0
ARC
  5
2DF
100
AcDbEntity
  8
1
  6
CONTINUOUS
 62
           7
100
AcDbCircle
 10
-256.411892626739
 20
-259.750779264528
 40
16.5
100
AcDbArc
 50
-82.499999999999
 51
-76.313541721393
  0
ARC
  5
2DE
100
AcDbEntity
  8
1
  6
CONTINUOUS
 62
           7
100
AcDbCircle
 10
-256.411892626739
 20
-259.750779264528
 40
16.0
100
AcDbArc
 50
-73.698528351989
 51
-71.25
  0
ARC
  5
2DD
100
AcDbEntity
  8
1
  6
CONTINUOUS
 62
           7
100
AcDbCircle
 10
-256.411892626739
 20
-259.750779264528
 40
16.0
100
AcDbArc
 50
-71.25
 51
-68.801901714885
  0
ARC
  5
2DC
100
AcDbEntity
  8
1
  6
CONTINUOUS
 62
           7
100
AcDbCircle
 10
-256.411892626739
 20
-259.750779264528
 40
16.0
100
AcDbArc
 50
-93.749999999999
 51
-91.301901714885
  0
ARC
  5
2DB
100
AcDbEntity
  8
1
  6
CONTINUOUS
 62
           7
100
AcDbCircle
 10
-256.411892626739
 20
-259.750779264528
 40
16.0
100
AcDbArc
 50
-96.198528351989
 51
-93.749999999999
  0
ARC
  5
2DA
100
AcDbEntity
  8
1
  6
CONTINUOUS
 62
           7
100
AcDbCircle
 10
-256.411892626739
 20
-258.180073243743
 40
16.5
100
AcDbArc
 50
-88.684815245195
 51
-82.5
  0
ARC
  5
2D9
100
AcDbEntity
  8
1
  6
CONTINUOUS
 62
           7
100
AcDbCircle
 10
-2.593738353786
 20
105.589781682405
 40
15.270304137247
100
AcDbArc
 50
22.494198386904
 51
180.0
  0
ARC
  5
2D8
100
AcDbEntity
  8
1
  6
CONTINUOUS
 62
           7
100
AcDbCircle
 10
-256.411892626739
 20
-259.750779264528
 40
17.0
100
AcDbArc
 50
180.0
 51
27.555323117547
  0
ARC
  5
2D7
100
AcDbEntity
  8
1
  6
CONTINUOUS
 62
           7
100
AcDbCircle
 10
-256.411892626739
 20
-259.750779264528
 40
17.0
100
AcDbArc
 50
158.909376414882
 51
180.0
  0
ARC
  5
2D6
100
AcDbEntity
  8
1
  6
CONTINUOUS
 62
           7
100
AcDbCircle
 10
-256.411892626739
 20
-259.750779264528
 40
16.5
100
AcDbArc
 50
171.294153081348
 51
175.114277136025
  0
ARC
  5
2D5
100
AcDbEntity
  8
1
  6
CONTINUOUS
 62
           7
100
AcDbCircle
 10
-256.411892626739
 20
-259.750779264528
 40
16.5
100
AcDbArc
 50
178.804707968099
 51
180.0
  0
ARC
  5
2D4
100
AcDbEntity
  8
1
  6
CONTINUOUS
 62
           7
100
AcDbCircle
 10
-256.411892626739
 20
-259.750779264528
 40
16.5
100
AcDbArc
 50
180.0
 51
1.475371564
  0
ARC
  5
2D3
100
AcDbEntity
  8
1
  6
CONTINUOUS
 62
           7
100
AcDbCircle
 10
-256.411892626739
 20
-259.750779264528
 40
16.5
100
AcDbArc
 50
178.703193499016
 51
178.804707968099
  0
ARC
  5
2D2
100
AcDbEntity
  8
1
  6
CONTINUOUS
 62
           7
100
AcDbCircle
 10
-256.411892626739
 20
-259.750779264528
 40
17.0
100
AcDbArc
 50
146.370466121785
 51
152.783586641297
  0
ARC
  5
2D1
100
AcDbEntity
  8
1
  6
CONTINUOUS
 62
           7
100
AcDbCircle
 10
-2.593738353786
 20
105.589781682405
 40
15.270304137247
100
AcDbArc
 50
180.0
 51
-22.494198386904
  0
ARC
  5
2D0
100
AcDbEntity
  8
1
  6
CONTINUOUS
 62
           7
100
AcDbCircle
 10
-2.593738353786
 20
105.589781682405
 40
65.0
100
AcDbArc
 50
90.881508306806
 51
-90.881508306806
  0
ARC
  5
2CF
100
AcDbEntity
  8
1
  6
CONTINUOUS
 62
           7
100
AcDbCircle
 10
-2.593738353786
 20
105.589781682405
 40
69.0
100
AcDbArc
 50
-119.7973908688
 51
-90.830402687479
  0
ARC
  5
2CE
100
AcDbEntity
  8
1
  6
CONTINUOUS
 62
           7
100
AcDbCircle
 10
-249.411892626739
 20
-140.338846372149
 40
60.0
100
AcDbArc
 50
-39.267711010257
 51
0.0
  0
ARC
  5
2CD
100
AcDbEntity
  8
1
  6
CONTINUOUS
 62
           7
100
AcDbCircle
 10
-256.411892626739
 20
-110.338846372149
 40
25.0
100
AcDbArc
 50
-90.0
 51
-11.83364399151
  0
ARC
  5
2CC
100
AcDbEntity
  8
1
  6
CONTINUOUS
 62
           7
100
AcDbCircle
 10
-256.411892626739
 20
-110.338846372149
 40
25.0
100
AcDbArc
 50
-168.16635600849
 51
-90.0
  0
ARC
  5
2CB
100
AcDbEntity
  8
1
  6
CONTINUOUS
 62
           7
100
AcDbCircle
 10
-263.411892626739
 20
-140.338846372149
 40
60.0
100
AcDbArc
 50
180.0
 51
-140.732288989743
  0
ARC
  5
2CA
100
AcDbEntity
  8
1
  6
CONTINUOUS
 62
           7
100
AcDbCircle
 10
-2.593738353786
 20
105.589781682405
 40
69.0
100
AcDbArc
 50
90.830402687479
 51
119.7973908688
  0
ARC
  5
2C9
100
AcDbEntity
  8
1
  6
CONTINUOUS
 62
           7
100
AcDbCircle
 10
-2.593738353786
 20
105.589781682405
 40
15.7
100
AcDbArc
 50
21.436544129307
 51
180.0
  0
ARC
  5
2C8
100
AcDbEntity
  8
1
  6
CONTINUOUS
 62
           7
100
AcDbCircle
 10
99.406261646214
 20
105.589781682405
 40
10.0
100
AcDbArc
 50
85.58827421423
 51
120.558431785934
  0
ARC
  5
2C7
100
AcDbEntity
  8
1
  6
CONTINUOUS
 62
           7
100
AcDbCircle
 10
-2.593738353786
 20
105.589781682405
 40
15.7
100
AcDbArc
 50
180.0
 51
-21.436544129307
  0
ARC
  5
2C6
100
AcDbEntity
  8
1
  6
CONTINUOUS
 62
           7
100
AcDbCircle
 10
99.406261646214
 20
105.589781682405
 40
10.0
100
AcDbArc
 50
-120.558431785934
 51
-85.588274214229
  0
ARC
  5
2C5
100
AcDbEntity
  8
1
  6
CONTINUOUS
 62
           7
100
AcDbCircle
 10
-122.593738353786
 20
105.589781682405
 40
139.0
100
AcDbArc
 50
1.947929704099
 51
27.876919239093
  0
ARC
  5
2C4
100
AcDbEntity
  8
1
  6
CONTINUOUS
 62
           7
100
AcDbCircle
 10
-2.593738353786
 20
105.589781682405
 40
71.0
100
AcDbArc
 50
6.063683870529
 51
90.807009493071
  0
ARC
  5
2C3
100
AcDbEntity
  8
1
  6
CONTINUOUS
 62
           7
100
AcDbCircle
 10
-2.593738353786
 20
105.589781682405
 40
71.0
100
AcDbArc
 50
-90.807009493071
 51
-6.063683870529
  0
ARC
  5
2C2
100
AcDbEntity
  8
1
  6
CONTINUOUS
 62
           7
100
AcDbCircle
 10
-122.593738353786
 20
105.589781682405
 40
135.0
100
AcDbArc
 50
2.409313568691
 51
28.178406721157
  0
ARC
  5
2C1
100
AcDbEntity
  8
1
  6
CONTINUOUS
 62
           7
100
AcDbCircle
 10
-122.593738353786
 20
105.589781682405
 40
139.0
100
AcDbArc
 50
-27.876919239093
 51
-1.947929704099
  0
ARC
  5
2C0
100
AcDbEntity
  8
1
  6
CONTINUOUS
 62
           7
100
AcDbCircle
 10
-122.593738353786
 20
105.589781682405
 40
135.0
100
AcDbArc
 50
-28.178406721157
 51
-2.409313568691
  0
ARC
  5
2BF
100
AcDbEntity
  8
1
  6
CONTINUOUS
 62
           7
100
AcDbCircle
 10
79.406261646214
 20
105.589781682405
 40
4.898979485566
100
AcDbArc
 50
54.740807953691
 51
125.264389682752
  0
ARC
  5
2BE
100
AcDbEntity
  8
1
  6
CONTINUOUS
 62
           7
100
AcDbCircle
 10
79.406261646214
 20
105.589781682405
 40
5.5
100
AcDbArc
 50
46.938645317009
 51
133.341758227223
  0
ARC
  5
2BD
100
AcDbEntity
  8
1
  6
CONTINUOUS
 62
           7
100
AcDbCircle
 10
79.406261646214
 20
105.589781682405
 40
5.5
100
AcDbArc
 50
-133.341758227223
 51
-46.938645317009
  0
ARC
  5
2BC
100
AcDbEntity
  8
1
  6
CONTINUOUS
 62
           7
100
AcDbCircle
 10
79.406261646214
 20
105.589781682405
 40
4.898979485566
100
AcDbArc
 50
-125.264389682755
 51
-54.740807953689
  0
ARC
  5
2BB
100
AcDbEntity
  8
1
  6
CONTINUOUS
 62
           7
100
AcDbCircle
 10
47.406261646214
 20
95.189781682404
 40
2.75
100
AcDbArc
 50
124.696602356268
 51
0.0
  0
ARC
  5
2BA
100
AcDbEntity
  8
1
  6
CONTINUOUS
 62
           7
100
AcDbCircle
 10
47.406261646214
 20
95.189781682404
 40
2.75
100
AcDbArc
 50
0.0
 51
55.303397643736
  0
ARC
  5
2B9
100
AcDbEntity
  8
1
  6
CONTINUOUS
 62
           7
100
AcDbCircle
 10
47.406261646214
 20
95.189781682404
 40
1.4
100
AcDbArc
 50
105.25752329046
 51
74.74247670955
  0
ARC
  5
2B8
100
AcDbEntity
  8
1
  6
CONTINUOUS
 62
           7
100
AcDbCircle
 10
2.906261646214
 20
97.339781682404
 40
1.75
100
AcDbArc
 50
128.478595133299
 51
51.521404866706
  0
ARC
  5
2B7
100
AcDbEntity
  8
1
  6
CONTINUOUS
 62
           7
100
AcDbCircle
 10
2.906261646214
 20
97.339781682404
 40
0.85
100
AcDbArc
 50
111.738460791536
 51
68.261539208478
  0
ARC
  5
2B6
100
AcDbEntity
  8
1
  6
CONTINUOUS
 62
           7
100
AcDbCircle
 10
-318.545699849538
 20
-36.129679705482
 40
2.290833333334
100
AcDbArc
 50
35.320806183299
 51
159.804991231849
  0
ARC
  5
2B5
100
AcDbEntity
  8
1
  6
CONTINUOUS
 62
           7
100
AcDbCircle
 10
-194.27808540394
 20
-36.129679705482
 40
2.290833333333
100
AcDbArc
 50
20.195008768148
 51
144.679193816696
  0
ARC
  5
2B4
100
AcDbEntity
  8
1
  6
CONTINUOUS
 62
           7
100
AcDbCircle
 10
-262.036892626739
 20
-234.699734387973
 40
6.625
100
AcDbArc
 50
-31.890791801846
 51
31.890791801846
  0
ARC
  5
2B3
100
AcDbEntity
  8
1
  6
CONTINUOUS
 62
           7
100
AcDbCircle
 10
-259.036892626739
 20
-234.699734387973
 40
6.625
100
AcDbArc
 50
-31.890791801846
 51
31.890791801846
  0
ARC
  5
2B2
100
AcDbEntity
  8
1
  6
CONTINUOUS
 62
           7
100
AcDbCircle
 10
-256.036892626739
 20
-234.699734387973
 40
6.625
100
AcDbArc
 50
-31.890791801846
 51
31.890791801846
  0
ARC
  5
2B1
100
AcDbEntity
  8
1
  6
CONTINUOUS
 62
           7
100
AcDbCircle
 10
-253.036892626739
 20
-234.699734387973
 40
6.625
100
AcDbArc
 50
-31.890791801846
 51
31.890791801846
  0
ARC
  5
2B0
100
AcDbEntity
  8
1
  6
CONTINUOUS
 62
           7
100
AcDbCircle
 10
-250.036892626739
 20
-234.699734387973
 40
6.625
100
AcDbArc
 50
-31.890791801846
 51
31.890791801846
  0
ARC
  5
2AF
100
AcDbEntity
  8
1
  6
CONTINUOUS
 62
           7
100
AcDbCircle
 10
-247.036892626739
 20
-234.699734387973
 40
6.625
100
AcDbArc
 50
-31.890791801846
 51
31.890791801846
  0
ARC
  5
2AE
100
AcDbEntity
  8
1
  6
CONTINUOUS
 62
           7
100
AcDbCircle
 10
-244.036892626739
 20
-234.699734387973
 40
6.625
100
AcDbArc
 50
-31.890791801846
 51
31.890791801846
  0
ARC
  5
2AD
100
AcDbEntity
  8
1
  6
CONTINUOUS
 62
           7
100
AcDbCircle
 10
-265.036892626739
 20
-234.699734387973
 40
6.625
100
AcDbArc
 50
-31.890791801846
 51
31.890791801846
  0
ARC
  5
2AC
100
AcDbEntity
  8
1
  6
CONTINUOUS
 62
           7
100
AcDbCircle
 10
-268.036892626739
 20
-234.699734387973
 40
6.625
100
AcDbArc
 50
-31.890791801846
 51
31.890791801846
  0
ARC
  5
2AB
100
AcDbEntity
  8
1
  6
CONTINUOUS
 62
           7
100
AcDbCircle
 10
-271.036892626739
 20
-234.699734387973
 40
6.625
100
AcDbArc
 50
-31.890791801846
 51
31.890791801846
  0
ARC
  5
2AA
100
AcDbEntity
  8
1
  6
CONTINUOUS
 62
           7
100
AcDbCircle
 10
-274.036892626739
 20
-234.699734387973
 40
6.625
100
AcDbArc
 50
-31.890791801846
 51
31.890791801846
  0
ARC
  5
2A9
100
AcDbEntity
  8
1
  6
CONTINUOUS
 62
           7
100
AcDbCircle
 10
-280.036892626739
 20
-234.699734387973
 40
6.625
100
AcDbArc
 50
-31.890791801846
 51
31.890791801846
  0
ARC
  5
2A8
100
AcDbEntity
  8
1
  6
CONTINUOUS
 62
           7
100
AcDbCircle
 10
-277.036892626739
 20
-234.699734387973
 40
6.625
100
AcDbArc
 50
-31.890791801846
 51
31.890791801846
  0
ARC
  5
2A7
100
AcDbEntity
  8
1
  6
CONTINUOUS
 62
           7
100
AcDbCircle
 10
-281.791189100951
 20
-234.699734387973
 40
6.688124941443
100
AcDbArc
 50
43.151631884378
 51
-60.506050313273
  0
ARC
  5
2A6
100
AcDbEntity
  8
1
  6
CONTINUOUS
 62
           7
100
AcDbCircle
 10
-281.791189100951
 20
-234.699734387973
 40
6.688124941443
100
AcDbArc
 50
-60.506050313273
 51
-43.151631884379
  0
LINE
  5
2A5
100
AcDbEntity
  8
1
  6
DOT_CENTER
 62
           2
100
AcDbLine
 10
102.856261646214
 20
-12.195486412191
 11
102.856261646214
 21
-176.00226062864
  0
LINE
  5
2A4
100
AcDbEntity
  8
1
  6
DOT_CENTER
 62
           2
100
AcDbLine
 10
67.63676155302
 20
-267.883218947753
 11
-66.801837210675
 21
-256.121365615617
  0
LINE
  5
2A3
100
AcDbEntity
  8
1
  6
DOT_CENTER
 62
           2
100
AcDbLine
 10
-2.593738353786
 20
-9.872856919153
 11
-2.593738353786
 21
-301.196650813276
  0
LINE
  5
2A2
100
AcDbEntity
  8
1
  6
CONTINUOUS
 62
           7
100
AcDbLine
 10
18.212436807977
 20
-268.485373884237
 11
19.079126195316
 21
-268.561199380428
  0
LINE
  5
2A1
100
AcDbEntity
  8
1
  6
CONTINUOUS
 62
           7
100
AcDbLine
 10
18.651411367254
 20
-273.45000223585
 11
20.076017196958
 21
-272.254616009573
  0
LINE
  5
2A0
100
AcDbEntity
  8
1
  6
CONTINUOUS
 62
           7
100
AcDbLine
 10
16.589335753637
 20
-271.949570909956
 11
17.784721979914
 21
-273.37417673966
  0
LINE
  5
29F
100
AcDbEntity
  8
1
  6
CONTINUOUS
 62
           7
100
AcDbLine
 10
20.362270679505
 20
-253.89479081416
 11
21.557656905782
 21
-255.319396643864
  0
LINE
  5
29E
100
AcDbEntity
  8
1
  6
CONTINUOUS
 62
           7
100
AcDbLine
 10
18.070975462461
 20
-255.014351544247
 11
19.495581292165
 21
-253.818965317969
  0
LINE
  5
29D
100
AcDbEntity
  8
1
  6
CONTINUOUS
 62
           7
100
AcDbLine
 10
18.070975462461
 20
-255.014351544247
 11
16.589335753637
 21
-271.949570909956
  0
LINE
  5
29C
100
AcDbEntity
  8
1
  6
CONTINUOUS
 62
           7
100
AcDbLine
 10
20.362270679505
 20
-253.89479081416
 11
19.495581292165
 21
-253.818965317969
  0
LINE
  5
29B
100
AcDbEntity
  8
1
  6
CONTINUOUS
 62
           7
100
AcDbLine
 10
18.651411367254
 20
-273.45000223585
 11
17.784721979914
 21
-273.37417673966
  0
LINE
  5
29A
100
AcDbEntity
  8
1
  6
CONTINUOUS
 62
           7
100
AcDbLine
 10
21.557656905782
 20
-255.319396643864
 11
20.076017196958
 21
-272.254616009573
  0
LINE
  5
299
100
AcDbEntity
  8
1
  6
CONTINUOUS
 62
           7
100
AcDbLine
 10
19.934555851442
 20
-258.783593669583
 11
19.067866464102
 21
-258.707768173392
  0
LINE
  5
298
100
AcDbEntity
  8
1
  6
CONTINUOUS
 62
           6
100
AcDbLine
 10
21.388288562436
 20
-257.255285666733
 11
20.814934508771
 21
-263.80875248813
  0
LINE
  5
297
100
AcDbEntity
  8
1
  6
CONTINUOUS
 62
           7
100
AcDbLine
 10
-42.723458949386
 20
-244.101281697372
 11
-42.949264779148
 21
-246.682254141823
  0
LINE
  5
296
100
AcDbEntity
  8
1
  6
CONTINUOUS
 62
           7
100
AcDbLine
 10
-25.290051732781
 20
-245.626507195457
 11
-42.723458949386
 21
-244.101281697372
  0
LINE
  5
295
100
AcDbEntity
  8
1
  6
CONTINUOUS
 62
           7
100
AcDbLine
 10
-25.208909546435
 20
-244.699047761568
 11
-42.64231676304
 21
-243.173822263483
  0
LINE
  5
294
100
AcDbEntity
  8
1
  6
CONTINUOUS
 62
           7
100
AcDbLine
 10
-26.51658690149
 20
-259.645868324978
 11
-25.078517146153
 21
-243.208655806465
  0
LINE
  5
293
100
AcDbEntity
  8
1
  6
CONTINUOUS
 62
           7
100
AcDbLine
 10
-43.087816982448
 20
-248.265913072198
 11
-43.408564765477
 21
-251.932077008213
  0
LINE
  5
292
100
AcDbEntity
  8
1
  6
CONTINUOUS
 62
           7
100
AcDbLine
 10
-43.583433668757
 20
-253.930837718829
 11
-43.949994118095
 21
-258.120642826893
  0
LINE
  5
291
100
AcDbEntity
  8
1
  6
CONTINUOUS
 62
           7
100
AcDbLine
 10
-25.515857562543
 20
-248.207479639908
 11
-42.949264779148
 21
-246.682254141823
  0
LINE
  5
290
100
AcDbEntity
  8
1
  6
CONTINUOUS
 62
           7
100
AcDbLine
 10
-25.654409765842
 20
-249.791138570283
 11
-43.087816982448
 21
-248.265913072198
  0
LINE
  5
28F
100
AcDbEntity
  8
1
  6
CONTINUOUS
 62
           7
100
AcDbLine
 10
-25.975157548872
 20
-253.457302506299
 11
-43.408564765477
 21
-251.932077008213
  0
LINE
  5
28E
100
AcDbEntity
  8
1
  6
CONTINUOUS
 62
           7
100
AcDbLine
 10
-26.150026452151
 20
-255.456063216914
 11
-43.583433668757
 21
-253.930837718829
  0
LINE
  5
28D
100
AcDbEntity
  8
1
  6
CONTINUOUS
 62
           7
100
AcDbLine
 10
-42.512293098593
 20
-241.687644978256
 11
-42.64231676304
 21
-243.173822263483
  0
LINE
  5
28C
100
AcDbEntity
  8
1
  6
CONTINUOUS
 62
           7
100
AcDbLine
 10
-42.559969374573
 20
-241.683473844589
 11
-26.573177929125
 21
-243.082136862219
  0
LINE
  5
28B
100
AcDbEntity
  8
1
  6
CONTINUOUS
 62
           7
100
AcDbLine
 10
-42.559969374573
 20
-241.683473844589
 11
-43.079746306002
 21
-242.436808195479
  0
LINE
  5
28A
100
AcDbEntity
  8
1
  6
CONTINUOUS
 62
           7
100
AcDbLine
 10
-44.448091467141
 20
-258.077064955519
 11
-43.079746306002
 21
-242.436808195479
  0
LINE
  5
289
100
AcDbEntity
  8
1
  6
CONTINUOUS
 62
           7
100
AcDbLine
 10
-44.473554865917
 20
-242.314865747361
 11
-57.610415555697
 21
-247.891132274226
  0
LINE
  5
288
100
AcDbEntity
  8
1
  6
CONTINUOUS
 62
           7
100
AcDbLine
 10
-43.079746306002
 20
-242.436808195479
 11
-44.473554865917
 21
-242.314865747361
  0
LINE
  5
287
100
AcDbEntity
  8
1
  6
CONTINUOUS
 62
           7
100
AcDbLine
 10
-26.573177929125
 20
-243.082136862219
 11
-25.078885881988
 21
-243.212870476341
  0
LINE
  5
286
100
AcDbEntity
  8
1
  6
CONTINUOUS
 62
           7
100
AcDbLine
 10
-57.610415555697
 20
-247.891132274226
 11
-58.394817240426
 21
-256.856884557051
  0
LINE
  5
285
100
AcDbEntity
  8
1
  6
CONTINUOUS
 62
           7
100
AcDbLine
 10
-26.51658690149
 20
-259.645868324978
 11
-27.823554306872
 21
-274.584574126478
  0
LINE
  5
284
100
AcDbEntity
  8
1
  6
CONTINUOUS
 62
           7
100
AcDbLine
 10
-58.394817240426
 20
-256.856884557051
 11
-59.179218925155
 21
-265.822636839877
  0
LINE
  5
283
100
AcDbEntity
  8
1
  6
CONTINUOUS
 62
           7
100
AcDbLine
 10
-27.954287920993
 20
-276.078866173615
 11
-29.448579968131
 21
-275.948132559494
  0
LINE
  5
282
100
AcDbEntity
  8
1
  6
CONTINUOUS
 62
           7
100
AcDbLine
 10
-27.823554306872
 20
-274.584574126478
 11
-27.954287920993
 21
-276.078866173615
  0
LINE
  5
281
100
AcDbEntity
  8
1
  6
CONTINUOUS
 62
           7
100
AcDbLine
 10
-47.210245188195
 20
-273.595379267442
 11
-45.816436628281
 21
-273.717321715559
  0
LINE
  5
280
100
AcDbEntity
  8
1
  6
CONTINUOUS
 62
           7
100
AcDbLine
 10
-59.179218925155
 20
-265.822636839877
 11
-47.210245188195
 21
-273.595379267442
  0
LINE
  5
27F
100
AcDbEntity
  8
1
  6
CONTINUOUS
 62
           7
100
AcDbLine
 10
-45.816436628281
 20
-273.717321715559
 11
-44.448091467141
 21
-258.077064955519
  0
LINE
  5
27E
100
AcDbEntity
  8
1
  6
CONTINUOUS
 62
           7
100
AcDbLine
 10
-45.816436628281
 20
-273.717321715559
 11
-45.435371413578
 21
-274.549469541863
  0
LINE
  5
27D
100
AcDbEntity
  8
1
  6
CONTINUOUS
 62
           7
100
AcDbLine
 10
-26.701448643993
 20
-261.758847710569
 11
-44.1348558606
 21
-260.233622212484
  0
LINE
  5
27C
100
AcDbEntity
  8
1
  6
CONTINUOUS
 62
           7
100
AcDbLine
 10
-27.058567523006
 20
-265.840735175973
 11
-44.491974739611
 21
-264.315509677888
  0
LINE
  5
27B
100
AcDbEntity
  8
1
  6
CONTINUOUS
 62
           7
100
AcDbLine
 10
-27.224727311316
 20
-267.739950246973
 11
-44.658134527921
 21
-266.214724748888
  0
LINE
  5
27A
100
AcDbEntity
  8
1
  6
CONTINUOUS
 62
           7
100
AcDbLine
 10
-27.517738163385
 20
-271.089079611396
 11
-44.95114537999
 21
-269.563854113312
  0
LINE
  5
279
100
AcDbEntity
  8
1
  6
CONTINUOUS
 62
           7
100
AcDbLine
 10
-27.640198020551
 20
-272.48880218379
 11
-45.073605237156
 21
-270.963576685704
  0
LINE
  5
278
100
AcDbEntity
  8
1
  6
CONTINUOUS
 62
           7
100
AcDbLine
 10
-27.884609122469
 20
-275.282433862088
 11
-45.318016339074
 21
-273.757208364003
  0
LINE
  5
277
100
AcDbEntity
  8
1
  6
CONTINUOUS
 62
           7
100
AcDbLine
 10
-29.448579968131
 20
-275.948132559494
 11
-45.435371413578
 21
-274.549469541863
  0
LINE
  5
276
100
AcDbEntity
  8
1
  6
CONTINUOUS
 62
           7
100
AcDbLine
 10
-44.1348558606
 20
-260.233622212484
 11
-44.491974739611
 21
-264.315509677888
  0
LINE
  5
275
100
AcDbEntity
  8
1
  6
CONTINUOUS
 62
           7
100
AcDbLine
 10
-44.658134527921
 20
-266.214724748888
 11
-44.95114537999
 21
-269.563854113312
  0
LINE
  5
274
100
AcDbEntity
  8
1
  6
CONTINUOUS
 62
           7
100
AcDbLine
 10
-27.824492599599
 20
-274.595298861431
 11
-45.257899816205
 21
-273.070073363346
  0
LINE
  5
273
100
AcDbEntity
  8
1
  6
CONTINUOUS
 62
           7
100
AcDbLine
 10
-45.073605237156
 20
-270.963576685704
 11
-45.257899816205
 21
-273.070073363346
  0
LINE
  5
272
100
AcDbEntity
  8
1
  6
CONTINUOUS
 62
           7
100
AcDbLine
 10
-45.318016339074
 20
-273.757208364003
 11
-45.387695137598
 21
-274.55364067553
  0
LINE
  5
271
100
AcDbEntity
  8
1
  6
CONTINUOUS
 62
           7
100
AcDbLine
 10
-26.51658690149
 20
-259.645868324978
 11
-43.949994118095
 21
-258.120642826893
  0
LINE
  5
270
100
AcDbEntity
  8
1
  6
CONTINUOUS
 62
           7
100
AcDbLine
 10
4.906261646214
 20
-28.338846372149
 11
5.606261646214
 21
-25.726410806852
  0
LINE
  5
26F
100
AcDbEntity
  8
1
  6
CONTINUOUS
 62
           7
100
AcDbLine
 10
0.906261646214
 20
-28.338846372149
 11
0.206261646214
 21
-25.72641080685
  0
LINE
  5
26E
100
AcDbEntity
  8
1
  6
CONTINUOUS
 62
           7
100
AcDbLine
 10
0.906261646214
 20
-28.338846372149
 11
0.906261646214
 21
-34.497394424275
  0
LINE
  5
26D
100
AcDbEntity
  8
1
  6
CONTINUOUS
 62
           7
100
AcDbLine
 10
1.206261646214
 20
-14.838846372149
 11
4.606261646214
 21
-14.838846372149
  0
LINE
  5
26C
100
AcDbEntity
  8
1
  6
CONTINUOUS
 62
           7
100
AcDbLine
 10
0.206261646214
 20
-25.72641080685
 11
0.206261646214
 21
-25.338846372149
  0
LINE
  5
26B
100
AcDbEntity
  8
1
  6
CONTINUOUS
 62
           7
100
AcDbLine
 10
4.906261646214
 20
-33.749437137275
 11
4.906261646214
 21
-28.338846372149
  0
LINE
  5
26A
100
AcDbEntity
  8
1
  6
CONTINUOUS
 62
           7
100
AcDbLine
 10
5.606261646214
 20
-25.338846372149
 11
5.606261646214
 21
-25.726410806852
  0
LINE
  5
269
100
AcDbEntity
  8
1
  6
CONTINUOUS
 62
           7
100
AcDbLine
 10
19.406261646214
 20
-16.027286888345
 11
19.406261646214
 21
-24.338846372149
  0
LINE
  5
268
100
AcDbEntity
  8
1
  6
CONTINUOUS
 62
           7
100
AcDbLine
 10
10.906261646214
 20
-15.338846372149
 11
10.906261646214
 21
-25.338846372149
  0
LINE
  5
267
100
AcDbEntity
  8
1
  6
CONTINUOUS
 62
           7
100
AcDbLine
 10
-0.593738353786
 20
-15.338846372149
 11
10.906261646214
 21
-15.338846372149
  0
LINE
  5
266
100
AcDbEntity
  8
1
  6
CONTINUOUS
 62
           7
100
AcDbLine
 10
-0.593738353786
 20
-25.338846372149
 11
39.683775595194
 21
-25.338846372149
  0
LINE
  5
265
100
AcDbEntity
  8
1
  6
CONTINUOUS
 62
           7
100
AcDbLine
 10
-0.593738353786
 20
-15.338846372149
 11
-0.593738353786
 21
-25.338846372149
  0
LINE
  5
264
100
AcDbEntity
  8
1
  6
CONTINUOUS
 62
           7
100
AcDbLine
 10
63.106261646214
 20
-35.338846372149
 11
63.106261646214
 21
-34.838846372149
  0
LINE
  5
263
100
AcDbEntity
  8
1
  6
CONTINUOUS
 62
           7
100
AcDbLine
 10
66.106261646214
 20
-31.838846372149
 11
66.656261646214
 21
-31.838846372149
  0
LINE
  5
262
100
AcDbEntity
  8
1
  6
CONTINUOUS
 62
           7
100
AcDbLine
 10
71.706261646214
 20
-34.838846372149
 11
71.706261646214
 21
-35.338846372149
  0
LINE
  5
261
100
AcDbEntity
  8
1
  6
CONTINUOUS
 62
           7
100
AcDbLine
 10
71.706261646214
 20
-35.338846372149
 11
63.106261646214
 21
-35.338846372149
  0
LINE
  5
260
100
AcDbEntity
  8
1
  6
CONTINUOUS
 62
           7
100
AcDbLine
 10
66.656261646214
 20
-31.838846372149
 11
66.656261646214
 21
-33.338846372149
  0
LINE
  5
25F
100
AcDbEntity
  8
1
  6
CONTINUOUS
 62
           7
100
AcDbLine
 10
66.656261646214
 20
-33.338846372149
 11
68.156261646214
 21
-33.338846372149
  0
LINE
  5
25E
100
AcDbEntity
  8
1
  6
CONTINUOUS
 62
           7
100
AcDbLine
 10
68.156261646214
 20
-33.338846372149
 11
68.156261646214
 21
-31.838846372149
  0
LINE
  5
25D
100
AcDbEntity
  8
1
  6
CONTINUOUS
 62
           7
100
AcDbLine
 10
68.156261646214
 20
-31.838846372149
 11
68.706261646214
 21
-31.838846372149
  0
LINE
  5
25C
100
AcDbEntity
  8
1
  6
CONTINUOUS
 62
           7
100
AcDbLine
 10
-235.765613225723
 20
-272.154025876035
 11
-240.998206263029
 21
-266.921432838728
  0
LINE
  5
25B
100
AcDbEntity
  8
1
  6
CONTINUOUS
 62
           7
100
AcDbLine
 10
-249.801526978964
 20
-275.396019979834
 11
-244.404567154243
 21
-280.792979804555
  0
LINE
  5
25A
100
AcDbEntity
  8
1
  6
CONTINUOUS
 62
           7
100
AcDbLine
 10
-235.765613225723
 20
-272.154025876035
 11
-244.424952656379
 21
-280.772594302419
  0
LINE
  5
259
100
AcDbEntity
  8
1
  6
CONTINUOUS
 62
           7
100
AcDbLine
 10
-244.84921672509
 20
-281.196858371131
 11
-244.828831222955
 21
-281.217243873267
  0
LINE
  5
258
100
AcDbEntity
  8
1
  6
CONTINUOUS
 62
           7
100
AcDbLine
 10
-235.361734659146
 20
-271.709376305188
 11
-235.341349157011
 21
-271.729761807323
  0
LINE
  5
257
100
AcDbEntity
  8
1
  6
CONTINUOUS
 62
           7
100
AcDbLine
 10
-241.717561385734
 20
-281.217243873267
 11
-235.341349157011
 21
-274.841031644544
  0
LINE
  5
256
100
AcDbEntity
  8
1
  6
CONTINUOUS
 62
           7
100
AcDbLine
 10
-254.411892626739
 20
-28.338846372149
 11
-255.161892626739
 21
-25.72641080685
  0
LINE
  5
255
100
AcDbEntity
  8
1
  6
CONTINUOUS
 62
           7
100
AcDbLine
 10
-258.411892626739
 20
-28.338846372149
 11
-257.661892626739
 21
-25.72641080685
  0
LINE
  5
254
100
AcDbEntity
  8
1
  6
DOT_CENTER
 62
           2
100
AcDbLine
 10
-271.081440199709
 20
-20.338846372149
 11
-239.996876849187
 21
-20.338846372149
  0
LINE
  5
253
100
AcDbEntity
  8
1
  6
CONTINUOUS
 62
           7
100
AcDbLine
 10
-255.161892626739
 20
-14.838846372149
 11
-255.161892626739
 21
-25.72641080685
  0
LINE
  5
252
100
AcDbEntity
  8
1
  6
CONTINUOUS
 62
           7
100
AcDbLine
 10
-257.661892626739
 20
-14.838846372149
 11
-255.161892626739
 21
-14.838846372149
  0
LINE
  5
251
100
AcDbEntity
  8
1
  6
CONTINUOUS
 62
           7
100
AcDbLine
 10
-257.661892626739
 20
-25.72641080685
 11
-257.661892626739
 21
-14.838846372149
  0
LINE
  5
250
100
AcDbEntity
  8
1
  6
CONTINUOUS
 62
           7
100
AcDbLine
 10
-254.411892626739
 20
-28.338846372149
 11
-254.411892626739
 21
-33.338846372149
  0
LINE
  5
24F
100
AcDbEntity
  8
1
  6
CONTINUOUS
 62
           7
100
AcDbLine
 10
-258.411892626739
 20
-28.338846372149
 11
-258.411892626739
 21
-33.338846372149
  0
LINE
  5
24E
100
AcDbEntity
  8
1
  6
CONTINUOUS
 62
           7
100
AcDbLine
 10
-3.404239275559
 20
109.097184567731
 11
-5.593738353786
 21
105.589781682405
  0
LINE
  5
24D
100
AcDbEntity
  8
1
  6
CONTINUOUS
 62
           7
100
AcDbLine
 10
-5.593738353786
 20
105.589781682405
 11
-3.404239275559
 21
102.082378797077
  0
LINE
  5
24C
100
AcDbEntity
  8
1
  6
CONTINUOUS
 62
           7
100
AcDbLine
 10
-3.404239275559
 20
102.082378797077
 11
-0.593738353786
 21
102.082378797077
  0
LINE
  5
24B
100
AcDbEntity
  8
1
  6
CONTINUOUS
 62
           7
100
AcDbLine
 10
0.085025567822
 20
106.839781682405
 11
5.70766710549
 21
106.839781682405
  0
LINE
  5
24A
100
AcDbEntity
  8
1
  6
CONTINUOUS
 62
           7
100
AcDbLine
 10
5.70766710549
 20
106.839781682405
 11
5.70766710549
 21
104.339781682405
  0
LINE
  5
249
100
AcDbEntity
  8
1
  6
CONTINUOUS
 62
           7
100
AcDbLine
 10
5.70766710549
 20
104.339781682405
 11
0.085025567822
 21
104.339781682405
  0
LINE
  5
248
100
AcDbEntity
  8
1
  6
CONTINUOUS
 62
           7
100
AcDbLine
 10
0.085025567822
 20
104.339781682405
 11
0.085025567822
 21
106.839781682405
  0
LINE
  5
247
100
AcDbEntity
  8
1
  6
CONTINUOUS
 62
           7
100
AcDbLine
 10
-1.366507206427
 20
107.589781682405
 11
-0.593738353786
 21
107.589781682405
  0
LINE
  5
246
100
AcDbEntity
  8
1
  6
CONTINUOUS
 62
           7
100
AcDbLine
 10
-1.366549595372
 20
103.589781682405
 11
-0.593738353786
 21
103.589781682405
  0
LINE
  5
245
100
AcDbEntity
  8
1
  6
CONTINUOUS
 62
           7
100
AcDbLine
 10
5.483642515816
 20
104.339781682405
 11
4.990772763407
 21
104.189781682404
  0
LINE
  5
244
100
AcDbEntity
  8
1
  6
CONTINUOUS
 62
           7
100
AcDbLine
 10
5.483642515816
 20
106.839781682405
 11
4.990772763407
 21
106.989781682405
  0
LINE
  5
243
100
AcDbEntity
  8
1
  6
CONTINUOUS
 62
           7
100
AcDbLine
 10
0.085025567822
 20
104.339781682405
 11
0.550927459453
 21
104.189781682404
  0
LINE
  5
242
100
AcDbEntity
  8
1
  6
CONTINUOUS
 62
           7
100
AcDbLine
 10
0.085025567822
 20
106.839781682405
 11
0.550927459454
 21
106.989781682405
  0
LINE
  5
241
100
AcDbEntity
  8
1
  6
CONTINUOUS
 62
           7
100
AcDbLine
 10
-0.593738353786
 20
109.097184567731
 11
-3.404239275559
 21
109.097184567731
  0
LINE
  5
240
100
AcDbEntity
  8
1
  6
DOT_CENTER
 62
           2
100
AcDbLine
 10
47.406261646214
 20
96.589781682404
 11
47.406261646214
 21
90.407934372991
  0
LINE
  5
23F
100
AcDbEntity
  8
1
  6
CONTINUOUS
 62
           7
100
AcDbLine
 10
-257.811892626739
 20
-25.338846372149
 11
-257.661892626739
 21
-25.338846372149
  0
LINE
  5
23E
100
AcDbEntity
  8
1
  6
CONTINUOUS
 62
           7
100
AcDbLine
 10
-255.011892626739
 20
-25.338846372149
 11
-255.161892626739
 21
-25.338846372149
  0
LINE
  5
23D
100
AcDbEntity
  8
1
  6
CONTINUOUS
 62
           7
100
AcDbLine
 10
-255.161892626739
 20
-15.338846372149
 11
-255.011892626739
 21
-15.338846372149
  0
LINE
  5
23C
100
AcDbEntity
  8
1
  6
CONTINUOUS
 62
           7
100
AcDbLine
 10
-257.811892626739
 20
-15.338846372149
 11
-257.661892626739
 21
-15.338846372149
  0
LINE
  5
23B
100
AcDbEntity
  8
1
  6
CONTINUOUS
 62
           7
100
AcDbLine
 10
-246.841358703353
 20
-19.663846372149
 11
-249.261892626739
 21
-18.250466104651
  0
LINE
  5
23A
100
AcDbEntity
  8
1
  6
CONTINUOUS
 62
           7
100
AcDbLine
 10
-0.593738353786
 20
104.189781682404
 11
-0.593738353786
 21
99.589781682404
  0
LINE
  5
239
100
AcDbEntity
  8
1
  6
DOT_CENTER
 62
           2
100
AcDbLine
 10
47.406261646214
 20
116.811486434562
 11
47.406261646214
 21
96.589781682404
  0
LINE
  5
238
100
AcDbEntity
  8
1
  6
DOT_CENTER
 62
           2
100
AcDbLine
 10
2.906261646214
 20
116.589781682405
 11
2.906261646214
 21
94.589781682404
  0
LINE
  5
237
100
AcDbEntity
  8
1
  6
CONTINUOUS
 62
           7
100
AcDbLine
 10
8.006261646214
 20
104.189781682404
 11
-0.593738353786
 21
104.189781682404
  0
LINE
  5
236
100
AcDbEntity
  8
1
  6
CONTINUOUS
 62
           7
100
AcDbLine
 10
-0.593738353786
 20
106.989781682405
 11
8.006261646214
 21
106.989781682405
  0
LINE
  5
235
100
AcDbEntity
  8
1
  6
CONTINUOUS
 62
           7
100
AcDbLine
 10
17.71160612748
 20
109.988524157401
 11
12.036031992037
 21
111.32395336574
  0
LINE
  5
234
100
AcDbEntity
  8
1
  6
CONTINUOUS
 62
           7
100
AcDbLine
 10
12.036031992037
 20
99.855609999069
 11
17.71160612748
 21
101.191039207408
  0
LINE
  5
233
100
AcDbEntity
  8
1
  6
CONTINUOUS
 62
           7
100
AcDbLine
 10
21.147196133363
 20
109.589781682405
 11
82.110253577633
 21
109.589781682405
  0
LINE
  5
232
100
AcDbEntity
  8
1
  6
CONTINUOUS
 62
           7
100
AcDbLine
 10
21.147196133363
 20
101.589781682405
 11
82.110253577633
 21
101.589781682405
  0
LINE
  5
231
100
AcDbEntity
  8
1
  6
CONTINUOUS
 62
           7
100
AcDbLine
 10
-0.593738353786
 20
99.589781682404
 11
9.745638654782
 21
99.589781682404
  0
LINE
  5
230
100
AcDbEntity
  8
1
  6
CONTINUOUS
 62
           7
100
AcDbLine
 10
-0.593738353786
 20
111.589781682405
 11
-0.593738353786
 21
106.989781682405
  0
LINE
  5
22F
100
AcDbEntity
  8
1
  6
CONTINUOUS
 62
           7
100
AcDbLine
 10
9.745638654782
 20
111.589781682405
 11
-0.593738353786
 21
111.589781682405
  0
LINE
  5
22E
100
AcDbEntity
  8
1
  6
CONTINUOUS
 62
           7
100
AcDbLine
 10
-259.911892626739
 20
-15.338846372149
 11
-257.811892626739
 21
-15.338846372149
  0
LINE
  5
22D
100
AcDbEntity
  8
1
  6
CONTINUOUS
 62
           7
100
AcDbLine
 10
-257.811892626739
 20
-15.338846372149
 11
-257.811892626739
 21
-25.338846372149
  0
LINE
  5
22C
100
AcDbEntity
  8
1
  6
CONTINUOUS
 62
           7
100
AcDbLine
 10
-257.811892626739
 20
-25.338846372149
 11
-259.911892626739
 21
-25.338846372149
  0
LINE
  5
22B
100
AcDbEntity
  8
1
  6
CONTINUOUS
 62
           7
100
AcDbLine
 10
-262.411892626739
 20
-22.838846372149
 11
-262.411892626739
 21
-17.838846372149
  0
LINE
  5
22A
100
AcDbEntity
  8
1
  6
CONTINUOUS
 62
           7
100
AcDbLine
 10
-255.011892626739
 20
-15.338846372149
 11
-252.911892626739
 21
-15.338846372149
  0
LINE
  5
229
100
AcDbEntity
  8
1
  6
CONTINUOUS
 62
           7
100
AcDbLine
 10
-250.411892626739
 20
-17.838846372149
 11
-250.411892626739
 21
-22.838846372149
  0
LINE
  5
228
100
AcDbEntity
  8
1
  6
CONTINUOUS
 62
           7
100
AcDbLine
 10
-252.911892626739
 20
-25.338846372149
 11
-255.011892626739
 21
-25.338846372149
  0
LINE
  5
227
100
AcDbEntity
  8
1
  6
CONTINUOUS
 62
           7
100
AcDbLine
 10
-255.011892626739
 20
-25.338846372149
 11
-255.011892626739
 21
-15.338846372149
  0
LINE
  5
226
100
AcDbEntity
  8
1
  6
CONTINUOUS
 62
           7
100
AcDbLine
 10
-249.261892626739
 20
-27.338846372149
 11
-247.411892626739
 21
-27.338846372149
  0
LINE
  5
225
100
AcDbEntity
  8
1
  6
CONTINUOUS
 62
           7
100
AcDbLine
 10
-244.911892626739
 20
-24.838846372149
 11
-244.911892626739
 21
-22.225693552607
  0
LINE
  5
224
100
AcDbEntity
  8
1
  6
CONTINUOUS
 62
           7
100
AcDbLine
 10
-263.561892626739
 20
-18.250466104651
 11
-266.672503155745
 21
-20.066790800244
  0
LINE
  5
223
100
AcDbEntity
  8
1
  6
CONTINUOUS
 62
           7
100
AcDbLine
 10
-267.911892626739
 20
-22.225693552607
 11
-267.911892626739
 21
-24.838846372149
  0
LINE
  5
222
100
AcDbEntity
  8
1
  6
CONTINUOUS
 62
           7
100
AcDbLine
 10
-265.411892626739
 20
-27.338846372149
 11
-263.561892626739
 21
-27.338846372149
  0
LINE
  5
221
100
AcDbEntity
  8
1
  6
CONTINUOUS
 62
           7
100
AcDbLine
 10
23.54123535973
 20
-255.492891674511
 11
23.475868552669
 21
-256.240037698079
  0
LINE
  5
220
100
AcDbEntity
  8
1
  6
CONTINUOUS
 62
           7
100
AcDbLine
 10
22.12495454008
 20
-271.681055518502
 11
22.800411546374
 21
-263.960546608291
  0
LINE
  5
21F
100
AcDbEntity
  8
1
  6
CONTINUOUS
 62
           7
100
AcDbLine
 10
32.343458600408
 20
-269.721678095113
 11
23.128997152076
 21
-268.915517177887
  0
LINE
  5
21E
100
AcDbEntity
  8
1
  6
CONTINUOUS
 62
           7
100
AcDbLine
 10
22.05958773302
 20
-272.42820154207
 11
22.12495454008
 21
-271.681055518502
  0
LINE
  5
21D
100
AcDbEntity
  8
1
  6
CONTINUOUS
 62
           7
100
AcDbLine
 10
31.915743772346
 20
-274.610480950536
 11
31.899616000994
 21
-274.794822220608
  0
LINE
  5
21C
100
AcDbEntity
  8
1
  6
CONTINUOUS
 62
           7
100
AcDbLine
 10
33.642730855948
 20
-254.870928258773
 11
33.626603084596
 21
-255.055269528845
  0
LINE
  5
21B
100
AcDbEntity
  8
1
  6
CONTINUOUS
 62
           2
100
AcDbLine
 10
62.202185268145
 20
-261.663396111418
 11
57.927463595697
 21
-261.28940642535
  0
LINE
  5
21A
100
AcDbEntity
  8
1
  6
CONTINUOUS
 62
           2
100
AcDbLine
 10
61.204687792398
 20
-273.064844431078
 11
56.92996611995
 21
-272.69085474501
  0
LINE
  5
219
100
AcDbEntity
  8
1
  6
CONTINUOUS
 62
           7
100
AcDbLine
 10
58.002068911489
 20
-260.436663763783
 11
61.424047922371
 21
-260.736048134059
  0
LINE
  5
218
100
AcDbEntity
  8
1
  6
CONTINUOUS
 62
           7
100
AcDbLine
 10
56.855360804157
 20
-273.543597406576
 11
60.27733981504
 21
-273.842981776852
  0
LINE
  5
217
100
AcDbEntity
  8
1
  6
CONTINUOUS
 62
           7
100
AcDbLine
 10
61.204687792398
 20
-273.064844431078
 11
60.27733981504
 21
-273.842981776852
  0
LINE
  5
216
100
AcDbEntity
  8
1
  6
CONTINUOUS
 62
           7
100
AcDbLine
 10
60.27733981504
 20
-273.842981776852
 11
61.424047922371
 21
-260.736048134059
  0
LINE
  5
215
100
AcDbEntity
  8
1
  6
CONTINUOUS
 62
           7
100
AcDbLine
 10
61.424047922371
 20
-260.736048134059
 11
62.202185268145
 21
-261.663396111418
  0
LINE
  5
214
100
AcDbEntity
  8
1
  6
CONTINUOUS
 62
           7
100
AcDbLine
 10
62.202185268145
 20
-261.663396111418
 11
61.204687792398
 21
-273.064844431078
  0
LINE
  5
213
100
AcDbEntity
  8
1
  6
CONTINUOUS
 62
           7
100
AcDbLine
 10
55.166813371601
 20
-261.271230740634
 11
54.114102732823
 21
-273.303768401535
  0
LINE
  5
212
100
AcDbEntity
  8
1
  6
CONTINUOUS
 62
           7
100
AcDbLine
 10
51.20012395434
 20
-272.189558511726
 11
54.188708048616
 21
-272.451025739969
  0
LINE
  5
211
100
AcDbEntity
  8
1
  6
CONTINUOUS
 62
           7
100
AcDbLine
 10
56.855360804157
 20
-273.543597406576
 11
54.114102732823
 21
-273.303768401535
  0
LINE
  5
210
100
AcDbEntity
  8
1
  6
CONTINUOUS
 62
           7
100
AcDbLine
 10
58.090105904059
 20
-260.444366002604
 11
55.260810840155
 21
-260.196834758742
  0
LINE
  5
20F
100
AcDbEntity
  8
1
  6
CONTINUOUS
 62
           7
100
AcDbLine
 10
52.197621430087
 20
-260.788110192066
 11
55.186205524363
 21
-261.049577420309
  0
LINE
  5
20E
100
AcDbEntity
  8
1
  6
CONTINUOUS
 62
           7
100
AcDbLine
 10
52.197621430087
 20
-260.788110192066
 11
51.137651112393
 21
-272.903626362691
  0
LINE
  5
20D
100
AcDbEntity
  8
1
  6
CONTINUOUS
 62
           7
100
AcDbLine
 10
50.578040723507
 20
-256.352575885483
 11
52.570430119691
 21
-256.526887370978
  0
LINE
  5
20C
100
AcDbEntity
  8
1
  6
CONTINUOUS
 62
           7
100
AcDbLine
 10
50.490884980759
 20
-257.348770583575
 11
50.578040723507
 21
-256.352575885483
  0
LINE
  5
20B
100
AcDbEntity
  8
1
  6
CONTINUOUS
 62
           7
100
AcDbLine
 10
47.850969030816
 20
-257.117807865294
 11
50.490884980759
 21
-257.348770583575
  0
LINE
  5
20A
100
AcDbEntity
  8
1
  6
CONTINUOUS
 62
           7
100
AcDbLine
 10
36.631314950223
 20
-255.132395487016
 11
33.642730855948
 21
-254.870928258773
  0
LINE
  5
209
100
AcDbEntity
  8
1
  6
CONTINUOUS
 62
           7
100
AcDbLine
 10
34.888200095269
 20
-275.056289448851
 11
36.631314950223
 21
-255.132395487016
  0
LINE
  5
208
100
AcDbEntity
  8
1
  6
CONTINUOUS
 62
           7
100
AcDbLine
 10
31.899616000994
 20
-274.794822220608
 11
34.888200095269
 21
-275.056289448851
  0
LINE
  5
207
100
AcDbEntity
  8
1
  6
CONTINUOUS
 62
           7
100
AcDbLine
 10
37.06736470401
 20
-274.243121810529
 11
34.975355838017
 21
-274.060094750759
  0
LINE
  5
206
100
AcDbEntity
  8
1
  6
CONTINUOUS
 62
           7
100
AcDbLine
 10
50.185839881143
 20
-260.835452026896
 11
49.177264329713
 21
-272.363523331025
  0
LINE
  5
205
100
AcDbEntity
  8
1
  6
CONTINUOUS
 62
           7
100
AcDbLine
 10
21.492294057664
 20
-256.066497416508
 11
20.141380045075
 21
-271.50751523693
  0
LINE
  5
204
100
AcDbEntity
  8
1
  6
CONTINUOUS
 62
           7
100
AcDbLine
 10
23.484683453848
 20
-256.240808902003
 11
21.492294057664
 21
-256.066497416508
  0
LINE
  5
203
100
AcDbEntity
  8
1
  6
CONTINUOUS
 62
           7
100
AcDbLine
 10
22.12495454008
 20
-271.681055518502
 11
20.141380045075
 21
-271.50751523693
  0
LINE
  5
202
100
AcDbEntity
  8
1
  6
CONTINUOUS
 62
           7
100
AcDbLine
 10
23.54123535973
 20
-255.492891674511
 11
24.412141636264
 21
-254.249108611619
  0
LINE
  5
201
100
AcDbEntity
  8
1
  6
CONTINUOUS
 62
           7
100
AcDbLine
 10
22.701282324013
 20
-273.80432003331
 11
22.05958773302
 21
-272.42820154207
  0
LINE
  5
200
100
AcDbEntity
  8
1
  6
CONTINUOUS
 62
           7
100
AcDbLine
 10
24.412141636264
 20
-254.249108611619
 11
33.626603084596
 21
-255.055269528845
  0
LINE
  5
1FF
100
AcDbEntity
  8
1
  6
CONTINUOUS
 62
           7
100
AcDbLine
 10
31.915743772346
 20
-274.610480950536
 11
22.701282324013
 21
-273.80432003331
  0
LINE
  5
1FE
100
AcDbEntity
  8
1
  6
CONTINUOUS
 62
           2
100
AcDbLine
 10
54.188708048616
 20
-272.451025739969
 11
56.92996611995
 21
-272.69085474501
  0
LINE
  5
1FD
100
AcDbEntity
  8
1
  6
CONTINUOUS
 62
           7
100
AcDbLine
 10
55.260810840155
 20
-260.196834758742
 11
55.166813371601
 21
-261.271230740634
  0
LINE
  5
1FC
100
AcDbEntity
  8
1
  6
CONTINUOUS
 62
           2
100
AcDbLine
 10
55.186205524363
 20
-261.049577420309
 11
57.927463595697
 21
-261.28940642535
  0
LINE
  5
1FB
100
AcDbEntity
  8
1
  6
CONTINUOUS
 62
           7
100
AcDbLine
 10
52.570430119691
 20
-256.526887370978
 11
52.178229277326
 21
-261.009763512391
  0
LINE
  5
1FA
100
AcDbEntity
  8
1
  6
CONTINUOUS
 62
           7
100
AcDbLine
 10
50.490884980759
 20
-257.348770583575
 11
50.185839881143
 21
-260.835452026896
  0
LINE
  5
1F9
100
AcDbEntity
  8
1
  6
CONTINUOUS
 62
           3
100
AcDbLine
 10
44.466272525554
 20
-281.430466571791
 11
44.403873603009
 21
-282.17614734066
  0
LINE
  5
1F8
100
AcDbEntity
  8
1
  6
CONTINUOUS
 62
           3
100
AcDbLine
 10
39.484491425725
 20
-281.036377510568
 11
39.422900113379
 21
-281.740368617454
  0
LINE
  5
1F7
100
AcDbEntity
  8
1
  6
CONTINUOUS
 62
           7
100
AcDbLine
 10
44.522138835786
 20
-278.637492154212
 11
39.920912618918
 21
-278.234937021918
  0
LINE
  5
1F6
100
AcDbEntity
  8
1
  6
CONTINUOUS
 62
           7
100
AcDbLine
 10
46.576238277355
 20
-281.65643382597
 11
44.522138835786
 21
-278.637492154212
  0
LINE
  5
1F5
100
AcDbEntity
  8
1
  6
CONTINUOUS
 62
           7
100
AcDbLine
 10
37.373785843618
 20
-280.851323561382
 11
39.920912618918
 21
-278.234937021918
  0
LINE
  5
1F4
100
AcDbEntity
  8
1
  6
CONTINUOUS
 62
           7
100
AcDbLine
 10
44.029111502056
 20
-284.272820365434
 11
39.427885285187
 21
-283.87026523314
  0
LINE
  5
1F3
100
AcDbEntity
  8
1
  6
CONTINUOUS
 62
           7
100
AcDbLine
 10
37.373785843618
 20
-280.851323561382
 11
39.427885285187
 21
-283.87026523314
  0
LINE
  5
1F2
100
AcDbEntity
  8
1
  6
CONTINUOUS
 62
           7
100
AcDbLine
 10
46.576238277355
 20
-281.65643382597
 11
44.029111502056
 21
-284.272820365434
  0
LINE
  5
1F1
100
AcDbEntity
  8
1
  6
CONTINUOUS
 62
           7
100
AcDbLine
 10
44.806788299632
 20
-275.383933894491
 11
40.205562082764
 21
-274.981378762197
  0
LINE
  5
1F0
100
AcDbEntity
  8
1
  6
CONTINUOUS
 62
           7
100
AcDbLine
 10
46.860887741202
 20
-278.402875566249
 11
44.806788299632
 21
-275.383933894491
  0
LINE
  5
1EF
100
AcDbEntity
  8
1
  6
CONTINUOUS
 62
           7
100
AcDbLine
 10
37.658435307465
 20
-277.597765301661
 11
40.205562082764
 21
-274.981378762197
  0
LINE
  5
1EE
100
AcDbEntity
  8
1
  6
CONTINUOUS
 62
           7
100
AcDbLine
 10
46.860887741202
 20
-278.402875566249
 11
46.576238277355
 21
-281.65643382597
  0
LINE
  5
1ED
100
AcDbEntity
  8
1
  6
CONTINUOUS
 62
           7
100
AcDbLine
 10
37.373785843618
 20
-280.851323561382
 11
37.658435307465
 21
-277.597765301661
  0
LINE
  5
1EC
100
AcDbEntity
  8
1
  6
CONTINUOUS
 62
           7
100
AcDbLine
 10
44.806788299632
 20
-275.383933894491
 11
44.522138835786
 21
-278.637492154212
  0
LINE
  5
1EB
100
AcDbEntity
  8
1
  6
CONTINUOUS
 62
           7
100
AcDbLine
 10
40.205562082764
 20
-274.981378762197
 11
39.920912618918
 21
-278.234937021918
  0
LINE
  5
1EA
100
AcDbEntity
  8
1
  6
CONTINUOUS
 62
           7
100
AcDbLine
 10
48.035933830511
 20
-277.951178442302
 11
47.974047669115
 21
-278.658439083535
  0
LINE
  5
1E9
100
AcDbEntity
  8
1
  6
CONTINUOUS
 62
           7
100
AcDbLine
 10
36.580416235814
 20
-276.940667568228
 11
36.517642747211
 21
-277.658044217302
  0
LINE
  5
1E8
100
AcDbEntity
  8
1
  6
CONTINUOUS
 62
           7
100
AcDbLine
 10
36.544159207475
 20
-256.128590185108
 11
40.379508795128
 21
-256.464139794686
  0
LINE
  5
1E7
100
AcDbEntity
  8
1
  6
CONTINUOUS
 62
           7
100
AcDbLine
 10
36.580416235814
 20
-276.940667568228
 11
36.71986542421
 21
-275.346756051281
  0
LINE
  5
1E6
100
AcDbEntity
  8
1
  6
CONTINUOUS
 62
           7
100
AcDbLine
 10
42.809561236778
 20
-271.806421497694
 11
50.768092329542
 21
-272.502702746629
  0
LINE
  5
1E5
100
AcDbEntity
  8
1
  6
CONTINUOUS
 62
           7
100
AcDbLine
 10
42.662169072694
 20
-273.399638094314
 11
49.386483285649
 21
-273.987939357934
  0
LINE
  5
1E4
100
AcDbEntity
  8
1
  6
CONTINUOUS
 62
           7
100
AcDbLine
 10
46.353362962517
 20
-281.885369416997
 11
48.677756160098
 21
-282.088727471362
  0
LINE
  5
1E3
100
AcDbEntity
  8
1
  6
CONTINUOUS
 62
           7
100
AcDbLine
 10
49.386483285649
 20
-273.987939357934
 11
48.677756160098
 21
-282.088727471362
  0
LINE
  5
1E2
100
AcDbEntity
  8
1
  6
CONTINUOUS
 62
           7
100
AcDbLine
 10
50.768092329542
 20
-272.502702746629
 11
55.242356388879
 21
-277.356702189017
  0
LINE
  5
1E1
100
AcDbEntity
  8
1
  6
CONTINUOUS
 62
           7
100
AcDbLine
 10
49.386483285649
 20
-273.987939357934
 11
55.003912720122
 21
-280.082125794177
  0
LINE
  5
1E0
100
AcDbEntity
  8
1
  6
CONTINUOUS
 62
           7
100
AcDbLine
 10
48.677756160098
 20
-282.088727471362
 11
53.793676678014
 21
-287.638841414556
  0
LINE
  5
1DF
100
AcDbEntity
  8
1
  6
CONTINUOUS
 62
           7
100
AcDbLine
 10
55.242356388879
 20
-277.356702189017
 11
57.251314918561
 21
-279.536163091085
  0
LINE
  5
1DE
100
AcDbEntity
  8
1
  6
CONTINUOUS
 62
           7
100
AcDbLine
 10
78.301329660268
 20
-284.981757595446
 11
64.253715956185
 21
-283.752750646747
  0
LINE
  5
1DD
100
AcDbEntity
  8
1
  6
CONTINUOUS
 62
           7
100
AcDbLine
 10
77.5486975111
 20
-292.444559596163
 11
63.600047885578
 21
-291.224210882435
  0
LINE
  5
1DC
100
AcDbEntity
  8
1
  6
CONTINUOUS
 62
           7
100
AcDbLine
 10
55.44728694076
 20
-279.077374261184
 11
55.577343011015
 21
-279.088752692954
  0
LINE
  5
1DB
100
AcDbEntity
  8
1
  6
CONTINUOUS
 62
           7
100
AcDbLine
 10
54.338510355833
 20
-291.750748618966
 11
54.468566426088
 21
-291.762127050736
  0
LINE
  5
1DA
100
AcDbEntity
  8
1
  6
CONTINUOUS
 62
           7
100
AcDbLine
 10
60.066749222284
 20
-292.268233031319
 11
60.319157499991
 21
-292.093574034509
  0
LINE
  5
1D9
100
AcDbEntity
  8
1
  6
CONTINUOUS
 62
           7
100
AcDbLine
 10
60.955388582463
 20
-282.111038666175
 11
61.173632994765
 21
-282.326874437819
  0
LINE
  5
1D8
100
AcDbEntity
  8
1
  6
CONTINUOUS
 62
           7
100
AcDbLine
 10
49.386483285649
 20
-273.987939357934
 11
50.768092329542
 21
-272.502702746629
  0
LINE
  5
1D7
100
AcDbEntity
  8
1
  6
CONTINUOUS
 62
           7
100
AcDbLine
 10
40.379508795128
 20
-256.464139794686
 11
47.850969030816
 21
-257.117807865294
  0
LINE
  5
1D6
100
AcDbEntity
  8
1
  6
CONTINUOUS
 62
           7
100
AcDbLine
 10
37.64163534963
 20
-273.416034917988
 11
37.859565134064
 21
-270.925086083578
  0
LINE
  5
1D5
100
AcDbEntity
  8
1
  6
CONTINUOUS
 62
           7
100
AcDbLine
 10
37.859565134064
 20
-270.925086083578
 11
40.250432409484
 21
-271.134259866172
  0
LINE
  5
1D4
100
AcDbEntity
  8
1
  6
CONTINUOUS
 62
           7
100
AcDbLine
 10
40.250432409484
 20
-271.134259866172
 11
40.17329369678
 21
-272.01595938695
  0
LINE
  5
1D3
100
AcDbEntity
  8
1
  6
CONTINUOUS
 62
           7
100
AcDbLine
 10
37.64163534963
 20
-273.416034917988
 11
38.202526170444
 21
-267.005023499948
  0
LINE
  5
1D2
100
AcDbEntity
  8
1
  6
CONTINUOUS
 62
           7
100
AcDbLine
 10
40.593393445864
 20
-267.214197282543
 11
40.17329369678
 21
-272.01595938695
  0
LINE
  5
1D1
100
AcDbEntity
  8
1
  6
CONTINUOUS
 62
           7
100
AcDbLine
 10
38.202526170444
 20
-267.005023499948
 11
40.593393445864
 21
-267.214197282543
  0
LINE
  5
1D0
100
AcDbEntity
  8
1
  6
CONTINUOUS
 62
           7
100
AcDbLine
 10
32.771173428471
 20
-264.83287523969
 11
31.899616000994
 21
-274.794822220608
  0
LINE
  5
1CF
100
AcDbEntity
  8
1
  6
CONTINUOUS
 62
           7
100
AcDbLine
 10
33.642730855948
 20
-254.870928258773
 11
32.771173428471
 21
-264.83287523969
  0
LINE
  5
1CE
100
AcDbEntity
  8
1
  6
CONTINUOUS
 62
           7
100
AcDbLine
 10
23.984426808201
 20
-259.137911467042
 11
33.198888256534
 21
-259.944072384268
  0
LINE
  5
1CD
100
AcDbEntity
  8
1
  6
CONTINUOUS
 62
           7
100
AcDbLine
 10
22.800411546374
 20
-263.960546608291
 11
23.475868552669
 21
-256.240037698079
  0
LINE
  5
1CC
100
AcDbEntity
  8
1
  6
CONTINUOUS
 62
           7
100
AcDbLine
 10
-59.135641053782
 20
-265.324539490831
 11
-59.001290476336
 21
-263.788905363722
  0
LINE
  5
1CB
100
AcDbEntity
  8
1
  6
CONTINUOUS
 62
           7
100
AcDbLine
 10
-59.135641053782
 20
-265.324539490831
 11
-60.006547330316
 21
-266.568322553722
  0
LINE
  5
1CA
100
AcDbEntity
  8
1
  6
CONTINUOUS
 62
           7
100
AcDbLine
 10
-61.482530557063
 20
-266.439190753827
 11
-60.006547330316
 21
-266.568322553722
  0
LINE
  5
1C9
100
AcDbEntity
  8
1
  6
CONTINUOUS
 62
           7
100
AcDbLine
 10
-59.578832502253
 20
-261.6795196983
 11
-58.822532068489
 21
-261.745687412474
  0
LINE
  5
1C8
100
AcDbEntity
  8
1
  6
CONTINUOUS
 62
           7
100
AcDbLine
 10
-61.054815729
 20
-261.550387898404
 11
-59.578832502253
 21
-261.6795196983
  0
LINE
  5
1C7
100
AcDbEntity
  8
1
  6
CONTINUOUS
 62
           7
100
AcDbLine
 10
-62.124225148057
 20
-265.063072262588
 11
-61.482530557063
 21
-266.439190753827
  0
LINE
  5
1C6
100
AcDbEntity
  8
1
  6
CONTINUOUS
 62
           7
100
AcDbLine
 10
-61.811116162764
 20
-261.484220184231
 11
-61.054815729
 21
-261.550387898404
  0
LINE
  5
1C5
100
AcDbEntity
  8
1
  6
CONTINUOUS
 62
           7
100
AcDbLine
 10
-58.394817240426
 20
-256.856884557051
 11
-59.001290476336
 21
-263.788905363722
  0
LINE
  5
1C4
100
AcDbEntity
  8
1
  6
CONTINUOUS
 62
           7
100
AcDbLine
 10
-61.383401334701
 20
-256.595417328808
 11
-62.124225148057
 21
-265.063072262588
  0
LINE
  5
1C3
100
AcDbEntity
  8
1
  6
CONTINUOUS
 62
           7
100
AcDbLine
 10
-60.642577521345
 20
-248.127762395028
 11
-61.383401334701
 21
-256.595417328808
  0
LINE
  5
1C2
100
AcDbEntity
  8
1
  6
CONTINUOUS
 62
           7
100
AcDbLine
 10
-57.788344004516
 20
-249.92486375038
 11
-58.394817240426
 21
-256.856884557051
  0
LINE
  5
1C1
100
AcDbEntity
  8
1
  6
CONTINUOUS
 62
           7
100
AcDbLine
 10
-60.199386072875
 20
-251.772782187559
 11
-60.955686506638
 21
-251.706614473385
  0
LINE
  5
1C0
100
AcDbEntity
  8
1
  6
CONTINUOUS
 62
           7
100
AcDbLine
 10
-59.771671244811
 20
-246.883979332137
 11
-60.642577521345
 21
-248.127762395028
  0
LINE
  5
1BF
100
AcDbEntity
  8
1
  6
CONTINUOUS
 62
           7
100
AcDbLine
 10
-58.723402846127
 20
-251.901913987454
 11
-60.199386072875
 21
-251.772782187559
  0
LINE
  5
1BE
100
AcDbEntity
  8
1
  6
CONTINUOUS
 62
           7
100
AcDbLine
 10
-57.967102412363
 20
-251.968081701629
 11
-58.723402846127
 21
-251.901913987454
  0
LINE
  5
1BD
100
AcDbEntity
  8
1
  6
CONTINUOUS
 62
           7
100
AcDbLine
 10
-58.295688018064
 20
-247.013111132031
 11
-59.771671244811
 21
-246.883979332137
  0
LINE
  5
1BC
100
AcDbEntity
  8
1
  6
CONTINUOUS
 62
           7
100
AcDbLine
 10
-58.295688018064
 20
-247.013111132031
 11
-57.65399342707
 21
-248.389229623271
  0
LINE
  5
1BB
100
AcDbEntity
  8
1
  6
CONTINUOUS
 62
           7
100
AcDbLine
 10
-57.788344004516
 20
-249.92486375038
 11
-57.65399342707
 21
-248.389229623271
  0
LINE
  5
1BA
100
AcDbEntity
  8
976
  6
CONTINUOUS
 62
           7
100
AcDbLine
 10
11.603329097875
 20
-251.059693359844
 11
-9.024072554723
 21
-251.059693359844
  0
LINE
  5
1B9
100
AcDbEntity
  8
976
  6
CONTINUOUS
 62
           7
100
AcDbLine
 10
14.954764162167
 20
-268.795150510639
 11
12.638835339022
 21
-268.592532993081
  0
LINE
  5
1B8
100
AcDbEntity
  8
1
  6
CONTINUOUS
 62
           7
100
AcDbLine
 10
17.36122457902
 20
-257.963670303361
 11
14.341861869632
 21
-257.699510295216
  0
LINE
  5
1B7
100
AcDbEntity
  8
976
  6
CONTINUOUS
 62
           7
100
AcDbLine
 10
11.603329097875
 20
-254.710926200941
 11
11.603329097875
 21
-251.059693359844
  0
LINE
  5
1B6
100
AcDbEntity
  8
976
  6
CONTINUOUS
 62
           7
100
AcDbLine
 10
11.603329097875
 20
-251.059693359844
 11
14.906261646214
 21
-245.338846372149
  0
LINE
  5
1B5
100
AcDbEntity
  8
1
  6
CONTINUOUS
 62
           7
100
AcDbLine
 10
-3.331349900803
 20
-276.430465335586
 11
-17.554723980603
 21
-275.186081346515
  0
LINE
  5
1B4
100
AcDbEntity
  8
1
  6
CONTINUOUS
 62
           7
100
AcDbLine
 10
16.402511408795
 20
-268.92181198237
 11
17.36122457902
 21
-257.963670303361
  0
LINE
  5
1B3
100
AcDbEntity
  8
1
  6
CONTINUOUS
 62
           7
100
AcDbLine
 10
-21.806432337828
 20
-274.814105064639
 11
-19.307544871815
 21
-246.251690629401
  0
LINE
  5
1B2
100
AcDbEntity
  8
1
  6
CONTINUOUS
 62
           7
100
AcDbLine
 10
14.906261646214
 20
-245.338846372149
 11
-18.311350173723
 21
-245.338846372149
  0
LINE
  5
1B1
100
AcDbEntity
  8
1
  6
CONTINUOUS
 62
           7
100
AcDbLine
 10
-18.906982416542
 20
-244.338846372149
 11
13.71950570897
 21
-244.338846372149
  0
LINE
  5
1B0
100
AcDbEntity
  8
1
  6
CONTINUOUS
 62
           7
100
AcDbLine
 10
-20.093738353786
 20
-244.748969262278
 11
-21.189609670809
 21
-244.653092945355
  0
LINE
  5
1AF
100
AcDbEntity
  8
1
  6
CONTINUOUS
 62
           7
100
AcDbLine
 10
-21.867441357751
 20
-275.511441353304
 11
-23.874006547438
 21
-275.33588964658
  0
LINE
  5
1AE
100
AcDbEntity
  8
1
  6
CONTINUOUS
 62
           7
100
AcDbLine
 10
-18.906982416542
 20
-244.338846372149
 11
-20.093738353786
 21
-244.338846372149
  0
LINE
  5
1AD
100
AcDbEntity
  8
1
  6
CONTINUOUS
 62
           7
100
AcDbLine
 10
-20.093738353786
 20
-244.748969262278
 11
-20.093738353786
 21
-244.338846372149
  0
LINE
  5
1AC
100
AcDbEntity
  8
1
  6
CONTINUOUS
 62
           7
100
AcDbLine
 10
14.906261646214
 20
-244.338846372149
 11
14.906261646214
 21
-245.338846372149
  0
LINE
  5
1AB
100
AcDbEntity
  8
1
  6
CONTINUOUS
 62
           7
100
AcDbLine
 10
14.906261646214
 20
-244.338846372149
 11
13.71950570897
 21
-244.338846372149
  0
LINE
  5
1AA
100
AcDbEntity
  8
1
  6
CONTINUOUS
 62
           7
100
AcDbLine
 10
-21.867441357751
 20
-275.511441353304
 11
-21.806432337828
 21
-274.814105064639
  0
LINE
  5
1A9
100
AcDbEntity
  8
1
  6
CONTINUOUS
 62
           7
100
AcDbLine
 10
-3.41850564355
 20
-277.426660033677
 11
-13.380452624468
 21
-276.555102606201
  0
LINE
  5
1A8
100
AcDbEntity
  8
1
  6
CONTINUOUS
 62
           7
100
AcDbLine
 10
-13.380452624468
 20
-276.555102606201
 11
-17.011146109229
 21
-275.233638248004
  0
LINE
  5
1A7
100
AcDbEntity
  8
1
  6
CONTINUOUS
 62
           7
100
AcDbLine
 10
-17.011146109229
 20
-275.233638248004
 11
-21.806432337828
 21
-274.814105064639
  0
LINE
  5
1A6
100
AcDbEntity
  8
1
  6
CONTINUOUS
 62
           7
100
AcDbLine
 10
17.36122457902
 20
-257.963670303361
 11
16.200904497434
 21
-257.86215545016
  0
LINE
  5
1A5
100
AcDbEntity
  8
1
  6
CONTINUOUS
 62
           7
100
AcDbLine
 10
16.402511408795
 20
-268.92181198237
 11
14.954764162167
 21
-268.795150510639
  0
LINE
  5
1A4
100
AcDbEntity
  8
1
  6
CONTINUOUS
 62
           7
100
AcDbLine
 10
16.402511408795
 20
-268.92181198237
 11
16.8115789387
 21
-269.409319680748
  0
LINE
  5
1A3
100
AcDbEntity
  8
1
  6
CONTINUOUS
 62
           6
100
AcDbLine
 10
-18.906982416542
 20
-244.338846372149
 11
-18.906982416542
 21
-244.326118017257
  0
LINE
  5
1A2
100
AcDbEntity
  8
1
  6
CONTINUOUS
 62
           6
100
AcDbLine
 10
13.71950570897
 20
-244.338846372149
 11
13.71950570897
 21
-244.327981416441
  0
LINE
  5
1A1
100
AcDbEntity
  8
1
  6
CONTINUOUS
 62
           7
100
AcDbLine
 10
17.848732277398
 20
-257.554602773455
 11
17.36122457902
 21
-257.963670303361
  0
LINE
  5
1A0
100
AcDbEntity
  8
1
  6
CONTINUOUS
 62
           7
100
AcDbLine
 10
72.406261646214
 20
-35.338846372149
 11
72.406261646214
 21
-37.338846372149
  0
LINE
  5
19F
100
AcDbEntity
  8
1
  6
CONTINUOUS
 62
           7
100
AcDbLine
 10
61.156000350032
 20
-35.338846372149
 11
72.406261646214
 21
-35.338846372149
  0
LINE
  5
19E
100
AcDbEntity
  8
1
  6
CONTINUOUS
 62
           7
100
AcDbLine
 10
59.358412257434
 20
-34.215588665727
 11
50.425534569286
 21
-15.90047522536
  0
LINE
  5
19D
100
AcDbEntity
  8
1
  6
CONTINUOUS
 62
           7
100
AcDbLine
 10
49.526740522987
 20
-15.338846372149
 11
45.28578276944
 21
-15.338846372149
  0
LINE
  5
19C
100
AcDbEntity
  8
1
  6
CONTINUOUS
 62
           7
100
AcDbLine
 10
44.386988723141
 20
-15.90047522536
 11
40.17774582669
 21
-24.530702106095
  0
LINE
  5
19B
100
AcDbEntity
  8
1
  6
CONTINUOUS
 62
           7
100
AcDbLine
 10
35.683775595194
 20
-27.338846372149
 11
33.406261646214
 21
-27.338846372149
  0
LINE
  5
19A
100
AcDbEntity
  8
1
  6
CONTINUOUS
 62
           7
100
AcDbLine
 10
27.706261646214
 20
-32.938846372149
 11
31.006261646214
 21
-28.538846372149
  0
LINE
  5
199
100
AcDbEntity
  8
1
  6
CONTINUOUS
 62
           7
100
AcDbLine
 10
59.906261646214
 20
-35.338846372149
 11
61.156000350032
 21
-35.338846372149
  0
LINE
  5
198
100
AcDbEntity
  8
1
  6
CONTINUOUS
 62
           7
100
AcDbLine
 10
12.406261646214
 20
-37.338846372149
 11
-3.593738353786
 21
-37.338846372149
  0
LINE
  5
197
100
AcDbEntity
  8
1
  6
CONTINUOUS
 62
           7
100
AcDbLine
 10
12.406261646214
 20
-33.338846372149
 11
16.406261646214
 21
-33.338846372149
  0
LINE
  5
196
100
AcDbEntity
  8
1
  6
CONTINUOUS
 62
           7
100
AcDbLine
 10
72.406261646214
 20
-37.338846372149
 11
12.406261646214
 21
-37.338846372149
  0
LINE
  5
195
100
AcDbEntity
  8
1
  6
CONTINUOUS
 62
           7
100
AcDbLine
 10
-3.593738353786
 20
-35.338846372149
 11
59.906261646214
 21
-35.338846372149
  0
LINE
  5
194
100
AcDbEntity
  8
1
  6
CONTINUOUS
 62
           7
100
AcDbLine
 10
12.406261646214
 20
-33.338846372149
 11
7.102059573518
 21
-33.338846372149
  0
LINE
  5
193
100
AcDbEntity
  8
1
  6
CONTINUOUS
 62
           7
100
AcDbLine
 10
7.102059573518
 20
-33.338846372149
 11
-3.593738353786
 21
-35.338846372149
  0
LINE
  5
192
100
AcDbEntity
  8
1
  6
CONTINUOUS
 62
           7
100
AcDbLine
 10
-3.593738353786
 20
-35.338846372149
 11
-3.593738353786
 21
-37.338846372149
  0
LINE
  5
191
100
AcDbEntity
  8
1
  6
CONTINUOUS
 62
           7
100
AcDbLine
 10
-43.398820629911
 20
-195.101056811944
 11
-22.662363811749
 21
-222.50830899715
  0
LINE
  5
190
100
AcDbEntity
  8
1
  6
CONTINUOUS
 62
           7
100
AcDbLine
 10
64.406261646214
 20
-98.635491535848
 11
64.406261646214
 21
-140.338846372149
  0
LINE
  5
18F
100
AcDbEntity
  8
1
  6
CONTINUOUS
 62
           7
100
AcDbLine
 10
89.406261646214
 20
-98.635491535848
 11
89.406261646214
 21
-148.951220093616
  0
LINE
  5
18E
100
AcDbEntity
  8
1
  6
CONTINUOUS
 62
           7
100
AcDbLine
 10
95.156261646214
 20
-50.338846372149
 11
109.656261646214
 21
-50.338846372149
  0
LINE
  5
18D
100
AcDbEntity
  8
1
  6
CONTINUOUS
 62
           7
100
AcDbLine
 10
109.656261646214
 20
-50.338846372149
 11
113.406261646214
 21
-50.338846372149
  0
LINE
  5
18C
100
AcDbEntity
  8
1
  6
CONTINUOUS
 62
           7
100
AcDbLine
 10
34.850023470203
 20
-199.543694149402
 11
43.45714982582
 21
-188.167706212461
  0
LINE
  5
18B
100
AcDbEntity
  8
1
  6
CONTINUOUS
 62
           7
100
AcDbLine
 10
17.474887104177
 20
-222.50830899715
 11
34.850023470203
 21
-199.543694149402
  0
LINE
  5
18A
100
AcDbEntity
  8
1
  6
CONTINUOUS
 62
           7
100
AcDbLine
 10
15.906261646214
 20
-227.266188934688
 11
15.906261646214
 21
-243.838846372149
  0
LINE
  5
189
100
AcDbEntity
  8
1
  6
CONTINUOUS
 62
           7
100
AcDbLine
 10
-2.593738353786
 20
-223.338846372149
 11
13.106261646214
 21
-223.338846372149
  0
LINE
  5
188
100
AcDbEntity
  8
1
  6
CONTINUOUS
 62
           7
100
AcDbLine
 10
-18.293738353786
 20
-223.338846372149
 11
-2.593738353786
 21
-223.338846372149
  0
LINE
  5
187
100
AcDbEntity
  8
1
  6
CONTINUOUS
 62
           7
100
AcDbLine
 10
-57.458681432374
 20
-176.518222045086
 11
-43.398820629911
 21
-195.101056811944
  0
LINE
  5
186
100
AcDbEntity
  8
1
  6
CONTINUOUS
 62
           7
100
AcDbLine
 10
-21.093738353786
 20
-243.838846372149
 11
-21.093738353786
 21
-227.266188934688
  0
LINE
  5
185
100
AcDbEntity
  8
1
  6
CONTINUOUS
 62
           7
100
AcDbLine
 10
-69.593738353786
 20
-35.338846372149
 11
-71.593738353786
 21
-35.338846372149
  0
LINE
  5
184
100
AcDbEntity
  8
1
  6
CONTINUOUS
 62
           7
100
AcDbLine
 10
-52.593738353786
 20
-37.338846372149
 11
-71.593738353786
 21
-41.338846372149
  0
LINE
  5
183
100
AcDbEntity
  8
1
  6
CONTINUOUS
 62
           7
100
AcDbLine
 10
92.656261646214
 20
-50.338846372149
 11
95.156261646214
 21
-50.338846372149
  0
LINE
  5
182
100
AcDbEntity
  8
1
  6
CONTINUOUS
 62
           7
100
AcDbLine
 10
100.406261646214
 20
-155.338846372149
 11
94.562321375596
 21
-155.338846372149
  0
LINE
  5
181
100
AcDbEntity
  8
1
  6
CONTINUOUS
 62
           7
100
AcDbLine
 10
104.406261646214
 20
-155.338846372149
 11
100.406261646214
 21
-155.338846372149
  0
LINE
  5
180
100
AcDbEntity
  8
1
  6
CONTINUOUS
 62
           7
100
AcDbLine
 10
76.947761646214
 20
-60.338846372149
 11
69.406261646214
 21
-60.338846372149
  0
LINE
  5
17F
100
AcDbEntity
  8
1
  6
CONTINUOUS
 62
           7
100
AcDbLine
 10
76.947761646214
 20
-41.338846372149
 11
72.406261646214
 21
-41.338846372149
  0
LINE
  5
17E
100
AcDbEntity
  8
1
  6
CONTINUOUS
 62
           7
100
AcDbLine
 10
81.864761646214
 20
-41.338846372149
 11
76.947761646214
 21
-41.338846372149
  0
LINE
  5
17D
100
AcDbEntity
  8
1
  6
CONTINUOUS
 62
           7
100
AcDbLine
 10
62.406261646214
 20
-37.338846372149
 11
65.339261646214
 21
-37.338846372149
  0
LINE
  5
17C
100
AcDbEntity
  8
1
  6
CONTINUOUS
 62
           7
100
AcDbLine
 10
65.339261646214
 20
-37.338846372149
 11
69.473261646214
 21
-37.338846372149
  0
LINE
  5
17B
100
AcDbEntity
  8
1
  6
CONTINUOUS
 62
           7
100
AcDbLine
 10
69.473261646214
 20
-37.338846372149
 11
72.406261646214
 21
-37.338846372149
  0
LINE
  5
17A
100
AcDbEntity
  8
1
  6
CONTINUOUS
 62
           7
100
AcDbLine
 10
-69.593738353786
 20
-108.479993521458
 11
-69.593738353786
 21
-42.193340270132
  0
LINE
  5
179
100
AcDbEntity
  8
1
  6
CONTINUOUS
 62
           7
100
AcDbLine
 10
72.406261646214
 20
-40.338846372149
 11
-2.593738353786
 21
-40.338846372149
  0
LINE
  5
178
100
AcDbEntity
  8
1
  6
CONTINUOUS
 62
           7
100
AcDbLine
 10
35.766657319129
 20
-37.338846372149
 11
62.406261646214
 21
-37.338846372149
  0
LINE
  5
177
100
AcDbEntity
  8
1
  6
CONTINUOUS
 62
           7
100
AcDbLine
 10
-2.593738353786
 20
-37.338846372149
 11
0.906261646214
 21
-37.338846372149
  0
LINE
  5
176
100
AcDbEntity
  8
1
  6
CONTINUOUS
 62
           7
100
AcDbLine
 10
-3.593738353786
 20
-37.338846372149
 11
-2.593738353786
 21
-37.338846372149
  0
LINE
  5
175
100
AcDbEntity
  8
1
  6
CONTINUOUS
 62
           7
100
AcDbLine
 10
-3.593738353786
 20
-35.338846372149
 11
-69.593738353786
 21
-35.338846372149
  0
LINE
  5
174
100
AcDbEntity
  8
1
  6
CONTINUOUS
 62
           7
100
AcDbLine
 10
-2.593738353786
 20
-40.338846372149
 11
-4.593738353786
 21
-40.338846372149
  0
LINE
  5
173
100
AcDbEntity
  8
1
  6
CONTINUOUS
 62
           7
100
AcDbLine
 10
72.406261646214
 20
-41.338846372149
 11
72.406261646214
 21
-37.338846372149
  0
LINE
  5
172
100
AcDbEntity
  8
1
  6
CONTINUOUS
 62
           7
100
AcDbLine
 10
0.906261646214
 20
-37.338846372149
 11
35.766657319129
 21
-37.338846372149
  0
LINE
  5
171
100
AcDbEntity
  8
1
  6
CONTINUOUS
 62
           7
100
AcDbLine
 10
64.406261646214
 20
-65.338846372149
 11
64.406261646214
 21
-98.635491535848
  0
LINE
  5
170
100
AcDbEntity
  8
1
  6
CONTINUOUS
 62
           7
100
AcDbLine
 10
89.406261646214
 20
-68.338846372149
 11
89.406261646214
 21
-98.635491535848
  0
LINE
  5
16F
100
AcDbEntity
  8
1
  6
CONTINUOUS
 62
           7
100
AcDbLine
 10
81.406261646214
 20
-60.338846372149
 11
76.947761646214
 21
-60.338846372149
  0
LINE
  5
16E
100
AcDbEntity
  8
1
  6
CONTINUOUS
 62
           7
100
AcDbLine
 10
15.406261646214
 20
-244.338846372149
 11
13.106261646214
 21
-244.338846372149
  0
LINE
  5
16D
100
AcDbEntity
  8
1
  6
CONTINUOUS
 62
           7
100
AcDbLine
 10
-20.593738353786
 20
-244.338846372149
 11
-18.293738353786
 21
-244.338846372149
  0
LINE
  5
16C
100
AcDbEntity
  8
1
  6
CONTINUOUS
 62
           7
100
AcDbLine
 10
-2.593738353786
 20
-244.338846372149
 11
-18.293738353786
 21
-244.338846372149
  0
LINE
  5
16B
100
AcDbEntity
  8
1
  6
CONTINUOUS
 62
           7
100
AcDbLine
 10
13.106261646214
 20
-244.338846372149
 11
-2.593738353786
 21
-244.338846372149
  0
LINE
  5
16A
100
AcDbEntity
  8
1
  6
CONTINUOUS
 62
           7
100
AcDbLine
 10
108.406261646214
 20
-155.338846372149
 11
104.406261646214
 21
-155.338846372149
  0
LINE
  5
169
100
AcDbEntity
  8
1
  6
CONTINUOUS
 62
           7
100
AcDbLine
 10
114.406261646214
 20
-51.338846372149
 11
114.406261646214
 21
-149.338846372149
  0
LINE
  5
168
100
AcDbEntity
  8
1
  6
CONTINUOUS
 62
           7
100
AcDbLine
 10
86.406261646214
 20
-50.338846372149
 11
92.656261646214
 21
-50.338846372149
  0
LINE
  5
167
100
AcDbEntity
  8
1
  6
CONTINUOUS
 62
           7
100
AcDbLine
 10
84.406261646214
 20
-41.338846372149
 11
81.864761646214
 21
-41.338846372149
  0
LINE
  5
166
100
AcDbEntity
  8
1
  6
CONTINUOUS
 62
           7
100
AcDbLine
 10
84.406261646214
 20
-48.338846372149
 11
84.406261646214
 21
-41.338846372149
  0
LINE
  5
165
100
AcDbEntity
  8
1
  6
CONTINUOUS
 62
           7
100
AcDbLine
 10
-71.593738353786
 20
-41.338846372149
 11
-71.593738353786
 21
-35.338846372149
  0
LINE
  5
164
100
AcDbEntity
  8
1
  6
CONTINUOUS
 62
           7
100
AcDbLine
 10
-7.593738353786
 20
-37.338846372149
 11
-52.593738353786
 21
-37.338846372149
  0
LINE
  5
163
100
AcDbEntity
  8
1
  6
CONTINUOUS
 62
           7
100
AcDbLine
 10
-3.593738353786
 20
-37.338846372149
 11
-3.593738353786
 21
-35.338846372149
  0
LINE
  5
162
100
AcDbEntity
  8
1
  6
CONTINUOUS
 62
           7
100
AcDbLine
 10
-69.593738353786
 20
-140.338846372149
 11
-69.593738353786
 21
-108.479993521458
  0
LINE
  5
161
100
AcDbEntity
  8
1
  6
CONTINUOUS
 62
           2
100
AcDbLine
 10
-59.593738353786
 20
-89.83187019053
 11
54.406261646214
 21
-89.83187019053
  0
LINE
  5
160
100
AcDbEntity
  8
1
  6
CONTINUOUS
 62
           2
100
AcDbLine
 10
54.406261646214
 20
-89.83187019053
 11
54.406261646214
 21
-109.831565275768
  0
LINE
  5
15F
100
AcDbEntity
  8
1
  6
CONTINUOUS
 62
           2
100
AcDbLine
 10
54.406261646214
 20
-109.831565275768
 11
-59.593738353786
 21
-109.831565275768
  0
LINE
  5
15E
100
AcDbEntity
  8
1
  6
CONTINUOUS
 62
           2
100
AcDbLine
 10
-59.593738353786
 20
-109.831565275768
 11
-59.593738353786
 21
-89.83187019053
  0
LINE
  5
15D
100
AcDbEntity
  8
1
  6
CONTINUOUS
 62
           7
100
AcDbLine
 10
-26.018489552445
 20
-259.689446196352
 11
-23.029905458169
 21
-259.950913424595
  0
LINE
  5
15C
100
AcDbEntity
  8
1
  6
CONTINUOUS
 62
           7
100
AcDbLine
 10
-21.591835702832
 20
-243.513700906082
 11
-24.580419797107
 21
-243.252233677838
  0
LINE
  5
15B
100
AcDbEntity
  8
1
  6
CONTINUOUS
 62
           7
100
AcDbLine
 10
-21.626697999931
 20
-243.912178785318
 11
-24.615282094206
 21
-243.650711557075
  0
LINE
  5
15A
100
AcDbEntity
  8
1
  6
CONTINUOUS
 62
           7
100
AcDbLine
 10
-21.670275871305
 20
-244.410276134364
 11
-24.65885996558
 21
-244.148808906121
  0
LINE
  5
159
100
AcDbEntity
  8
1
  6
CONTINUOUS
 62
           7
100
AcDbLine
 10
-21.713853742679
 20
-244.90837348341
 11
-24.702437836954
 21
-244.646906255167
  0
LINE
  5
158
100
AcDbEntity
  8
1
  6
CONTINUOUS
 62
           7
100
AcDbLine
 10
-21.757431614053
 20
-245.406470832456
 11
-24.746015708328
 21
-245.145003604212
  0
LINE
  5
157
100
AcDbEntity
  8
1
  6
CONTINUOUS
 62
           7
100
AcDbLine
 10
-21.82715620825
 20
-246.203426590929
 11
-24.815740302526
 21
-245.941959362686
  0
LINE
  5
156
100
AcDbEntity
  8
1
  6
CONTINUOUS
 62
           7
100
AcDbLine
 10
-21.896880802449
 20
-247.000382349402
 11
-24.885464896724
 21
-246.738915121159
  0
LINE
  5
155
100
AcDbEntity
  8
1
  6
CONTINUOUS
 62
           7
100
AcDbLine
 10
-21.984036545196
 20
-247.996577047494
 11
-24.972620639472
 21
-247.735109819251
  0
LINE
  5
154
100
AcDbEntity
  8
1
  6
CONTINUOUS
 62
           7
100
AcDbLine
 10
-22.071192287945
 20
-248.992771745586
 11
-25.05977638222
 21
-248.731304517343
  0
LINE
  5
153
100
AcDbEntity
  8
1
  6
CONTINUOUS
 62
           7
100
AcDbLine
 10
-22.158348030692
 20
-249.988966443678
 11
-25.146932124968
 21
-249.727499215435
  0
LINE
  5
152
100
AcDbEntity
  8
1
  6
CONTINUOUS
 62
           7
100
AcDbLine
 10
-22.24550377344
 20
-250.98516114177
 11
-25.234087867715
 21
-250.723693913526
  0
LINE
  5
151
100
AcDbEntity
  8
1
  6
CONTINUOUS
 62
           7
100
AcDbLine
 10
-22.332659516187
 20
-251.981355839861
 11
-25.321243610463
 21
-251.719888611618
  0
LINE
  5
150
100
AcDbEntity
  8
1
  6
CONTINUOUS
 62
           7
100
AcDbLine
 10
-22.419815258935
 20
-252.977550537953
 11
-25.40839935321
 21
-252.71608330971
  0
LINE
  5
14F
100
AcDbEntity
  8
1
  6
CONTINUOUS
 62
           7
100
AcDbLine
 10
-22.506971001683
 20
-253.973745236045
 11
-25.495555095958
 21
-253.712278007802
  0
LINE
  5
14E
100
AcDbEntity
  8
1
  6
CONTINUOUS
 62
           7
100
AcDbLine
 10
-22.59412674443
 20
-254.969939934137
 11
-25.582710838706
 21
-254.708472705893
  0
LINE
  5
14D
100
AcDbEntity
  8
1
  6
CONTINUOUS
 62
           7
100
AcDbLine
 10
-22.681282487179
 20
-255.966134632228
 11
-25.669866581454
 21
-255.704667403985
  0
LINE
  5
14C
100
AcDbEntity
  8
1
  6
CONTINUOUS
 62
           7
100
AcDbLine
 10
-22.768438229926
 20
-256.96232933032
 11
-25.757022324202
 21
-256.700862102077
  0
LINE
  5
14B
100
AcDbEntity
  8
1
  6
CONTINUOUS
 62
           7
100
AcDbLine
 10
-22.855593972674
 20
-257.958524028412
 11
-25.844178066949
 21
-257.697056800169
  0
LINE
  5
14A
100
AcDbEntity
  8
1
  6
CONTINUOUS
 62
           7
100
AcDbLine
 10
-22.942749715422
 20
-258.954718726504
 11
-25.931333809697
 21
-258.69325149826
  0
LINE
  5
149
100
AcDbEntity
  8
1
  6
CONTINUOUS
 62
           7
100
AcDbLine
 10
-23.029905458169
 20
-259.950913424595
 11
-21.548257831458
 21
-243.015603557035
  0
LINE
  5
148
100
AcDbEntity
  8
1
  6
CONTINUOUS
 62
           7
100
AcDbLine
 10
-26.018489552445
 20
-259.689446196352
 11
-24.536841925734
 21
-242.754136328792
  0
LINE
  5
147
100
AcDbEntity
  8
1
  6
CONTINUOUS
 62
           7
100
AcDbLine
 10
-21.093738353786
 20
-243.557278777455
 11
-21.548257831458
 21
-243.015603557035
  0
LINE
  5
146
100
AcDbEntity
  8
1
  6
CONTINUOUS
 62
           7
100
AcDbLine
 10
-24.536841925734
 20
-242.754136328792
 11
-25.078517146153
 21
-243.208655806465
  0
LINE
  5
145
100
AcDbEntity
  8
1
  6
CONTINUOUS
 62
           7
100
AcDbLine
 10
-24.536841925734
 20
-242.754136328792
 11
-21.548257831458
 21
-243.015603557035
  0
LINE
  5
144
100
AcDbEntity
  8
1
  6
CONTINUOUS
 62
           7
100
AcDbLine
 10
-26.51658690149
 20
-259.645868324978
 11
-25.078517146153
 21
-243.208655806465
  0
LINE
  5
143
100
AcDbEntity
  8
1
  6
CONTINUOUS
 62
           7
100
AcDbLine
 10
-21.093738353786
 20
-243.557278777455
 11
-22.531808109123
 21
-259.994491295969
  0
LINE
  5
142
100
AcDbEntity
  8
1
  6
CONTINUOUS
 62
           7
100
AcDbLine
 10
-22.531808109123
 20
-259.994491295969
 11
-23.969877864461
 21
-276.431703814483
  0
LINE
  5
141
100
AcDbEntity
  8
1
  6
CONTINUOUS
 62
           7
100
AcDbLine
 10
-27.954656656828
 20
-276.083080843492
 11
-26.51658690149
 21
-259.645868324978
  0
LINE
  5
140
100
AcDbEntity
  8
1
  6
CONTINUOUS
 62
           7
100
AcDbLine
 10
-24.511553084881
 20
-276.886223292155
 11
-27.500137179156
 21
-276.624756063911
  0
LINE
  5
13F
100
AcDbEntity
  8
1
  6
CONTINUOUS
 62
           7
100
AcDbLine
 10
-27.954656656828
 20
-276.083080843492
 11
-27.500137179156
 21
-276.624756063911
  0
LINE
  5
13E
100
AcDbEntity
  8
1
  6
CONTINUOUS
 62
           7
100
AcDbLine
 10
-24.511553084881
 20
-276.886223292155
 11
-23.969877864461
 21
-276.431703814483
  0
LINE
  5
13D
100
AcDbEntity
  8
1
  6
CONTINUOUS
 62
           7
100
AcDbLine
 10
-27.500137179156
 20
-276.624756063911
 11
-26.018489552445
 21
-259.689446196352
  0
LINE
  5
13C
100
AcDbEntity
  8
1
  6
CONTINUOUS
 62
           7
100
AcDbLine
 10
-24.511553084881
 20
-276.886223292155
 11
-23.029905458169
 21
-259.950913424595
  0
LINE
  5
13B
100
AcDbEntity
  8
1
  6
CONTINUOUS
 62
           7
100
AcDbLine
 10
-26.105645295192
 20
-260.685640894444
 11
-23.117061200917
 21
-260.947108122687
  0
LINE
  5
13A
100
AcDbEntity
  8
1
  6
CONTINUOUS
 62
           7
100
AcDbLine
 10
-26.19280103794
 20
-261.681835592535
 11
-23.204216943665
 21
-261.943302820779
  0
LINE
  5
139
100
AcDbEntity
  8
1
  6
CONTINUOUS
 62
           7
100
AcDbLine
 10
-26.279956780688
 20
-262.678030290627
 11
-23.291372686413
 21
-262.93949751887
  0
LINE
  5
138
100
AcDbEntity
  8
1
  6
CONTINUOUS
 62
           7
100
AcDbLine
 10
-26.367112523435
 20
-263.674224988719
 11
-23.378528429161
 21
-263.935692216962
  0
LINE
  5
137
100
AcDbEntity
  8
1
  6
CONTINUOUS
 62
           7
100
AcDbLine
 10
-26.454268266183
 20
-264.670419686811
 11
-23.465684171908
 21
-264.931886915053
  0
LINE
  5
136
100
AcDbEntity
  8
1
  6
CONTINUOUS
 62
           7
100
AcDbLine
 10
-26.541424008931
 20
-265.666614384902
 11
-23.552839914656
 21
-265.928081613145
  0
LINE
  5
135
100
AcDbEntity
  8
1
  6
CONTINUOUS
 62
           7
100
AcDbLine
 10
-26.628579751679
 20
-266.662809082994
 11
-23.639995657403
 21
-266.924276311237
  0
LINE
  5
134
100
AcDbEntity
  8
1
  6
CONTINUOUS
 62
           7
100
AcDbLine
 10
-26.715735494426
 20
-267.659003781086
 11
-23.727151400151
 21
-267.920471009329
  0
LINE
  5
133
100
AcDbEntity
  8
1
  6
CONTINUOUS
 62
           7
100
AcDbLine
 10
-26.802891237174
 20
-268.655198479178
 11
-23.814307142899
 21
-268.916665707421
  0
LINE
  5
132
100
AcDbEntity
  8
1
  6
CONTINUOUS
 62
           7
100
AcDbLine
 10
-26.890046979922
 20
-269.651393177269
 11
-23.901462885647
 21
-269.912860405513
  0
LINE
  5
131
100
AcDbEntity
  8
1
  6
CONTINUOUS
 62
           7
100
AcDbLine
 10
-26.97720272267
 20
-270.647587875361
 11
-23.988618628394
 21
-270.909055103604
  0
LINE
  5
130
100
AcDbEntity
  8
1
  6
CONTINUOUS
 62
           7
100
AcDbLine
 10
-27.064358465417
 20
-271.643782573453
 11
-24.075774371142
 21
-271.905249801696
  0
LINE
  5
12F
100
AcDbEntity
  8
1
  6
CONTINUOUS
 62
           7
100
AcDbLine
 10
-27.151514208165
 20
-272.639977271545
 11
-24.16293011389
 21
-272.901444499788
  0
LINE
  5
12E
100
AcDbEntity
  8
1
  6
CONTINUOUS
 62
           7
100
AcDbLine
 10
-27.221238802363
 20
-273.436933030018
 11
-24.232654708088
 21
-273.698400258261
  0
LINE
  5
12D
100
AcDbEntity
  8
1
  6
CONTINUOUS
 62
           7
100
AcDbLine
 10
-27.290963396561
 20
-274.233888788492
 11
-24.302379302286
 21
-274.495356016735
  0
LINE
  5
12C
100
AcDbEntity
  8
1
  6
CONTINUOUS
 62
           7
100
AcDbLine
 10
-27.334541267935
 20
-274.731986137538
 11
-24.34595717366
 21
-274.993453365781
  0
LINE
  5
12B
100
AcDbEntity
  8
1
  6
CONTINUOUS
 62
           7
100
AcDbLine
 10
-27.378119139309
 20
-275.230083486583
 11
-24.389535045033
 21
-275.491550714826
  0
LINE
  5
12A
100
AcDbEntity
  8
1
  6
CONTINUOUS
 62
           7
100
AcDbLine
 10
-27.421697010683
 20
-275.728180835629
 11
-24.433112916407
 21
-275.989648063872
  0
LINE
  5
129
100
AcDbEntity
  8
1
  6
CONTINUOUS
 62
           7
100
AcDbLine
 10
-27.456559307782
 20
-276.126658714866
 11
-24.467975213507
 21
-276.388125943108
  0
LINE
  5
128
100
AcDbEntity
  8
1
  6
CONTINUOUS
 62
           7
100
AcDbLine
 10
96.056261646214
 20
-29.400610366011
 11
108.756261646214
 21
-29.400610366011
  0
LINE
  5
127
100
AcDbEntity
  8
1
  6
CONTINUOUS
 62
           7
100
AcDbLine
 10
108.756261646214
 20
-29.400610366011
 11
108.756261646214
 21
-50.338846372149
  0
LINE
  5
126
100
AcDbEntity
  8
1
  6
CONTINUOUS
 62
           7
100
AcDbLine
 10
103.656261646214
 20
-26.364823195412
 11
101.156261646213
 21
-26.364823195412
  0
LINE
  5
125
100
AcDbEntity
  8
1
  6
CONTINUOUS
 62
           7
100
AcDbLine
 10
96.056261646214
 20
-50.338846372149
 11
96.056261646214
 21
-29.400610366011
  0
LINE
  5
124
100
AcDbEntity
  8
1
  6
CONTINUOUS
 62
           7
100
AcDbLine
 10
73.906261646214
 20
-41.338846372149
 11
73.906261646214
 21
-37.338846372149
  0
LINE
  5
123
100
AcDbEntity
  8
1
  6
CONTINUOUS
 62
           7
100
AcDbLine
 10
73.906261646214
 20
-37.338846372149
 11
84.906261646214
 21
-37.338846372149
  0
LINE
  5
122
100
AcDbEntity
  8
1
  6
CONTINUOUS
 62
           7
100
AcDbLine
 10
84.906261646214
 20
-37.338846372149
 11
84.906261646214
 21
-41.338846372149
  0
LINE
  5
121
100
AcDbEntity
  8
1
  6
CONTINUOUS
 62
           7
100
AcDbLine
 10
84.906261646214
 20
-41.338846372149
 11
73.906261646214
 21
-41.338846372149
  0
LINE
  5
120
100
AcDbEntity
  8
1
  6
CONTINUOUS
 62
           7
100
AcDbLine
 10
81.424120147175
 20
89.485786490926
 11
67.322846840872
 21
89.485786490926
  0
LINE
  5
11F
100
AcDbEntity
  8
1
  6
CONTINUOUS
 62
           7
100
AcDbLine
 10
81.324778041912
 20
81.985786490926
 11
67.322846840872
 21
81.985786490926
  0
LINE
  5
11E
100
AcDbEntity
  8
1
  6
CONTINUOUS
 62
           7
100
AcDbLine
 10
63.893985971554
 20
80.637789892168
 11
64.130211224966
 21
80.833783089684
  0
LINE
  5
11D
100
AcDbEntity
  8
1
  6
CONTINUOUS
 62
           7
100
AcDbLine
 10
-267.93234810219
 20
-269.822472911273
 11
-267.93234810219
 21
-271.393178932059
  0
LINE
  5
11C
100
AcDbEntity
  8
1
  6
CONTINUOUS
 62
           7
100
AcDbLine
 10
-271.541207298448
 20
-264.680633935081
 11
-271.541207298448
 21
-266.251339955867
  0
LINE
  5
11B
100
AcDbEntity
  8
1
  6
CONTINUOUS
 62
           7
100
AcDbLine
 10
-272.907661857508
 20
-258.549143521363
 11
-272.907661857508
 21
-260.119849542148
  0
LINE
  5
11A
100
AcDbEntity
  8
1
  6
CONTINUOUS
 62
           7
100
AcDbLine
 10
-272.721786982444
 20
-255.713240944965
 11
-272.721786982444
 21
-257.283946965751
  0
LINE
  5
119
100
AcDbEntity
  8
1
  6
CONTINUOUS
 62
           7
100
AcDbLine
 10
-270.566702535227
 20
-249.812564392157
 11
-270.566702535227
 21
-250.720759840046
  0
LINE
  5
118
100
AcDbEntity
  8
1
  6
CONTINUOUS
 62
           7
100
AcDbLine
 10
-266.317572967105
 20
-245.185765210346
 11
-266.317572967105
 21
-245.548846719081
  0
LINE
  5
117
100
AcDbEntity
  8
1
  6
CONTINUOUS
 62
           7
100
AcDbLine
 10
-244.891437151288
 20
-246.537673576213
 11
-244.891437151288
 21
-247.066169847022
  0
LINE
  5
116
100
AcDbEntity
  8
1
  6
CONTINUOUS
 62
           7
100
AcDbLine
 10
-239.91612339597
 20
-257.811002966123
 11
-239.91612339597
 21
-259.381708986908
  0
LINE
  5
115
100
AcDbEntity
  8
1
  6
CONTINUOUS
 62
           7
100
AcDbLine
 10
-241.285155534
 20
-251.724849284341
 11
-241.392413253574
 21
-252.665071941923
  0
LINE
  5
114
100
AcDbEntity
  8
1
  6
CONTINUOUS
 62
           7
100
AcDbLine
 10
-240.101998271033
 20
-260.64690554252
 11
-240.101998271033
 21
-262.217611563306
  0
LINE
  5
113
100
AcDbEntity
  8
1
  6
CONTINUOUS
 62
           7
100
AcDbLine
 10
-242.257082718251
 20
-266.547582095328
 11
-242.257082718251
 21
-268.118288116114
  0
LINE
  5
112
100
AcDbEntity
  8
1
  6
CONTINUOUS
 62
           7
100
AcDbLine
 10
-246.506212286373
 20
-271.174381277139
 11
-246.506212286373
 21
-272.745087297925
  0
LINE
  5
111
100
AcDbEntity
  8
1
  6
DOT_CENTER
 62
           2
100
AcDbLine
 10
-283.090796695459
 20
-256.59206026378
 11
-228.816412390532
 21
-256.59206026378
  0
LINE
  5
110
100
AcDbEntity
  8
1
  6
CONTINUOUS
 62
           7
100
AcDbLine
 10
-238.911892626739
 20
-244.338846372149
 11
-238.911892626739
 21
-244.938846372149
  0
LINE
  5
10F
100
AcDbEntity
  8
976
  6
CONTINUOUS
 62
           7
100
AcDbLine
 10
-273.911892626739
 20
-244.938846372149
 11
-270.5708785979
 21
-250.725652418898
  0
LINE
  5
10E
100
AcDbEntity
  8
1
  6
CONTINUOUS
 62
           7
100
AcDbLine
 10
-273.911892626739
 20
-244.938846372149
 11
-273.911892626739
 21
-244.338846372149
  0
LINE
  5
10D
100
AcDbEntity
  8
1
  6
CONTINUOUS
 62
           7
100
AcDbLine
 10
-256.411892626739
 20
-246.777105687557
 11
-264.911892626739
 21
-251.684582975668
  0
LINE
  5
10C
100
AcDbEntity
  8
1
  6
CONTINUOUS
 62
           7
100
AcDbLine
 10
-264.911892626739
 20
-251.684582975668
 11
-264.911892626739
 21
-261.499537551892
  0
LINE
  5
10B
100
AcDbEntity
  8
1
  6
CONTINUOUS
 62
           7
100
AcDbLine
 10
-247.911892626739
 20
-251.684582975668
 11
-256.411892626739
 21
-246.777105687557
  0
LINE
  5
10A
100
AcDbEntity
  8
1
  6
CONTINUOUS
 62
           7
100
AcDbLine
 10
-247.911892626739
 20
-261.499537551892
 11
-247.911892626739
 21
-251.684582975668
  0
LINE
  5
109
100
AcDbEntity
  8
1
  6
CONTINUOUS
 62
           7
100
AcDbLine
 10
-256.411892626739
 20
-266.407014840004
 11
-247.911892626739
 21
-261.499537551892
  0
LINE
  5
108
100
AcDbEntity
  8
1
  6
CONTINUOUS
 62
           7
100
AcDbLine
 10
-264.911892626739
 20
-261.499537551892
 11
-256.411892626739
 21
-266.407014840004
  0
LINE
  5
107
100
AcDbEntity
  8
976
  6
CONTINUOUS
 62
           7
100
AcDbLine
 10
-241.959940941173
 20
-250.218220916673
 11
-238.911892626739
 21
-244.938846372149
  0
LINE
  5
106
100
AcDbEntity
  8
1
  6
CONTINUOUS
 62
           7
100
AcDbLine
 10
-256.411892626739
 20
-266.564965488723
 11
-247.911892626739
 21
-261.657488200611
  0
LINE
  5
105
100
AcDbEntity
  8
1
  6
CONTINUOUS
 62
           7
100
AcDbLine
 10
-264.911892626739
 20
-261.657488200611
 11
-256.411892626739
 21
-266.564965488723
  0
LINE
  5
104
100
AcDbEntity
  8
1
  6
CONTINUOUS
 62
           7
100
AcDbLine
 10
-264.911892626739
 20
-251.842533624388
 11
-264.911892626739
 21
-261.657488200611
  0
LINE
  5
103
100
AcDbEntity
  8
1
  6
CONTINUOUS
 62
           7
100
AcDbLine
 10
-247.911892626739
 20
-261.657488200611
 11
-247.911892626739
 21
-251.842533624388
  0
LINE
  5
102
100
AcDbEntity
  8
1
  6
CONTINUOUS
 62
           7
100
AcDbLine
 10
-256.411892626739
 20
-266.407014840004
 11
-256.411892626739
 21
-266.564965488723
  0
LINE
  5
101
100
AcDbEntity
  8
1
  6
DOT_CENTER
 62
           2
100
AcDbLine
 10
-256.411892626739
 20
-276.750779264528
 11
-256.411892626739
 21
-283.711458309537
  0
LINE
  5
100
100
AcDbEntity
  8
1
  6
CONTINUOUS
 62
           7
100
AcDbLine
 10
-274.911892626739
 20
-241.199734387973
 11
-274.911892626739
 21
-243.838846372149
  0
LINE
  5
FF
100
AcDbEntity
  8
1
  6
CONTINUOUS
 62
           7
100
AcDbLine
 10
-237.911892626739
 20
-228.199734387973
 11
-237.911892626739
 21
-226.079602965845
  0
LINE
  5
FE
100
AcDbEntity
  8
1
  6
CONTINUOUS
 62
           7
100
AcDbLine
 10
-265.393565003811
 20
-244.338846372149
 11
-272.111892626739
 21
-244.338846372149
  0
LINE
  5
FD
100
AcDbEntity
  8
1
  6
CONTINUOUS
 62
           7
100
AcDbLine
 10
68.009023631848
 20
98.089781682404
 11
70.406261646214
 21
98.089781682404
  0
LINE
  5
FC
100
AcDbEntity
  8
1
  6
CONTINUOUS
 62
           7
100
AcDbLine
 10
67.698508729374
 20
95.589781682404
 11
99.406261646214
 21
95.589781682404
  0
LINE
  5
FB
100
AcDbEntity
  8
1
  6
CONTINUOUS
 62
           7
100
AcDbLine
 10
0.906261646214
 20
40.597028439763
 11
0.906261646214
 21
37.684080854203
  0
LINE
  5
FA
100
AcDbEntity
  8
1
  6
CONTINUOUS
 62
           7
100
AcDbLine
 10
-271.911892626739
 20
-223.338846372149
 11
-240.911892626739
 21
-223.338846372149
  0
LINE
  5
F9
100
AcDbEntity
  8
1
  6
CONTINUOUS
 62
           7
100
AcDbLine
 10
-274.411892626739
 20
-244.338846372149
 11
-272.111892626739
 21
-244.338846372149
  0
LINE
  5
F8
100
AcDbEntity
  8
1
  6
DOT_CENTER
 62
           2
100
AcDbLine
 10
-256.411892626739
 20
-110.338846372149
 11
-256.411892626739
 21
-276.750779264528
  0
LINE
  5
F7
100
AcDbEntity
  8
1
  6
DOT_CENTER
 62
           2
100
AcDbLine
 10
-256.411892626739
 20
-9.259646072671
 11
-256.411892626739
 21
-110.338846372149
  0
LINE
  5
F6
100
AcDbEntity
  8
1
  6
DOT_CENTER
 62
           2
100
AcDbLine
 10
-256.411892626739
 20
-244.338846372149
 11
-256.411892626739
 21
-251.252735962433
  0
LINE
  5
F5
100
AcDbEntity
  8
1
  6
CONTINUOUS
 62
           7
100
AcDbLine
 10
-240.711892626739
 20
-244.338846372149
 11
-247.430220249667
 21
-244.338846372149
  0
LINE
  5
F4
100
AcDbEntity
  8
1
  6
CONTINUOUS
 62
           7
100
AcDbLine
 10
-187.411892626739
 20
-35.338846372149
 11
-189.411892626739
 21
-35.338846372149
  0
LINE
  5
F3
100
AcDbEntity
  8
1
  6
CONTINUOUS
 62
           7
100
AcDbLine
 10
-237.911892626739
 20
-243.838846372149
 11
-238.411892626739
 21
-244.338846372149
  0
LINE
  5
F2
100
AcDbEntity
  8
1
  6
CONTINUOUS
 62
           7
100
AcDbLine
 10
-189.411892626739
 20
-37.338846372149
 11
-189.411892626739
 21
-108.479993521458
  0
LINE
  5
F1
100
AcDbEntity
  8
1
  6
CONTINUOUS
 62
           7
100
AcDbLine
 10
-189.411892626739
 20
-35.338846372149
 11
-256.411892626739
 21
-35.338846372149
  0
LINE
  5
F0
100
AcDbEntity
  8
1
  6
CONTINUOUS
 62
           7
100
AcDbLine
 10
-202.960070940741
 20
-178.315526875483
 11
-236.231218432211
 21
-221.173879638516
  0
LINE
  5
EF
100
AcDbEntity
  8
1
  6
CONTINUOUS
 62
           7
100
AcDbLine
 10
-240.711892626739
 20
-244.338846372149
 11
-238.411892626739
 21
-244.338846372149
  0
LINE
  5
EE
100
AcDbEntity
  8
1
  6
CONTINUOUS
 62
           7
100
AcDbLine
 10
-237.911892626739
 20
-243.838846372149
 11
-237.911892626739
 21
-241.199734387973
  0
LINE
  5
ED
100
AcDbEntity
  8
1
  6
CONTINUOUS
 62
           7
100
AcDbLine
 10
-189.411892626739
 20
-108.479993521458
 11
-189.411892626739
 21
-140.338846372149
  0
LINE
  5
EC
100
AcDbEntity
  8
1
  6
CONTINUOUS
 62
           7
100
AcDbLine
 10
-214.411892626739
 20
-35.338846372149
 11
-216.411892626739
 21
-35.338846372149
  0
LINE
  5
EB
100
AcDbEntity
  8
1
  6
CONTINUOUS
 62
           7
100
AcDbLine
 10
-197.411892626739
 20
-37.338846372149
 11
-216.411892626739
 21
-41.338846372149
  0
LINE
  5
EA
100
AcDbEntity
  8
1
  6
CONTINUOUS
 62
           7
100
AcDbLine
 10
-187.411892626739
 20
-37.338846372149
 11
-197.411892626739
 21
-37.338846372149
  0
LINE
  5
E9
100
AcDbEntity
  8
1
  6
CONTINUOUS
 62
           7
100
AcDbLine
 10
-187.411892626739
 20
-35.338846372149
 11
-187.411892626739
 21
-37.338846372149
  0
LINE
  5
E8
100
AcDbEntity
  8
1
  6
CONTINUOUS
 62
           7
100
AcDbLine
 10
-256.411892626739
 20
-41.338846372149
 11
-216.411892626739
 21
-41.338846372149
  0
LINE
  5
E7
100
AcDbEntity
  8
1
  6
CONTINUOUS
 62
           7
100
AcDbLine
 10
-231.943214120458
 20
-115.465616520718
 11
-216.411892626739
 21
-41.338846372149
  0
LINE
  5
E6
100
AcDbEntity
  8
1
  6
DOT_CENTER
 62
           2
100
AcDbLine
 10
119.907628980556
 20
105.589781682405
 11
46.062183526747
 21
105.589781682405
  0
LINE
  5
E5
100
AcDbEntity
  8
1
  6
DOT_CENTER
 62
           2
100
AcDbLine
 10
46.062183526747
 20
105.589781682405
 11
-75.517283303167
 21
105.589781682405
  0
LINE
  5
E4
100
AcDbEntity
  8
1
  6
DOT_CENTER
 62
           2
100
AcDbLine
 10
-2.593738353786
 20
38.589781682404
 11
-2.593738353786
 21
105.589781682405
  0
LINE
  5
E3
100
AcDbEntity
  8
1
  6
CONTINUOUS
 62
           7
100
AcDbLine
 10
-296.411892626739
 20
-41.338846372149
 11
-280.88057113302
 21
-115.465616520718
  0
LINE
  5
E2
100
AcDbEntity
  8
1
  6
CONTINUOUS
 62
           7
100
AcDbLine
 10
-296.411892626739
 20
-41.338846372149
 11
-256.411892626739
 21
-41.338846372149
  0
LINE
  5
E1
100
AcDbEntity
  8
1
  6
CONTINUOUS
 62
           7
100
AcDbLine
 10
-325.411892626739
 20
-37.338846372149
 11
-325.411892626739
 21
-35.338846372149
  0
LINE
  5
E0
100
AcDbEntity
  8
1
  6
CONTINUOUS
 62
           7
100
AcDbLine
 10
-315.411892626739
 20
-37.338846372149
 11
-325.411892626739
 21
-37.338846372149
  0
LINE
  5
DF
100
AcDbEntity
  8
1
  6
CONTINUOUS
 62
           7
100
AcDbLine
 10
-296.411892626739
 20
-41.338846372149
 11
-315.411892626739
 21
-37.338846372149
  0
LINE
  5
DE
100
AcDbEntity
  8
1
  6
CONTINUOUS
 62
           7
100
AcDbLine
 10
-296.411892626739
 20
-35.338846372149
 11
-298.411892626739
 21
-35.338846372149
  0
LINE
  5
DD
100
AcDbEntity
  8
1
  6
CONTINUOUS
 62
           7
100
AcDbLine
 10
-323.411892626739
 20
-140.338846372149
 11
-323.411892626739
 21
-108.479993521458
  0
LINE
  5
DC
100
AcDbEntity
  8
1
  6
CONTINUOUS
 62
           7
100
AcDbLine
 10
-274.911892626739
 20
-226.079602965845
 11
-274.911892626739
 21
-228.199734387973
  0
LINE
  5
DB
100
AcDbEntity
  8
1
  6
CONTINUOUS
 62
           7
100
AcDbLine
 10
-276.592566821267
 20
-221.173879638516
 11
-309.863714312736
 21
-178.315526875483
  0
LINE
  5
DA
100
AcDbEntity
  8
1
  6
CONTINUOUS
 62
           7
100
AcDbLine
 10
-256.411892626739
 20
-35.338846372149
 11
-323.411892626739
 21
-35.338846372149
  0
LINE
  5
D9
100
AcDbEntity
  8
1
  6
CONTINUOUS
 62
           7
100
AcDbLine
 10
-323.411892626739
 20
-108.479993521458
 11
-323.411892626739
 21
-37.338846372149
  0
LINE
  5
D8
100
AcDbEntity
  8
1
  6
CONTINUOUS
 62
           7
100
AcDbLine
 10
-274.411892626739
 20
-244.338846372149
 11
-274.911892626739
 21
-243.838846372149
  0
LINE
  5
D7
100
AcDbEntity
  8
1
  6
CONTINUOUS
 62
           7
100
AcDbLine
 10
-323.411892626739
 20
-35.338846372149
 11
-325.411892626739
 21
-35.338846372149
  0
LINE
  5
D6
100
AcDbEntity
  8
1
  6
CONTINUOUS
 62
           7
100
AcDbLine
 10
-71.593738353786
 20
142.691230957767
 11
-71.593738353786
 21
105.589781682405
  0
LINE
  5
D5
100
AcDbEntity
  8
1
  6
CONTINUOUS
 62
           7
100
AcDbLine
 10
-67.593738353786
 20
105.589781682405
 11
-67.593738353786
 21
143.589781682404
  0
LINE
  5
D4
100
AcDbEntity
  8
1
  6
CONTINUOUS
 62
           7
100
AcDbLine
 10
-67.593738353786
 20
143.589781682404
 11
-34.480314469503
 21
162.231164642362
  0
LINE
  5
D3
100
AcDbEntity
  8
1
  6
CONTINUOUS
 62
           7
100
AcDbLine
 10
-69.078410575135
 20
147.03017137594
 11
-36.8822150084
 21
165.467159453195
  0
LINE
  5
D2
100
AcDbEntity
  8
1
  6
DOT_CENTER
 62
           2
100
AcDbLine
 10
-2.593738353786
 20
105.589781682405
 11
-2.593738353786
 21
176.531510662471
  0
LINE
  5
D1
100
AcDbEntity
  8
1
  6
CONTINUOUS
 62
           7
100
AcDbLine
 10
84.406261646214
 20
111.089781682405
 11
84.406261646214
 21
109.677771603692
  0
LINE
  5
D0
100
AcDbEntity
  8
1
  6
CONTINUOUS
 62
           7
100
AcDbLine
 10
70.406261646214
 20
113.089781682405
 11
82.406261646214
 21
113.089781682405
  0
LINE
  5
CF
100
AcDbEntity
  8
1
  6
CONTINUOUS
 62
           7
100
AcDbLine
 10
82.406261646214
 20
113.089781682405
 11
90.254759037353
 21
113.089781682405
  0
LINE
  5
CE
100
AcDbEntity
  8
1
  6
CONTINUOUS
 62
           7
100
AcDbLine
 10
99.406261646214
 20
115.589781682405
 11
67.698508729374
 21
115.589781682405
  0
LINE
  5
CD
100
AcDbEntity
  8
1
  6
CONTINUOUS
 62
           7
100
AcDbLine
 10
70.406261646214
 20
113.089781682405
 11
68.009023631848
 21
113.089781682405
  0
LINE
  5
CC
100
AcDbEntity
  8
1
  6
CONTINUOUS
 62
           7
100
AcDbLine
 10
0.906261646214
 20
173.495482510606
 11
-3.593738353786
 21
174.495482510606
  0
LINE
  5
CB
100
AcDbEntity
  8
1
  6
CONTINUOUS
 62
           7
100
AcDbLine
 10
0.906261646214
 20
173.495482510606
 11
0.906261646214
 21
170.582534925046
  0
LINE
  5
CA
100
AcDbEntity
  8
1
  6
CONTINUOUS
 62
           7
100
AcDbLine
 10
-71.593738353786
 20
105.589781682405
 11
-71.593738353786
 21
68.488332407042
  0
LINE
  5
C9
100
AcDbEntity
  8
1
  6
CONTINUOUS
 62
           7
100
AcDbLine
 10
-67.593738353786
 20
67.589781682404
 11
-67.593738353786
 21
105.589781682405
  0
LINE
  5
C8
100
AcDbEntity
  8
1
  6
CONTINUOUS
 62
           7
100
AcDbLine
 10
-34.480314469503
 20
48.948398722447
 11
-67.593738353786
 21
67.589781682404
  0
LINE
  5
C7
100
AcDbEntity
  8
1
  6
CONTINUOUS
 62
           7
100
AcDbLine
 10
-36.8822150084
 20
45.712403911614
 11
-69.078410575135
 21
64.149391988869
  0
LINE
  5
C6
100
AcDbEntity
  8
1
  6
DOT_CENTER
 62
           2
100
AcDbLine
 10
-2.593738353786
 20
31.756339107382
 11
-2.593738353786
 21
38.589781682404
  0
LINE
  5
C5
100
AcDbEntity
  8
1
  6
CONTINUOUS
 62
           7
100
AcDbLine
 10
82.406261646214
 20
98.089781682404
 11
70.406261646214
 21
98.089781682404
  0
LINE
  5
C4
100
AcDbEntity
  8
1
  6
CONTINUOUS
 62
           7
100
AcDbLine
 10
90.254759037353
 20
98.089781682404
 11
82.406261646214
 21
98.089781682404
  0
LINE
  5
C3
100
AcDbEntity
  8
1
  6
CONTINUOUS
 62
           7
100
AcDbLine
 10
-3.593738353786
 20
36.684080854203
 11
0.906261646214
 21
37.684080854203
  0
LINE
  5
C2
100
AcDbEntity
  8
1
  6
CONTINUOUS
 62
           7
100
AcDbLine
 10
86.156261646214
 20
111.089781682405
 11
91.47775057523
 21
111.089781682405
  0
LINE
  5
C1
100
AcDbEntity
  8
1
  6
CONTINUOUS
 62
           7
100
AcDbLine
 10
86.156261646214
 20
100.089781682405
 11
86.156261646214
 21
101.315693253103
  0
LINE
  5
C0
100
AcDbEntity
  8
1
  6
CONTINUOUS
 62
           7
100
AcDbLine
 10
84.406261646214
 20
101.501791761117
 11
84.406261646214
 21
100.089781682405
  0
LINE
  5
BF
100
AcDbEntity
  8
1
  6
CONTINUOUS
 62
           7
100
AcDbLine
 10
86.156261646214
 20
109.863870111706
 11
86.156261646214
 21
111.089781682405
  0
LINE
  5
BE
100
AcDbEntity
  8
1
  6
CONTINUOUS
 62
           7
100
AcDbLine
 10
91.47775057523
 20
100.089781682405
 11
86.156261646214
 21
100.089781682405
  0
LINE
  5
BD
100
AcDbEntity
  8
1
  6
CONTINUOUS
 62
           7
100
AcDbLine
 10
-249.261892626739
 20
-19.888846372149
 11
-249.261892626739
 21
-15.638846372149
  0
LINE
  5
BC
100
AcDbEntity
  8
1
  6
CONTINUOUS
 62
           7
100
AcDbLine
 10
-323.411892626739
 20
-42.338846372149
 11
-325.911892626739
 21
-42.338846372149
  0
LINE
  5
BB
100
AcDbEntity
  8
1
  6
CONTINUOUS
 62
           7
100
AcDbLine
 10
0.906261646214
 20
170.582534925046
 11
-3.593738353786
 21
170.582534925046
  0
LINE
  5
BA
100
AcDbEntity
  8
1
  6
CONTINUOUS
 62
           7
100
AcDbLine
 10
0.906261646214
 20
173.582534925046
 11
0.906261646214
 21
170.582534925046
  0
LINE
  5
B9
100
AcDbEntity
  8
1
  6
CONTINUOUS
 62
           7
100
AcDbLine
 10
-3.593738353786
 20
174.582534925046
 11
0.906261646214
 21
173.582534925046
  0
LINE
  5
B8
100
AcDbEntity
  8
1
  6
CONTINUOUS
 62
           7
100
AcDbLine
 10
0.906261646214
 20
40.597028439763
 11
-3.593738353786
 21
40.597028439763
  0
LINE
  5
B7
100
AcDbEntity
  8
1
  6
CONTINUOUS
 62
           7
100
AcDbLine
 10
0.906261646214
 20
37.597028439763
 11
0.906261646214
 21
40.597028439763
  0
LINE
  5
B6
100
AcDbEntity
  8
1
  6
CONTINUOUS
 62
           7
100
AcDbLine
 10
-3.593738353786
 20
36.597028439763
 11
0.906261646214
 21
37.597028439763
  0
LINE
  5
B5
100
AcDbEntity
  8
1
  6
CONTINUOUS
 62
           7
100
AcDbLine
 10
33.406261646214
 20
101.439781682404
 11
33.406261646214
 21
101.589781682405
  0
LINE
  5
B4
100
AcDbEntity
  8
1
  6
CONTINUOUS
 62
           7
100
AcDbLine
 10
59.906261646214
 20
101.439781682404
 11
33.406261646214
 21
101.439781682404
  0
LINE
  5
B3
100
AcDbEntity
  8
1
  6
CONTINUOUS
 62
           7
100
AcDbLine
 10
33.406261646214
 20
109.739781682405
 11
59.906261646214
 21
109.739781682405
  0
LINE
  5
B2
100
AcDbEntity
  8
1
  6
CONTINUOUS
 62
           7
100
AcDbLine
 10
59.906261646214
 20
98.439781682404
 11
59.906261646214
 21
101.439781682404
  0
LINE
  5
B1
100
AcDbEntity
  8
1
  6
CONTINUOUS
 62
           7
100
AcDbLine
 10
22.906261646214
 20
98.439781682404
 11
59.906261646214
 21
98.439781682404
  0
LINE
  5
B0
100
AcDbEntity
  8
1
  6
CONTINUOUS
 62
           7
100
AcDbLine
 10
22.906261646214
 20
112.739781682405
 11
22.906261646214
 21
109.589781682405
  0
LINE
  5
AF
100
AcDbEntity
  8
1
  6
CONTINUOUS
 62
           7
100
AcDbLine
 10
59.906261646214
 20
112.739781682405
 11
22.906261646214
 21
112.739781682405
  0
LINE
  5
AE
100
AcDbEntity
  8
1
  6
CONTINUOUS
 62
           7
100
AcDbLine
 10
-185.411892626739
 20
-36.838846372149
 11
-185.411892626739
 21
-40.838846372149
  0
LINE
  5
AD
100
AcDbEntity
  8
1
  6
CONTINUOUS
 62
           7
100
AcDbLine
 10
-186.911892626739
 20
-42.338846372149
 11
-189.411892626739
 21
-42.338846372149
  0
LINE
  5
AC
100
AcDbEntity
  8
1
  6
CONTINUOUS
 62
           7
100
AcDbLine
 10
-327.411892626739
 20
-40.838846372149
 11
-327.411892626739
 21
-36.838846372149
  0
LINE
  5
AB
100
AcDbEntity
  8
1
  6
CONTINUOUS
 62
           7
100
AcDbLine
 10
-246.261892626739
 20
-35.338846372149
 11
-186.911892626739
 21
-35.338846372149
  0
LINE
  5
AA
100
AcDbEntity
  8
1
  6
CONTINUOUS
 62
           7
100
AcDbLine
 10
-249.261892626739
 20
-32.338846372149
 11
-249.261892626739
 21
-20.788846372149
  0
LINE
  5
A9
100
AcDbEntity
  8
1
  6
CONTINUOUS
 62
           7
100
AcDbLine
 10
-263.561892626739
 20
-32.338846372149
 11
-263.561892626739
 21
-15.638846372149
  0
LINE
  5
A8
100
AcDbEntity
  8
1
  6
CONTINUOUS
 62
           7
100
AcDbLine
 10
-249.561892626739
 20
-15.338846372149
 11
-252.261892626739
 21
-15.338846372149
  0
LINE
  5
A7
100
AcDbEntity
  8
1
  6
CONTINUOUS
 62
           7
100
AcDbLine
 10
-252.261892626739
 20
-15.338846372149
 11
-252.261892626739
 21
-15.424824831234
  0
LINE
  5
A6
100
AcDbEntity
  8
1
  6
CONTINUOUS
 62
           7
100
AcDbLine
 10
-263.261892626739
 20
-15.338846372149
 11
-260.561892626739
 21
-15.338846372149
  0
LINE
  5
A5
100
AcDbEntity
  8
1
  6
CONTINUOUS
 62
           7
100
AcDbLine
 10
-260.561892626739
 20
-15.338846372149
 11
-260.561892626739
 21
-15.424824831234
  0
LINE
  5
A4
100
AcDbEntity
  8
1
  6
CONTINUOUS
 62
           7
100
AcDbLine
 10
-325.911892626739
 20
-35.338846372149
 11
-266.561892626739
 21
-35.338846372149
  0
LINE
  5
A3
100
AcDbEntity
  8
1
  6
CONTINUOUS
 62
           7
100
AcDbLine
 10
-249.261892626739
 20
-35.338846372149
 11
-246.261892626739
 21
-35.338846372149
  0
LINE
  5
A2
100
AcDbEntity
  8
1
  6
CONTINUOUS
 62
           7
100
AcDbLine
 10
-256.561892626739
 20
-35.338846372149
 11
-256.261892626739
 21
-35.338846372148
  0
LINE
  5
A1
100
AcDbEntity
  8
1
  6
CONTINUOUS
 62
           7
100
AcDbLine
 10
-266.561892626739
 20
-35.338846372149
 11
-263.561892626739
 21
-35.338846372149
  0
LINE
  5
A0
100
AcDbEntity
  8
1
  6
CONTINUOUS
 62
           7
100
AcDbLine
 10
-252.261892626739
 20
-35.338846372149
 11
-249.261892626739
 21
-35.338846372149
  0
LINE
  5
9F
100
AcDbEntity
  8
1
  6
CONTINUOUS
 62
           7
100
AcDbLine
 10
-252.411892626739
 20
-35.338846372149
 11
-252.261892626739
 21
-35.338846372149
  0
LINE
  5
9E
100
AcDbEntity
  8
1
  6
CONTINUOUS
 62
           7
100
AcDbLine
 10
-263.561892626739
 20
-35.338846372149
 11
-260.561892626739
 21
-35.338846372149
  0
LINE
  5
9D
100
AcDbEntity
  8
1
  6
CONTINUOUS
 62
           7
100
AcDbLine
 10
-260.561892626739
 20
-35.338846372149
 11
-260.411892626739
 21
-35.338846372149
  0
LINE
  5
9C
100
AcDbEntity
  8
1
  6
CONTINUOUS
 62
           7
100
AcDbLine
 10
-192.411892626739
 20
-35.338846372149
 11
-206.411892626739
 21
-33.338846372149
  0
LINE
  5
9B
100
AcDbEntity
  8
1
  6
CONTINUOUS
 62
           7
100
AcDbLine
 10
-206.411892626739
 20
-33.338846372149
 11
-249.090319751485
 21
-33.338846372149
  0
LINE
  5
9A
100
AcDbEntity
  8
1
  6
CONTINUOUS
 62
           7
100
AcDbLine
 10
-258.411892626739
 20
-33.338846372149
 11
-306.411892626739
 21
-33.338846372149
  0
LINE
  5
99
100
AcDbEntity
  8
1
  6
CONTINUOUS
 62
           7
100
AcDbLine
 10
-306.411892626739
 20
-33.338846372149
 11
-320.411892626739
 21
-35.338846372149
  0
LINE
  5
98
100
AcDbEntity
  8
1
  6
CONTINUOUS
 62
           7
100
AcDbLine
 10
-252.261892626739
 20
-27.338846372149
 11
-254.411892626739
 21
-27.338846372149
  0
LINE
  5
97
100
AcDbEntity
  8
1
  6
CONTINUOUS
 62
           7
100
AcDbLine
 10
-254.411892626739
 20
-27.338846372149
 11
-254.411892626739
 21
-33.338846372149
  0
LINE
  5
96
100
AcDbEntity
  8
1
  6
CONTINUOUS
 62
           7
100
AcDbLine
 10
-260.561892626739
 20
-27.338846372149
 11
-258.411892626739
 21
-27.338846372149
  0
LINE
  5
95
100
AcDbEntity
  8
1
  6
CONTINUOUS
 62
           7
100
AcDbLine
 10
-258.411892626739
 20
-27.338846372149
 11
-258.411892626739
 21
-33.338846372149
  0
LINE
  5
94
100
AcDbEntity
  8
1
  6
CONTINUOUS
 62
           7
100
AcDbLine
 10
-258.411892626739
 20
-35.338846372149
 11
-256.561892626739
 21
-35.338846372149
  0
LINE
  5
93
100
AcDbEntity
  8
1
  6
CONTINUOUS
 62
           7
100
AcDbLine
 10
-260.411892626739
 20
-35.338846372149
 11
-258.411892626739
 21
-35.338846372149
  0
LINE
  5
92
100
AcDbEntity
  8
1
  6
CONTINUOUS
 62
           7
100
AcDbLine
 10
-256.261892626739
 20
-35.338846372148
 11
-254.411892626739
 21
-35.338846372149
  0
LINE
  5
91
100
AcDbEntity
  8
1
  6
CONTINUOUS
 62
           7
100
AcDbLine
 10
-254.411892626739
 20
-35.338846372149
 11
-252.411892626739
 21
-35.338846372149
  0
LINE
  5
90
100
AcDbEntity
  8
1
  6
CONTINUOUS
 62
           7
100
AcDbLine
 10
-249.090319751485
 20
-33.338846372149
 11
-258.411892626739
 21
-33.338846372149
  0
LINE
  5
8F
100
AcDbEntity
  8
1
  6
CONTINUOUS
 62
           7
100
AcDbLine
 10
68.009023631848
 20
113.089781682405
 11
70.406261646214
 21
113.089781682405
  0
LINE
  5
8E
100
AcDbEntity
  8
1
  6
CONTINUOUS
 62
           7
100
AcDbLine
 10
72.406261646214
 20
111.089781682405
 11
72.406261646214
 21
109.589781682405
  0
LINE
  5
8D
100
AcDbEntity
  8
1
  6
CONTINUOUS
 62
           7
100
AcDbLine
 10
70.406261646214
 20
98.089781682404
 11
68.009023631848
 21
98.089781682404
  0
LINE
  5
8C
100
AcDbEntity
  8
1
  6
CONTINUOUS
 62
           7
100
AcDbLine
 10
-3.593738353786
 20
34.596824285209
 11
-3.593738353786
 21
36.597028439763
  0
LINE
  5
8B
100
AcDbEntity
  8
1
  6
CONTINUOUS
 62
           7
100
AcDbLine
 10
-3.593738353786
 20
176.5827390796
 11
-3.593738353786
 21
174.582534925046
  0
LINE
  5
8A
100
AcDbEntity
  8
1
  6
CONTINUOUS
 62
           7
100
AcDbLine
 10
-3.593738353786
 20
40.597028439763
 11
-3.593738353786
 21
41.840271880367
  0
LINE
  5
89
100
AcDbEntity
  8
1
  6
CONTINUOUS
 62
           7
100
AcDbLine
 10
-3.593738353786
 20
170.582534925046
 11
-3.593738353786
 21
169.339291484441
  0
LINE
  5
88
100
AcDbEntity
  8
1
  6
CONTINUOUS
 62
           7
100
AcDbLine
 10
22.906261646214
 20
101.589781682405
 11
22.906261646214
 21
98.439781682404
  0
LINE
  5
87
100
AcDbEntity
  8
1
  6
CONTINUOUS
 62
           7
100
AcDbLine
 10
33.406261646214
 20
109.589781682405
 11
33.406261646214
 21
109.739781682405
  0
LINE
  5
86
100
AcDbEntity
  8
1
  6
CONTINUOUS
 62
           7
100
AcDbLine
 10
59.906261646214
 20
109.589781682405
 11
59.906261646214
 21
112.739781682405
  0
LINE
  5
85
100
AcDbEntity
  8
1
  6
CONTINUOUS
 62
           7
100
AcDbLine
 10
72.406261646214
 20
101.589781682405
 11
72.406261646214
 21
100.089781682405
  0
LINE
  5
84
100
AcDbEntity
  8
1
  6
CONTINUOUS
 62
           7
100
AcDbLine
 10
59.906261646214
 20
101.439781682404
 11
59.906261646214
 21
101.589781682405
  0
LINE
  5
83
100
AcDbEntity
  8
1
  6
CONTINUOUS
 62
           7
100
AcDbLine
 10
-252.261892626739
 20
-25.252867913063
 11
-252.261892626739
 21
-27.338846372149
  0
LINE
  5
82
100
AcDbEntity
  8
1
  6
CONTINUOUS
 62
           7
100
AcDbLine
 10
-260.561892626739
 20
-25.252867913063
 11
-260.561892626739
 21
-27.338846372149
  0
LINE
  5
81
100
AcDbEntity
  8
1
  6
CONTINUOUS
 62
           7
100
AcDbLine
 10
-327.411892626739
 20
-37.338846372149
 11
-327.411892626739
 21
-40.838846372149
  0
LINE
  5
80
100
AcDbEntity
  8
1
  6
CONTINUOUS
 62
           7
100
AcDbLine
 10
-323.411892626739
 20
-40.453132086434
 11
-325.411892626739
 21
-40.338846372149
  0
LINE
  5
7F
100
AcDbEntity
  8
1
  6
CONTINUOUS
 62
           7
100
AcDbLine
 10
-325.411892626739
 20
-40.338846372149
 11
-325.411892626739
 21
-37.338846372149
  0
LINE
  5
7E
100
AcDbEntity
  8
1
  6
CONTINUOUS
 62
           7
100
AcDbLine
 10
-325.911892626739
 20
-42.338846372149
 11
-323.411892626739
 21
-42.338846372149
  0
LINE
  5
7D
100
AcDbEntity
  8
1
  6
CONTINUOUS
 62
           7
100
AcDbLine
 10
-189.411892626739
 20
-42.338846372149
 11
-186.911892626739
 21
-42.338846372149
  0
LINE
  5
7C
100
AcDbEntity
  8
1
  6
CONTINUOUS
 62
           7
100
AcDbLine
 10
-187.411892626739
 20
-37.338846372149
 11
-187.411892626739
 21
-40.338846372149
  0
LINE
  5
7B
100
AcDbEntity
  8
1
  6
CONTINUOUS
 62
           7
100
AcDbLine
 10
-187.411892626739
 20
-40.338846372149
 11
-189.411892626739
 21
-40.453132086434
  0
LINE
  5
7A
100
AcDbEntity
  8
1
  6
CONTINUOUS
 62
           7
100
AcDbLine
 10
-185.411892626739
 20
-40.838846372149
 11
-185.411892626739
 21
-37.338846372149
  0
LINE
  5
79
100
AcDbEntity
  8
1
  6
CONTINUOUS
 62
           7
100
AcDbLine
 10
41.081261646214
 20
114.139781682404
 11
46.006261646214
 21
114.139781682404
  0
LINE
  5
78
100
AcDbEntity
  8
1
  6
CONTINUOUS
 62
           7
100
AcDbLine
 10
47.406261646214
 20
97.022811960387
 11
47.406261646214
 21
112.789781682405
  0
LINE
  5
77
100
AcDbEntity
  8
1
  6
CONTINUOUS
 62
           7
100
AcDbLine
 10
56.931261646214
 20
112.789781682405
 11
48.806261646214
 21
112.789781682405
  0
LINE
  5
76
100
AcDbEntity
  8
1
  6
CONTINUOUS
 62
           7
100
AcDbLine
 10
40.406261646214
 20
113.464781682405
 11
41.081261646214
 21
112.789781682405
  0
LINE
  5
75
100
AcDbEntity
  8
1
  6
CONTINUOUS
 62
           7
100
AcDbLine
 10
41.081261646214
 20
114.139781682404
 11
40.406261646214
 21
113.464781682405
  0
LINE
  5
74
100
AcDbEntity
  8
1
  6
CONTINUOUS
 62
           7
100
AcDbLine
 10
57.606261646214
 20
113.464781682405
 11
56.931261646214
 21
114.139781682404
  0
LINE
  5
73
100
AcDbEntity
  8
1
  6
CONTINUOUS
 62
           7
100
AcDbLine
 10
56.931261646214
 20
112.789781682405
 11
57.606261646214
 21
113.464781682405
  0
LINE
  5
72
100
AcDbEntity
  8
1
  6
CONTINUOUS
 62
           7
100
AcDbLine
 10
48.806261646214
 20
114.139781682404
 11
56.931261646214
 21
114.139781682404
  0
LINE
  5
71
100
AcDbEntity
  8
1
  6
CONTINUOUS
 62
           7
100
AcDbLine
 10
46.006261646214
 20
112.789781682405
 11
41.081261646214
 21
112.789781682405
  0
LINE
  5
70
100
AcDbEntity
  8
1
  6
CONTINUOUS
 62
           7
100
AcDbLine
 10
47.406261646214
 20
112.739781682404
 11
47.406261646214
 21
97.939781682404
  0
LINE
  5
6F
100
AcDbEntity
  8
1
  6
CONTINUOUS
 62
           7
100
AcDbLine
 10
46.056261646214
 20
109.589781682405
 11
46.056261646214
 21
109.739781682405
  0
LINE
  5
6E
100
AcDbEntity
  8
1
  6
CONTINUOUS
 62
           7
100
AcDbLine
 10
46.056261646214
 20
97.861859525582
 11
46.056261646214
 21
98.439781682404
  0
LINE
  5
6D
100
AcDbEntity
  8
1
  6
CONTINUOUS
 62
           7
100
AcDbLine
 10
48.756261646214
 20
109.739781682405
 11
48.756261646214
 21
109.589781682405
  0
LINE
  5
6C
100
AcDbEntity
  8
1
  6
CONTINUOUS
 62
           7
100
AcDbLine
 10
48.756261646214
 20
101.589781682405
 11
48.756261646214
 21
101.439781682404
  0
LINE
  5
6B
100
AcDbEntity
  8
1
  6
CONTINUOUS
 62
           7
100
AcDbLine
 10
46.056261646214
 20
101.439781682404
 11
46.056261646214
 21
101.589781682405
  0
LINE
  5
6A
100
AcDbEntity
  8
1
  6
CONTINUOUS
 62
           7
100
AcDbLine
 10
48.756261646214
 20
98.439781682404
 11
48.756261646214
 21
97.861859525582
  0
LINE
  5
69
100
AcDbEntity
  8
1
  6
CONTINUOUS
 62
           7
100
AcDbLine
 10
2.006261646214
 20
99.101173177785
 11
2.006261646214
 21
99.589781682404
  0
LINE
  5
68
100
AcDbEntity
  8
1
  6
CONTINUOUS
 62
           7
100
AcDbLine
 10
-0.493738353786
 20
112.539781682405
 11
2.006261646214
 21
112.539781682405
  0
LINE
  5
67
100
AcDbEntity
  8
1
  6
CONTINUOUS
 62
           7
100
AcDbLine
 10
2.906261646214
 20
98.593775302803
 11
2.906261646214
 21
111.639781682404
  0
LINE
  5
66
100
AcDbEntity
  8
1
  6
CONTINUOUS
 62
           7
100
AcDbLine
 10
8.806261646214
 20
111.639781682404
 11
3.856261646214
 21
111.639781682404
  0
LINE
  5
65
100
AcDbEntity
  8
1
  6
CONTINUOUS
 62
           7
100
AcDbLine
 10
-0.943738353786
 20
112.089781682405
 11
-0.493738353786
 21
111.639781682404
  0
LINE
  5
64
100
AcDbEntity
  8
1
  6
CONTINUOUS
 62
           7
100
AcDbLine
 10
-0.493738353786
 20
112.539781682405
 11
-0.943738353786
 21
112.089781682405
  0
LINE
  5
63
100
AcDbEntity
  8
1
  6
CONTINUOUS
 62
           7
100
AcDbLine
 10
9.256261646214
 20
112.089781682405
 11
8.806261646214
 21
112.539781682405
  0
LINE
  5
62
100
AcDbEntity
  8
1
  6
CONTINUOUS
 62
           7
100
AcDbLine
 10
8.806261646214
 20
111.639781682404
 11
9.256261646214
 21
112.089781682405
  0
LINE
  5
61
100
AcDbEntity
  8
1
  6
CONTINUOUS
 62
           7
100
AcDbLine
 10
3.806261646214
 20
99.553940664953
 11
3.806261646214
 21
99.101173177785
  0
LINE
  5
60
100
AcDbEntity
  8
1
  6
CONTINUOUS
 62
           7
100
AcDbLine
 10
1.956261646214
 20
111.639781682404
 11
-0.493738353786
 21
111.639781682404
  0
LINE
  5
5F
100
AcDbEntity
  8
1
  6
CONTINUOUS
 62
           7
100
AcDbLine
 10
3.806261646214
 20
112.539781682405
 11
8.806261646214
 21
112.539781682405
  0
LINE
  5
5E
100
AcDbEntity
  8
1
  6
CONTINUOUS
 62
           7
100
AcDbLine
 10
2.906261646214
 20
111.639781682404
 11
2.906261646214
 21
99.089781682404
  0
LINE
  5
5D
100
AcDbEntity
  8
1
  6
CONTINUOUS
 62
           7
100
AcDbLine
 10
3.806261646214
 20
106.989781682405
 11
3.806261646214
 21
106.839781682405
  0
LINE
  5
5C
100
AcDbEntity
  8
1
  6
CONTINUOUS
 62
           7
100
AcDbLine
 10
2.006261646214
 20
106.839781682405
 11
2.006261646214
 21
106.989781682405
  0
LINE
  5
5B
100
AcDbEntity
  8
1
  6
CONTINUOUS
 62
           7
100
AcDbLine
 10
3.806261646214
 20
104.339781682405
 11
3.806261646214
 21
104.189781682404
  0
LINE
  5
5A
100
AcDbEntity
  8
1
  6
CONTINUOUS
 62
           7
100
AcDbLine
 10
2.006261646214
 20
104.189781682404
 11
2.006261646214
 21
104.339781682405
  0
LINE
  5
59
100
AcDbEntity
  8
1
  6
CONTINUOUS
 62
           7
100
AcDbLine
 10
3.806261646214
 20
99.589781682404
 11
3.806261646214
 21
99.553940664953
  0
LINE
  5
58
100
AcDbEntity
  8
1
  6
CONTINUOUS
 62
           7
100
AcDbLine
 10
-250.411892626739
 20
-19.888846372149
 11
-246.861892626739
 21
-19.888846372149
  0
LINE
  5
57
100
AcDbEntity
  8
1
  6
CONTINUOUS
 62
           7
100
AcDbLine
 10
-246.861892626739
 20
-20.788846372149
 11
-250.411892626739
 21
-20.788846372149
  0
LINE
  5
56
100
AcDbEntity
  8
1
  6
CONTINUOUS
 62
           7
100
AcDbLine
 10
-262.911892626739
 20
-19.888846372149
 11
-262.411892626739
 21
-19.888846372149
  0
LINE
  5
55
100
AcDbEntity
  8
1
  6
CONTINUOUS
 62
           7
100
AcDbLine
 10
-262.911892626739
 20
-20.788846372149
 11
-262.411892626739
 21
-20.788846372149
  0
LINE
  5
54
100
AcDbEntity
  8
1
  6
CONTINUOUS
 62
           7
100
AcDbLine
 10
-264.286892626739
 20
-19.663846372149
 11
-263.561892626739
 21
-19.663846372149
  0
LINE
  5
53
100
AcDbEntity
  8
1
  6
CONTINUOUS
 62
           7
100
AcDbLine
 10
-264.286892626739
 20
-21.013846372149
 11
-263.561892626739
 21
-21.013846372149
  0
LINE
  5
52
100
AcDbEntity
  8
1
  6
CONTINUOUS
 62
           7
100
AcDbLine
 10
-243.936892626739
 20
-21.013846372149
 11
-249.261892626739
 21
-21.013846372149
  0
LINE
  5
51
100
AcDbEntity
  8
1
  6
CONTINUOUS
 62
           7
100
AcDbLine
 10
-249.261892626739
 20
-19.663846372149
 11
-243.936892626739
 21
-19.663846372149
  0
LINE
  5
50
100
AcDbEntity
  8
1
  6
CONTINUOUS
 62
           7
100
AcDbLine
 10
-257.811892626739
 20
-19.888846372149
 11
-257.661892626739
 21
-19.888846372149
  0
LINE
  5
4F
100
AcDbEntity
  8
1
  6
CONTINUOUS
 62
           7
100
AcDbLine
 10
-257.811892626739
 20
-20.788846372149
 11
-257.661892626739
 21
-20.788846372149
  0
LINE
  5
4E
100
AcDbEntity
  8
1
  6
CONTINUOUS
 62
           7
100
AcDbLine
 10
-255.161892626739
 20
-19.888846372149
 11
-255.011892626739
 21
-19.888846372149
  0
LINE
  5
4D
100
AcDbEntity
  8
1
  6
CONTINUOUS
 62
           7
100
AcDbLine
 10
-255.161892626739
 20
-20.788846372149
 11
-255.011892626739
 21
-20.788846372149
  0
LINE
  5
4C
100
AcDbEntity
  8
1
  6
DOT_CENTER
 62
           2
100
AcDbLine
 10
4.961971423378
 20
43.455974459605
 11
11.964489861666
 21
43.455974459605
  0
LINE
  5
4B
100
AcDbEntity
  8
1
  6
DOT_CENTER
 62
           2
100
AcDbLine
 10
8.406261646214
 20
39.914805243918
 11
8.406261646214
 21
46.87730929113
  0
LINE
  5
4A
100
AcDbEntity
  8
1
  6
DOT_CENTER
 62
           2
100
AcDbLine
 10
4.961971423378
 20
167.723588905204
 11
11.964489861666
 21
167.723588905204
  0
LINE
  5
49
100
AcDbEntity
  8
1
  6
DOT_CENTER
 62
           2
100
AcDbLine
 10
8.406261646214
 20
164.182419689517
 11
8.406261646214
 21
171.144923736728
  0
LINE
  5
48
100
AcDbEntity
  8
1
  6
CONTINUOUS
 62
           7
100
AcDbLine
 10
-276.911892626739
 20
-228.199734387973
 11
-235.911892626739
 21
-228.199734387973
  0
LINE
  5
47
100
AcDbEntity
  8
1
  6
CONTINUOUS
 62
           7
100
AcDbLine
 10
-235.911892626739
 20
-228.199734387973
 11
-235.911892626739
 21
-241.199734387973
  0
LINE
  5
46
100
AcDbEntity
  8
1
  6
CONTINUOUS
 62
           7
100
AcDbLine
 10
-235.911892626739
 20
-241.199734387973
 11
-276.911892626739
 21
-241.199734387973
  0
LINE
  5
45
100
AcDbEntity
  8
1
  6
CONTINUOUS
 62
           7
100
AcDbLine
 10
-276.911892626739
 20
-241.199734387973
 11
-276.911892626739
 21
-238.191505559849
  0
LINE
  5
44
100
AcDbEntity
  8
1
  6
CONTINUOUS
 62
           7
100
AcDbLine
 10
-256.411892626739
 20
-231.199734387973
 11
-256.411892626739
 21
-238.199734387973
  0
LINE
  5
43
100
AcDbEntity
  8
1
  6
CONTINUOUS
 62
           7
100
AcDbLine
 10
-253.411892626739
 20
-231.199734387973
 11
-253.411892626739
 21
-238.199734387973
  0
LINE
  5
42
100
AcDbEntity
  8
1
  6
CONTINUOUS
 62
           7
100
AcDbLine
 10
-250.411892626739
 20
-231.199734387973
 11
-250.411892626739
 21
-238.199734387973
  0
LINE
  5
41
100
AcDbEntity
  8
1
  6
CONTINUOUS
 62
           7
100
AcDbLine
 10
-247.411892626739
 20
-231.199734387973
 11
-247.411892626739
 21
-238.199734387973
  0
LINE
  5
40
100
AcDbEntity
  8
1
  6
CONTINUOUS
 62
           7
100
AcDbLine
 10
-244.411892626739
 20
-231.199734387973
 11
-244.411892626739
 21
-238.199734387973
  0
LINE
  5
3F
100
AcDbEntity
  8
1
  6
CONTINUOUS
 62
           7
100
AcDbLine
 10
-241.411892626739
 20
-231.199734387973
 11
-241.411892626739
 21
-238.199734387973
  0
LINE
  5
3E
100
AcDbEntity
  8
1
  6
CONTINUOUS
 62
           7
100
AcDbLine
 10
-238.411892626739
 20
-231.199734387973
 11
-238.411892626739
 21
-238.199734387973
  0
LINE
  5
3D
100
AcDbEntity
  8
1
  6
CONTINUOUS
 62
           7
100
AcDbLine
 10
-259.411892626739
 20
-231.199734387973
 11
-259.411892626739
 21
-238.199734387973
  0
LINE
  5
3C
100
AcDbEntity
  8
1
  6
CONTINUOUS
 62
           7
100
AcDbLine
 10
-262.411892626739
 20
-231.199734387973
 11
-262.411892626739
 21
-238.199734387973
  0
LINE
  5
3B
100
AcDbEntity
  8
1
  6
CONTINUOUS
 62
           7
100
AcDbLine
 10
-265.411892626739
 20
-231.199734387973
 11
-265.411892626739
 21
-238.199734387973
  0
LINE
  5
3A
100
AcDbEntity
  8
1
  6
CONTINUOUS
 62
           7
100
AcDbLine
 10
-268.411892626739
 20
-231.199734387973
 11
-268.411892626739
 21
-238.199734387973
  0
LINE
  5
39
100
AcDbEntity
  8
1
  6
CONTINUOUS
 62
           7
100
AcDbLine
 10
-274.411892626739
 20
-231.199734387973
 11
-274.411892626739
 21
-238.199734387973
  0
LINE
  5
38
100
AcDbEntity
  8
1
  6
CONTINUOUS
 62
           7
100
AcDbLine
 10
-271.411892626739
 20
-231.199734387973
 11
-271.411892626739
 21
-238.199734387973
  0
LINE
  5
37
100
AcDbEntity
  8
1
  6
CONTINUOUS
 62
           7
100
AcDbLine
 10
-282.791189100951
 20
-228.783654604874
 11
-282.791189100951
 21
-240.615814171073
  0
LINE
  5
36
100
AcDbEntity
  8
1
  6
CONTINUOUS
 62
           7
100
AcDbLine
 10
-280.791189100951
 20
-228.783654604874
 11
-280.791189100951
 21
-240.615814171073
  0
LINE
  5
35
100
AcDbEntity
  8
1
  6
CONTINUOUS
 62
           7
100
AcDbLine
 10
-276.911892626739
 20
-231.207963216098
 11
-276.911892626739
 21
-228.199734387973
  0
LINE
  5
34
100
AcDbEntity
  8
1
  6
CONTINUOUS
 62
           7
100
AcDbLine
 10
-275.199834052451
 20
-228.199734387973
 11
-275.199834052451
 21
-227.199734387973
  0
LINE
  5
33
100
AcDbEntity
  8
1
  6
CONTINUOUS
 62
           7
100
AcDbLine
 10
-275.199834052451
 20
-227.199734387973
 11
-280.18143139679
 21
-227.199734387973
  0
LINE
  5
32
100
AcDbEntity
  8
1
  6
CONTINUOUS
 62
           7
100
AcDbLine
 10
-280.18143139679
 20
-227.199734387973
 11
-280.18143139679
 21
-228.2082249051
  0
LINE
  5
31
100
AcDbEntity
  8
1
  6
CONTINUOUS
 62
           7
100
AcDbLine
 10
-278.426321332605
 20
-228.919710154989
 11
-276.911892626739
 21
-228.919710154989
  0
LINE
  5
30
100
AcDbEntity
  8
1
  6
CONTINUOUS
 62
           7
100
AcDbLine
 10
-280.18143139679
 20
-241.191243870847
 11
-280.18143139679
 21
-242.199734387973
  0
LINE
  5
2F
100
AcDbEntity
  8
1
  6
CONTINUOUS
 62
           7
100
AcDbLine
 10
-280.18143139679
 20
-242.199734387973
 11
-275.199834052451
 21
-242.199734387973
  0
LINE
  5
2E
100
AcDbEntity
  8
1
  6
CONTINUOUS
 62
           7
100
AcDbLine
 10
-276.911892626739
 20
-240.479758620958
 11
-278.426321332605
 21
-240.479758620958
  0
LINE
  5
2D
100
AcDbEntity
  8
1
  6
CONTINUOUS
 62
           7
100
AcDbLine
 10
-280.18143139679
 20
-242.199734387973
 11
-275.199834052451
 21
-242.199734387973
  0
LINE
  5
2C
100
AcDbEntity
  8
1
  6
CONTINUOUS
 62
           7
100
AcDbLine
 10
-275.199834052451
 20
-242.199734387973
 11
-275.199834052451
 21
-241.199734387973
  0
POINT
  5
2B
100
AcDbEntity
  8
1
 62
           6
100
AcDbPoint
 10
114.406261646214
 20
-50.338846372149
  0
POINT
  5
2A
100
AcDbEntity
  8
1
 62
           6
100
AcDbPoint
 10
15.906261646214
 20
-244.338846372149
  0
POINT
  5
29
100
AcDbEntity
  8
1
 62
           6
100
AcDbPoint
 10
72.406261646214
 20
98.089781682404
  0
ENDSEC
  0
SECTION
  2
OBJECTS
  0
DICTIONARY
  5
19
100
AcDbDictionary
  3
ACAD_GROUP
350
1A
  3
ACAD_MLINESTYLE
350
1B
  0
DICTIONARY
  5
1A
102
{ACAD_REACTORS
330
19
102
}
100
AcDbDictionary
  0
DICTIONARY
  5
1B
102
{ACAD_REACTORS
330
19
102
}
100
AcDbDictionary
  3
STANDARD
350
1C
  0
MLINESTYLE
  5
1C
102
{ACAD_REACTORS
330
1B
102
}
100
AcDbMlineStyle
  2
STANDARD
 70
           0
  3

 62
           0
 51
90.0
 52
90.0
 71
           2
 49
0.5
 62
         256
  6
BYLAYER
 49
-0.5
 62
         256
  6
BYLAYER
  0
ENDSEC
  0
EOF
