  0
SECTION
  2
HEADER
  9
$ACADVER
  1
AC1014
  9
$ACADMAINTVER
 70
           0
  9
$DWGCODEPAGE
  3
DOS932
  9
$INSBASE
 10
0.0
 20
0.0
 30
0.0
  9
$EXTMIN
 10
1.000000000000E+20
 20
1.000000000000E+20
 30
1.000000000000E+20
  9
$EXTMAX
 10
-1.000000000000E+20
 20
-1.000000000000E+20
 30
-1.000000000000E+20
  9
$LIMMIN
 10
0.0
 20
0.0
  9
$LIMMAX
 10
0.0
 20
0.0
  9
$ORTHOMODE
 70
           0
  9
$REGENMODE
 70
           1
  9
$FILLMODE
 70
           1
  9
$QTEXTMODE
 70
           0
  9
$MIRRTEXT
 70
           1
  9
$DRAGMODE
 70
           2
  9
$LTSCALE
 40
1.0
  9
$OSMODE
 70
           0
  9
$ATTMODE
 70
           1
  9
$TEXTSIZE
 40
0.2
  9
$TRACEWID
 40
0.05
  9
$TEXTSTYLE
  7
STANDARD
  9
$CLAYER
  8
0
  9
$CELTYPE
  6
CONTINUOUS
  9
$CECOLOR
 62
         256
  9
$CELTSCALE
 40
1.0
  9
$DELOBJ
 70
           1
  9
$DISPSILH
 70
           0
  9
$DIMSCALE
 40
1.0
  9
$DIMASZ
 40
0.18
  9
$DIMEXO
 40
0.0625
  9
$DIMDLI
 40
0.38
  9
$DIMRND
 40
0.0
  9
$DIMDLE
 40
0.0
  9
$DIMEXE
 40
0.18
  9
$DIMTP
 40
0.0
  9
$DIMTM
 40
0.0
  9
$DIMTXT
 40
0.18
  9
$DIMCEN
 40
0.09
  9
$DIMTSZ
 40
0.0
  9
$DIMTOL
 70
           0
  9
$DIMLIM
 70
           0
  9
$DIMTIH
 70
           1
  9
$DIMTOH
 70
           1
  9
$DIMSE1
 70
           0
  9
$DIMSE2
 70
           0
  9
$DIMTAD
 70
           0
  9
$DIMZIN
 70
           0
  9
$DIMBLK
  1

  9
$DIMASO
 70
           1
  9
$DIMSHO
 70
           1
  9
$DIMPOST
  1

  9
$DIMAPOST
  1

  9
$DIMALT
 70
           0
  9
$DIMALTD
 70
           2
  9
$DIMALTF
 40
25.4
  9
$DIMLFAC
 40
1.0
  9
$DIMTOFL
 70
           0
  9
$DIMTVP
 40
0.0
  9
$DIMTIX
 70
           0
  9
$DIMSOXD
 70
           0
  9
$DIMSAH
 70
           0
  9
$DIMBLK1
  1

  9
$DIMBLK2
  1

  9
$DIMSTYLE
  2
STANDARD
  9
$DIMCLRD
 70
           0
  9
$DIMCLRE
 70
           0
  9
$DIMCLRT
 70
           0
  9
$DIMTFAC
 40
1.0
  9
$DIMGAP
 40
0.09
  9
$DIMJUST
 70
           0
  9
$DIMSD1
 70
           0
  9
$DIMSD2
 70
           0
  9
$DIMTOLJ
 70
           1
  9
$DIMTZIN
 70
           0
  9
$DIMALTZ
 70
           0
  9
$DIMALTTZ
 70
           0
  9
$DIMFIT
 70
           3
  9
$DIMUPT
 70
           0
  9
$DIMUNIT
 70
           2
  9
$DIMDEC
 70
           4
  9
$DIMTDEC
 70
           4
  9
$DIMALTU
 70
           2
  9
$DIMALTTD
 70
           2
  9
$DIMTXSTY
  7
STANDARD
  9
$DIMAUNIT
 70
           0
  9
$LUNITS
 70
           2
  9
$LUPREC
 70
           4
  9
$SKETCHINC
 40
0.1
  9
$FILLETRAD
 40
0.0
  9
$AUNITS
 70
           0
  9
$AUPREC
 70
           0
  9
$MENU
  1
acad
  9
$ELEVATION
 40
0.0
  9
$PELEVATION
 40
0.0
  9
$THICKNESS
 40
0.0
  9
$LIMCHECK
 70
           0
  9
$BLIPMODE
 70
           1
  9
$CHAMFERA
 40
0.0
  9
$CHAMFERB
 40
0.0
  9
$CHAMFERC
 40
0.0
  9
$CHAMFERD
 40
0.0
  9
$SKPOLY
 70
           0
  9
$TDCREATE
 40
0.000000000
  9
$TDUPDATE
 40
0.000000000
  9
$TDINDWG
 40
0.0000000000
  9
$TDUSRTIMER
 40
0.0000000000
  9
$USRTIMER
 70
           1
  9
$ANGBASE
 50
0.0
  9
$ANGDIR
 70
           0
  9
$PDMODE
 70
           0
  9
$PDSIZE
 40
0.0
  9
$PLINEWID
 40
0.0
  9
$COORDS
 70
           0
  9
$SPLFRAME
 70
           0
  9
$SPLINETYPE
 70
           6
  9
$SPLINESEGS
 70
           8
  9
$ATTDIA
 70
           0
  9
$ATTREQ
 70
           1
  9
$HANDLING
 70
           1
  9
$HANDSEED
  5
1AB
  9
$SURFTAB1
 70
           6
  9
$SURFTAB2
 70
           6
  9
$SURFTYPE
 70
           6
  9
$SURFU
 70
           6
  9
$SURFV
 70
           6
  9
$UCSNAME
  2

  9
$UCSORG
 10
0.0
 20
0.0
 30
0.0
  9
$UCSXDIR
 10
1.0
 20
0.0
 30
0.0
  9
$UCSYDIR
 10
0.0
 20
1.0
 30
0.0
  9
$PUCSNAME
  2

  9
$PUCSORG
 10
0.0
 20
0.0
 30
0.0
  9
$PUCSXDIR
 10
1.0
 20
0.0
 30
0.0
  9
$PUCSYDIR
 10
0.0
 20
1.0
 30
0.0
  9
$USERI1
 70
           0
  9
$USERI2
 70
           0
  9
$USERI3
 70
           0
  9
$USERI4
 70
           0
  9
$USERI5
 70
           0
  9
$USERR1
 40
0.0
  9
$USERR2
 40
0.0
  9
$USERR3
 40
0.0
  9
$USERR4
 40
0.0
  9
$USERR5
 40
0.0
  9
$WORLDVIEW
 70
           1
  9
$SHADEDGE
 70
           3
  9
$SHADEDIF
 70
          70
  9
$TILEMODE
 70
           1
  9
$MAXACTVP
 70
          16
  9
$PINSBASE
 10
0.0
 20
0.0
 30
0.0
  9
$PLIMCHECK
 70
           0
  9
$PEXTMIN
 10
1.000000000000E+20
 20
1.000000000000E+20
 30
1.000000000000E+20
  9
$PEXTMAX
 10
-1.000000000000E+20
 20
-1.000000000000E+20
 30
-1.000000000000E+20
  9
$PLIMMIN
 10
0.0
 20
0.0
  9
$PLIMMAX
 10
12.0
 20
9.0
  9
$UNITMODE
 70
           0
  9
$VISRETAIN
 70
           0
  9
$PLINEGEN
 70
           1
  9
$PSLTSCALE
 70
           0
  9
$TREEDEPTH
 70
        3020
  9
$PICKSTYLE
 70
           1
  9
$CMLSTYLE
  2
STANDARD
  9
$CMLJUST
 70
           0
  9
$CMLSCALE
 40
1.0
  9
$PROXYGRAPHICS
 70
           0
  9
$MEASUREMENT
 70
           0
  0
ENDSEC
  0
SECTION
  2
CLASSES
  0
CLASS
  1
LWPOLYLINE
  2
AcDbPolyline
  3
"AutoCAD"
 90
        0
280
           0
281
           1
  0
CLASS
  1
IMAGE
  2
AcDbRasterImage
  3
ISM
 90
      127
280
           0
281
           1
  0
CLASS
  1
OLE2FRAME
  2
AcDbOle2Frame
  3
""
 90
        0
280
           0
281
           1
  0
CLASS
  1
HATCH
  2
AcDbHatch
  3
"ACAD_SEDONA"
 90
        0
280
           0
281
           1
  0
CLASS
  1
DICTIONARYVAR
  2
AcDbDictionaryVar
  3
"AutoCAD"
 90
        0
280
           0
281
           0
  0
CLASS
  1
RASTERVARIABLES
  2
AcDbRasterVariables
  3
ISM
 90
        0
280
           0
281
           0
  0
CLASS
  1
IMAGEDEF
  2
AcDbRasterImageDef
  3
ISM
 90
        0
280
           0
281
           0
  0
CLASS
  1
IMAGEDEF_REACTOR
  2
AcDbRasterImageDefReactor
  3
ISM
 90
        1
280
           0
281
           0
  0
CLASS
  1
IDBUFFER
  2
AcDbIdBuffer
  3
"Acad"
 90
        0
280
           0
281
           0
  0
CLASS
  1
SPATIAL_FILTER
  2
AcDbSpatialFilter
  3
"Acad"
 90
        0
280
           0
281
           0
  0
CLASS
  1
XRECORD
  2
AcDbXrecord
  3
"<Built In>"
 90
        0
280
           0
281
           0
  0
CLASS
  1
SORTENTSTABLE
  2
AcDbSortentsTable
  3
"AutoCAD"
 90
        0
280
           0
281
           0
  0
CLASS
  1
LAYER_INDEX
  2
AcDbLayerIndex
  3
"Acad"
 90
        0
280
           0
281
           0
  0
CLASS
  1
SPATIAL_INDEX
  2
AcDbSpatialIndex
  3
"Acad"
 90
        0
280
           0
281
           0
  0
CLASS
  1
OBJECT_PTR
  2
CAseDLPNTableRecord
  3
"ASE-LPNTableRecord"
 90
        1
280
           0
281
           0
  0
CLASS
  1
LAYOUT
  2
AcDbLayout
  3
"AutoCAD 2000"
 90
        1
280
           0
281
           0
  0
CLASS
  1
PLOTSETTINGS
  2
AcDbPlotSettings
  3
"AutoCAD 2000"
 90
        1
280
           0
281
           0
  0
CLASS
  1
ACDBDICTIONARYWDFLT
  2
AcDbDictionaryWithDefault
  3
"AutoCAD 2000"
 90
        1
280
           0
281
           0
  0
CLASS
  1
ACDBPLACEHOLDER
  2
AcDbPlaceHolder
  3
"AutoCAD 2000"
 90
        1
280
           0
281
           0
  0
CLASS
  1
VBA_PROJECT
  2
AcDbVbaProject
  3
"acadvba"
 90
        1
280
           0
281
           0
  0
CLASS
  1
WIPEOUT
  2
AcDbWipeout
  3
WipeOut|AutoCAD Express Tool|expresstools@autodesk.com
 90
      127
280
           0
281
           1
  0
CLASS
  1
WIPEOUTVARIABLES
  2
AcDbWipeoutVariables
  3
WipeOut|AutoCAD Express Tool|expresstools@autodesk.com
 90
        0
280
           0
281
           0
  0
CLASS
  1
RTEXT
  2
RText
  3
RText|AutoCAD Express Tool|expresstools@autodesk.com
 90
        0
280
           0
281
           1
  0
CLASS
  1
ARCALIGNEDTEXT
  2
AcDbArcAlignedText
  3
ATEXT|AutoCAD Express Tool|expresstools@autodesk.com
 90
        0
280
           0
281
           1
  0
ENDSEC
  0
SECTION
  2
TABLES
  0
TABLE
  2
VPORT
  5
7
100
AcDbSymbolTable
 70
           1
  0
VPORT
  5
15
100
AcDbSymbolTableRecord
100
AcDbViewportTableRecord
  2
*ACTIVE
 70
           0
 10
0.0
 20
0.0
 11
1.0
 21
1.0
 12
6.591288
 22
4.579184
 13
0.0
 23
0.0
 14
1.0
 24
1.0
 15
0.0
 25
0.0
 16
0.0
 26
0.0
 36
1.0
 17
0.0
 27
0.0
 37
0.0
 40
9.158369
 41
0.688564
 42
50.0
 43
0.0
 44
0.0
 50
0.0
 51
0.0
 71
           0
 72
         100
 73
           1
 74
           1
 75
           0
 76
           0
 77
           0
 78
           0
  0
ENDTAB
  0
TABLE
  2
LTYPE
  5
4
100
AcDbSymbolTable
 70
          10
  0
LTYPE
  5
11
100
AcDbSymbolTableRecord
100
AcDbLinetypeTableRecord
  2
BYBLOCK
 70
          64
  3

 72
          65
 73
           0
 40
0.0
  0
LTYPE
  5
12
100
AcDbSymbolTableRecord
100
AcDbLinetypeTableRecord
  2
BYLAYER
 70
          64
  3

 72
          65
 73
           0
 40
0.0
  0
LTYPE
  5
13
100
AcDbSymbolTableRecord
100
AcDbLinetypeTableRecord
  2
CONTINUOUS
 70
          64
  3
Solid line
 72
          65
 73
           0
 40
0.0
  0
LTYPE
  5
1D
100
AcDbSymbolTableRecord
100
AcDbLinetypeTableRecord
  2
DASHED
 70
          64
  3
Dashed
 72
          65
 73
           2
 40
15.0
 49
12.0
 74
           0
 49
-3.0
 74
           0
  0
LTYPE
  5
1E
100
AcDbSymbolTableRecord
100
AcDbLinetypeTableRecord
  2
DOTTED
 70
          64
  3
Dotted
 72
          65
 73
           2
 40
3.5
 49
0.5
 74
           0
 49
-3.0
 74
           0
  0
LTYPE
  5
1F
100
AcDbSymbolTableRecord
100
AcDbLinetypeTableRecord
  2
DOT_CENTER
 70
          64
  3
Dot_Center
 72
          65
 73
           4
 40
2.0
 49
1.25
 74
           0
 49
-0.25
 74
           0
 49
0.25
 74
           0
 49
-0.25
 74
           0
  0
LTYPE
  5
20
100
AcDbSymbolTableRecord
100
AcDbLinetypeTableRecord
  2
LONG_DASHED
 70
          64
  3
Long_Dashed
 72
          65
 73
           2
 40
2.0
 49
1.5
 74
           0
 49
-0.5
 74
           0
  0
LTYPE
  5
21
100
AcDbSymbolTableRecord
100
AcDbLinetypeTableRecord
  2
DASH_CENTER
 70
          64
  3
Dash_Center
 72
          65
 73
           4
 40
36.0
 49
24.0
 74
           0
 49
-3.0
 74
           0
 49
6.0
 74
           0
 49
-3.0
 74
           0
  0
LTYPE
  5
22
100
AcDbSymbolTableRecord
100
AcDbLinetypeTableRecord
  2
PHANTOM
 70
          64
  3
Phantom
 72
          65
 73
           6
 40
2.5
 49
1.25
 74
           0
 49
-0.25
 74
           0
 49
0.25
 74
           0
 49
-0.25
 74
           0
 49
0.25
 74
           0
 49
-0.25
 74
           0
  0
LTYPE
  5
23
100
AcDbSymbolTableRecord
100
AcDbLinetypeTableRecord
  2
CENTER_DASH_DASH
 70
          64
  3
Center_Dash_Dash
 72
          65
 73
           6
 40
22.0
 49
12.0
 74
           0
 49
-3.0
 74
           0
 49
0.5
 74
           0
 49
-3.0
 74
           0
 49
0.5
 74
           0
 49
-3.0
 74
           0
  0
ENDTAB
  0
TABLE
  2
LAYER
  5
2
100
AcDbSymbolTable
 70
           3
  0
LAYER
  5
14
100
AcDbSymbolTableRecord
100
AcDbLayerTableRecord
  2
0
 70
           0
 62
           7
  6
CONTINUOUS
  0
LAYER
  5
24
100
AcDbSymbolTableRecord
100
AcDbLayerTableRecord
  2
976
 70
           0
 62
           7
  6
CONTINUOUS
  0
LAYER
  5
25
100
AcDbSymbolTableRecord
100
AcDbLayerTableRecord
  2
1
 70
           0
 62
           7
  6
CONTINUOUS
  0
ENDTAB
  0
TABLE
  2
STYLE
  5
3
100
AcDbSymbolTable
 70
           3
  0
STYLE
  5
17
100
AcDbSymbolTableRecord
100
AcDbTextStyleTableRecord
  2
STANDARD
 70
           0
 40
0.0
 41
1.0
 50
0.0
 71
           0
 42
0.0
  3
txt
  4

  0
STYLE
  5
183
100
AcDbSymbolTableRecord
100
AcDbTextStyleTableRecord
  2
CONVERTER_1
 70
           0
 40
0.0
 41
0.9
 50
0.0
 71
           0
 42
0.0
  3
txt.shx
  4

  0
STYLE
  5
18F
100
AcDbSymbolTableRecord
100
AcDbTextStyleTableRecord
  2
CONVERTER_2
 70
           0
 40
0.0
 41
0.89
 50
0.0
 71
           0
 42
0.0
  3
MS Mincho.ttf
  4

1001
ACAD
1000
MS Mincho
1071
    32785
  0
ENDTAB
  0
TABLE
  2
VIEW
  5
5
100
AcDbSymbolTable
 70
           0
  0
ENDTAB
  0
TABLE
  2
UCS
  5
6
100
AcDbSymbolTable
 70
           0
  0
ENDTAB
  0
TABLE
  2
APPID
  5
8
100
AcDbSymbolTable
 70
           1
  0
APPID
  5
16
100
AcDbSymbolTableRecord
100
AcDbRegAppTableRecord
  2
ACAD
 70
           0
  0
ENDTAB
  0
TABLE
  2
DIMSTYLE
  5
9
100
AcDbSymbolTable
 70
           5
  0
DIMSTYLE
105
18
100
AcDbSymbolTableRecord
100
AcDbDimStyleTableRecord
  2
STANDARD
 70
           0
  3

  4

  5

  6

  7

 40
1.0
 41
0.18
 42
0.0625
 43
0.38
 44
0.18
 45
0.0
 46
0.0
 47
0.0
 48
0.0
 71
           0
 72
           0
 73
           1
 74
           1
 75
           0
 76
           0
 77
           0
 78
           0
140
0.18
141
0.09
142
0.0
143
25.4
144
1.0
145
0.0
146
1.0
147
0.09
170
           0
171
           2
172
           0
173
           0
174
           0
175
           0
176
           0
177
           0
178
           0
270
           2
271
           4
272
           4
273
           2
274
           2
275
           0
280
           0
281
           0
282
           0
283
           1
284
           0
285
           0
286
           0
287
           0
288
           0
340
17
  0
DIMSTYLE
105
186
100
AcDbSymbolTableRecord
100
AcDbDimStyleTableRecord
  2
ME10_DIM_0
 70
           0
  3

  4

  5

  6

  7

 40
1.0
 41
2.8
 42
0.8
 43
0.38
 44
1.0
 45
0.0
 46
0.0
 47
0.0
 48
0.0
 71
           0
 72
           0
 73
           0
 74
           0
 75
           0
 76
           0
 77
           1
 78
           8
140
2.8
141
0.09
142
0.0
143
25.4
144
1.0
145
0.0
146
1.0
147
0.09
170
           0
171
           2
172
           0
173
           1
174
           0
175
           0
176
           2
177
           2
178
           2
270
           2
271
           3
272
           4
273
           2
274
           2
275
           0
280
           0
281
           0
282
           0
283
           1
284
           0
285
           0
286
           0
287
           3
288
           0
340
17
  0
DIMSTYLE
105
192
100
AcDbSymbolTableRecord
100
AcDbDimStyleTableRecord
  2
ME10_DIM_1
 70
           0
  3
ó<>
  4

  5

  6

  7

 40
1.0
 41
2.8
 42
0.8
 43
0.38
 44
1.0
 45
0.0
 46
0.0
 47
0.0
 48
0.0
 71
           0
 72
           0
 73
           0
 74
           0
 75
           0
 76
           0
 77
           1
 78
           8
140
2.8
141
0.09
142
0.0
143
25.4
144
1.0
145
0.0
146
1.0
147
0.09
170
           0
171
           2
172
           0
173
           1
174
           0
175
           0
176
           2
177
           2
178
           2
270
           2
271
           3
272
           4
273
           2
274
           2
275
           0
280
           0
281
           0
282
           0
283
           1
284
           0
285
           0
286
           0
287
           3
288
           0
340
17
  0
DIMSTYLE
105
19D
100
AcDbSymbolTableRecord
100
AcDbDimStyleTableRecord
  2
ME10_DIM_2
 70
           0
  3

  4

  5

  6

  7

 40
1.0
 41
2.8
 42
0.8
 43
0.38
 44
1.0
 45
0.0
 46
0.0
 47
0.0
 48
0.0
 71
           0
 72
           0
 73
           0
 74
           0
 75
           0
 76
           0
 77
           1
 78
           8
140
2.8
141
0.09
142
0.0
143
25.4
144
1.0
145
0.0
146
1.0
147
0.09
170
           0
171
           2
172
           0
173
           1
174
           0
175
           0
176
           2
177
           2
178
           2
270
           2
271
           3
272
           4
273
           2
274
           2
275
           0
280
           0
281
           0
282
           0
283
           1
284
           0
285
           0
286
           0
287
           3
288
           0
340
17
  0
DIMSTYLE
105
1A8
100
AcDbSymbolTableRecord
100
AcDbDimStyleTableRecord
  2
ME10_DIM_3
 70
           0
  3

  4

  5

  6

  7

 40
1.0
 41
2.8
 42
0.8
 43
0.38
 44
1.0
 45
0.0
 46
0.0
 47
0.0
 48
0.0
 71
           0
 72
           0
 73
           0
 74
           0
 75
           0
 76
           0
 77
           1
 78
           8
140
2.8
141
0.09
142
0.0
143
25.4
144
1.0
145
0.0
146
1.0
147
0.09
170
           0
171
           2
172
           0
173
           1
174
           0
175
           0
176
           2
177
           2
178
           2
270
           2
271
           3
272
           4
273
           2
274
           2
275
           0
280
           0
281
           0
282
           0
283
           1
284
           0
285
           0
286
           0
287
           3
288
           0
340
17
  0
ENDTAB
  0
TABLE
  2
BLOCK_RECORD
  5
1
100
AcDbSymbolTable
 70
           4
  0
BLOCK_RECORD
  5
A
100
AcDbSymbolTableRecord
100
AcDbBlockTableRecord
  2
*MODEL_SPACE
  0
BLOCK_RECORD
  5
B
100
AcDbSymbolTableRecord
100
AcDbBlockTableRecord
  2
*PAPER_SPACE
  0
BLOCK_RECORD
  5
17C
100
AcDbSymbolTableRecord
100
AcDbBlockTableRecord
  2
*D0
  0
BLOCK_RECORD
  5
188
100
AcDbSymbolTableRecord
100
AcDbBlockTableRecord
  2
*D1
  0
BLOCK_RECORD
  5
194
100
AcDbSymbolTableRecord
100
AcDbBlockTableRecord
  2
*D2
  0
BLOCK_RECORD
  5
19F
100
AcDbSymbolTableRecord
100
AcDbBlockTableRecord
  2
*D3
  0
ENDTAB
  0
ENDSEC
  0
SECTION
  2
BLOCKS
  0
BLOCK
  5
D
100
AcDbEntity
  8
0
100
AcDbBlockBegin
  2
*MODEL_SPACE
 70
           0
 10
0.0
 20
0.0
 30
0.0
  3
*MODEL_SPACE
  1

  0
ENDBLK
  5
E
100
AcDbEntity
  8
0
100
AcDbBlockEnd
  0
BLOCK
  5
F
100
AcDbEntity
 67
           1
  8
0
100
AcDbBlockBegin
  2
*PAPER_SPACE
 70
           0
 10
0.0
 20
0.0
 30
0.0
  3
*PAPER_SPACE
  1

  0
ENDBLK
  5
10
100
AcDbEntity
 67
           1
  8
0
100
AcDbBlockEnd
  0
BLOCK
  5
17D
100
AcDbEntity
  8
0
100
AcDbBlockBegin
  2
*D0
 70
           1
 10
0.0
 20
0.0
 30
0.0
  3
*D0
  1

  0
LINE
  5
17E
100
AcDbEntity
  8
0
  6
CONTINUOUS
 62
           2
100
AcDbLine
 10
345.689200920814
 20
-1576.50488239558
 11
472.689200920814
 21
-1576.50488239558
  0
LINE
  5
17F
100
AcDbEntity
  8
0
  6
CONTINUOUS
 62
           2
100
AcDbLine
 10
472.689200920814
 20
-1637.719513115845
 11
472.689200920814
 21
-1575.50488239558
  0
LINE
  5
180
100
AcDbEntity
  8
0
  6
CONTINUOUS
 62
           2
100
AcDbLine
 10
345.689200920814
 20
-1604.38693245842
 11
345.689200920814
 21
-1575.50488239558
  0
SOLID
  5
181
100
AcDbEntity
  8
0
 62
           2
100
AcDbTrace
 10
348.489200920814
 20
-1576.136255402335
 11
348.489200920814
 21
-1576.873509388825
 12
345.689200920814
 22
-1576.50488239558
 13
345.689200920814
 23
-1576.50488239558
  0
SOLID
  5
182
100
AcDbEntity
  8
0
 62
           2
100
AcDbTrace
 10
469.889200920814
 20
-1576.873509388825
 11
469.889200920814
 21
-1576.136255402335
 12
472.689200920814
 22
-1576.50488239558
 13
472.689200920814
 23
-1576.50488239558
  0
TEXT
  5
184
100
AcDbEntity
  8
0
 62
           2
100
AcDbText
 10
407.856269951013
 20
-1575.50488239558
 40
2.8
  1
127
 41
0.9
  7
CONVERTER_1
100
AcDbText
  0
ENDBLK
  5
185
100
AcDbEntity
  8
0
100
AcDbBlockEnd
  0
BLOCK
  5
189
100
AcDbEntity
  8
0
100
AcDbBlockBegin
  2
*D1
 70
           1
 10
0.0
 20
0.0
 30
0.0
  3
*D1
  1

  0
LINE
  5
18A
100
AcDbEntity
  8
0
  6
CONTINUOUS
 62
           2
100
AcDbLine
 10
49.639122640265
 20
-1581.25138786965
 11
199.639122640265
 21
-1581.25138786965
  0
LINE
  5
18B
100
AcDbEntity
  8
0
  6
CONTINUOUS
 62
           2
100
AcDbLine
 10
199.639122640265
 20
-1613.469513115845
 11
199.639122640265
 21
-1580.25138786965
  0
LINE
  5
18C
100
AcDbEntity
  8
0
  6
CONTINUOUS
 62
           2
100
AcDbLine
 10
49.639122640265
 20
-1613.469513115845
 11
49.639122640265
 21
-1580.25138786965
  0
SOLID
  5
18D
100
AcDbEntity
  8
0
 62
           2
100
AcDbTrace
 10
52.439122640265
 20
-1580.882760876405
 11
52.439122640265
 21
-1581.620014862895
 12
49.639122640265
 22
-1581.25138786965
 13
49.639122640265
 23
-1581.25138786965
  0
SOLID
  5
18E
100
AcDbEntity
  8
0
 62
           2
100
AcDbTrace
 10
196.839122640265
 20
-1581.620014862895
 11
196.839122640265
 21
-1580.882760876405
 12
199.639122640265
 22
-1581.25138786965
 13
199.639122640265
 23
-1581.25138786965
  0
MTEXT
  5
190
100
AcDbEntity
  8
0
 62
           2
100
AcDbMText
 10
121.638465543507
 20
-1580.25138786965
 30
0.0
 40
2.8
 41
0.0
 71
           7
 72
           1
  1
\C2;ó\C2;150\C2;
  7
CONVERTER_2
  0
ENDBLK
  5
191
100
AcDbEntity
  8
0
100
AcDbBlockEnd
  0
BLOCK
  5
195
100
AcDbEntity
  8
0
100
AcDbBlockBegin
  2
*D2
 70
           1
 10
0.0
 20
0.0
 30
0.0
  3
*D2
  1

  0
LINE
  5
196
100
AcDbEntity
  8
0
  6
CONTINUOUS
 62
           2
100
AcDbLine
 10
511.683240163604
 20
-1891.050020084398
 11
511.683240163604
 21
-1611.019513115845
  0
LINE
  5
197
100
AcDbEntity
  8
0
  6
CONTINUOUS
 62
           2
100
AcDbLine
 10
420.489200920814
 20
-1611.019513115845
 11
512.683240163604
 21
-1611.019513115845
  0
LINE
  5
198
100
AcDbEntity
  8
0
  6
CONTINUOUS
 62
           2
100
AcDbLine
 10
430.769635243053
 20
-1891.050020084398
 11
512.683240163604
 21
-1891.050020084398
  0
SOLID
  5
199
100
AcDbEntity
  8
0
 62
           2
100
AcDbTrace
 10
511.314613170359
 20
-1888.250020084398
 11
512.051867156849
 21
-1888.250020084398
 12
511.683240163604
 22
-1891.050020084398
 13
511.683240163604
 23
-1891.050020084398
  0
SOLID
  5
19A
100
AcDbEntity
  8
0
 62
           2
100
AcDbTrace
 10
512.051867156849
 20
-1613.819513115845
 11
511.314613170359
 21
-1613.819513115845
 12
511.683240163604
 22
-1611.019513115845
 13
511.683240163604
 23
-1611.019513115845
  0
MTEXT
  5
19B
100
AcDbEntity
  8
0
 62
           2
100
AcDbMText
 10
510.683240163604
 20
-1754.27558835421
 30
0.0
 40
2.8
 41
0.0
 71
           7
 72
           1
  1
280
  7
CONVERTER_1
 11
0.0
 21
1.0
 31
0.0
  0
ENDBLK
  5
19C
100
AcDbEntity
  8
0
100
AcDbBlockEnd
  0
BLOCK
  5
1A0
100
AcDbEntity
  8
0
100
AcDbBlockBegin
  2
*D3
 70
           1
 10
0.0
 20
0.0
 30
0.0
  3
*D3
  1

  0
LINE
  5
1A1
100
AcDbEntity
  8
0
  6
CONTINUOUS
 62
           2
100
AcDbLine
 10
270.689200920814
 20
-1576.50488239558
 11
345.689200920814
 21
-1576.50488239558
  0
LINE
  5
1A2
100
AcDbEntity
  8
0
  6
CONTINUOUS
 62
           2
100
AcDbLine
 10
345.689200920814
 20
-1604.38693245842
 11
345.689200920814
 21
-1575.50488239558
  0
LINE
  5
1A3
100
AcDbEntity
  8
0
  6
CONTINUOUS
 62
           2
100
AcDbLine
 10
270.689200920814
 20
-1613.469513115845
 11
270.689200920814
 21
-1575.50488239558
  0
SOLID
  5
1A4
100
AcDbEntity
  8
0
 62
           2
100
AcDbTrace
 10
342.889200920814
 20
-1576.873509388825
 11
342.889200920814
 21
-1576.136255402335
 12
345.689200920814
 22
-1576.50488239558
 13
345.689200920814
 23
-1576.50488239558
  0
SOLID
  5
1A5
100
AcDbEntity
  8
0
 62
           2
100
AcDbTrace
 10
273.489200920814
 20
-1576.136255402335
 11
273.489200920814
 21
-1576.873509388825
 12
270.689200920814
 22
-1576.50488239558
 13
270.689200920814
 23
-1576.50488239558
  0
TEXT
  5
1A6
100
AcDbEntity
  8
0
 62
           2
100
AcDbText
 10
308.43046094441
 20
-1575.50488239558
 40
2.8
  1
75
 41
0.9
  7
CONVERTER_1
100
AcDbText
  0
ENDBLK
  5
1A7
100
AcDbEntity
  8
0
100
AcDbBlockEnd
  0
ENDSEC
  0
SECTION
  2
ENTITIES
  0
DIMENSION
  5
1A9
100
AcDbEntity
  8
0
100
AcDbDimension
  2
*D3
 10
345.689200920814
 20
-1576.50488239558
 11
310.53046094441
 21
-1574.10488239558
 31
0.0
  1
<>
  3
ME10_DIM_3
100
AcDbAlignedDimension
 13
270.689200920814
 23
-1614.269513115845
 14
345.689200920814
 24
-1605.18693245842
100
AcDbRotatedDimension
  0
DIMENSION
  5
19E
100
AcDbEntity
  8
0
100
AcDbDimension
  2
*D2
 10
511.683240163604
 20
-1891.050020084398
 11
509.283240163604
 21
-1750.91558835421
 31
0.0
 53
90.0
  1
<>
  3
ME10_DIM_2
100
AcDbAlignedDimension
 13
419.689200920814
 23
-1611.019513115845
 14
429.969635243053
 24
-1891.050020084398
 50
90.0
100
AcDbRotatedDimension
  0
DIMENSION
  5
193
100
AcDbEntity
  8
0
100
AcDbDimension
  2
*D1
 10
49.639122640265
 20
-1581.25138786965
 11
125.194465543507
 21
-1578.85138786965
 31
0.0
  1
<>
  3
ME10_DIM_1
100
AcDbAlignedDimension
 13
199.639122640265
 23
-1614.269513115845
 14
49.639122640265
 24
-1614.269513115845
100
AcDbRotatedDimension
  0
DIMENSION
  5
187
100
AcDbEntity
  8
0
100
AcDbDimension
  2
*D0
 10
345.689200920814
 20
-1576.50488239558
 11
410.796269951013
 21
-1574.10488239558
 31
0.0
  1
<>
  3
ME10_DIM_0
100
AcDbAlignedDimension
 13
472.689200920814
 23
-1638.519513115845
 14
345.689200920814
 24
-1605.18693245842
100
AcDbRotatedDimension
  0
ARC
  5
17B
100
AcDbEntity
  8
1
  6
CONTINUOUS
 62
           7
100
AcDbCircle
 10
419.480363586163
 20
-1732.519513115845
 40
1.0
100
AcDbArc
 50
30.0
 51
90.0
  0
ARC
  5
17A
100
AcDbEntity
  8
1
  6
CONTINUOUS
 62
           7
100
AcDbCircle
 10
422.367114932111
 20
-1731.519513115845
 40
2.0
100
AcDbArc
 50
-149.999999999999
 51
-90.0
  0
ARC
  5
179
100
AcDbEntity
  8
1
  6
CONTINUOUS
 62
           7
100
AcDbCircle
 10
422.367114932111
 20
-1743.519513115845
 40
2.0
100
AcDbArc
 50
90.0
 51
149.999999999999
  0
ARC
  5
178
100
AcDbEntity
  8
1
  6
CONTINUOUS
 62
           7
100
AcDbCircle
 10
419.480363586163
 20
-1742.519513115845
 40
1.0
100
AcDbArc
 50
-90.0
 51
-30.0
  0
ARC
  5
177
100
AcDbEntity
  8
1
  6
CONTINUOUS
 62
           7
100
AcDbCircle
 10
419.480363586163
 20
-1632.519513115845
 40
1.0
100
AcDbArc
 50
30.0
 51
90.0
  0
ARC
  5
176
100
AcDbEntity
  8
1
  6
CONTINUOUS
 62
           7
100
AcDbCircle
 10
422.367114932111
 20
-1631.519513115845
 40
2.0
100
AcDbArc
 50
-149.999999999999
 51
-90.0
  0
ARC
  5
175
100
AcDbEntity
  8
1
  6
CONTINUOUS
 62
           7
100
AcDbCircle
 10
422.367114932111
 20
-1643.519513115845
 40
2.0
100
AcDbArc
 50
90.0
 51
149.999999999999
  0
ARC
  5
174
100
AcDbEntity
  8
1
  6
CONTINUOUS
 62
           7
100
AcDbCircle
 10
419.480363586163
 20
-1642.519513115845
 40
1.0
100
AcDbArc
 50
-90.0
 51
-30.0
  0
ARC
  5
173
100
AcDbEntity
  8
1
  6
CONTINUOUS
 62
           7
100
AcDbCircle
 10
470.689200920814
 20
-1635.519513115845
 40
2.0
100
AcDbArc
 50
0.0
 51
14.477512185929
  0
ARC
  5
172
100
AcDbEntity
  8
1
  6
CONTINUOUS
 62
           7
100
AcDbCircle
 10
470.689200920814
 20
-1739.519513115845
 40
2.0
100
AcDbArc
 50
-14.477512185929
 51
0.0
  0
ARC
  5
171
100
AcDbEntity
  8
1
  6
CONTINUOUS
 62
           7
100
AcDbCircle
 10
440.189200920814
 20
-1646.519513115845
 40
5.0
100
AcDbArc
 50
0.0
 51
90.0
  0
ARC
  5
170
100
AcDbEntity
  8
1
  6
CONTINUOUS
 62
           7
100
AcDbCircle
 10
472.689200920814
 20
-1731.019513115845
 40
2.5
100
AcDbArc
 50
180.0
 51
-106.601549599014
  0
ARC
  5
16F
100
AcDbEntity
  8
1
  6
CONTINUOUS
 62
           7
100
AcDbCircle
 10
472.689200920814
 20
-1644.019513115845
 40
2.5
100
AcDbArc
 50
106.601549599014
 51
180.0
  0
ARC
  5
16E
100
AcDbEntity
  8
1
  6
CONTINUOUS
 62
           7
100
AcDbCircle
 10
440.189200920814
 20
-1728.519513115845
 40
5.0
100
AcDbArc
 50
-90.0
 51
0.0
  0
ARC
  5
16D
100
AcDbEntity
  8
1
  6
CONTINUOUS
 62
           7
100
AcDbCircle
 10
471.689200920814
 20
-1734.373615082095
 40
1.0
100
AcDbArc
 50
0.0
 51
73.39845040098
  0
ARC
  5
16C
100
AcDbEntity
  8
1
  6
CONTINUOUS
 62
           7
100
AcDbCircle
 10
471.689200920814
 20
-1640.665411149595
 40
1.0
100
AcDbArc
 50
-73.39845040098
 51
0.0
  0
ARC
  5
16B
100
AcDbEntity
  8
1
  6
CONTINUOUS
 62
           7
100
AcDbCircle
 10
299.189200920814
 20
-1747.8327586313
 40
25.0
100
AcDbArc
 50
180.0
 51
-150.05121999259
  0
ARC
  5
16A
100
AcDbEntity
  8
1
  6
CONTINUOUS
 62
           7
100
AcDbCircle
 10
392.189200920814
 20
-1747.8327586313
 40
25.0
100
AcDbArc
 50
-29.948780007409
 51
0.0
  0
ARC
  5
169
100
AcDbEntity
  8
1
  6
CONTINUOUS
 62
           7
100
AcDbCircle
 10
447.802133941738
 20
-1861.503098477526
 40
5.0
100
AcDbArc
 50
-103.402935573972
 51
-65.674106262688
  0
ARC
  5
168
100
AcDbEntity
  8
1
  6
CONTINUOUS
 62
           7
100
AcDbCircle
 10
434.485090068214
 20
-1858.32981008129
 40
5.0
100
AcDbArc
 50
-124.178248676112
 51
-103.402935573969
  0
ARC
  5
167
100
AcDbEntity
  8
1
  6
CONTINUOUS
 62
           7
100
AcDbCircle
 10
428.84088631507
 20
-1864.167226896867
 40
3.0
100
AcDbArc
 50
55.821751323885
 51
118.999999999998
  0
ARC
  5
166
100
AcDbEntity
  8
1
  6
CONTINUOUS
 62
           7
100
AcDbCircle
 10
407.010715708447
 20
-1862.278629328066
 40
0.5
100
AcDbArc
 50
73.999999999999
 51
164.000000000066
  0
ARC
  5
165
100
AcDbEntity
  8
1
  6
CONTINUOUS
 62
           7
100
AcDbCircle
 10
406.667903538386
 20
-1861.660179802189
 40
1.500000000001
100
AcDbArc
 50
74.000000000016
 51
163.999999999978
  0
ARC
  5
164
100
AcDbEntity
  8
1
  6
CONTINUOUS
 62
           7
100
AcDbCircle
 10
452.56354253194
 20
-1863.047075361937
 40
2.0
100
AcDbArc
 50
-100.999999999999
 51
-16.000000000001
  0
ARC
  5
163
100
AcDbEntity
  8
1
  6
CONTINUOUS
 62
           7
100
AcDbCircle
 10
452.56354253194
 20
-1863.047075361937
 40
2.0
100
AcDbArc
 50
-16.000000000001
 51
79.0
  0
ARC
  5
162
100
AcDbEntity
  8
1
  6
CONTINUOUS
 62
           7
100
AcDbCircle
 10
419.571226202972
 20
-1860.158650857907
 40
5.0
100
AcDbArc
 50
-106.0
 51
-61.000000000005
  0
ARC
  5
161
100
AcDbEntity
  8
1
  6
CONTINUOUS
 62
           7
100
AcDbCircle
 10
419.755021616417
 20
-1861.771802498429
 40
1.999999999999
100
AcDbArc
 50
-106.000000000002
 51
-60.999999999983
  0
ARC
  5
160
100
AcDbEntity
  8
1
  6
CONTINUOUS
 62
           7
100
AcDbCircle
 10
432.416689834671
 20
-1861.327611088831
 40
5.000000000001
100
AcDbArc
 50
79.000000000001
 51
118.999999999998
  0
ARC
  5
15F
100
AcDbEntity
  8
1
  6
CONTINUOUS
 62
           7
100
AcDbCircle
 10
314.791437220307
 20
-1840.776599063931
 40
1.999999999999
100
AcDbArc
 50
-106.000000000005
 51
16.980008486691
  0
ARC
  5
15E
100
AcDbEntity
  8
1
  6
CONTINUOUS
 62
           7
100
AcDbCircle
 10
359.030483482454
 20
-1891.43287085892
 40
4.999999999999
100
AcDbArc
 50
74.0
 51
123.771815271935
  0
ARC
  5
15D
100
AcDbEntity
  8
1
  6
CONTINUOUS
 62
           7
100
AcDbCircle
 10
369.510569097677
 20
-1886.11559156455
 40
3.0
100
AcDbArc
 50
-106.000000000004
 51
-26.000000000021
  0
ARC
  5
15C
100
AcDbEntity
  8
1
  6
CONTINUOUS
 62
           7
100
AcDbCircle
 10
377.592781981595
 20
-1883.231631636425
 40
3.0
100
AcDbArc
 50
73.999999999999
 51
153.999999999983
  0
ARC
  5
15B
100
AcDbEntity
  8
1
  6
CONTINUOUS
 62
           7
100
AcDbCircle
 10
393.149094242087
 20
-1859.604247628281
 40
3.000000000001
100
AcDbArc
 50
153.999999999948
 51
-105.999999999999
  0
ARC
  5
15A
100
AcDbEntity
  8
976
  6
CONTINUOUS
 62
           7
100
AcDbCircle
 10
376.816988303963
 20
-1843.406926241682
 40
3.0
100
AcDbArc
 50
162.465484968189
 51
-129.893663653871
  0
ARC
  5
159
100
AcDbEntity
  8
1
  6
CONTINUOUS
 62
           7
100
AcDbCircle
 10
389.706571242237
 20
-1855.256605596077
 40
2.0
100
AcDbArc
 50
-25.999999999996
 51
22.5903778907
  0
ARC
  5
158
100
AcDbEntity
  8
1
  6
CONTINUOUS
 62
           7
100
AcDbCircle
 10
419.689200920814
 20
-1613.019513115845
 40
2.0
100
AcDbArc
 50
0.0
 51
90.0
  0
ARC
  5
157
100
AcDbEntity
  8
1
  6
CONTINUOUS
 62
           7
100
AcDbCircle
 10
78.139122640265
 20
-1747.8327586313
 40
25.0
100
AcDbArc
 50
180.0
 51
-150.05121999259
  0
ARC
  5
156
100
AcDbEntity
  8
1
  6
CONTINUOUS
 62
           7
100
AcDbCircle
 10
171.139122640265
 20
-1747.8327586313
 40
25.0
100
AcDbArc
 50
-29.948780007409
 51
0.0
  0
LWPOLYLINE
  5
155
100
AcDbEntity
  8
1
  6
CONTINUOUS
 62
           7
 60
           1
100
AcDbPolyline
 90
        2
 70
           0
 10
439.756200920814
 20
-1729.3801435613
 10
439.756200920814
 20
-1740.019513115845
  0
LWPOLYLINE
  5
154
100
AcDbEntity
  8
976
  6
CONTINUOUS
 62
           7
 60
           1
100
AcDbPolyline
 90
        2
 70
           0
 10
316.240486876891
 20
-1827.505078395932
 10
314.689200920814
 20
-1828.083626767866
  0
LWPOLYLINE
  5
153
100
AcDbEntity
  8
976
  6
CONTINUOUS
 62
           7
 60
           1
100
AcDbPolyline
 90
        2
 70
           0
 10
95.190408596342
 20
-1827.505078395932
 10
93.639122640265
 20
-1828.083626767866
  0
ARC
  5
152
100
AcDbEntity
  8
1
  6
CONTINUOUS
 62
           7
100
AcDbCircle
 10
334.755850217696
 20
-1766.908272626269
 40
250.0
100
AcDbArc
 50
-164.680359918718
 51
-158.475256922418
  0
ARC
  5
151
100
AcDbEntity
  8
1
  6
CONTINUOUS
 62
           7
100
AcDbCircle
 10
124.639122640265
 20
-1871.482678388407
 40
19.0
100
AcDbArc
 50
-90.0
 51
6.157313736552
  0
ARC
  5
150
100
AcDbEntity
  8
1
  6
CONTINUOUS
 62
           7
100
AcDbCircle
 10
272.939200920814
 20
-1614.269513115845
 40
2.25
100
AcDbArc
 50
90.0
 51
180.0
  0
ARC
  5
14F
100
AcDbEntity
  8
1
  6
CONTINUOUS
 62
           7
100
AcDbCircle
 10
296.085588955251
 20
-1879.105359693409
 40
1.999999999999
100
AcDbArc
 50
74.000000000004
 51
133.999999999841
  0
ARC
  5
14E
100
AcDbEntity
  8
1
  6
CONTINUOUS
 62
           7
100
AcDbCircle
 10
307.664776557439
 20
-1838.733062002985
 40
1.999999999999
100
AcDbArc
 50
-166.000000000153
 51
-106.000000000011
  0
ARC
  5
14D
100
AcDbEntity
  8
1
  6
CONTINUOUS
 62
           7
100
AcDbCircle
 10
413.439200920814
 20
-1656.519513115845
 40
6.25
100
AcDbArc
 50
0.0
 51
53.130102354156
  0
ARC
  5
14C
100
AcDbEntity
  8
1
  6
CONTINUOUS
 62
           7
100
AcDbCircle
 10
413.439200920814
 20
-1656.519513115845
 40
6.25
100
AcDbArc
 50
-53.130102354156
 51
0.0
  0
ARC
  5
14B
100
AcDbEntity
  8
1
  6
CONTINUOUS
 62
           7
100
AcDbCircle
 10
272.939200920814
 20
-1614.269513115845
 40
2.25
100
AcDbArc
 50
180.0
 51
-90.0
  0
ARC
  5
14A
100
AcDbEntity
  8
1
  6
CONTINUOUS
 62
           7
100
AcDbCircle
 10
277.939200920814
 20
-1656.519513115845
 40
6.25
100
AcDbArc
 50
180.0
 51
-126.869897645844
  0
ARC
  5
149
100
AcDbEntity
  8
1
  6
CONTINUOUS
 62
           7
100
AcDbCircle
 10
277.939200920814
 20
-1656.519513115845
 40
6.25
100
AcDbArc
 50
126.869897645844
 51
180.0
  0
ARC
  5
148
100
AcDbEntity
  8
1
  6
CONTINUOUS
 62
           7
100
AcDbCircle
 10
277.939200920814
 20
-1717.519513115845
 40
6.25
100
AcDbArc
 50
126.869897645844
 51
-126.869897645844
  0
ARC
  5
147
100
AcDbEntity
  8
1
  6
CONTINUOUS
 62
           7
100
AcDbCircle
 10
413.439200920814
 20
-1717.519513115845
 40
6.25
100
AcDbArc
 50
-53.130102354156
 51
53.130102354156
  0
ARC
  5
146
100
AcDbEntity
  8
1
  6
CONTINUOUS
 62
           7
100
AcDbCircle
 10
411.223087365702
 20
-1865.728119960445
 40
5.548490410982
100
AcDbArc
 50
-152.130225821015
 51
-59.869774178983
  0
ARC
  5
145
100
AcDbEntity
  8
1
  6
CONTINUOUS
 62
           7
100
AcDbCircle
 10
414.64249840243
 20
-1871.874083473966
 40
1.019970752585
100
AcDbArc
 50
179.888107820175
 51
-18.507651509055
  0
ARC
  5
144
100
AcDbEntity
  8
1
  6
CONTINUOUS
 62
           7
100
AcDbCircle
 10
415.849639733445
 20
-1853.221369686533
 40
7.64273441009
100
AcDbArc
 50
-123.587953773991
 51
-88.412046226
  0
ARC
  5
143
100
AcDbEntity
  8
1
  6
CONTINUOUS
 62
           7
100
AcDbCircle
 10
412.601124270786
 20
-1864.55028943205
 40
7.642734410091
100
AcDbArc
 50
56.412046226002
 51
91.587953773994
  0
ARC
  5
142
100
AcDbEntity
  8
1
  6
CONTINUOUS
 62
           7
100
AcDbCircle
 10
345.689200920814
 20
-1871.482678388408
 40
18.999999999999
100
AcDbArc
 50
-90.0
 51
-56.22818472807
  0
ARC
  5
141
100
AcDbEntity
  8
1
  6
CONTINUOUS
 62
           7
100
AcDbCircle
 10
565.28618519098
 20
-1767.045645923841
 40
259.120519863689
100
AcDbArc
 50
-165.263500328103
 51
-163.603131922686
  0
ARC
  5
140
100
AcDbEntity
  8
1
  6
CONTINUOUS
 62
           7
100
AcDbCircle
 10
345.689200920814
 20
-1871.482678388408
 40
19.000000000002
100
AcDbArc
 50
-105.999999999997
 51
-90.0
  0
ARC
  5
13F
100
AcDbEntity
  8
976
  6
CONTINUOUS
 62
           7
100
AcDbCircle
 10
128.466040555714
 20
-1767.045645923842
 40
256.825490617198
100
AcDbArc
 50
-17.086086615706
 51
-14.871211665178
  0
ARC
  5
13E
100
AcDbEntity
  8
1
  6
CONTINUOUS
 62
           7
100
AcDbCircle
 10
192.389122640265
 20
-1717.519513115845
 40
6.25
100
AcDbArc
 50
-53.130102354156
 51
53.130102354156
  0
ARC
  5
13D
100
AcDbEntity
  8
1
  6
CONTINUOUS
 62
           7
100
AcDbCircle
 10
56.889122640265
 20
-1717.519513115845
 40
6.25
100
AcDbArc
 50
126.869897645844
 51
-126.869897645844
  0
ARC
  5
13C
100
AcDbEntity
  8
1
  6
CONTINUOUS
 62
           7
100
AcDbCircle
 10
56.889122640265
 20
-1656.519513115845
 40
6.25
100
AcDbArc
 50
126.869897645844
 51
180.0
  0
ARC
  5
13B
100
AcDbEntity
  8
1
  6
CONTINUOUS
 62
           7
100
AcDbCircle
 10
56.889122640265
 20
-1656.519513115845
 40
6.25
100
AcDbArc
 50
180.0
 51
-126.869897645844
  0
ARC
  5
13A
100
AcDbEntity
  8
1
  6
CONTINUOUS
 62
           7
100
AcDbCircle
 10
192.389122640265
 20
-1656.519513115845
 40
6.25
100
AcDbArc
 50
-53.130102354156
 51
0.0
  0
ARC
  5
139
100
AcDbEntity
  8
1
  6
CONTINUOUS
 62
           7
100
AcDbCircle
 10
192.389122640265
 20
-1656.519513115845
 40
6.25
100
AcDbArc
 50
0.0
 51
53.130102354156
  0
ARC
  5
138
100
AcDbEntity
  8
1
  6
CONTINUOUS
 62
           7
100
AcDbCircle
 10
51.889122640265
 20
-1614.269513115845
 40
2.25
100
AcDbArc
 50
180.0
 51
-90.0
  0
ARC
  5
137
100
AcDbEntity
  8
1
  6
CONTINUOUS
 62
           7
100
AcDbCircle
 10
197.389122640265
 20
-1614.269513115845
 40
2.25
100
AcDbArc
 50
0.0
 51
90.0
  0
ARC
  5
136
100
AcDbEntity
  8
1
  6
CONTINUOUS
 62
           7
100
AcDbCircle
 10
-85.477604937166
 20
-1766.908272626269
 40
250.0
100
AcDbArc
 50
-21.563773483797
 51
-15.319640081281
  0
ARC
  5
135
100
AcDbEntity
  8
1
  6
CONTINUOUS
 62
           7
100
AcDbCircle
 10
124.639122640265
 20
-1871.482678388407
 40
19.0
100
AcDbArc
 50
173.858030361553
 51
-90.0
  0
ARC
  5
134
100
AcDbEntity
  8
1
  6
CONTINUOUS
 62
           7
100
AcDbCircle
 10
51.889122640265
 20
-1614.269513115845
 40
2.25
100
AcDbArc
 50
90.0
 51
180.0
  0
ARC
  5
133
100
AcDbEntity
  8
1
  6
CONTINUOUS
 62
           7
100
AcDbCircle
 10
197.389122640265
 20
-1614.269513115845
 40
2.25
100
AcDbArc
 50
-90.0
 51
0.0
  0
LINE
  5
132
100
AcDbEntity
  8
1
  6
CONTINUOUS
 62
           7
100
AcDbLine
 10
130.500154619485
 20
-1832.959189973048
 11
155.639122640265
 21
-1832.959189973048
  0
LINE
  5
131
100
AcDbEntity
  8
1
  6
CONTINUOUS
 62
           7
100
AcDbLine
 10
147.139122640265
 20
-1857.689220746684
 11
147.139122640265
 21
-1853.845141594184
  0
LINE
  5
130
100
AcDbEntity
  8
1
  6
CONTINUOUS
 62
           7
100
AcDbLine
 10
102.139122640265
 20
-1857.689220746684
 11
102.139122640265
 21
-1853.846057558118
  0
LINE
  5
12F
100
AcDbEntity
  8
1
  6
CONTINUOUS
 62
           7
100
AcDbLine
 10
283.688693444223
 20
-1842.552224038665
 11
277.762490294158
 21
-1863.219350501339
  0
LINE
  5
12E
100
AcDbEntity
  8
1
  6
CONTINUOUS
 62
           3
100
AcDbLine
 10
303.636751317525
 20
-1836.474296259249
 11
290.179087574388
 21
-1832.615373277812
  0
LINE
  5
12D
100
AcDbEntity
  8
1
  6
CONTINUOUS
 62
           3
100
AcDbLine
 10
303.523990581054
 20
-1836.867539680315
 11
290.066326837917
 21
-1833.008616698878
  0
LINE
  5
12C
100
AcDbEntity
  8
1
  6
CONTINUOUS
 62
           3
100
AcDbLine
 10
303.298469108113
 20
-1837.654026522447
 11
289.840805364976
 21
-1833.79510354101
  0
LINE
  5
12B
100
AcDbEntity
  8
1
  6
CONTINUOUS
 62
           3
100
AcDbLine
 10
303.016567266936
 20
-1838.637135075111
 11
289.5589035238
 21
-1834.778212093674
  0
LINE
  5
12A
100
AcDbEntity
  8
1
  6
CONTINUOUS
 62
           3
100
AcDbLine
 10
302.706475241642
 20
-1839.718554483042
 11
289.248811498505
 21
-1835.859631501604
  0
LINE
  5
129
100
AcDbEntity
  8
1
  6
CONTINUOUS
 62
           3
100
AcDbLine
 10
300.733162353407
 20
-1846.600314351691
 11
287.27549861027
 21
-1842.741391370254
  0
LINE
  5
128
100
AcDbEntity
  8
1
  6
CONTINUOUS
 62
           3
100
AcDbLine
 10
301.184205299289
 20
-1845.027340667428
 11
287.726541556153
 21
-1841.16841768599
  0
LINE
  5
127
100
AcDbEntity
  8
1
  6
CONTINUOUS
 62
           3
100
AcDbLine
 10
301.607058061054
 20
-1843.552677838432
 11
288.149394317917
 21
-1839.693754856994
  0
LINE
  5
126
100
AcDbEntity
  8
1
  6
CONTINUOUS
 62
           3
100
AcDbLine
 10
302.001720638701
 20
-1842.176325864702
 11
288.544056895564
 21
-1838.317402883265
  0
LINE
  5
125
100
AcDbEntity
  8
1
  6
CONTINUOUS
 62
           3
100
AcDbLine
 10
302.36819303223
 20
-1840.898284746238
 11
288.910529289094
 21
-1837.039361764802
  0
LINE
  5
124
100
AcDbEntity
  8
1
  6
CONTINUOUS
 62
           3
100
AcDbLine
 10
298.111475230466
 20
-1855.743223891467
 11
284.653811487329
 21
-1851.884300910029
  0
LINE
  5
123
100
AcDbEntity
  8
1
  6
CONTINUOUS
 62
           3
100
AcDbLine
 10
298.675278912819
 20
-1853.777006786138
 11
285.217615169682
 21
-1849.918083804701
  0
LINE
  5
122
100
AcDbEntity
  8
1
  6
CONTINUOUS
 62
           3
100
AcDbLine
 10
299.210892411054
 20
-1851.909100536077
 11
285.753228667917
 21
-1848.05017755464
  0
LINE
  5
121
100
AcDbEntity
  8
1
  6
CONTINUOUS
 62
           3
100
AcDbLine
 10
299.746505909289
 20
-1850.041194286015
 11
286.288842166153
 21
-1846.182271304577
  0
LINE
  5
120
100
AcDbEntity
  8
1
  6
CONTINUOUS
 62
           3
100
AcDbLine
 10
300.253929223407
 20
-1848.27159889122
 11
286.79626548027
 21
-1844.412675909783
  0
LINE
  5
11F
100
AcDbEntity
  8
1
  6
CONTINUOUS
 62
           3
100
AcDbLine
 10
280.030621292035
 20
-1868.007281173722
 11
293.488285035171
 21
-1871.86620415516
  0
LINE
  5
11E
100
AcDbEntity
  8
1
  6
CONTINUOUS
 62
           3
100
AcDbLine
 10
280.453474053799
 20
-1866.532618344726
 11
293.911137796936
 21
-1870.391541326163
  0
LINE
  5
11D
100
AcDbEntity
  8
1
  6
CONTINUOUS
 62
           3
100
AcDbLine
 10
280.904516999682
 20
-1864.959644660464
 11
294.362180742818
 21
-1868.8185676419
  0
LINE
  5
11C
100
AcDbEntity
  8
1
  6
CONTINUOUS
 62
           3
100
AcDbLine
 10
281.383750129682
 20
-1863.288360120934
 11
294.841413872818
 21
-1867.147283102371
  0
LINE
  5
11B
100
AcDbEntity
  8
1
  6
CONTINUOUS
 62
           3
100
AcDbLine
 10
281.891173443799
 20
-1861.518764726139
 11
295.348837186936
 21
-1865.377687707577
  0
LINE
  5
11A
100
AcDbEntity
  8
1
  6
CONTINUOUS
 62
           3
100
AcDbLine
 10
282.426786942035
 20
-1859.650858476076
 11
295.884450685171
 21
-1863.509781457514
  0
LINE
  5
119
100
AcDbEntity
  8
1
  6
CONTINUOUS
 62
           3
100
AcDbLine
 10
282.96240044027
 20
-1857.782952226015
 11
296.420064183407
 21
-1861.641875207452
  0
LINE
  5
118
100
AcDbEntity
  8
1
  6
CONTINUOUS
 62
           3
100
AcDbLine
 10
283.526204122623
 20
-1855.816735120687
 11
296.98386786576
 21
-1859.675658102125
  0
LINE
  5
117
100
AcDbEntity
  8
1
  6
CONTINUOUS
 62
           3
100
AcDbLine
 10
279.635958714388
 20
-1869.383633147452
 11
293.093622457524
 21
-1873.242556128889
  0
LINE
  5
116
100
AcDbEntity
  8
1
  6
CONTINUOUS
 62
           3
100
AcDbLine
 10
279.269486320859
 20
-1870.661674265916
 11
292.727150063995
 21
-1874.520597247352
  0
LINE
  5
115
100
AcDbEntity
  8
1
  6
CONTINUOUS
 62
           3
100
AcDbLine
 10
278.931204111447
 20
-1871.841404529112
 11
292.388867854583
 21
-1875.70032751055
  0
LINE
  5
114
100
AcDbEntity
  8
1
  6
CONTINUOUS
 62
           3
100
AcDbLine
 10
278.621112086152
 20
-1872.922823937043
 11
292.078775829289
 21
-1876.781746918481
  0
LINE
  5
113
100
AcDbEntity
  8
1
  6
CONTINUOUS
 62
           3
100
AcDbLine
 10
278.339210244976
 20
-1873.905932489708
 11
291.796873988113
 21
-1877.764855471145
  0
LINE
  5
112
100
AcDbEntity
  8
1
  6
CONTINUOUS
 62
           3
100
AcDbLine
 10
278.113688772035
 20
-1874.692419331839
 11
291.571352515171
 21
-1878.551342313277
  0
LINE
  5
111
100
AcDbEntity
  8
1
  6
CONTINUOUS
 62
           3
100
AcDbLine
 10
278.000928035564
 20
-1875.085662752905
 11
291.458591778701
 21
-1878.944585734342
  0
LINE
  5
110
100
AcDbEntity
  8
1
  6
CONTINUOUS
 62
           7
100
AcDbLine
 10
279.890007178188
 20
-1864.86970558682
 11
277.486852938341
 21
-1864.180612197277
  0
LINE
  5
10F
100
AcDbEntity
  8
1
  6
CONTINUOUS
 62
           7
100
AcDbLine
 10
277.486852938341
 20
-1864.180612197277
 11
276.80122859822
 21
-1862.943713145522
  0
LINE
  5
10E
100
AcDbEntity
  8
1
  6
CONTINUOUS
 62
           7
100
AcDbLine
 10
277.202542958973
 20
-1874.242007122216
 11
277.888167299093
 21
-1875.47890617397
  0
LINE
  5
10D
100
AcDbEntity
  8
1
  6
CONTINUOUS
 62
           7
100
AcDbLine
 10
277.888167299093
 20
-1875.47890617397
 11
291.34583104223
 21
-1879.337829155409
  0
LINE
  5
10C
100
AcDbEntity
  8
1
  6
CONTINUOUS
 62
           7
100
AcDbLine
 10
292.582730093985
 20
-1878.652204815288
 11
291.34583104223
 21
-1879.337829155409
  0
LINE
  5
10B
100
AcDbEntity
  8
1
  6
CONTINUOUS
 62
           7
100
AcDbLine
 10
282.727431748285
 20
-1842.276586682848
 11
276.80122859822
 21
-1862.943713145522
  0
LINE
  5
10A
100
AcDbEntity
  8
1
  6
CONTINUOUS
 62
           7
100
AcDbLine
 10
283.964330800041
 20
-1841.590962342727
 11
282.727431748285
 21
-1842.276586682848
  0
LINE
  5
109
100
AcDbEntity
  8
1
  6
CONTINUOUS
 62
           7
100
AcDbLine
 10
286.367485039887
 20
-1842.280055732269
 11
283.964330800041
 21
-1841.590962342727
  0
LINE
  5
108
100
AcDbEntity
  8
1
  6
CONTINUOUS
 62
           7
100
AcDbLine
 10
277.202542958973
 20
-1874.242007122216
 11
289.054949259103
 21
-1832.907754196867
  0
LINE
  5
107
100
AcDbEntity
  8
1
  6
CONTINUOUS
 62
           7
100
AcDbLine
 10
290.291848310858
 20
-1832.222129856746
 11
289.054949259103
 21
-1832.907754196867
  0
LINE
  5
106
100
AcDbEntity
  8
1
  6
CONTINUOUS
 62
           7
100
AcDbLine
 10
303.749512053995
 20
-1836.081052838184
 11
290.291848310858
 21
-1832.222129856746
  0
LINE
  5
105
100
AcDbEntity
  8
1
  6
CONTINUOUS
 62
           7
100
AcDbLine
 10
303.749512053995
 20
-1836.081052838184
 11
304.435136394116
 21
-1837.317951889941
  0
LINE
  5
104
100
AcDbEntity
  8
1
  6
CONTINUOUS
 62
           7
100
AcDbLine
 10
304.435136394116
 20
-1837.317951889941
 11
292.582730093972
 21
-1878.652204815295
  0
LINE
  5
103
100
AcDbEntity
  8
1
  6
CONTINUOUS
 62
           7
100
AcDbLine
 10
304.029926969117
 20
-1838.731085091463
 11
305.724185104886
 21
-1839.216905794179
  0
LINE
  5
102
100
AcDbEntity
  8
1
  6
CONTINUOUS
 62
           7
100
AcDbLine
 10
293.004432736427
 20
-1877.181552928993
 11
294.696272214337
 21
-1877.666680092728
  0
LINE
  5
101
100
AcDbEntity
  8
1
  6
DOT_CENTER
 62
           2
100
AcDbLine
 10
396.713991575614
 20
-1823.780474521707
 11
373.218327827227
 21
-1871.953724165481
  0
LINE
  5
100
100
AcDbEntity
  8
1
  6
DOT_CENTER
 62
           2
100
AcDbLine
 10
345.689200920814
 20
-1605.18693245842
 11
345.689200920814
 21
-1893.8369122073
  0
LINE
  5
FF
100
AcDbEntity
  8
1
  6
DOT_CENTER
 62
           2
100
AcDbLine
 10
124.639122640265
 20
-1606.61412642504
 11
124.639122640265
 21
-1894.90730768226
  0
LINE
  5
FE
100
AcDbEntity
  8
1
  6
DOT_CENTER
 62
           2
100
AcDbLine
 10
252.437925607853
 20
-1844.808044316729
 11
348.685539274482
 21
-1872.288207085036
  0
LINE
  5
FD
100
AcDbEntity
  8
1
  6
CONTINUOUS
 62
           7
100
AcDbLine
 10
314.689200920814
 20
-1828.083626767866
 11
376.689200920814
 21
-1828.083626767866
  0
LINE
  5
FC
100
AcDbEntity
  8
1
  6
CONTINUOUS
 62
           7
100
AcDbLine
 10
447.189200920814
 20
-1740.019513115845
 11
468.189200920814
 21
-1740.019513115845
  0
LINE
  5
FB
100
AcDbEntity
  8
1
  6
CONTINUOUS
 62
           7
100
AcDbLine
 10
468.189200920814
 20
-1740.019513115845
 11
472.625692593918
 21
-1740.019513115845
  0
LINE
  5
FA
100
AcDbEntity
  8
1
  6
CONTINUOUS
 62
           7
100
AcDbLine
 10
423.298068342778
 20
-1633.519513115845
 11
423.298068342778
 21
-1635.019513115845
  0
LINE
  5
F9
100
AcDbEntity
  8
1
  6
CONTINUOUS
 62
           7
100
AcDbLine
 10
422.367114932111
 20
-1633.519513115845
 11
423.298068342778
 21
-1633.519513115845
  0
LINE
  5
F8
100
AcDbEntity
  8
1
  6
CONTINUOUS
 62
           7
100
AcDbLine
 10
423.298068342778
 20
-1635.019513115845
 11
472.625692593918
 21
-1635.019513115845
  0
LINE
  5
F7
100
AcDbEntity
  8
1
  6
CONTINUOUS
 62
           7
100
AcDbLine
 10
423.298068342778
 20
-1740.019513115845
 11
447.189200920814
 21
-1740.019513115845
  0
LINE
  5
F6
100
AcDbEntity
  8
1
  6
CONTINUOUS
 62
           7
100
AcDbLine
 10
423.298068342778
 20
-1741.519513115845
 11
423.298068342778
 21
-1740.019513115845
  0
LINE
  5
F5
100
AcDbEntity
  8
1
  6
CONTINUOUS
 62
           7
100
AcDbLine
 10
422.930373288013
 20
-1741.519513115845
 11
423.298068342778
 21
-1741.519513115845
  0
LINE
  5
F4
100
AcDbEntity
  8
1
  6
CONTINUOUS
 62
           7
100
AcDbLine
 10
420.635064124542
 20
-1742.519513115845
 11
420.635064124542
 21
-1732.519513115845
  0
LINE
  5
F3
100
AcDbEntity
  8
1
  6
CONTINUOUS
 62
           7
100
AcDbLine
 10
420.635064124542
 20
-1642.519513115845
 11
420.635064124542
 21
-1632.519513115845
  0
LINE
  5
F2
100
AcDbEntity
  8
1
  6
CONTINUOUS
 62
           7
100
AcDbLine
 10
422.367114932111
 20
-1733.519513115845
 11
430.689200920814
 21
-1733.519513115845
  0
LINE
  5
F1
100
AcDbEntity
  8
1
  6
CONTINUOUS
 62
           7
100
AcDbLine
 10
422.930373288013
 20
-1741.519513115845
 11
422.367114932111
 21
-1741.519513115845
  0
LINE
  5
F0
100
AcDbEntity
  8
1
  6
CONTINUOUS
 62
           7
100
AcDbLine
 10
420.346388989947
 20
-1732.019513115845
 11
420.635064124542
 21
-1732.519513115845
  0
LINE
  5
EF
100
AcDbEntity
  8
1
  6
CONTINUOUS
 62
           7
100
AcDbLine
 10
420.346388989947
 20
-1743.019513115845
 11
420.635064124542
 21
-1742.519513115845
  0
LINE
  5
EE
100
AcDbEntity
  8
1
  6
CONTINUOUS
 62
           7
100
AcDbLine
 10
420.346388989947
 20
-1632.019513115845
 11
420.635064124542
 21
-1632.519513115845
  0
LINE
  5
ED
100
AcDbEntity
  8
1
  6
CONTINUOUS
 62
           7
100
AcDbLine
 10
420.346388989947
 20
-1643.019513115845
 11
420.635064124542
 21
-1642.519513115845
  0
LINE
  5
EC
100
AcDbEntity
  8
1
  6
CONTINUOUS
 62
           7
100
AcDbLine
 10
422.367114932111
 20
-1641.519513115845
 11
430.689200920814
 21
-1641.519513115845
  0
LINE
  5
EB
100
AcDbEntity
  8
1
  6
CONTINUOUS
 62
           7
100
AcDbLine
 10
472.689200920814
 20
-1734.373615082095
 11
472.689200920814
 21
-1739.519513115845
  0
LINE
  5
EA
100
AcDbEntity
  8
1
  6
CONTINUOUS
 62
           7
100
AcDbLine
 10
472.689200920814
 20
-1635.519513115845
 11
472.689200920814
 21
-1638.519513115845
  0
LINE
  5
E9
100
AcDbEntity
  8
1
  6
CONTINUOUS
 62
           7
100
AcDbLine
 10
472.689200920814
 20
-1638.519513115845
 11
472.689200920814
 21
-1640.665411149595
  0
LINE
  5
E8
100
AcDbEntity
  8
1
  6
CONTINUOUS
 62
           7
100
AcDbLine
 10
430.689200920814
 20
-1733.519513115845
 11
440.189200920814
 21
-1733.519513115845
  0
LINE
  5
E7
100
AcDbEntity
  8
1
  6
CONTINUOUS
 62
           7
100
AcDbLine
 10
445.189200920814
 20
-1728.519513115845
 11
445.189200920814
 21
-1646.519513115845
  0
LINE
  5
E6
100
AcDbEntity
  8
1
  6
CONTINUOUS
 62
           7
100
AcDbLine
 10
440.189200920814
 20
-1641.519513115845
 11
430.689200920814
 21
-1641.519513115845
  0
LINE
  5
E5
100
AcDbEntity
  8
1
  6
CONTINUOUS
 62
           7
100
AcDbLine
 10
470.189200920814
 20
-1644.019513115845
 11
470.189200920814
 21
-1731.019513115845
  0
LINE
  5
E4
100
AcDbEntity
  8
1
  6
CONTINUOUS
 62
           7
100
AcDbLine
 10
417.189200920814
 20
-1631.519513115845
 11
419.480363586163
 21
-1631.519513115845
  0
LINE
  5
E3
100
AcDbEntity
  8
1
  6
CONTINUOUS
 62
           7
100
AcDbLine
 10
417.189200920814
 20
-1643.519513115845
 11
419.480363586163
 21
-1643.519513115845
  0
LINE
  5
E2
100
AcDbEntity
  8
1
  6
CONTINUOUS
 62
           7
100
AcDbLine
 10
417.189200920814
 20
-1731.519513115845
 11
419.480363586163
 21
-1731.519513115845
  0
LINE
  5
E1
100
AcDbEntity
  8
1
  6
CONTINUOUS
 62
           7
100
AcDbLine
 10
417.189200920814
 20
-1743.519513115845
 11
419.480363586163
 21
-1743.519513115845
  0
LINE
  5
E0
100
AcDbEntity
  8
1
  6
CONTINUOUS
 62
           7
100
AcDbLine
 10
457.689200920814
 20
-1641.519513115845
 11
471.488312806569
 21
-1641.519513115845
  0
LINE
  5
DF
100
AcDbEntity
  8
1
  6
CONTINUOUS
 62
           7
100
AcDbLine
 10
443.890089035058
 20
-1641.519513115845
 11
457.689200920814
 21
-1641.519513115845
  0
LINE
  5
DE
100
AcDbEntity
  8
1
  6
CONTINUOUS
 62
           7
100
AcDbLine
 10
457.689200920814
 20
-1733.519513115845
 11
471.32124310375
 21
-1733.519513115845
  0
LINE
  5
DD
100
AcDbEntity
  8
1
  6
CONTINUOUS
 62
           7
100
AcDbLine
 10
444.057158737877
 20
-1733.519513115845
 11
457.689200920814
 21
-1733.519513115845
  0
LINE
  5
DC
100
AcDbEntity
  8
1
  6
CONTINUOUS
 62
           7
100
AcDbLine
 10
93.322641838468
 20
-1669.6816047509
 11
155.955603442062
 21
-1669.6816047509
  0
LINE
  5
DB
100
AcDbEntity
  8
1
  6
CONTINUOUS
 62
           7
100
AcDbLine
 10
155.955603442062
 20
-1669.6816047509
 11
155.955603442062
 21
-1703.483520536967
  0
LINE
  5
DA
100
AcDbEntity
  8
1
  6
CONTINUOUS
 62
           7
100
AcDbLine
 10
155.955603442062
 20
-1703.483520536967
 11
93.322641838468
 21
-1703.483520536967
  0
LINE
  5
D9
100
AcDbEntity
  8
1
  6
CONTINUOUS
 62
           7
100
AcDbLine
 10
93.322641838468
 20
-1703.483520536967
 11
93.322641838468
 21
-1669.6816047509
  0
LINE
  5
D8
100
AcDbEntity
  8
1
  6
CONTINUOUS
 62
           7
100
AcDbLine
 10
195.722563190376
 20
-1686.08547564708
 11
171.862387341388
 21
-1686.08547564708
  0
LINE
  5
D7
100
AcDbEntity
  8
1
  6
CONTINUOUS
 62
           7
100
AcDbLine
 10
171.862387341388
 20
-1686.08547564708
 11
171.862387341388
 21
-1661.231125804384
  0
LINE
  5
D6
100
AcDbEntity
  8
1
  6
CONTINUOUS
 62
           7
100
AcDbLine
 10
274.189200920814
 20
-1747.8327586313
 11
274.189200920814
 21
-1722.519513115845
  0
LINE
  5
D5
100
AcDbEntity
  8
1
  6
CONTINUOUS
 62
           7
100
AcDbLine
 10
417.189200920814
 20
-1651.519513115845
 11
417.189200920814
 21
-1617.519513115845
  0
LINE
  5
D4
100
AcDbEntity
  8
1
  6
CONTINUOUS
 62
           7
100
AcDbLine
 10
417.189200920814
 20
-1712.519513115845
 11
417.189200920814
 21
-1661.519513115845
  0
LINE
  5
D3
100
AcDbEntity
  8
1
  6
CONTINUOUS
 62
           7
100
AcDbLine
 10
405.689200920814
 20
-1661.519513115845
 11
405.689200920814
 21
-1686.519513115845
  0
LINE
  5
D2
100
AcDbEntity
  8
1
  6
CONTINUOUS
 62
           7
100
AcDbLine
 10
417.189200920814
 20
-1651.519513115845
 11
274.189200920814
 21
-1651.519513115845
  0
LINE
  5
D1
100
AcDbEntity
  8
1
  6
CONTINUOUS
 62
           7
100
AcDbLine
 10
417.189200920814
 20
-1661.519513115845
 11
274.189200920814
 21
-1661.519513115845
  0
LINE
  5
D0
100
AcDbEntity
  8
1
  6
CONTINUOUS
 62
           7
100
AcDbLine
 10
285.689200920814
 20
-1661.519513115845
 11
405.689200920814
 21
-1661.519513115845
  0
LINE
  5
CF
100
AcDbEntity
  8
1
  6
CONTINUOUS
 62
           7
100
AcDbLine
 10
405.689200920814
 20
-1686.519513115845
 11
285.689200920814
 21
-1686.519513115845
  0
LINE
  5
CE
100
AcDbEntity
  8
1
  6
CONTINUOUS
 62
           7
100
AcDbLine
 10
345.689200920814
 20
-1612.019513115845
 11
272.939200920814
 21
-1612.019513115845
  0
LINE
  5
CD
100
AcDbEntity
  8
1
  6
CONTINUOUS
 62
           7
100
AcDbLine
 10
274.189200920814
 20
-1712.519513115845
 11
274.189200920814
 21
-1661.519513115845
  0
LINE
  5
CC
100
AcDbEntity
  8
1
  6
CONTINUOUS
 62
           7
100
AcDbLine
 10
274.189200920814
 20
-1651.519513115845
 11
274.189200920814
 21
-1616.519513115845
  0
LINE
  5
CB
100
AcDbEntity
  8
1
  6
CONTINUOUS
 62
           7
100
AcDbLine
 10
345.689200920814
 20
-1612.019513115845
 11
376.689200920814
 21
-1612.019513115845
  0
LINE
  5
CA
100
AcDbEntity
  8
1
  6
CONTINUOUS
 62
           7
100
AcDbLine
 10
281.689200920814
 20
-1668.767013168936
 11
281.689200920814
 21
-1702.767013168936
  0
LINE
  5
C9
100
AcDbEntity
  8
1
  6
CONTINUOUS
 62
           7
100
AcDbLine
 10
274.189200920814
 20
-1668.767013168936
 11
281.689200920814
 21
-1668.767013168936
  0
LINE
  5
C8
100
AcDbEntity
  8
1
  6
CONTINUOUS
 62
           7
100
AcDbLine
 10
274.189200920814
 20
-1702.767013168936
 11
281.689200920814
 21
-1702.767013168936
  0
LINE
  5
C7
100
AcDbEntity
  8
1
  6
CONTINUOUS
 62
           7
100
AcDbLine
 10
285.689200920814
 20
-1686.519513115845
 11
285.689200920814
 21
-1661.519513115845
  0
LINE
  5
C6
100
AcDbEntity
  8
1
  6
CONTINUOUS
 62
           7
100
AcDbLine
 10
417.189200920814
 20
-1722.519513115845
 11
274.189200920814
 21
-1722.519513115845
  0
LINE
  5
C5
100
AcDbEntity
  8
1
  6
CONTINUOUS
 62
           7
100
AcDbLine
 10
417.189200920814
 20
-1712.519513115845
 11
274.189200920814
 21
-1712.519513115845
  0
LINE
  5
C4
100
AcDbEntity
  8
1
  6
CONTINUOUS
 62
           7
100
AcDbLine
 10
417.189200920814
 20
-1747.8327586313
 11
417.189200920814
 21
-1722.519513115845
  0
LINE
  5
C3
100
AcDbEntity
  8
1
  6
CONTINUOUS
 62
           7
100
AcDbLine
 10
277.527400009932
 20
-1760.313398891212
 11
304.787656122998
 21
-1807.627176742624
  0
LINE
  5
C2
100
AcDbEntity
  8
1
  6
CONTINUOUS
 62
           7
100
AcDbLine
 10
413.851001831695
 20
-1760.313398891212
 11
375.141563294728
 21
-1827.505078395932
  0
LINE
  5
C1
100
AcDbEntity
  8
1
  6
CONTINUOUS
 62
           7
100
AcDbLine
 10
376.689200920814
 20
-1616.519513115845
 11
272.939200920814
 21
-1616.519513115845
  0
LINE
  5
C0
100
AcDbEntity
  8
1
  6
CONTINUOUS
 62
           7
100
AcDbLine
 10
314.689200920814
 20
-1832.959189973048
 11
376.689200920814
 21
-1832.959189973048
  0
LINE
  5
BF
100
AcDbEntity
  8
1
  6
CONTINUOUS
 62
           7
100
AcDbLine
 10
415.930770228866
 20
-1871.078210417683
 11
415.609717565716
 21
-1872.197854112386
  0
LINE
  5
BE
100
AcDbEntity
  8
1
  6
CONTINUOUS
 62
           7
100
AcDbLine
 10
415.930770228866
 20
-1871.078210417683
 11
417.853293620743
 21
-1871.629485129317
  0
LINE
  5
BD
100
AcDbEntity
  8
1
  6
CONTINUOUS
 62
           7
100
AcDbLine
 10
427.386457454331
 20
-1861.543367775449
 11
424.187817147393
 21
-1863.316403049926
  0
LINE
  5
BC
100
AcDbEntity
  8
1
  6
CONTINUOUS
 62
           7
100
AcDbLine
 10
431.676243313602
 20
-1862.466279579437
 11
430.526194367837
 21
-1861.685345197979
  0
LINE
  5
BB
100
AcDbEntity
  8
1
  6
CONTINUOUS
 62
           7
100
AcDbLine
 10
449.861764981415
 20
-1866.059184514949
 11
452.181924541187
 21
-1865.010329728832
  0
LINE
  5
BA
100
AcDbEntity
  8
1
  6
CONTINUOUS
 62
           7
100
AcDbLine
 10
433.326101349306
 20
-1863.193630097434
 11
446.64314522283
 21
-1866.36691849367
  0
LINE
  5
B9
100
AcDbEntity
  8
1
  6
CONTINUOUS
 62
           7
100
AcDbLine
 10
423.460602717024
 20
-1862.004473489217
 11
422.875887586684
 21
-1864.043617480295
  0
LINE
  5
B8
100
AcDbEntity
  8
1
  6
CONTINUOUS
 62
           7
100
AcDbLine
 10
418.135869075402
 20
-1863.388116850177
 11
419.203746904783
 21
-1863.694325890305
  0
LINE
  5
B7
100
AcDbEntity
  8
1
  6
CONTINUOUS
 62
           7
100
AcDbLine
 10
405.703172793027
 20
-1865.024595737973
 11
406.530084860478
 21
-1862.140810650158
  0
LINE
  5
B6
100
AcDbEntity
  8
1
  6
CONTINUOUS
 62
           7
100
AcDbLine
 10
404.261280249119
 20
-1864.611139704247
 11
405.703172793027
 21
-1865.024595737973
  0
LINE
  5
B5
100
AcDbEntity
  8
1
  6
CONTINUOUS
 62
           7
100
AcDbLine
 10
405.226010994479
 20
-1861.246723768463
 11
404.261280249119
 21
-1864.611139704247
  0
LINE
  5
B4
100
AcDbEntity
  8
1
  6
CONTINUOUS
 62
           7
100
AcDbLine
 10
406.318153269483
 20
-1868.321836859513
 11
407.971977404385
 21
-1862.554266683883
  0
LINE
  5
B3
100
AcDbEntity
  8
1
  6
CONTINUOUS
 62
           7
100
AcDbLine
 10
414.00824683699
 20
-1870.526935706049
 11
413.62252959481
 21
-1871.872091587665
  0
LINE
  5
B2
100
AcDbEntity
  8
1
  6
CONTINUOUS
 62
           7
100
AcDbLine
 10
415.662070971892
 20
-1864.759365530419
 11
414.00824683699
 21
-1870.526935706049
  0
LINE
  5
B1
100
AcDbEntity
  8
1
  6
CONTINUOUS
 62
           7
100
AcDbLine
 10
409.657654421699
 20
-1859.396578764962
 11
417.828378837174
 21
-1861.739496289406
  0
LINE
  5
B0
100
AcDbEntity
  8
1
  6
CONTINUOUS
 62
           7
100
AcDbLine
 10
409.40161478067
 20
-1858.951497387691
 11
410.169394040975
 21
-1856.273932905618
  0
LINE
  5
AF
100
AcDbEntity
  8
1
  6
CONTINUOUS
 62
           7
100
AcDbLine
 10
409.897969845683
 20
-1859.465488103916
 11
409.40161478067
 21
-1858.951497387691
  0
LINE
  5
AE
100
AcDbEntity
  8
1
  6
CONTINUOUS
 62
           7
100
AcDbLine
 10
417.58806341319
 20
-1861.670586950451
 11
409.897969845683
 21
-1859.465488103916
  0
LINE
  5
AD
100
AcDbEntity
  8
1
  6
CONTINUOUS
 62
           7
100
AcDbLine
 10
418.281369963257
 20
-1861.497726212965
 11
417.58806341319
 21
-1861.670586950451
  0
LINE
  5
AC
100
AcDbEntity
  8
1
  6
CONTINUOUS
 62
           7
100
AcDbLine
 10
409.657654421699
 20
-1859.396578764962
 11
409.244198387973
 21
-1860.838471308869
  0
LINE
  5
AB
100
AcDbEntity
  8
1
  6
CONTINUOUS
 62
           7
100
AcDbLine
 10
417.828378837174
 20
-1861.739496289406
 11
417.414922803449
 21
-1863.181388833313
  0
LINE
  5
AA
100
AcDbEntity
  8
1
  6
CONTINUOUS
 62
           7
100
AcDbLine
 10
433.370734811554
 20
-1856.419475171592
 11
452.945160522693
 21
-1861.083820995042
  0
LINE
  5
A9
100
AcDbEntity
  8
1
  6
DASH_CENTER
 62
           2
100
AcDbLine
 10
410.979961767915
 20
-1870.203954960376
 11
415.344651634737
 21
-1854.982472475939
  0
LINE
  5
A8
100
AcDbEntity
  8
1
  6
CONTINUOUS
 62
           7
100
AcDbLine
 10
412.389332836622
 20
-1856.910490111937
 11
411.621553576317
 21
-1859.588054594009
  0
LINE
  5
A7
100
AcDbEntity
  8
1
  6
CONTINUOUS
 62
           7
100
AcDbLine
 10
416.829210427916
 20
-1858.183604524574
 11
416.06143116761
 21
-1860.861169006647
  0
LINE
  5
A6
100
AcDbEntity
  8
1
  6
CONTINUOUS
 62
           7
100
AcDbLine
 10
410.169394040975
 20
-1856.273932905618
 11
410.862700591043
 21
-1856.101072168132
  0
LINE
  5
A5
100
AcDbEntity
  8
1
  6
CONTINUOUS
 62
           7
100
AcDbLine
 10
410.862700591043
 20
-1856.101072168132
 11
418.552794158549
 21
-1858.306171014668
  0
LINE
  5
A4
100
AcDbEntity
  8
1
  6
CONTINUOUS
 62
           7
100
AcDbLine
 10
418.552794158549
 20
-1858.306171014668
 11
419.049149223562
 21
-1858.820161730893
  0
LINE
  5
A3
100
AcDbEntity
  8
1
  6
CONTINUOUS
 62
           7
100
AcDbLine
 10
419.049149223562
 20
-1858.820161730893
 11
418.281369963257
 21
-1861.497726212965
  0
LINE
  5
A2
100
AcDbEntity
  8
1
  6
CONTINUOUS
 62
           7
100
AcDbLine
 10
418.135869075402
 20
-1863.388116850177
 11
407.081359572112
 21
-1860.218287258281
  0
LINE
  5
A1
100
AcDbEntity
  8
1
  6
CONTINUOUS
 62
           7
100
AcDbLine
 10
420.72464085691
 20
-1863.521041912707
 11
423.460602717024
 21
-1862.004473489217
  0
LINE
  5
A0
100
AcDbEntity
  8
1
  6
CONTINUOUS
 62
           7
100
AcDbLine
 10
421.995274304203
 20
-1864.531749393605
 11
424.187817147393
 21
-1863.316403049926
  0
LINE
  5
9F
100
AcDbEntity
  8
1
  6
CONTINUOUS
 62
           7
100
AcDbLine
 10
424.80197718775
 20
-1859.831744893864
 11
423.460602717024
 21
-1862.004473489217
  0
LINE
  5
9E
100
AcDbEntity
  8
1
  6
CONTINUOUS
 62
           7
100
AcDbLine
 10
424.80197718775
 20
-1859.831744893864
 11
429.992641733439
 21
-1856.954512553134
  0
LINE
  5
9D
100
AcDbEntity
  8
1
  6
CONTINUOUS
 62
           7
100
AcDbLine
 10
418.193039423886
 20
-1864.964959337599
 11
407.148534386355
 21
-1861.797998480097
  0
LINE
  5
9C
100
AcDbEntity
  8
1
  6
CONTINUOUS
 62
           7
100
AcDbLine
 10
415.930770228866
 20
-1871.078210417683
 11
417.584594363768
 21
-1865.310640242053
  0
LINE
  5
9B
100
AcDbEntity
  8
1
  6
CONTINUOUS
 62
           7
100
AcDbLine
 10
407.971977404385
 20
-1862.554266683883
 11
417.584594363768
 21
-1865.310640242053
  0
LINE
  5
9A
100
AcDbEntity
  8
1
  6
CONTINUOUS
 62
           7
100
AcDbLine
 10
404.395629877606
 20
-1867.770562147879
 11
406.318153269483
 21
-1868.321836859513
  0
LINE
  5
99
100
AcDbEntity
  8
1
  6
CONTINUOUS
 62
           7
100
AcDbLine
 10
399.571976150809
 20
-1884.5926418268
 11
413.029639893945
 21
-1888.451564808237
  0
LINE
  5
98
100
AcDbEntity
  8
1
  6
CONTINUOUS
 62
           7
100
AcDbLine
 10
419.551743748651
 20
-1891.10197257091
 11
414.745435268959
 21
-1889.723785791825
  0
LINE
  5
97
100
AcDbEntity
  8
1
  6
CONTINUOUS
 62
           7
100
AcDbLine
 10
424.788853509174
 20
-1872.838000348081
 11
419.551743748651
 21
-1891.10197257091
  0
LINE
  5
96
100
AcDbEntity
  8
1
  6
CONTINUOUS
 62
           7
100
AcDbLine
 10
419.982545029482
 20
-1871.459813568997
 11
424.788853509174
 21
-1872.838000348081
  0
LINE
  5
95
100
AcDbEntity
  8
1
  6
CONTINUOUS
 62
           7
100
AcDbLine
 10
414.745435268959
 20
-1889.723785791825
 11
414.883253946868
 21
-1889.243154943856
  0
LINE
  5
94
100
AcDbEntity
  8
1
  6
CONTINUOUS
 62
           7
100
AcDbLine
 10
419.982545029482
 20
-1871.459813568997
 11
419.844726351574
 21
-1871.940444416967
  0
LINE
  5
93
100
AcDbEntity
  8
1
  6
CONTINUOUS
 62
           7
100
AcDbLine
 10
419.982545029482
 20
-1871.459813568997
 11
414.745435268959
 21
-1889.723785791825
  0
LINE
  5
92
100
AcDbEntity
  8
1
  6
CONTINUOUS
 62
           7
100
AcDbLine
 10
418.808301114022
 20
-1875.554888760365
 11
423.614609593713
 21
-1876.93307553945
  0
LINE
  5
91
100
AcDbEntity
  8
1
  6
CONTINUOUS
 62
           7
100
AcDbLine
 10
423.339728889592
 20
-1877.891698477338
 11
418.5334204099
 21
-1876.513511698253
  0
LINE
  5
90
100
AcDbEntity
  8
1
  6
CONTINUOUS
 62
           7
100
AcDbLine
 10
416.194559888542
 20
-1884.670087662568
 11
421.000868368233
 21
-1886.048274441653
  0
LINE
  5
8F
100
AcDbEntity
  8
1
  6
CONTINUOUS
 62
           7
100
AcDbLine
 10
420.725987664111
 20
-1887.006897379541
 11
415.91967918442
 21
-1885.628710600455
  0
LINE
  5
8E
100
AcDbEntity
  8
1
  6
CONTINUOUS
 62
           7
100
AcDbLine
 10
420.592963860249
 20
-1887.470806514504
 11
422.515487252126
 21
-1888.022081226138
  0
LINE
  5
8D
100
AcDbEntity
  8
1
  6
CONTINUOUS
 62
           7
100
AcDbLine
 10
423.747633397575
 20
-1876.469166404489
 11
425.670156789452
 21
-1877.020441116124
  0
LINE
  5
8C
100
AcDbEntity
  8
1
  6
CONTINUOUS
 62
           2
100
AcDbLine
 10
425.670156789452
 20
-1877.020441116124
 11
434.183090368682
 21
-1879.461485539239
  0
LINE
  5
8B
100
AcDbEntity
  8
1
  6
CONTINUOUS
 62
           2
100
AcDbLine
 10
422.515487252126
 20
-1888.022081226138
 11
431.028420831356
 21
-1890.463125649253
  0
LINE
  5
8A
100
AcDbEntity
  8
1
  6
CONTINUOUS
 62
           7
100
AcDbLine
 10
429.969635243053
 20
-1891.050020084398
 11
431.206534294809
 21
-1890.364395744276
  0
LINE
  5
89
100
AcDbEntity
  8
1
  6
CONTINUOUS
 62
           7
100
AcDbLine
 10
433.596195933538
 20
-1878.402699950936
 11
434.281820273659
 21
-1879.639599002692
  0
LINE
  5
88
100
AcDbEntity
  8
1
  6
CONTINUOUS
 62
           7
100
AcDbLine
 10
431.206534294809
 20
-1890.364395744276
 11
434.281820273659
 21
-1879.639599002692
  0
LINE
  5
87
100
AcDbEntity
  8
1
  6
CONTINUOUS
 62
           7
100
AcDbLine
 10
422.279541675547
 20
-1888.84492123786
 11
429.969635243053
 21
-1891.050020084398
  0
LINE
  5
86
100
AcDbEntity
  8
1
  6
CONTINUOUS
 62
           7
100
AcDbLine
 10
425.906102366031
 20
-1876.197601104401
 11
433.596195933538
 21
-1878.402699950936
  0
LINE
  5
85
100
AcDbEntity
  8
1
  6
CONTINUOUS
 62
           7
100
AcDbLine
 10
412.960730554991
 20
-1888.691880232223
 11
414.883253946868
 21
-1889.243154943856
  0
LINE
  5
84
100
AcDbEntity
  8
1
  6
CONTINUOUS
 62
           7
100
AcDbLine
 10
414.883253946868
 20
-1889.243154943856
 11
419.844726351574
 21
-1871.940444416967
  0
LINE
  5
83
100
AcDbEntity
  8
1
  6
CONTINUOUS
 62
           7
100
AcDbLine
 10
417.922202959697
 20
-1871.389169705332
 11
419.844726351574
 21
-1871.940444416967
  0
LINE
  5
82
100
AcDbEntity
  8
1
  6
CONTINUOUS
 62
           7
100
AcDbLine
 10
412.960730554991
 20
-1888.691880232223
 11
417.922202959697
 21
-1871.389169705332
  0
LINE
  5
81
100
AcDbEntity
  8
1
  6
CONTINUOUS
 62
           7
100
AcDbLine
 10
402.542015824684
 20
-1866.97897201226
 11
404.464539216561
 21
-1867.530246723895
  0
LINE
  5
80
100
AcDbEntity
  8
1
  6
CONTINUOUS
 62
           7
100
AcDbLine
 10
404.464539216561
 20
-1867.530246723895
 11
399.503066811855
 21
-1884.832957250785
  0
LINE
  5
7F
100
AcDbEntity
  8
1
  6
CONTINUOUS
 62
           7
100
AcDbLine
 10
397.44272474207
 20
-1884.762313387119
 11
397.580543419978
 21
-1884.28168253915
  0
LINE
  5
7E
100
AcDbEntity
  8
1
  6
CONTINUOUS
 62
           7
100
AcDbLine
 10
397.580543419978
 20
-1884.28168253915
 11
399.503066811855
 21
-1884.832957250785
  0
LINE
  5
7D
100
AcDbEntity
  8
1
  6
CONTINUOUS
 62
           7
100
AcDbLine
 10
397.44272474207
 20
-1884.762313387119
 11
402.542015824684
 21
-1866.97897201226
  0
LINE
  5
7C
100
AcDbEntity
  8
1
  6
CONTINUOUS
 62
           7
100
AcDbLine
 10
398.0298466998
 20
-1882.714775791436
 11
402.092712544862
 21
-1868.545878759976
  0
LINE
  5
7B
100
AcDbEntity
  8
1
  6
CONTINUOUS
 62
           7
100
AcDbLine
 10
397.077864104841
 20
-1867.931236803449
 11
401.91754215313
 21
-1869.156770514236
  0
LINE
  5
7A
100
AcDbEntity
  8
1
  6
CONTINUOUS
 62
           7
100
AcDbLine
 10
400.430457361662
 20
-1869.662789185896
 11
401.91754215313
 21
-1869.156770514236
  0
LINE
  5
79
100
AcDbEntity
  8
1
  6
CONTINUOUS
 62
           2
100
AcDbLine
 10
396.841918528261
 20
-1868.754076815173
 11
400.430457361662
 21
-1869.662789185896
  0
LINE
  5
78
100
AcDbEntity
  8
1
  6
CONTINUOUS
 62
           7
100
AcDbLine
 10
397.212046707479
 20
-1880.886720987507
 11
398.205017091532
 21
-1882.103884037176
  0
LINE
  5
77
100
AcDbEntity
  8
1
  6
CONTINUOUS
 62
           2
100
AcDbLine
 10
393.687248990936
 20
-1879.755716925185
 11
397.212046707479
 21
-1880.886720987507
  0
LINE
  5
76
100
AcDbEntity
  8
1
  6
CONTINUOUS
 62
           7
100
AcDbLine
 10
400.430457361662
 20
-1869.662789185896
 11
397.212046707479
 21
-1880.886720987507
  0
LINE
  5
75
100
AcDbEntity
  8
1
  6
CONTINUOUS
 62
           7
100
AcDbLine
 10
398.205017091532
 20
-1882.103884037176
 11
393.451303414357
 21
-1880.57855693691
  0
LINE
  5
74
100
AcDbEntity
  8
1
  6
CONTINUOUS
 62
           7
100
AcDbLine
 10
425.906102366031
 20
-1876.197601104401
 11
425.670156789452
 21
-1877.020441116124
  0
LINE
  5
73
100
AcDbEntity
  8
1
  6
CONTINUOUS
 62
           7
100
AcDbLine
 10
422.515487252126
 20
-1888.022081226138
 11
422.279541675547
 21
-1888.84492123786
  0
LINE
  5
72
100
AcDbEntity
  8
1
  6
CONTINUOUS
 62
           7
100
AcDbLine
 10
425.670156789452
 20
-1877.020441116124
 11
422.515487252126
 21
-1888.022081226138
  0
LINE
  5
71
100
AcDbEntity
  8
1
  6
CONTINUOUS
 62
           7
100
AcDbLine
 10
433.596195933538
 20
-1878.402699950936
 11
429.969635243053
 21
-1891.050020084398
  0
LINE
  5
70
100
AcDbEntity
  8
1
  6
CONTINUOUS
 62
           7
100
AcDbLine
 10
392.370391523518
 20
-1884.348144677532
 11
398.158775995677
 21
-1864.161649062827
  0
LINE
  5
6F
100
AcDbEntity
  8
1
  6
CONTINUOUS
 62
           7
100
AcDbLine
 10
397.406055466748
 20
-1838.32973749603
 11
384.822938818561
 21
-1832.192541440981
  0
LINE
  5
6E
100
AcDbEntity
  8
1
  6
CONTINUOUS
 62
           7
100
AcDbLine
 10
384.362515919051
 20
-1830.855376247893
 11
386.554371652997
 21
-1826.361406016397
  0
LINE
  5
6D
100
AcDbEntity
  8
1
  6
CONTINUOUS
 62
           7
100
AcDbLine
 10
387.891536846085
 20
-1825.900983116888
 11
394.183095170179
 21
-1828.969581144411
  0
LINE
  5
6C
100
AcDbEntity
  8
1
  6
CONTINUOUS
 62
           7
100
AcDbLine
 10
387.891536846085
 20
-1825.900983116888
 11
386.554371652997
 21
-1826.361406016397
  0
LINE
  5
6B
100
AcDbEntity
  8
1
  6
CONTINUOUS
 62
           7
100
AcDbLine
 10
384.362515919051
 20
-1830.855376247893
 11
384.822938818561
 21
-1832.192541440981
  0
LINE
  5
6A
100
AcDbEntity
  8
1
  6
CONTINUOUS
 62
           7
100
AcDbLine
 10
400.935076393783
 20
-1833.375344365022
 11
398.743220659838
 21
-1837.869314596518
  0
LINE
  5
69
100
AcDbEntity
  8
1
  6
CONTINUOUS
 62
           7
100
AcDbLine
 10
394.183095170179
 20
-1828.969581144411
 11
400.474653494273
 21
-1832.038179171934
  0
LINE
  5
68
100
AcDbEntity
  8
1
  6
CONTINUOUS
 62
           7
100
AcDbLine
 10
400.935076393783
 20
-1833.375344365022
 11
400.474653494273
 21
-1832.038179171934
  0
LINE
  5
67
100
AcDbEntity
  8
1
  6
CONTINUOUS
 62
           7
100
AcDbLine
 10
397.406055466749
 20
-1838.329737496029
 11
398.743220659838
 21
-1837.869314596518
  0
LINE
  5
66
100
AcDbEntity
  8
1
  6
CONTINUOUS
 62
           7
100
AcDbLine
 10
383.347469256704
 20
-1834.98958514852
 11
383.957222401344
 21
-1835.108109153273
  0
LINE
  5
65
100
AcDbEntity
  8
1
  6
CONTINUOUS
 62
           7
100
AcDbLine
 10
377.499935491912
 20
-1846.978806090238
 11
383.347469256704
 21
-1834.98958514852
  0
LINE
  5
64
100
AcDbEntity
  8
1
  6
CONTINUOUS
 62
           7
100
AcDbLine
 10
390.262810949358
 20
-1853.203676374647
 11
377.499935491912
 21
-1846.978806090238
  0
LINE
  5
63
100
AcDbEntity
  8
1
  6
CONTINUOUS
 62
           7
100
AcDbLine
 10
377.820026346296
 20
-1847.691225801461
 11
378.039211919691
 21
-1847.241828778312
  0
LINE
  5
62
100
AcDbEntity
  8
1
  6
CONTINUOUS
 62
           7
100
AcDbLine
 10
383.957222401344
 20
-1835.108109153273
 11
395.641545003243
 21
-1840.806934061541
  0
LINE
  5
61
100
AcDbEntity
  8
1
  6
CONTINUOUS
 62
           7
100
AcDbLine
 10
395.641545003233
 20
-1840.806934061531
 11
396.110344714152
 21
-1841.214455432925
  0
LINE
  5
60
100
AcDbEntity
  8
1
  6
CONTINUOUS
 62
           7
100
AcDbLine
 10
396.110344714152
 20
-1841.214455432925
 11
390.26281094936
 21
-1853.203676374644
  0
LINE
  5
5F
100
AcDbEntity
  8
1
  6
CONTINUOUS
 62
           7
100
AcDbLine
 10
389.72353452158
 20
-1852.94065368657
 11
389.504348948186
 21
-1853.390050709719
  0
LINE
  5
5E
100
AcDbEntity
  8
1
  6
CONTINUOUS
 62
           7
100
AcDbLine
 10
374.635232152195
 20
-1846.236919457824
 11
391.553120725608
 21
-1854.488325044804
  0
LINE
  5
5D
100
AcDbEntity
  8
1
  6
CONTINUOUS
 62
           7
100
AcDbLine
 10
340.452091160291
 20
-1889.746650611238
 11
296.636863666885
 21
-1877.182836301533
  0
LINE
  5
5C
100
AcDbEntity
  8
1
  6
CONTINUOUS
 62
           7
100
AcDbLine
 10
378.419694049046
 20
-1880.34784654861
 11
392.370391523518
 21
-1884.348144677532
  0
LINE
  5
5B
100
AcDbEntity
  8
1
  6
CONTINUOUS
 62
           7
100
AcDbLine
 10
373.551675539636
 20
-1884.673611600487
 11
372.206951236573
 21
-1887.430705004918
  0
LINE
  5
5A
100
AcDbEntity
  8
1
  6
CONTINUOUS
 62
           7
100
AcDbLine
 10
360.408670261539
 20
-1886.626562379229
 11
368.683657030225
 21
-1888.999376652365
  0
LINE
  5
59
100
AcDbEntity
  8
1
  6
CONTINUOUS
 62
           7
100
AcDbLine
 10
374.896399842698
 20
-1881.916518196057
 11
373.551675539636
 21
-1884.673611600487
  0
LINE
  5
58
100
AcDbEntity
  8
1
  6
CONTINUOUS
 62
           7
100
AcDbLine
 10
392.322182174636
 20
-1862.488032716096
 11
398.158775995677
 21
-1864.161649062827
  0
LINE
  5
57
100
AcDbEntity
  8
1
  6
CONTINUOUS
 62
           7
100
AcDbLine
 10
391.504159334835
 20
-1856.133347889655
 11
390.45271210319
 21
-1858.289134187911
  0
LINE
  5
56
100
AcDbEntity
  8
1
  6
CONTINUOUS
 62
           7
100
AcDbLine
 10
316.240486876891
 20
-1827.505078395932
 11
314.689200920814
 21
-1828.083626767866
  0
LINE
  5
55
100
AcDbEntity
  8
1
  6
CONTINUOUS
 62
           7
100
AcDbLine
 10
376.689200920814
 20
-1828.083626767866
 11
375.189200920814
 21
-1827.505078395932
  0
LINE
  5
54
100
AcDbEntity
  8
1
  6
CONTINUOUS
 62
           7
100
AcDbLine
 10
376.689200920814
 20
-1828.083626767866
 11
376.689200920814
 21
-1832.959189973048
  0
LINE
  5
53
100
AcDbEntity
  8
1
  6
CONTINUOUS
 62
           7
100
AcDbLine
 10
314.689200920814
 20
-1828.083626767866
 11
314.689200920814
 21
-1832.959189973048
  0
LINE
  5
52
100
AcDbEntity
  8
1
  6
CONTINUOUS
 62
           7
100
AcDbLine
 10
398.158775995677
 20
-1864.161649062827
 11
396.841918528261
 21
-1868.754076815173
  0
LINE
  5
51
100
AcDbEntity
  8
1
  6
CONTINUOUS
 62
           7
100
AcDbLine
 10
307.113501845805
 20
-1840.655585394861
 11
314.240162508673
 21
-1842.699122455807
  0
LINE
  5
50
100
AcDbEntity
  8
1
  6
CONTINUOUS
 62
           7
100
AcDbLine
 10
374.892893943641
 20
-1845.708634496995
 11
374.635232152195
 21
-1846.236919457824
  0
LINE
  5
4F
100
AcDbEntity
  8
1
  6
CONTINUOUS
 62
           7
100
AcDbLine
 10
374.635232152195
 20
-1846.236919457824
 11
389.504348948186
 21
-1853.39005070972
  0
LINE
  5
4E
100
AcDbEntity
  8
1
  6
CONTINUOUS
 62
           7
100
AcDbLine
 10
389.465333916131
 20
-1853.470043379844
 11
391.553120725608
 21
-1854.488325044804
  0
LINE
  5
4D
100
AcDbEntity
  8
1
  6
CONTINUOUS
 62
           7
100
AcDbLine
 10
397.077864104841
 20
-1867.931236803449
 11
392.37039152352
 21
-1884.348144677532
  0
LINE
  5
4C
100
AcDbEntity
  8
1
  6
CONTINUOUS
 62
           7
100
AcDbLine
 10
316.240486876891
 20
-1827.505078395932
 11
375.189200920814
 21
-1827.505078395932
  0
LINE
  5
4B
100
AcDbEntity
  8
1
  6
CONTINUOUS
 62
           7
100
AcDbLine
 10
419.689200920814
 20
-1611.019513115845
 11
376.689200920814
 21
-1611.019513115845
  0
LINE
  5
4A
100
AcDbEntity
  8
1
  6
CONTINUOUS
 62
           7
100
AcDbLine
 10
421.689200920814
 20
-1617.519513115845
 11
421.689200920814
 21
-1613.019513115845
  0
LINE
  5
49
100
AcDbEntity
  8
1
  6
CONTINUOUS
 62
           7
100
AcDbLine
 10
376.689200920814
 20
-1617.519513115845
 11
421.689200920814
 21
-1617.519513115845
  0
LINE
  5
48
100
AcDbEntity
  8
1
  6
CONTINUOUS
 62
           7
100
AcDbLine
 10
376.689200920814
 20
-1611.019513115845
 11
376.689200920814
 21
-1617.519513115845
  0
LINE
  5
47
100
AcDbEntity
  8
1
  6
DOT_CENTER
 62
           2
100
AcDbLine
 10
436.761493492811
 20
-1886.153944259427
 11
371.243984575224
 21
-1867.367100890896
  0
LINE
  5
46
100
AcDbEntity
  8
1
  6
CONTINUOUS
 62
           7
100
AcDbLine
 10
304.787656122998
 20
-1807.627176742624
 11
316.240486876891
 21
-1827.505078395932
  0
LINE
  5
45
100
AcDbEntity
  8
1
  6
CONTINUOUS
 62
           7
100
AcDbLine
 10
95.190408596342
 20
-1827.505078395932
 11
154.139122640265
 21
-1827.505078395932
  0
LINE
  5
44
100
AcDbEntity
  8
1
  6
CONTINUOUS
 62
           7
100
AcDbLine
 10
93.639122640265
 20
-1828.083626767866
 11
93.639122640265
 21
-1832.959189973048
  0
LINE
  5
43
100
AcDbEntity
  8
1
  6
CONTINUOUS
 62
           7
100
AcDbLine
 10
155.639122640265
 20
-1828.083626767866
 11
155.639122640265
 21
-1832.959189973048
  0
LINE
  5
42
100
AcDbEntity
  8
1
  6
CONTINUOUS
 62
           7
100
AcDbLine
 10
155.639122640265
 20
-1828.083626767866
 11
154.139122640265
 21
-1827.505078395932
  0
LINE
  5
41
100
AcDbEntity
  8
1
  6
CONTINUOUS
 62
           7
100
AcDbLine
 10
95.190408596342
 20
-1827.505078395932
 11
93.639122640265
 21
-1828.083626767866
  0
LINE
  5
40
100
AcDbEntity
  8
1
  6
CONTINUOUS
 62
           7
100
AcDbLine
 10
93.639122640265
 20
-1832.959189973048
 11
118.778090623987
 21
-1832.959189973048
  0
LINE
  5
3F
100
AcDbEntity
  8
1
  6
CONTINUOUS
 62
           7
100
AcDbLine
 10
93.639122640265
 20
-1828.083626767866
 11
155.639122640265
 21
-1828.083626767866
  0
LINE
  5
3E
100
AcDbEntity
  8
1
  6
CONTINUOUS
 62
           7
100
AcDbLine
 10
83.737577842449
 20
-1807.627176742624
 11
95.190408596342
 21
-1827.505078395932
  0
LINE
  5
3D
100
AcDbEntity
  8
1
  6
CONTINUOUS
 62
           7
100
AcDbLine
 10
56.477321729384
 20
-1760.313398891212
 11
83.737577842449
 21
-1807.627176742624
  0
LINE
  5
3C
100
AcDbEntity
  8
1
  6
CONTINUOUS
 62
           7
100
AcDbLine
 10
192.800923551147
 20
-1760.313398891212
 11
154.091485014178
 21
-1827.505078395932
  0
LINE
  5
3B
100
AcDbEntity
  8
1
  6
CONTINUOUS
 62
           7
100
AcDbLine
 10
53.139122640265
 20
-1747.8327586313
 11
53.139122640265
 21
-1722.519513115845
  0
LINE
  5
3A
100
AcDbEntity
  8
1
  6
CONTINUOUS
 62
           7
100
AcDbLine
 10
196.139122640265
 20
-1747.8327586313
 11
196.139122640265
 21
-1722.519513115845
  0
LINE
  5
39
100
AcDbEntity
  8
1
  6
CONTINUOUS
 62
           7
100
AcDbLine
 10
196.139122640265
 20
-1712.519513115845
 11
53.139122640265
 21
-1712.519513115845
  0
LINE
  5
38
100
AcDbEntity
  8
1
  6
CONTINUOUS
 62
           7
100
AcDbLine
 10
196.139122640265
 20
-1722.519513115845
 11
53.139122640265
 21
-1722.519513115845
  0
LINE
  5
37
100
AcDbEntity
  8
1
  6
CONTINUOUS
 62
           7
100
AcDbLine
 10
53.139122640265
 20
-1712.519513115845
 11
53.139122640265
 21
-1661.519513115845
  0
LINE
  5
36
100
AcDbEntity
  8
1
  6
CONTINUOUS
 62
           7
100
AcDbLine
 10
196.139122640265
 20
-1712.519513115845
 11
196.139122640265
 21
-1661.519513115845
  0
LINE
  5
35
100
AcDbEntity
  8
1
  6
CONTINUOUS
 62
           7
100
AcDbLine
 10
64.639122640265
 20
-1661.519513115845
 11
184.639122640265
 21
-1661.519513115845
  0
LINE
  5
34
100
AcDbEntity
  8
1
  6
CONTINUOUS
 62
           7
100
AcDbLine
 10
196.139122640265
 20
-1661.519513115845
 11
53.139122640265
 21
-1661.519513115845
  0
LINE
  5
33
100
AcDbEntity
  8
1
  6
CONTINUOUS
 62
           7
100
AcDbLine
 10
196.139122640265
 20
-1651.519513115845
 11
53.139122640265
 21
-1651.519513115845
  0
LINE
  5
32
100
AcDbEntity
  8
1
  6
CONTINUOUS
 62
           7
100
AcDbLine
 10
53.139122640265
 20
-1651.519513115845
 11
53.139122640265
 21
-1616.519513115845
  0
LINE
  5
31
100
AcDbEntity
  8
1
  6
CONTINUOUS
 62
           7
100
AcDbLine
 10
196.139122640265
 20
-1651.519513115845
 11
196.139122640265
 21
-1616.519513115845
  0
LINE
  5
30
100
AcDbEntity
  8
1
  6
CONTINUOUS
 62
           7
100
AcDbLine
 10
197.389122640265
 20
-1616.519513115845
 11
51.889122640265
 21
-1616.519513115845
  0
LINE
  5
2F
100
AcDbEntity
  8
1
  6
CONTINUOUS
 62
           7
100
AcDbLine
 10
124.639122640265
 20
-1612.019513115845
 11
197.389122640265
 21
-1612.019513115845
  0
LINE
  5
2E
100
AcDbEntity
  8
1
  6
CONTINUOUS
 62
           7
100
AcDbLine
 10
124.639122640265
 20
-1612.019513115845
 11
51.889122640265
 21
-1612.019513115845
  0
LINE
  5
2D
100
AcDbEntity
  8
1
  6
CONTINUOUS
 62
           7
100
AcDbLine
 10
386.653604540241
 20
-1836.423222593641
 11
387.968717980608
 21
-1833.726840454743
  0
LINE
  5
2C
100
AcDbEntity
  8
1
  6
CONTINUOUS
 62
           7
100
AcDbLine
 10
394.260276304702
 20
-1836.795438482267
 11
392.945162864334
 21
-1839.491820621167
  0
LINE
  5
2B
100
AcDbEntity
  8
1
  6
DOT_CENTER
 62
           2
100
AcDbLine
 10
111.274102902291
 20
-1852.610149914181
 11
138.363737528827
 21
-1852.610149914181
  0
LINE
  5
2A
100
AcDbEntity
  8
1
  6
CONTINUOUS
 62
           7
100
AcDbLine
 10
386.554371652997
 20
-1826.361406016397
 11
400.935076393783
 21
-1833.375344365022
  0
LINE
  5
29
100
AcDbEntity
  8
1
  6
CONTINUOUS
 62
           7
100
AcDbLine
 10
384.362515919051
 20
-1830.855376247893
 11
398.743220659839
 21
-1837.869314596518
  0
ENDSEC
  0
SECTION
  2
OBJECTS
  0
DICTIONARY
  5
19
100
AcDbDictionary
  3
ACAD_GROUP
350
1A
  3
ACAD_MLINESTYLE
350
1B
  0
DICTIONARY
  5
1A
102
{ACAD_REACTORS
330
19
102
}
100
AcDbDictionary
  0
DICTIONARY
  5
1B
102
{ACAD_REACTORS
330
19
102
}
100
AcDbDictionary
  3
STANDARD
350
1C
  0
MLINESTYLE
  5
1C
102
{ACAD_REACTORS
330
1B
102
}
100
AcDbMlineStyle
  2
STANDARD
 70
           0
  3

 62
           0
 51
90.0
 52
90.0
 71
           2
 49
0.5
 62
         256
  6
BYLAYER
 49
-0.5
 62
         256
  6
BYLAYER
  0
ENDSEC
  0
EOF
