  0
SECTION
  2
HEADER
  9
$ACADVER
  1
AC1014
  9
$ACADMAINTVER
 70
           0
  9
$DWGCODEPAGE
  3
DOS932
  9
$INSBASE
 10
0.0
 20
0.0
 30
0.0
  9
$EXTMIN
 10
1.000000000000E+20
 20
1.000000000000E+20
 30
1.000000000000E+20
  9
$EXTMAX
 10
-1.000000000000E+20
 20
-1.000000000000E+20
 30
-1.000000000000E+20
  9
$LIMMIN
 10
0.0
 20
0.0
  9
$LIMMAX
 10
0.0
 20
0.0
  9
$ORTHOMODE
 70
           0
  9
$REGENMODE
 70
           1
  9
$FILLMODE
 70
           1
  9
$QTEXTMODE
 70
           0
  9
$MIRRTEXT
 70
           1
  9
$DRAGMODE
 70
           2
  9
$LTSCALE
 40
1.0
  9
$OSMODE
 70
           0
  9
$ATTMODE
 70
           1
  9
$TEXTSIZE
 40
0.2
  9
$TRACEWID
 40
0.05
  9
$TEXTSTYLE
  7
STANDARD
  9
$CLAYER
  8
0
  9
$CELTYPE
  6
CONTINUOUS
  9
$CECOLOR
 62
         256
  9
$CELTSCALE
 40
1.0
  9
$DELOBJ
 70
           1
  9
$DISPSILH
 70
           0
  9
$DIMSCALE
 40
1.0
  9
$DIMASZ
 40
0.18
  9
$DIMEXO
 40
0.0625
  9
$DIMDLI
 40
0.38
  9
$DIMRND
 40
0.0
  9
$DIMDLE
 40
0.0
  9
$DIMEXE
 40
0.18
  9
$DIMTP
 40
0.0
  9
$DIMTM
 40
0.0
  9
$DIMTXT
 40
0.18
  9
$DIMCEN
 40
0.09
  9
$DIMTSZ
 40
0.0
  9
$DIMTOL
 70
           0
  9
$DIMLIM
 70
           0
  9
$DIMTIH
 70
           1
  9
$DIMTOH
 70
           1
  9
$DIMSE1
 70
           0
  9
$DIMSE2
 70
           0
  9
$DIMTAD
 70
           0
  9
$DIMZIN
 70
           0
  9
$DIMBLK
  1

  9
$DIMASO
 70
           1
  9
$DIMSHO
 70
           1
  9
$DIMPOST
  1

  9
$DIMAPOST
  1

  9
$DIMALT
 70
           0
  9
$DIMALTD
 70
           2
  9
$DIMALTF
 40
25.4
  9
$DIMLFAC
 40
1.0
  9
$DIMTOFL
 70
           0
  9
$DIMTVP
 40
0.0
  9
$DIMTIX
 70
           0
  9
$DIMSOXD
 70
           0
  9
$DIMSAH
 70
           0
  9
$DIMBLK1
  1

  9
$DIMBLK2
  1

  9
$DIMSTYLE
  2
STANDARD
  9
$DIMCLRD
 70
           0
  9
$DIMCLRE
 70
           0
  9
$DIMCLRT
 70
           0
  9
$DIMTFAC
 40
1.0
  9
$DIMGAP
 40
0.09
  9
$DIMJUST
 70
           0
  9
$DIMSD1
 70
           0
  9
$DIMSD2
 70
           0
  9
$DIMTOLJ
 70
           1
  9
$DIMTZIN
 70
           0
  9
$DIMALTZ
 70
           0
  9
$DIMALTTZ
 70
           0
  9
$DIMFIT
 70
           3
  9
$DIMUPT
 70
           0
  9
$DIMUNIT
 70
           2
  9
$DIMDEC
 70
           4
  9
$DIMTDEC
 70
           4
  9
$DIMALTU
 70
           2
  9
$DIMALTTD
 70
           2
  9
$DIMTXSTY
  7
STANDARD
  9
$DIMAUNIT
 70
           0
  9
$LUNITS
 70
           2
  9
$LUPREC
 70
           4
  9
$SKETCHINC
 40
0.1
  9
$FILLETRAD
 40
0.0
  9
$AUNITS
 70
           0
  9
$AUPREC
 70
           0
  9
$MENU
  1
acad
  9
$ELEVATION
 40
0.0
  9
$PELEVATION
 40
0.0
  9
$THICKNESS
 40
0.0
  9
$LIMCHECK
 70
           0
  9
$BLIPMODE
 70
           1
  9
$CHAMFERA
 40
0.0
  9
$CHAMFERB
 40
0.0
  9
$CHAMFERC
 40
0.0
  9
$CHAMFERD
 40
0.0
  9
$SKPOLY
 70
           0
  9
$TDCREATE
 40
0.000000000
  9
$TDUPDATE
 40
0.000000000
  9
$TDINDWG
 40
0.0000000000
  9
$TDUSRTIMER
 40
0.0000000000
  9
$USRTIMER
 70
           1
  9
$ANGBASE
 50
0.0
  9
$ANGDIR
 70
           0
  9
$PDMODE
 70
           0
  9
$PDSIZE
 40
0.0
  9
$PLINEWID
 40
0.0
  9
$COORDS
 70
           0
  9
$SPLFRAME
 70
           0
  9
$SPLINETYPE
 70
           6
  9
$SPLINESEGS
 70
           8
  9
$ATTDIA
 70
           0
  9
$ATTREQ
 70
           1
  9
$HANDLING
 70
           1
  9
$HANDSEED
  5
473
  9
$SURFTAB1
 70
           6
  9
$SURFTAB2
 70
           6
  9
$SURFTYPE
 70
           6
  9
$SURFU
 70
           6
  9
$SURFV
 70
           6
  9
$UCSNAME
  2

  9
$UCSORG
 10
0.0
 20
0.0
 30
0.0
  9
$UCSXDIR
 10
1.0
 20
0.0
 30
0.0
  9
$UCSYDIR
 10
0.0
 20
1.0
 30
0.0
  9
$PUCSNAME
  2

  9
$PUCSORG
 10
0.0
 20
0.0
 30
0.0
  9
$PUCSXDIR
 10
1.0
 20
0.0
 30
0.0
  9
$PUCSYDIR
 10
0.0
 20
1.0
 30
0.0
  9
$USERI1
 70
           0
  9
$USERI2
 70
           0
  9
$USERI3
 70
           0
  9
$USERI4
 70
           0
  9
$USERI5
 70
           0
  9
$USERR1
 40
0.0
  9
$USERR2
 40
0.0
  9
$USERR3
 40
0.0
  9
$USERR4
 40
0.0
  9
$USERR5
 40
0.0
  9
$WORLDVIEW
 70
           1
  9
$SHADEDGE
 70
           3
  9
$SHADEDIF
 70
          70
  9
$TILEMODE
 70
           1
  9
$MAXACTVP
 70
          16
  9
$PINSBASE
 10
0.0
 20
0.0
 30
0.0
  9
$PLIMCHECK
 70
           0
  9
$PEXTMIN
 10
1.000000000000E+20
 20
1.000000000000E+20
 30
1.000000000000E+20
  9
$PEXTMAX
 10
-1.000000000000E+20
 20
-1.000000000000E+20
 30
-1.000000000000E+20
  9
$PLIMMIN
 10
0.0
 20
0.0
  9
$PLIMMAX
 10
12.0
 20
9.0
  9
$UNITMODE
 70
           0
  9
$VISRETAIN
 70
           0
  9
$PLINEGEN
 70
           1
  9
$PSLTSCALE
 70
           0
  9
$TREEDEPTH
 70
        3020
  9
$PICKSTYLE
 70
           1
  9
$CMLSTYLE
  2
STANDARD
  9
$CMLJUST
 70
           0
  9
$CMLSCALE
 40
1.0
  9
$PROXYGRAPHICS
 70
           0
  9
$MEASUREMENT
 70
           1
  0
ENDSEC
  0
SECTION
  2
CLASSES
  0
CLASS
  1
LWPOLYLINE
  2
AcDbPolyline
  3
"AutoCAD"
 90
        0
280
           0
281
           1
  0
CLASS
  1
IMAGE
  2
AcDbRasterImage
  3
ISM
 90
      127
280
           0
281
           1
  0
CLASS
  1
OLE2FRAME
  2
AcDbOle2Frame
  3
""
 90
        0
280
           0
281
           1
  0
CLASS
  1
HATCH
  2
AcDbHatch
  3
"ACAD_SEDONA"
 90
        0
280
           0
281
           1
  0
CLASS
  1
DICTIONARYVAR
  2
AcDbDictionaryVar
  3
"AutoCAD"
 90
        0
280
           0
281
           0
  0
CLASS
  1
RASTERVARIABLES
  2
AcDbRasterVariables
  3
ISM
 90
        0
280
           0
281
           0
  0
CLASS
  1
IMAGEDEF
  2
AcDbRasterImageDef
  3
ISM
 90
        0
280
           0
281
           0
  0
CLASS
  1
IMAGEDEF_REACTOR
  2
AcDbRasterImageDefReactor
  3
ISM
 90
        1
280
           0
281
           0
  0
CLASS
  1
IDBUFFER
  2
AcDbIdBuffer
  3
"Acad"
 90
        0
280
           0
281
           0
  0
CLASS
  1
SPATIAL_FILTER
  2
AcDbSpatialFilter
  3
"Acad"
 90
        0
280
           0
281
           0
  0
CLASS
  1
XRECORD
  2
AcDbXrecord
  3
"<Built In>"
 90
        0
280
           0
281
           0
  0
CLASS
  1
SORTENTSTABLE
  2
AcDbSortentsTable
  3
"AutoCAD"
 90
        0
280
           0
281
           0
  0
CLASS
  1
LAYER_INDEX
  2
AcDbLayerIndex
  3
"Acad"
 90
        0
280
           0
281
           0
  0
CLASS
  1
SPATIAL_INDEX
  2
AcDbSpatialIndex
  3
"Acad"
 90
        0
280
           0
281
           0
  0
CLASS
  1
OBJECT_PTR
  2
CAseDLPNTableRecord
  3
"ASE-LPNTableRecord"
 90
        1
280
           0
281
           0
  0
CLASS
  1
LAYOUT
  2
AcDbLayout
  3
"AutoCAD 2000"
 90
        1
280
           0
281
           0
  0
CLASS
  1
PLOTSETTINGS
  2
AcDbPlotSettings
  3
"AutoCAD 2000"
 90
        1
280
           0
281
           0
  0
CLASS
  1
ACDBDICTIONARYWDFLT
  2
AcDbDictionaryWithDefault
  3
"AutoCAD 2000"
 90
        1
280
           0
281
           0
  0
CLASS
  1
ACDBPLACEHOLDER
  2
AcDbPlaceHolder
  3
"AutoCAD 2000"
 90
        1
280
           0
281
           0
  0
CLASS
  1
VBA_PROJECT
  2
AcDbVbaProject
  3
"acadvba"
 90
        1
280
           0
281
           0
  0
CLASS
  1
WIPEOUT
  2
AcDbWipeout
  3
WipeOut|AutoCAD Express Tool|expresstools@autodesk.com
 90
      127
280
           0
281
           1
  0
CLASS
  1
WIPEOUTVARIABLES
  2
AcDbWipeoutVariables
  3
WipeOut|AutoCAD Express Tool|expresstools@autodesk.com
 90
        0
280
           0
281
           0
  0
CLASS
  1
RTEXT
  2
RText
  3
RText|AutoCAD Express Tool|expresstools@autodesk.com
 90
        0
280
           0
281
           1
  0
CLASS
  1
ARCALIGNEDTEXT
  2
AcDbArcAlignedText
  3
ATEXT|AutoCAD Express Tool|expresstools@autodesk.com
 90
        0
280
           0
281
           1
  0
ENDSEC
  0
SECTION
  2
TABLES
  0
TABLE
  2
VPORT
  5
7
100
AcDbSymbolTable
 70
           1
  0
VPORT
  5
15
100
AcDbSymbolTableRecord
100
AcDbViewportTableRecord
  2
*ACTIVE
 70
           0
 10
0.0
 20
0.0
 11
1.0
 21
1.0
 12
6.591288
 22
4.579184
 13
0.0
 23
0.0
 14
1.0
 24
1.0
 15
0.0
 25
0.0
 16
0.0
 26
0.0
 36
1.0
 17
0.0
 27
0.0
 37
0.0
 40
9.158369
 41
0.688564
 42
50.0
 43
0.0
 44
0.0
 50
0.0
 51
0.0
 71
           0
 72
         100
 73
           1
 74
           1
 75
           0
 76
           0
 77
           0
 78
           0
  0
ENDTAB
  0
TABLE
  2
LTYPE
  5
4
100
AcDbSymbolTable
 70
          10
  0
LTYPE
  5
11
100
AcDbSymbolTableRecord
100
AcDbLinetypeTableRecord
  2
BYBLOCK
 70
          64
  3

 72
          65
 73
           0
 40
0.0
  0
LTYPE
  5
12
100
AcDbSymbolTableRecord
100
AcDbLinetypeTableRecord
  2
BYLAYER
 70
          64
  3

 72
          65
 73
           0
 40
0.0
  0
LTYPE
  5
13
100
AcDbSymbolTableRecord
100
AcDbLinetypeTableRecord
  2
CONTINUOUS
 70
          64
  3
Solid line
 72
          65
 73
           0
 40
0.0
  0
LTYPE
  5
1D
100
AcDbSymbolTableRecord
100
AcDbLinetypeTableRecord
  2
DASHED
 70
          64
  3
Dashed
 72
          65
 73
           2
 40
15.0
 49
12.0
 74
           0
 49
-3.0
 74
           0
  0
LTYPE
  5
1E
100
AcDbSymbolTableRecord
100
AcDbLinetypeTableRecord
  2
DOTTED
 70
          64
  3
Dotted
 72
          65
 73
           2
 40
3.5
 49
0.5
 74
           0
 49
-3.0
 74
           0
  0
LTYPE
  5
1F
100
AcDbSymbolTableRecord
100
AcDbLinetypeTableRecord
  2
DOT_CENTER
 70
          64
  3
Dot_Center
 72
          65
 73
           4
 40
2.0
 49
1.25
 74
           0
 49
-0.25
 74
           0
 49
0.25
 74
           0
 49
-0.25
 74
           0
  0
LTYPE
  5
20
100
AcDbSymbolTableRecord
100
AcDbLinetypeTableRecord
  2
LONG_DASHED
 70
          64
  3
Long_Dashed
 72
          65
 73
           2
 40
2.0
 49
1.5
 74
           0
 49
-0.5
 74
           0
  0
LTYPE
  5
21
100
AcDbSymbolTableRecord
100
AcDbLinetypeTableRecord
  2
DASH_CENTER
 70
          64
  3
Dash_Center
 72
          65
 73
           4
 40
36.0
 49
24.0
 74
           0
 49
-3.0
 74
           0
 49
6.0
 74
           0
 49
-3.0
 74
           0
  0
LTYPE
  5
22
100
AcDbSymbolTableRecord
100
AcDbLinetypeTableRecord
  2
PHANTOM
 70
          64
  3
Phantom
 72
          65
 73
           6
 40
2.5
 49
1.25
 74
           0
 49
-0.25
 74
           0
 49
0.25
 74
           0
 49
-0.25
 74
           0
 49
0.25
 74
           0
 49
-0.25
 74
           0
  0
LTYPE
  5
23
100
AcDbSymbolTableRecord
100
AcDbLinetypeTableRecord
  2
CENTER_DASH_DASH
 70
          64
  3
Center_Dash_Dash
 72
          65
 73
           6
 40
22.0
 49
12.0
 74
           0
 49
-3.0
 74
           0
 49
0.5
 74
           0
 49
-3.0
 74
           0
 49
0.5
 74
           0
 49
-3.0
 74
           0
  0
ENDTAB
  0
TABLE
  2
LAYER
  5
2
100
AcDbSymbolTable
 70
           7
  0
LAYER
  5
14
100
AcDbSymbolTableRecord
100
AcDbLayerTableRecord
  2
0
 70
           0
 62
           7
  6
CONTINUOUS
  0
LAYER
  5
24
100
AcDbSymbolTableRecord
100
AcDbLayerTableRecord
  2
971
 70
           0
 62
           7
  6
CONTINUOUS
  0
LAYER
  5
25
100
AcDbSymbolTableRecord
100
AcDbLayerTableRecord
  2
972
 70
           0
 62
           7
  6
CONTINUOUS
  0
LAYER
  5
26
100
AcDbSymbolTableRecord
100
AcDbLayerTableRecord
  2
976
 70
           0
 62
           7
  6
CONTINUOUS
  0
LAYER
  5
27
100
AcDbSymbolTableRecord
100
AcDbLayerTableRecord
  2
1
 70
           0
 62
           7
  6
CONTINUOUS
  0
LAYER
  5
28
100
AcDbSymbolTableRecord
100
AcDbLayerTableRecord
  2
2
 70
           0
 62
           7
  6
CONTINUOUS
  0
LAYER
  5
29
100
AcDbSymbolTableRecord
100
AcDbLayerTableRecord
  2
3
 70
           0
 62
           7
  6
CONTINUOUS
  0
ENDTAB
  0
TABLE
  2
STYLE
  5
3
100
AcDbSymbolTable
 70
           3
  0
STYLE
  5
17
100
AcDbSymbolTableRecord
100
AcDbTextStyleTableRecord
  2
STANDARD
 70
           0
 40
0.0
 41
1.0
 50
0.0
 71
           0
 42
0.0
  3
txt
  4

  0
STYLE
  5
247
100
AcDbSymbolTableRecord
100
AcDbTextStyleTableRecord
  2
CONVERTER_1
 70
           0
 40
0.0
 41
0.89
 50
0.0
 71
           0
 42
0.0
  3
MS Mincho.ttf
  4

1001
ACAD
1000
MS Mincho
1071
    32785
  0
STYLE
  5
3A6
100
AcDbSymbolTableRecord
100
AcDbTextStyleTableRecord
  2
CONVERTER_2
 70
           0
 40
0.0
 41
0.9
 50
0.0
 71
           0
 42
0.0
  3
txt.shx
  4

  0
ENDTAB
  0
TABLE
  2
VIEW
  5
5
100
AcDbSymbolTable
 70
           0
  0
ENDTAB
  0
TABLE
  2
UCS
  5
6
100
AcDbSymbolTable
 70
           0
  0
ENDTAB
  0
TABLE
  2
APPID
  5
8
100
AcDbSymbolTable
 70
           1
  0
APPID
  5
16
100
AcDbSymbolTableRecord
100
AcDbRegAppTableRecord
  2
ACAD
 70
           0
  0
ENDTAB
  0
TABLE
  2
DIMSTYLE
  5
9
100
AcDbSymbolTable
 70
           4
  0
DIMSTYLE
105
18
100
AcDbSymbolTableRecord
100
AcDbDimStyleTableRecord
  2
STANDARD
 70
           0
  3

  4

  5

  6

  7

 40
1.0
 41
0.18
 42
0.0625
 43
0.38
 44
0.18
 45
0.0
 46
0.0
 47
0.0
 48
0.0
 71
           0
 72
           0
 73
           1
 74
           1
 75
           0
 76
           0
 77
           0
 78
           0
140
0.18
141
0.09
142
0.0
143
25.4
144
1.0
145
0.0
146
1.0
147
0.09
170
           0
171
           2
172
           0
173
           0
174
           0
175
           0
176
           0
177
           0
178
           0
270
           2
271
           4
272
           4
273
           2
274
           2
275
           0
280
           0
281
           0
282
           0
283
           1
284
           0
285
           0
286
           0
287
           0
288
           0
340
17
  0
DIMSTYLE
105
45A
100
AcDbSymbolTableRecord
100
AcDbDimStyleTableRecord
  2
ME10_DIM_0
 70
           0
  3

  4

  5

  6

  7

 40
1.0
 41
2.8
 42
0.8
 43
0.38
 44
1.0
 45
0.0
 46
0.0
 47
0.0
 48
0.0
 71
           0
 72
           0
 73
           0
 74
           0
 75
           0
 76
           0
 77
           1
 78
           8
140
2.8
141
0.09
142
0.0
143
25.4
144
1.0
145
0.0
146
1.0
147
0.625
170
           0
171
           2
172
           0
173
           1
174
           0
175
           0
176
           2
177
           2
178
           2
270
           2
271
           3
272
           4
273
           2
274
           2
275
           0
280
           0
281
           0
282
           0
283
           1
284
           0
285
           0
286
           0
287
           3
288
           0
340
17
  0
DIMSTYLE
105
465
100
AcDbSymbolTableRecord
100
AcDbDimStyleTableRecord
  2
ME10_DIM_1
 70
           0
  3

  4

  5

  6

  7

 40
1.0
 41
2.8
 42
0.8
 43
0.38
 44
1.0
 45
0.0
 46
0.0
 47
0.0
 48
0.0
 71
           0
 72
           0
 73
           0
 74
           0
 75
           0
 76
           0
 77
           1
 78
           8
140
2.8
141
0.09
142
0.0
143
25.4
144
1.0
145
0.0
146
1.0
147
0.625
170
           0
171
           2
172
           0
173
           1
174
           0
175
           0
176
           2
177
           2
178
           2
270
           2
271
           3
272
           4
273
           2
274
           2
275
           0
280
           0
281
           0
282
           0
283
           1
284
           0
285
           0
286
           0
287
           3
288
           0
340
17
  0
DIMSTYLE
105
470
100
AcDbSymbolTableRecord
100
AcDbDimStyleTableRecord
  2
ME10_DIM_2
 70
           0
  3

  4

  5

  6

  7

 40
1.0
 41
2.8
 42
0.8
 43
0.38
 44
1.0
 45
0.0
 46
0.0
 47
0.0
 48
0.0
 71
           0
 72
           0
 73
           0
 74
           0
 75
           0
 76
           0
 77
           1
 78
           8
140
2.8
141
0.09
142
0.0
143
25.4
144
1.0
145
0.0
146
1.0
147
0.625
170
           0
171
           2
172
           0
173
           1
174
           0
175
           0
176
           2
177
           2
178
           2
270
           2
271
           3
272
           4
273
           2
274
           2
275
           0
280
           0
281
           0
282
           0
283
           1
284
           0
285
           0
286
           0
287
           3
288
           0
340
17
  0
ENDTAB
  0
TABLE
  2
BLOCK_RECORD
  5
1
100
AcDbSymbolTable
 70
          12
  0
BLOCK_RECORD
  5
A
100
AcDbSymbolTableRecord
100
AcDbBlockTableRecord
  2
*MODEL_SPACE
  0
BLOCK_RECORD
  5
B
100
AcDbSymbolTableRecord
100
AcDbBlockTableRecord
  2
*PAPER_SPACE
  0
BLOCK_RECORD
  5
2A
100
AcDbSymbolTableRecord
100
AcDbBlockTableRecord
  2
AG_6_A__1
  0
BLOCK_RECORD
  5
2C
100
AcDbSymbolTableRecord
100
AcDbBlockTableRecord
  2
AG_6_A__2
  0
BLOCK_RECORD
  5
2F
100
AcDbSymbolTableRecord
100
AcDbBlockTableRecord
  2
_5
  0
BLOCK_RECORD
  5
31
100
AcDbSymbolTableRecord
100
AcDbBlockTableRecord
  2
63000023
  0
BLOCK_RECORD
  5
34
100
AcDbSymbolTableRecord
100
AcDbBlockTableRecord
  2
63300081
  0
BLOCK_RECORD
  5
37
100
AcDbSymbolTableRecord
100
AcDbBlockTableRecord
  2
ST_SYOUNIN
  0
BLOCK_RECORD
  5
39
100
AcDbSymbolTableRecord
100
AcDbBlockTableRecord
  2
ST_YAMAGUTI
  0
BLOCK_RECORD
  5
3B
100
AcDbSymbolTableRecord
100
AcDbBlockTableRecord
  2
FORMAT_A4AI
  0
BLOCK_RECORD
  5
3F
100
AcDbSymbolTableRecord
100
AcDbBlockTableRecord
  2
AG_4B_SITUZU
  0
BLOCK_RECORD
  5
451
100
AcDbSymbolTableRecord
100
AcDbBlockTableRecord
  2
*D9
  0
BLOCK_RECORD
  5
45C
100
AcDbSymbolTableRecord
100
AcDbBlockTableRecord
  2
*D10
  0
BLOCK_RECORD
  5
467
100
AcDbSymbolTableRecord
100
AcDbBlockTableRecord
  2
*D11
  0
ENDTAB
  0
ENDSEC
  0
SECTION
  2
BLOCKS
  0
BLOCK
  5
D
100
AcDbEntity
  8
0
100
AcDbBlockBegin
  2
*MODEL_SPACE
 70
           0
 10
0.0
 20
0.0
 30
0.0
  3
*MODEL_SPACE
  1

  0
ENDBLK
  5
E
100
AcDbEntity
  8
0
100
AcDbBlockEnd
  0
BLOCK
  5
F
100
AcDbEntity
 67
           1
  8
0
100
AcDbBlockBegin
  2
*PAPER_SPACE
 70
           0
 10
0.0
 20
0.0
 30
0.0
  3
*PAPER_SPACE
  1

  0
ENDBLK
  5
10
100
AcDbEntity
 67
           1
  8
0
100
AcDbBlockEnd
  0
BLOCK
  5
2B
100
AcDbEntity
  8
0
100
AcDbBlockBegin
  2
AG_6_A__1
 70
           0
 10
1043.126188039879
 20
251.80216388069
 30
0.0
  3
AG_6_A__1
  1

  0
CIRCLE
  5
A1
100
AcDbEntity
  8
1
  6
CONTINUOUS
 62
           6
100
AcDbCircle
 10
690.242013243811
 20
183.168104889051
 40
2.1
  0
CIRCLE
  5
A0
100
AcDbEntity
  8
2
  6
CONTINUOUS
 62
           7
100
AcDbCircle
 10
690.242013243811
 20
183.168104889051
 40
2.15
  0
ARC
  5
9F
100
AcDbEntity
  8
1
  6
CONTINUOUS
 62
           7
100
AcDbCircle
 10
642.189737427243
 20
196.306382098912
 40
3.352032680539
100
AcDbArc
 50
-27.687116619504
 51
24.020677081027
  0
ARC
  5
9E
100
AcDbEntity
  8
1
  6
CONTINUOUS
 62
           7
100
AcDbCircle
 10
644.501494481555
 20
185.02982767919
 40
3.352032680539
100
AcDbArc
 50
152.312883380497
 51
-155.979322918973
  0
ARC
  5
9D
100
AcDbEntity
  8
1
  6
CONTINUOUS
 62
           7
100
AcDbCircle
 10
633.122314306323
 20
190.668104889051
 40
12.419443416399
100
AcDbArc
 50
-14.438977074342
 51
14.438977074341
  0
ARC
  5
9C
100
AcDbEntity
  8
1
  6
CONTINUOUS
 62
           7
100
AcDbCircle
 10
644.501494481555
 20
196.306382098912
 40
3.352032680539
100
AcDbArc
 50
155.979322918973
 51
-152.312883380496
  0
ARC
  5
9B
100
AcDbEntity
  8
1
  6
CONTINUOUS
 62
           7
100
AcDbCircle
 10
642.189737427243
 20
185.02982767919
 40
3.352032680539
100
AcDbArc
 50
-24.020677081027
 51
27.687116619504
  0
ARC
  5
9A
100
AcDbEntity
  8
1
  6
CONTINUOUS
 62
           7
100
AcDbCircle
 10
653.568917602475
 20
190.668104889051
 40
12.419443416399
100
AcDbArc
 50
165.561022925658
 51
-165.561022925658
  0
ARC
  5
99
100
AcDbEntity
  8
1
  6
CONTINUOUS
 62
           7
100
AcDbCircle
 10
638.502352977692
 20
180.568268845158
 40
5.0
100
AcDbArc
 50
58.033438591802
 51
85.0
  0
ARC
  5
98
100
AcDbEntity
  8
1
  6
CONTINUOUS
 62
           7
100
AcDbCircle
 10
638.502352977692
 20
200.767940932944
 40
5.0
100
AcDbArc
 50
-85.0
 51
-58.033438591801
  0
ARC
  5
97
100
AcDbEntity
  8
3
  6
CONTINUOUS
 62
           6
100
AcDbCircle
 10
696.846947249069
 20
169.173561352684
 40
1.804940674136
100
AcDbArc
 50
145.771504196937
 51
-155.97932291897
  0
ARC
  5
96
100
AcDbEntity
  8
3
  6
CONTINUOUS
 62
           6
100
AcDbCircle
 10
701.598637570837
 20
172.168104889051
 40
6.550211698204
100
AcDbArc
 50
162.412046226006
 51
-162.412046226006
  0
ARC
  5
95
100
AcDbEntity
  8
3
  6
CONTINUOUS
 62
           6
100
AcDbCircle
 10
696.846947249069
 20
175.162648425418
 40
1.804940674136
100
AcDbArc
 50
155.979322918973
 51
-145.771504196934
  0
ARC
  5
94
100
AcDbEntity
  8
2
  6
CONTINUOUS
 62
           7
100
AcDbCircle
 10
690.242013243811
 20
183.168104889051
 40
5.0
100
AcDbArc
 50
0.0
 51
180.0
  0
ARC
  5
93
100
AcDbEntity
  8
2
  6
CONTINUOUS
 62
           7
100
AcDbCircle
 10
681.746930380197
 20
145.216291501186
 40
8.5
100
AcDbArc
 50
-65.720626953158
 51
0.0
  0
ARC
  5
92
100
AcDbEntity
  8
2
  6
CONTINUOUS
 62
           7
100
AcDbCircle
 10
688.49804582451
 20
147.147107854931
 40
11.0
100
AcDbArc
 50
-93.540701959948
 51
0.0
  0
ARC
  5
91
100
AcDbEntity
  8
2
  6
CONTINUOUS
 62
           7
100
AcDbCircle
 10
688.49804582451
 20
147.147107854931
 40
11.0
100
AcDbArc
 50
0.0
 51
7.146601140608
  0
LINE
  5
90
100
AcDbEntity
  8
1
  6
CONTINUOUS
 62
           7
100
AcDbLine
 10
645.541757722722
 20
197.718104889051
 11
645.541757722722
 21
183.618104889051
  0
LINE
  5
8F
100
AcDbEntity
  8
1
  6
CONTINUOUS
 62
           7
100
AcDbLine
 10
645.541757722722
 20
197.718104889051
 11
646.241757722722
 21
198.418104889051
  0
LINE
  5
8E
100
AcDbEntity
  8
1
  6
CONTINUOUS
 62
           7
100
AcDbLine
 10
645.541757722722
 20
183.618104889051
 11
646.241757722722
 21
182.918104889051
  0
LINE
  5
8D
100
AcDbEntity
  8
1
  6
CONTINUOUS
 62
           7
100
AcDbLine
 10
646.241757722722
 20
198.418104889051
 11
646.241757722722
 21
182.918104889051
  0
LINE
  5
8C
100
AcDbEntity
  8
1
  6
CONTINUOUS
 62
           7
100
AcDbLine
 10
645.541757722722
 20
184.168104889051
 11
645.541757722722
 21
197.168104889051
  0
LINE
  5
8B
100
AcDbEntity
  8
1
  6
CONTINUOUS
 62
           7
100
AcDbLine
 10
645.541757722722
 20
184.168104889051
 11
644.961201139121
 21
183.162551389586
  0
LINE
  5
8A
100
AcDbEntity
  8
1
  6
CONTINUOUS
 62
           7
100
AcDbLine
 10
641.730030769677
 20
183.162551389586
 11
641.149474186076
 21
184.168104889051
  0
LINE
  5
89
100
AcDbEntity
  8
1
  6
CONTINUOUS
 62
           7
100
AcDbLine
 10
644.961201139121
 20
198.173658388516
 11
645.541757722722
 21
197.168104889051
  0
LINE
  5
88
100
AcDbEntity
  8
1
  6
CONTINUOUS
 62
           7
100
AcDbLine
 10
644.961201139121
 20
183.162551389586
 11
641.730030769677
 21
183.162551389586
  0
LINE
  5
87
100
AcDbEntity
  8
1
  6
CONTINUOUS
 62
           7
100
AcDbLine
 10
641.149474186076
 20
184.168104889051
 11
641.149474186076
 21
190.523892336593
  0
LINE
  5
86
100
AcDbEntity
  8
1
  6
CONTINUOUS
 62
           7
100
AcDbLine
 10
641.730030769677
 20
198.173658388516
 11
644.961201139121
 21
198.173658388516
  0
LINE
  5
85
100
AcDbEntity
  8
1
  6
DASH_CENTER
 62
           6
100
AcDbLine
 10
647.166757722722
 20
190.668104889051
 11
621.945711604054
 21
190.668104889051
  0
LINE
  5
84
100
AcDbEntity
  8
1
  6
CONTINUOUS
 62
           7
100
AcDbLine
 10
641.53327582281
 20
194.74888375693
 11
645.157956085988
 21
194.74888375693
  0
LINE
  5
83
100
AcDbEntity
  8
1
  6
CONTINUOUS
 62
           7
100
AcDbLine
 10
645.149474186076
 20
193.764877402491
 11
641.541757722722
 21
193.764877402491
  0
LINE
  5
82
100
AcDbEntity
  8
1
  6
CONTINUOUS
 62
           7
100
AcDbLine
 10
641.541757722722
 20
187.571332375611
 11
645.149474186076
 21
187.571332375611
  0
LINE
  5
81
100
AcDbEntity
  8
1
  6
CONTINUOUS
 62
           7
100
AcDbLine
 10
645.157956085988
 20
186.587326021172
 11
641.53327582281
 21
186.587326021172
  0
LINE
  5
80
100
AcDbEntity
  8
1
  6
CONTINUOUS
 62
           7
100
AcDbLine
 10
641.53327582281
 20
194.74888375693
 11
641.541757722722
 21
193.764877402491
  0
LINE
  5
7F
100
AcDbEntity
  8
1
  6
CONTINUOUS
 62
           7
100
AcDbLine
 10
645.157956085988
 20
194.74888375693
 11
645.149474186076
 21
193.764877402491
  0
LINE
  5
7E
100
AcDbEntity
  8
1
  6
CONTINUOUS
 62
           7
100
AcDbLine
 10
645.149474186076
 20
187.571332375611
 11
645.157956085988
 21
186.587326021172
  0
LINE
  5
7D
100
AcDbEntity
  8
1
  6
CONTINUOUS
 62
           7
100
AcDbLine
 10
641.541757722722
 20
187.571332375611
 11
641.53327582281
 21
186.587326021172
  0
LINE
  5
7C
100
AcDbEntity
  8
1
  6
CONTINUOUS
 62
           6
100
AcDbLine
 10
647.149474186076
 20
196.168104889051
 11
647.149474186076
 21
185.168104889051
  0
LINE
  5
7B
100
AcDbEntity
  8
1
  6
CONTINUOUS
 62
           6
100
AcDbLine
 10
653.149474186076
 20
185.709604889051
 11
647.149474186076
 21
185.709604889051
  0
LINE
  5
7A
100
AcDbEntity
  8
1
  6
CONTINUOUS
 62
           6
100
AcDbLine
 10
653.149474186076
 20
195.626604889051
 11
647.149474186076
 21
195.626604889051
  0
LINE
  5
79
100
AcDbEntity
  8
1
  6
CONTINUOUS
 62
           6
100
AcDbLine
 10
647.149474186076
 20
185.709604889051
 11
646.211568673777
 21
185.168104889051
  0
LINE
  5
78
100
AcDbEntity
  8
1
  6
CONTINUOUS
 62
           6
100
AcDbLine
 10
646.211568673777
 20
196.168104889051
 11
647.149474186076
 21
195.626604889051
  0
LINE
  5
77
100
AcDbEntity
  8
1
  6
CONTINUOUS
 62
           6
100
AcDbLine
 10
653.149474186076
 20
185.709604889051
 11
652.607974186076
 21
185.168104889051
  0
LINE
  5
76
100
AcDbEntity
  8
1
  6
CONTINUOUS
 62
           6
100
AcDbLine
 10
652.607974186076
 20
196.168104889051
 11
653.149474186076
 21
195.626604889051
  0
LINE
  5
75
100
AcDbEntity
  8
1
  6
CONTINUOUS
 62
           6
100
AcDbLine
 10
652.607974186076
 20
196.168104889051
 11
652.607974186076
 21
185.168104889051
  0
LINE
  5
74
100
AcDbEntity
  8
1
  6
CONTINUOUS
 62
           6
100
AcDbLine
 10
652.607974186076
 20
185.168104889051
 11
645.538916805036
 21
185.168104889051
  0
LINE
  5
73
100
AcDbEntity
  8
1
  6
CONTINUOUS
 62
           6
100
AcDbLine
 10
652.607974186076
 20
196.168104889051
 11
645.541757722722
 21
196.168104889051
  0
LINE
  5
72
100
AcDbEntity
  8
1
  6
CONTINUOUS
 62
           6
100
AcDbLine
 10
653.149474186076
 20
195.626604889051
 11
653.149474186076
 21
185.709604889051
  0
LINE
  5
71
100
AcDbEntity
  8
1
  6
CONTINUOUS
 62
           7
100
AcDbLine
 10
626.647571535122
 20
194.711682760425
 11
636.585252899814
 21
195.581117221568
  0
LINE
  5
70
100
AcDbEntity
  8
1
  6
CONTINUOUS
 62
           7
100
AcDbLine
 10
626.149474186076
 20
194.168104889051
 11
626.149474186076
 21
190.668104889051
  0
LINE
  5
6F
100
AcDbEntity
  8
1
  6
CONTINUOUS
 62
           7
100
AcDbLine
 10
626.149474186076
 20
190.668104889051
 11
626.149474186076
 21
187.168104889051
  0
LINE
  5
6E
100
AcDbEntity
  8
1
  6
CONTINUOUS
 62
           7
100
AcDbLine
 10
641.149474186076
 20
197.168104889051
 11
641.730030769677
 21
198.173658388516
  0
LINE
  5
6D
100
AcDbEntity
  8
1
  6
CONTINUOUS
 62
           7
100
AcDbLine
 10
641.149474186076
 20
195.98043484194
 11
641.149474186076
 21
197.168104889051
  0
LINE
  5
6C
100
AcDbEntity
  8
1
  6
CONTINUOUS
 62
           7
100
AcDbLine
 10
636.585252899814
 20
195.581117221568
 11
638.938131691431
 21
195.786967442485
  0
LINE
  5
6B
100
AcDbEntity
  8
1
  6
CONTINUOUS
 62
           7
100
AcDbLine
 10
638.938131691431
 20
185.549242335617
 11
626.647571535122
 21
186.624527017677
  0
LINE
  5
6A
100
AcDbEntity
  8
1
  6
CONTINUOUS
 62
           7
100
AcDbLine
 10
626.149474186076
 20
194.168104889051
 11
626.647571535122
 21
194.711682760425
  0
LINE
  5
69
100
AcDbEntity
  8
1
  6
CONTINUOUS
 62
           7
100
AcDbLine
 10
626.647571535122
 20
186.624527017677
 11
626.149474186076
 21
187.168104889051
  0
LINE
  5
68
100
AcDbEntity
  8
1
  6
CONTINUOUS
 62
           7
100
AcDbLine
 10
626.647571535122
 20
194.711682760425
 11
626.647571535122
 21
186.591969438369
  0
LINE
  5
67
100
AcDbEntity
  8
1
  6
CONTINUOUS
 62
           7
100
AcDbLine
 10
699.042013243811
 20
164.668104889051
 11
708.873720999639
 21
164.668104889051
  0
LINE
  5
66
100
AcDbEntity
  8
1
  6
CONTINUOUS
 62
           7
100
AcDbLine
 10
699.042013243811
 20
164.818104889051
 11
699.042013243811
 21
164.668104889051
  0
LINE
  5
65
100
AcDbEntity
  8
1
  6
CONTINUOUS
 62
           7
100
AcDbLine
 10
699.042013243811
 20
180.068104889051
 11
699.042013243811
 21
164.818104889051
  0
LINE
  5
64
100
AcDbEntity
  8
3
  6
CONTINUOUS
 62
           6
100
AcDbLine
 10
695.947321166645
 20
168.168104889051
 11
695.354620634981
 21
168.168104889051
  0
LINE
  5
63
100
AcDbEntity
  8
3
  6
CONTINUOUS
 62
           6
100
AcDbLine
 10
699.042013243811
 20
178.168104889051
 11
699.042013243811
 21
175.626653004723
  0
LINE
  5
62
100
AcDbEntity
  8
3
  6
CONTINUOUS
 62
           6
100
AcDbLine
 10
699.042013243811
 20
177.626604889051
 11
704.042013243811
 21
177.626604889051
  0
LINE
  5
61
100
AcDbEntity
  8
3
  6
CONTINUOUS
 62
           6
100
AcDbLine
 10
699.042013243811
 20
166.168104889051
 11
704.042013243811
 21
166.168104889051
  0
LINE
  5
60
100
AcDbEntity
  8
3
  6
CONTINUOUS
 62
           6
100
AcDbLine
 10
699.042013243811
 20
166.168104889051
 11
699.042013243811
 21
168.709556773378
  0
LINE
  5
5F
100
AcDbEntity
  8
3
  6
CONTINUOUS
 62
           7
100
AcDbLine
 10
695.354620634981
 20
170.188830831215
 11
699.042013243811
 21
170.188830831215
  0
LINE
  5
5E
100
AcDbEntity
  8
3
  6
CONTINUOUS
 62
           7
100
AcDbLine
 10
695.354620634981
 20
174.147378946887
 11
699.042013243811
 21
174.147378946887
  0
LINE
  5
5D
100
AcDbEntity
  8
3
  6
CONTINUOUS
 62
           7
100
AcDbLine
 10
699.042013243811
 20
168.168104889051
 11
695.947321166645
 21
168.168104889051
  0
LINE
  5
5C
100
AcDbEntity
  8
3
  6
CONTINUOUS
 62
           6
100
AcDbLine
 10
699.042013243811
 20
175.626653004723
 11
699.042013243811
 21
168.709556773378
  0
LINE
  5
5B
100
AcDbEntity
  8
3
  6
CONTINUOUS
 62
           7
100
AcDbLine
 10
695.354620634981
 20
176.168104889051
 11
699.042013243811
 21
176.168104889051
  0
LINE
  5
5A
100
AcDbEntity
  8
3
  6
CONTINUOUS
 62
           6
100
AcDbLine
 10
695.354620634981
 20
168.168104889051
 11
695.042013243811
 21
168.709556773378
  0
LINE
  5
59
100
AcDbEntity
  8
3
  6
CONTINUOUS
 62
           6
100
AcDbLine
 10
695.042013243811
 20
175.626653004723
 11
695.354620634981
 21
176.168104889051
  0
LINE
  5
58
100
AcDbEntity
  8
3
  6
CONTINUOUS
 62
           6
100
AcDbLine
 10
695.042013243811
 20
175.626653004723
 11
695.042013243811
 21
168.709556773378
  0
LINE
  5
57
100
AcDbEntity
  8
3
  6
CONTINUOUS
 62
           6
100
AcDbLine
 10
704.042013243811
 20
166.709604889051
 11
699.042013243811
 21
166.709604889051
  0
LINE
  5
56
100
AcDbEntity
  8
3
  6
CONTINUOUS
 62
           6
100
AcDbLine
 10
704.042013243811
 20
178.168104889051
 11
699.042013243811
 21
178.168104889051
  0
LINE
  5
55
100
AcDbEntity
  8
3
  6
CONTINUOUS
 62
           6
100
AcDbLine
 10
704.042013243811
 20
166.168104889051
 11
704.042013243811
 21
178.168104889051
  0
LINE
  5
54
100
AcDbEntity
  8
3
  6
CONTINUOUS
 62
           6
100
AcDbLine
 10
688.794103883229
 20
172.168104889051
 11
722.815618667445
 21
172.168104889051
  0
LINE
  5
53
100
AcDbEntity
  8
1
  6
CONTINUOUS
 62
           7
100
AcDbLine
 10
685.242013243811
 20
179.893104889051
 11
682.542013243811
 21
181.918104889051
  0
LINE
  5
52
100
AcDbEntity
  8
1
  6
CONTINUOUS
 62
           7
100
AcDbLine
 10
695.242013243811
 20
179.889281359639
 11
699.042013243811
 21
180.068104889051
  0
LINE
  5
51
100
AcDbEntity
  8
2
  6
CONTINUOUS
 62
           7
100
AcDbLine
 10
685.242013243811
 20
172.168104889051
 11
690.246930380197
 21
145.216291501186
  0
LINE
  5
50
100
AcDbEntity
  8
2
  6
CONTINUOUS
 62
           7
100
AcDbLine
 10
685.242013243811
 20
183.168104889051
 11
685.242013243811
 21
172.168104889051
  0
LINE
  5
4F
100
AcDbEntity
  8
2
  6
CONTINUOUS
 62
           7
100
AcDbLine
 10
685.242013243811
 20
137.468104889051
 11
685.242013243811
 21
136.168104889051
  0
LINE
  5
4E
100
AcDbEntity
  8
2
  6
CONTINUOUS
 62
           7
100
AcDbLine
 10
698.411021405189
 20
154.195766517207
 11
699.412587696056
 21
148.515601820672
  0
LINE
  5
4D
100
AcDbEntity
  8
2
  6
CONTINUOUS
 62
           7
100
AcDbLine
 10
695.242013243811
 20
172.168104889051
 11
698.411021405189
 21
154.195766517207
  0
LINE
  5
4C
100
AcDbEntity
  8
2
  6
CONTINUOUS
 62
           7
100
AcDbLine
 10
685.242013243811
 20
136.168104889051
 11
689.177379229552
 21
136.168104889051
  0
LINE
  5
4B
100
AcDbEntity
  8
2
  6
CONTINUOUS
 62
           7
100
AcDbLine
 10
695.242013243811
 20
183.168104889051
 11
695.242013243811
 21
172.168104889051
  0
LINE
  5
4A
100
AcDbEntity
  8
1
  6
CONTINUOUS
 62
           7
100
AcDbLine
 10
682.542013243811
 20
182.918104889051
 11
682.542013243811
 21
181.918104889051
  0
LINE
  5
49
100
AcDbEntity
  8
1
  6
CONTINUOUS
 62
           6
100
AcDbLine
 10
685.542013243811
 20
179.668104889051
 11
685.242013243811
 21
179.893104889051
  0
LINE
  5
48
100
AcDbEntity
  8
1
  6
CONTINUOUS
 62
           6
100
AcDbLine
 10
690.542013243811
 20
179.668104889051
 11
685.542013243811
 21
179.668104889051
  0
LINE
  5
47
100
AcDbEntity
  8
1
  6
CONTINUOUS
 62
           6
100
AcDbLine
 10
690.542013243811
 20
179.668104889051
 11
695.242013243811
 21
179.889281359639
  0
ENDBLK
  5
A2
100
AcDbEntity
  8
0
100
AcDbBlockEnd
  0
BLOCK
  5
2D
100
AcDbEntity
  8
0
100
AcDbBlockBegin
  2
AG_6_A__2
 70
           0
 10
879.778909143279
 20
254.799846148758
 30
0.0
  3
AG_6_A__2
  1

  0
INSERT
  5
2E
100
AcDbEntity
  8
0
100
AcDbBlockReference
  2
AG_6_A__1
 10
1043.126188039879
 20
251.80216388069
  0
ENDBLK
  5
A3
100
AcDbEntity
  8
0
100
AcDbBlockEnd
  0
BLOCK
  5
30
100
AcDbEntity
  8
0
100
AcDbBlockBegin
  2
_5
 70
           0
 10
837.968906152358
 20
-256.427384354491
 30
0.0
  3
_5
  1

  0
ARC
  5
139
100
AcDbEntity
  8
1
  6
CONTINUOUS
 62
           7
100
AcDbCircle
 10
724.568657200186
 20
154.969940327231
 40
0.1
100
AcDbArc
 50
121.828432596096
 51
-93.370108178062
  0
ARC
  5
138
100
AcDbEntity
  8
1
  6
CONTINUOUS
 62
           7
100
AcDbCircle
 10
726.545167109236
 20
147.726126390761
 40
0.1
100
AcDbArc
 50
122.374644880532
 51
-93.510831709283
  0
ARC
  5
137
100
AcDbEntity
  8
1
  6
CONTINUOUS
 62
           7
100
AcDbCircle
 10
728.591052975907
 20
146.30355377461
 40
0.1
100
AcDbArc
 50
-63.882164304934
 51
84.302704423056
  0
ARC
  5
136
100
AcDbEntity
  8
1
  6
CONTINUOUS
 62
           7
100
AcDbCircle
 10
727.868834161132
 20
144.664647845243
 40
0.1
100
AcDbArc
 50
115.520832994262
 51
-86.314238263431
  0
ARC
  5
135
100
AcDbEntity
  8
1
  6
CONTINUOUS
 62
           7
100
AcDbCircle
 10
729.284853288491
 20
143.598325603233
 40
0.1
100
AcDbArc
 50
-57.951251599964
 51
94.437452114138
  0
ARC
  5
134
100
AcDbEntity
  8
1
  6
CONTINUOUS
 62
           7
100
AcDbCircle
 10
734.44956045794
 20
124.740797905859
 40
0.1
100
AcDbArc
 50
-50.784871837238
 51
104.999999999966
  0
ARC
  5
133
100
AcDbEntity
  8
1
  6
CONTINUOUS
 62
           7
100
AcDbCircle
 10
733.665801506114
 20
122.530645301994
 40
0.1
100
AcDbArc
 50
128.852067345369
 51
-74.999999999878
  0
ARC
  5
132
100
AcDbEntity
  8
1
  6
CONTINUOUS
 62
           7
100
AcDbCircle
 10
734.407498833887
 20
118.396145760881
 40
0.1
100
AcDbArc
 50
122.223830550508
 51
-93.542306446577
  0
SPLINE
  5
131
100
AcDbEntity
  8
1
  6
CONTINUOUS
 62
           7
100
AcDbSpline
210
0.0
220
0.0
230
1.0
 70
           0
 71
           4
 72
          12
 73
           8
 74
          11
 42
0.00000000001
 43
0.00000000001
 44
0.00000000001
 40
0.0
 40
0.0
 40
0.0
 40
0.0
 40
0.1630305855102656
 40
0.3249887431685561
 40
0.4065898292441716
 40
0.5681282295539336
 40
0.7302534252816409
 40
0.7302534252816409
 40
0.7302534252816409
 40
0.7302534252816409
 10
732.37279264729068
 20
122.9170448302492
 30
0.0
 10
732.30999873831138
 20
122.8655680027545
 30
0.0
 10
732.25766998138999
 20
122.8026517801902
 30
0.0
 10
732.17960554069225
 20
122.660749039094
 30
0.0
 10
732.15459249414766
 20
122.5830761046105
 30
0.0
 10
732.13531154152088
 20
122.4226925030783
 30
0.0
 10
732.14122211791005
 20
122.34146649614939
 30
0.0
 10
732.16236393977715
 20
122.2636012290056
 30
0.0
 11
732.37279264729068
 21
122.9170448302492
 31
0.0
 11
732.30112455949302
 21
122.85068762372482
 31
0.0
 11
732.25496355306052
 21
122.78973390200659
 31
0.0
 11
732.21226150662244
 21
122.71803987655433
 31
0.0
 11
732.1782048407722
 21
122.64964107527655
 31
0.0
 11
732.16757969068897
 21
122.62171138576953
 31
0.0
 11
732.1599163348825
 21
122.59281603107199
 31
0.0
 11
732.14772112619607
 21
122.51754030442429
 31
0.0
 11
732.14064747480563
 21
122.43459827032559
 31
0.0
 11
732.14268277297867
 21
122.35863229727892
 31
0.0
 11
732.16236393977715
 21
122.2636012290056
 31
0.0
  0
SPLINE
  5
130
100
AcDbEntity
  8
1
  6
CONTINUOUS
 62
           7
100
AcDbSpline
210
0.0
220
0.0
230
1.0
 70
           0
 71
           4
 72
          14
 73
          10
 74
          15
 42
0.00000000001
 43
0.00000000001
 44
0.00000000001
 40
0.0
 40
0.0
 40
0.0
 40
0.0
 40
0.1792743956185545
 40
0.3575171833814149
 40
0.4473841496269784
 40
0.6251465556583759
 40
0.7147511638409728
 40
0.8920336367817051
 40
1.0701909395419555
 40
1.0701909395419555
 40
1.0701909395419555
 40
1.0701909395419555
 10
734.88766464914602
 20
126.80404264079191
 30
0.0
 10
734.97380235606556
 20
126.8272973818051
 30
0.0
 10
735.05455112635332
 20
126.8671615076418
 30
0.0
 10
735.19604771197896
 20
126.975555269666
 30
0.0
 10
735.25541101588192
 20
127.04302429790791
 30
0.0
 10
735.34458720080215
 20
127.19680037225351
 30
0.0
 10
735.37352751343053
 20
127.281602754959
 30
0.0
 10
735.39680703187537
 20
127.4573501282906
 30
0.0
 10
735.39091845297617
 20
127.5465754714284
 30
0.0
 10
735.36231553597725
 20
127.63057714084159
 30
0.0
 11
734.88766464914602
 21
126.80404264079191
 31
0.0
 11
734.98935794314514
 21
126.83835360502863
 31
0.0
 11
735.06291210602774
 21
126.87903317928283
 31
0.0
 11
735.13772978880843
 21
126.93229468844945
 31
0.0
 11
735.20229758712253
 21
126.98618818298445
 31
0.0
 11
735.22551119014156
 21
127.01003656581371
 31
0.0
 11
735.24722387672921
 21
127.03814756783433
 31
0.0
 11
735.29902477390124
 21
127.12054680690142
 31
0.0
 11
735.34478318739343
 21
127.20641407043648
 31
0.0
 11
735.35833219856147
 21
127.23911520762341
 31
0.0
 11
735.36743654809106
 21
127.27102361417661
 31
0.0
 11
735.38190189529223
 21
127.35340718304887
 31
0.0
 11
735.39067110304086
 21
127.44428318742409
 31
0.0
 11
735.38841899565159
 21
127.52751821649163
 31
0.0
 11
735.36231553597725
 21
127.63057714084159
 31
0.0
  0
SPLINE
  5
12F
100
AcDbEntity
  8
1
  6
CONTINUOUS
 62
           7
100
AcDbSpline
210
0.0
220
0.0
230
1.0
 70
           0
 71
           4
 72
          14
 73
          10
 74
          15
 42
0.00000000001
 43
0.00000000001
 44
0.00000000001
 40
0.0
 40
0.0
 40
0.0
 40
0.0
 40
0.1327556732432314
 40
0.2657206971621293
 40
0.3329262409937713
 40
0.4662525153394678
 40
0.5336548216235627
 40
0.6673400645844225
 40
0.8017967217534361
 40
0.8017967217534361
 40
0.8017967217534361
 40
0.8017967217534361
 10
729.09449704160272
 20
136.9469558081438
 30
0.0
 10
729.07718657522128
 20
137.01106683109941
 30
0.0
 10
729.05145657940147
 20
137.0722234160441
 30
0.0
 10
728.97002579821481
 20
137.17733633371401
 30
0.0
 10
728.91925753918122
 20
137.22137233031231
 30
0.0
 10
728.80341400783482
 20
137.287373630876
 30
0.0
 10
728.73947223774189
 20
137.30869312734751
 30
0.0
 10
728.60685208375958
 20
137.32553471109759
 30
0.0
 10
728.53947135747012
 20
137.3208920073661
 30
0.0
 10
728.47486807728069
 20
137.30345095160621
 30
0.0
 11
729.09449704160272
 21
136.9469558081438
 31
0.0
 11
729.07009106135411
 21
137.02285876927871
 31
0.0
 11
729.04167658418464
 21
137.07785075630142
 31
0.0
 11
729.00251550245366
 21
137.13381152803331
 31
0.0
 11
728.96209922891353
 21
137.18187490467614
 31
0.0
 11
728.94414099867379
 21
137.19913418844109
 31
0.0
 11
728.92301376871728
 21
137.21521571278134
 31
0.0
 11
728.86094382416854
 21
137.25359402844398
 31
0.0
 11
728.79626696796902
 21
137.28744403908678
 31
0.0
 11
728.77158348622231
 21
137.29746709663468
 31
0.0
 11
728.74753627473422
 21
137.30416111404895
 31
0.0
 11
728.68534601337183
 21
137.31471807079015
 31
0.0
 11
728.61675138553551
 21
137.32099668226573
 31
0.0
 11
728.55372618340925
 21
137.31959797105921
 31
0.0
 11
728.47486807728069
 21
137.30345095160621
 31
0.0
  0
SPLINE
  5
12E
100
AcDbEntity
  8
1
  6
CONTINUOUS
 62
           7
100
AcDbSpline
210
0.0
220
0.0
230
1.0
 70
           0
 71
           4
 72
          14
 73
          10
 74
          15
 42
0.00000000001
 43
0.00000000001
 44
0.00000000001
 40
0.0
 40
0.0
 40
0.0
 40
0.0
 40
0.1376827787776928
 40
0.2741499131586793
 40
0.3429543091903571
 40
0.4790536513080765
 40
0.5476571794479557
 40
0.6833890727932969
 40
0.8196411759622574
 40
0.8196411759622574
 40
0.8196411759622574
 40
0.8196411759622574
 10
727.82721108918349
 20
140.44861590490319
 30
0.0
 10
727.76320600766621
 20
140.42355601255909
 30
0.0
 10
727.70138273041471
 20
140.3930350412156
 30
0.0
 10
727.5930494070451
 20
140.3100460671657
 30
0.0
 10
727.54759937749441
 20
140.2583900924181
 30
0.0
 10
727.47932386091475
 20
140.14065528549739
 30
0.0
 10
727.45716643405865
 20
140.07572846123841
 30
0.0
 10
727.43934305274945
 20
139.94117187853129
 30
0.0
 10
727.44385149596906
 20
139.87285872519169
 30
0.0
 10
727.46150633354421
 20
139.8074076981265
 30
0.0
 11
727.82721108918349
 21
140.44861590490319
 31
0.0
 11
727.75102007093278
 21
140.41597912471966
 31
0.0
 11
727.69485955631694
 21
140.3838654801296
 31
0.0
 11
727.63764234949826
 21
140.34312562510783
 31
0.0
 11
727.58825528992907
 21
140.30189830518631
 31
0.0
 11
727.57049029951929
 21
140.28364545758765
 31
0.0
 11
727.55386765590822
 21
140.26212383888068
 31
0.0
 11
727.5142075940106
 21
140.19903692147003
 31
0.0
 11
727.47917380868091
 21
140.13329479782607
 31
0.0
 11
727.46880028086287
 21
140.10825749032921
 31
0.0
 11
727.46182930025759
 21
140.08382412119545
 31
0.0
 11
727.45075199610665
 21
140.02072854195521
 31
0.0
 11
727.44403779849154
 21
139.95112502868648
 31
0.0
 11
727.44523468855243
 21
139.88729384957043
 31
0.0
 11
727.46150633354421
 21
139.8074076981265
 31
0.0
  0
SPLINE
  5
12D
100
AcDbEntity
  8
1
  6
CONTINUOUS
 62
           7
100
AcDbSpline
210
0.0
220
0.0
230
1.0
 70
           0
 71
           4
 72
          12
 73
           8
 74
          11
 42
0.00000000001
 43
0.00000000001
 44
0.00000000001
 40
0.0
 40
0.0
 40
0.0
 40
0.0
 40
0.1752901179397146
 40
0.3498316064735703
 40
0.4381560058284303
 40
0.6132059769006069
 40
0.7895636867865704
 40
0.7895636867865704
 40
0.7895636867865704
 40
0.7895636867865704
 10
730.18014535459952
 20
146.9706353855639
 30
0.0
 10
730.15808442981381
 20
147.05496217435461
 30
0.0
 10
730.11859242244486
 20
147.13374328746039
 30
0.0
 10
730.00976470472983
 20
147.27020302172861
 30
0.0
 10
729.94161740008906
 20
147.3263914937811
 30
0.0
 10
729.78651574446906
 20
147.40754547579249
 30
0.0
 10
729.70125511358617
 20
147.43162477902749
 30
0.0
 10
729.61370194353617
 20
147.4376764510815
 30
0.0
 11
730.18014535459952
 21
146.9706353855639
 31
0.0
 11
730.14698684974462
 21
147.07003998435519
 31
0.0
 11
730.1066076431398
 21
147.14148688957442
 31
0.0
 11
730.05324736974171
 21
147.21380130193793
 31
0.0
 11
729.99910069291127
 21
147.27583053343528
 31
0.0
 11
729.97534495274272
 21
147.29779351986627
 31
0.0
 11
729.94927522846012
 21
147.31692980736656
 31
0.0
 11
729.87792557529099
 21
147.35839831775246
 31
0.0
 11
729.79657699895142
 21
147.39718632510738
 31
0.0
 11
729.71827206342914
 21
147.42354476017084
 31
0.0
 11
729.61370194353617
 21
147.4376764510815
 31
0.0
  0
SPLINE
  5
12C
100
AcDbEntity
  8
1
  6
CONTINUOUS
 62
           7
100
AcDbSpline
210
0.0
220
0.0
230
1.0
 70
           0
 71
           4
 72
          12
 73
           8
 74
          11
 42
0.00000000001
 43
0.00000000001
 44
0.00000000001
 40
0.0
 40
0.0
 40
0.0
 40
0.0
 40
0.1576777879066479
 40
0.3141452841468692
 40
0.3931326415403312
 40
0.54912907047491
 40
0.7058268889414026
 40
0.7058268889414026
 40
0.7058268889414026
 40
0.7058268889414026
 10
727.22648396174986
 20
142.19169667422349
 30
0.0
 10
727.15991525397658
 20
142.15020001683479
 30
0.0
 10
727.10296588832171
 20
142.0951104573081
 30
0.0
 10
727.01590768608639
 20
141.9650991239435
 30
0.0
 10
726.9867990302472
 20
141.8916710041035
 30
0.0
 10
726.9613081569737
 20
141.7377713575149
 30
0.0
 10
726.9652187951217
 20
141.659067929104
 30
0.0
 10
726.98550758868328
 20
141.5838591982872
 30
0.0
 11
727.22648396174986
 21
142.19169667422349
 31
0.0
 11
727.1499737669875
 21
142.13656850757047
 31
0.0
 11
727.09956780769005
 21
142.08260398576604
 31
0.0
 11
727.05224435020716
 21
142.01744006475201
 31
0.0
 11
727.01404364501639
 21
141.95435798704685
 31
0.0
 11
727.0018538245987
 21
141.92813345283497
 31
0.0
 11
726.99277188968927
 21
141.90066433878192
 31
0.0
 11
726.97745720600892
 21
141.82870388367749
 31
0.0
 11
726.96739186676348
 21
141.749037596958
 31
0.0
 11
726.96729163891337
 21
141.67570303954221
 31
0.0
 11
726.98550758868328
 21
141.5838591982872
 31
0.0
  0
SPLINE
  5
12B
100
AcDbEntity
  8
1
  6
CONTINUOUS
 62
           7
100
AcDbSpline
210
0.0
220
0.0
230
1.0
 70
           0
 71
           4
 72
          14
 73
          10
 74
          15
 42
0.00000000001
 43
0.00000000001
 44
0.00000000001
 40
0.0
 40
0.0
 40
0.0
 40
0.0
 40
0.1521148469420594
 40
0.3034602782361415
 40
0.3795995464438399
 40
0.5305594179533762
 40
0.6065058424439324
 40
0.7571307198723766
 40
0.9081995752298028
 40
0.9081995752298028
 40
0.9081995752298028
 40
0.9081995752298028
 10
726.56687265300502
 20
145.19976446765691
 30
0.0
 10
726.49875032409022
 20
145.16651666649429
 30
0.0
 10
726.43687830773297
 20
145.12184700580789
 30
0.0
 10
726.33109713897079
 20
145.01360753098979
 30
0.0
 10
726.28798298666243
 20
144.95085119239411
 30
0.0
 10
726.22511378705792
 20
144.81360562216591
 30
0.0
 10
726.20583123425513
 20
144.74014786185219
 30
0.0
 10
726.193272541645
 20
144.59004745232491
 30
0.0
 10
726.20009078689657
 20
144.51453288518459
 30
0.0
 10
726.21970156673433
 20
144.44188618094191
 30
0.0
 11
726.56687265300502
 21
145.19976446765691
 31
0.0
 11
726.48716886776083
 21
145.15536323222733
 31
0.0
 11
726.43101968141013
 21
145.11121577037119
 31
0.0
 11
726.37476978894347
 21
145.057095622161
 31
0.0
 11
726.32672753068891
 21
145.00417690237396
 31
0.0
 11
726.3097444240434
 21
144.98166148800723
 31
0.0
 11
726.29411925900934
 21
144.95593064023234
 31
0.0
 11
726.25731839759442
 21
144.881826905775
 31
0.0
 11
726.22525762144824
 21
144.80557617185684
 31
0.0
 11
726.21601755741256
 21
144.77701928644979
 31
0.0
 11
726.21009910377541
 21
144.74951321112823
 31
0.0
 11
726.20154911487748
 21
144.67887086223695
 31
0.0
 11
726.19748773758886
 21
144.60129113999633
 31
0.0
 11
726.20093645088093
 21
144.5304766469564
 31
0.0
 11
726.21970156673433
 21
144.44188618094191
 31
0.0
  0
SPLINE
  5
12A
100
AcDbEntity
  8
1
  6
CONTINUOUS
 62
           7
100
AcDbSpline
210
0.0
220
0.0
230
1.0
 70
           0
 71
           4
 72
          14
 73
          10
 74
          15
 42
0.00000000001
 43
0.00000000001
 44
0.00000000001
 40
0.0
 40
0.0
 40
0.0
 40
0.0
 40
0.1312785265320705
 40
0.26179381258884
 40
0.3277590816531007
 40
0.4586233450711615
 40
0.5247816921261668
 40
0.6519963201237125
 40
0.7839851480272574
 40
0.7839851480272574
 40
0.7839851480272574
 40
0.7839851480272574
 10
724.82798321294729
 20
152.8530342610986
 30
0.0
 10
724.80543128354839
 20
152.9144715024018
 30
0.0
 10
724.77723404114442
 20
152.9739600909858
 30
0.0
 10
724.69926522156106
 20
153.07862671922641
 30
0.0
 10
724.65025655128716
 20
153.1227806200813
 30
0.0
 10
724.53778843408338
 20
153.18968636013841
 30
0.0
 10
724.47542946172393
 20
153.2117835421154
 30
0.0
 10
724.34847701980436
 20
153.21994681763519
 30
0.0
 10
724.28226133361602
 20
153.21662318508919
 30
0.0
 10
724.21853410325912
 20
153.2006862020439
 30
0.0
 11
724.82798321294729
 21
152.8530342610986
 31
0.0
 11
724.79834174488099
 21
152.92619415086315
 31
0.0
 11
724.7685822188738
 21
152.98019689665742
 31
0.0
 11
724.73037783617644
 21
153.03547215186603
 31
0.0
 11
724.69155372577347
 21
153.08324845494593
 31
0.0
 11
724.67426302276806
 21
153.10049978713766
 31
0.0
 11
724.6538283956188
 21
153.11666903965056
 31
0.0
 11
724.59359785784034
 21
153.15548513153769
 31
0.0
 11
724.53057179860923
 21
153.18995843269008
 31
0.0
 11
724.50635166124357
 21
153.20022026500186
 31
0.0
 11
724.48269355384946
 21
153.2066477986159
 31
0.0
 11
724.42377796629
 21
153.21429297481953
 31
0.0
 11
724.35875183725796
 21
153.21745994934784
 31
0.0
 11
724.29650086066442
 21
153.21537031705117
 31
0.0
 11
724.21853410325912
 21
153.2006862020439
 31
0.0
  0
SPLINE
  5
129
100
AcDbEntity
  8
1
  6
CONTINUOUS
 62
           7
100
AcDbSpline
210
0.0
220
0.0
230
1.0
 70
           0
 71
           4
 72
          12
 73
           8
 74
          11
 42
0.00000000001
 43
0.00000000001
 44
0.00000000001
 40
0.0
 40
0.0
 40
0.0
 40
0.0
 40
0.1742059886903585
 40
0.3471532484239786
 40
0.4343877402300982
 40
0.606843360353979
 40
0.7800107156392641
 40
0.7800107156392641
 40
0.7800107156392641
 40
0.7800107156392641
 10
723.63222486069822
 20
155.71403215837481
 30
0.0
 10
723.56115586890087
 20
155.6643592380837
 30
0.0
 10
723.50099904679666
 20
155.6008208076918
 30
0.0
 10
723.40989579161601
 20
155.45381416993399
 30
0.0
 10
723.37990958293437
 20
155.37189540621301
 30
0.0
 10
723.35474970761084
 20
155.2012849681208
 30
0.0
 10
723.35984122497302
 20
155.11439152043559
 30
0.0
 10
723.38229162931998
 20
155.0312442292711
 30
0.0
 11
723.63222486069822
 21
155.71403215837481
 31
0.0
 11
723.55077411002594
 21
155.64894253714297
 31
0.0
 11
723.4975952195523
 21
155.58700592800142
 31
0.0
 11
723.44795258220813
 21
155.51306954517739
 31
0.0
 11
723.40806198707753
 21
155.44194486643136
 31
0.0
 11
723.39543999140994
 21
155.41260308708087
 31
0.0
 11
723.38614404755936
 21
155.38203037382786
 31
0.0
 11
723.37077086000431
 21
155.30212884539878
 31
0.0
 11
723.36106039690048
 21
155.21384815003415
 31
0.0
 11
723.36184329658886
 21
155.13275626007646
 31
0.0
 11
723.38229162931998
 21
155.0312442292711
 31
0.0
  0
SPLINE
  5
128
100
AcDbEntity
  8
1
  6
CONTINUOUS
 62
           7
100
AcDbSpline
210
0.0
220
0.0
230
1.0
 70
           0
 71
           4
 72
          14
 73
          10
 74
          15
 42
0.00000000001
 43
0.00000000001
 44
0.00000000001
 40
0.0
 40
0.0
 40
0.0
 40
0.0
 40
0.1447575137881668
 40
0.2890995123149783
 40
0.36186744739001
 40
0.5065272364013951
 40
0.579478107216869
 40
0.7245045166235076
 40
0.8702592220646214
 40
0.8702592220646214
 40
0.8702592220646214
 40
0.8702592220646214
 10
730.90836151185908
 20
144.2529446586837
 30
0.0
 10
730.88960008740651
 20
144.32256933394081
 30
0.0
 10
730.85896737739108
 20
144.38844471607661
 30
0.0
 10
730.77661402468243
 20
144.50698811672109
 30
0.0
 10
730.72550069569138
 20
144.55878193850069
 30
0.0
 10
730.60783022653834
 20
144.64292535919489
 30
0.0
 10
730.54214084568298
 20
144.67465444357461
 30
0.0
 10
730.4027464498829
 20
144.71467770986951
 30
0.0
 10
730.33006939705228
 20
144.72267674074121
 30
0.0
 10
730.25756159524133
 20
144.71831657031049
 30
0.0
 11
730.90836151185908
 21
144.2529446586837
 31
0.0
 11
730.88125686786236
 21
144.33538542725611
 31
0.0
 11
730.85010801302724
 21
144.39576766103892
 31
0.0
 11
730.80953855833513
 21
144.45819403100188
 31
0.0
 11
730.76860614922612
 21
144.51273734177107
 31
0.0
 11
730.75053938248618
 21
144.53274633568847
 31
0.0
 11
730.72923005062728
 21
144.55205967028738
 31
0.0
 11
730.66622075688804
 21
144.60015941086573
 31
0.0
 11
730.60032084397403
 21
144.64425275220498
 31
0.0
 11
730.5750870259634
 21
144.65822429842891
 31
0.0
 11
730.55026291426407
 21
144.66889845973915
 31
0.0
 11
730.48516182234232
 21
144.69018628938582
 31
0.0
 11
730.41266710432774
 21
144.70862831520367
 31
0.0
 11
730.34499171295852
 21
144.71887209148269
 31
0.0
 11
730.25756159524133
 21
144.71831657031049
 31
0.0
  0
SPLINE
  5
127
100
AcDbEntity
  8
1
  6
CONTINUOUS
 62
           7
100
AcDbSpline
210
0.0
220
0.0
230
1.0
 70
           0
 71
           4
 72
          12
 73
           8
 74
          11
 42
0.00000000001
 43
0.00000000001
 44
0.00000000001
 40
0.0
 40
0.0
 40
0.0
 40
0.0
 40
0.1727127687943836
 40
0.3441793457468125
 40
0.4306634904876853
 40
0.601647470747197
 40
0.7733396249400464
 40
0.7733396249400464
 40
0.7733396249400464
 40
0.7733396249400464
 10
733.41953986693591
 20
119.150406432048
 30
0.0
 10
733.34965939974222
 20
119.10033557393859
 30
0.0
 10
733.29073302814322
 20
119.03667659747489
 30
0.0
 10
733.20198922954546
 20
118.8899614816135
 30
0.0
 10
733.17310260306863
 20
118.80844418220811
 30
0.0
 10
733.14982981739661
 20
118.6390514463767
 30
0.0
 10
733.15568775774852
 20
118.5529527070194
 30
0.0
 10
733.17865836807528
 20
118.4707058306648
 30
0.0
 11
733.41953986693591
 21
119.150406432048
 31
0.0
 11
733.33953569014773
 21
119.08494202826731
 31
0.0
 11
733.28749885083073
 21
119.02295055625476
 31
0.0
 11
733.2390810470207
 21
118.94911451802461
 31
0.0
 11
733.20028833179049
 21
118.87817845813797
 31
0.0
 11
733.18808007629821
 21
118.84895973430991
 31
0.0
 11
733.17917428224041
 21
118.81855757150558
 31
0.0
 11
733.16472336066749
 21
118.73918886165006
 31
0.0
 11
733.15595319389399
 21
118.65156974161258
 31
0.0
 11
733.15749162986481
 21
118.57117585258732
 31
0.0
 11
733.17865836807528
 21
118.4707058306648
 31
0.0
  0
SPLINE
  5
126
100
AcDbEntity
  8
1
  6
CONTINUOUS
 62
           7
100
AcDbSpline
210
0.0
220
0.0
230
1.0
 70
           0
 71
           4
 72
          12
 73
           8
 74
          11
 42
0.00000000001
 43
0.00000000001
 44
0.00000000001
 40
0.0
 40
0.0
 40
0.0
 40
0.0
 40
0.1634359885590224
 40
0.3257060570299307
 40
0.4075445527645373
 40
0.5693532055806029
 40
0.7318120194867452
 40
0.7318120194867452
 40
0.7318120194867452
 40
0.7318120194867452
 10
725.55258905530241
 20
148.46865308461861
 30
0.0
 10
725.48566828759442
 20
148.42239610360079
 30
0.0
 10
725.42884448361031
 20
148.36316024120941
 30
0.0
 10
725.34227740719336
 20
148.22590968054689
 30
0.0
 10
725.31343440299781
 20
148.14932234156009
 30
0.0
 10
725.28812501092557
 20
147.9895053374614
 30
0.0
 10
725.29192183214377
 20
147.90793771499261
 30
0.0
 10
725.31195121046289
 20
147.8296566311345
 30
0.0
 11
725.55258905530241
 21
148.46865308461861
 31
0.0
 11
725.47582336354003
 21
148.40801277237534
 31
0.0
 11
725.42552894909795
 21
148.35024433359484
 31
0.0
 11
725.37841730954551
 21
148.28122645495438
 31
0.0
 11
725.34044054833623
 21
148.21479737388523
 31
0.0
 11
725.32835431299986
 21
148.18737648469394
 31
0.0
 11
725.31935688465421
 21
148.15877961323798
 31
0.0
 11
725.30415642157232
 21
148.08395866327587
 31
0.0
 11
725.29414295422964
 21
148.00122584908976
 31
0.0
 11
725.29398981333793
 21
147.92513819004077
 31
0.0
 11
725.31195121046289
 21
147.8296566311345
 31
0.0
  0
SPLINE
  5
125
100
AcDbEntity
  8
1
  6
CONTINUOUS
 62
           7
100
AcDbSpline
210
0.0
220
0.0
230
1.0
 70
           0
 71
           4
 72
          10
 73
           6
 74
           7
 42
0.00000000001
 43
0.00000000001
 44
0.00000000001
 40
0.0
 40
0.0
 40
0.0
 40
0.0
 40
0.132765229226908
 40
0.2653669463185071
 40
0.398260812383804
 40
0.398260812383804
 40
0.398260812383804
 40
0.398260812383804
 10
730.49257287672754
 20
131.7810967416045
 30
0.0
 10
730.50851187008016
 20
131.71676110802639
 30
0.0
 10
730.53153122194658
 20
131.65438877425629
 30
0.0
 10
730.5909004431544
 20
131.5358201825095
 30
0.0
 10
730.62707032189894
 20
131.47998339078779
 30
0.0
 10
730.66907323023702
 20
131.4286009882041
 30
0.0
 11
730.49257287672754
 21
131.7810967416045
 31
0.0
 11
730.51423496360235
 21
131.70477931854435
 31
0.0
 11
730.53568530793268
 21
131.65018730753545
 31
0.0
 11
730.5616161967414
 21
131.59532810471481
 31
0.0
 11
730.59000679884286
 21
131.54169576817424
 31
0.0
 11
730.62089843010483
 21
131.49175555651871
 31
0.0
 11
730.66907323023702
 21
131.4286009882041
 31
0.0
  0
SPLINE
  5
124
100
AcDbEntity
  8
1
  6
CONTINUOUS
 62
           7
100
AcDbSpline
210
0.0
220
0.0
230
1.0
 70
           0
 71
           4
 72
           8
 73
           4
 74
           3
 42
0.00000000001
 43
0.00000000001
 44
0.00000000001
 40
0.0
 40
0.0
 40
0.0
 40
0.0
 40
0.1567450137322748
 40
0.1567450137322748
 40
0.1567450137322748
 40
0.1567450137322748
 10
730.66907323023702
 20
131.4286009882041
 30
0.0
 10
730.70273288846033
 20
131.38900053373669
 30
0.0
 10
730.74457739377294
 20
131.3570628574777
 30
0.0
 10
730.79178388400146
 20
131.3349424993736
 30
0.0
 11
730.66907323023702
 21
131.4286009882041
 31
0.0
 11
730.72534849511715
 21
131.37521670765261
 31
0.0
 11
730.79178388400146
 21
131.3349424993736
 31
0.0
  0
SPLINE
  5
123
100
AcDbEntity
  8
1
  6
CONTINUOUS
 62
           7
100
AcDbSpline
210
0.0
220
0.0
230
1.0
 70
           0
 71
           4
 72
           8
 73
           4
 74
           3
 42
0.00000000001
 43
0.00000000001
 44
0.00000000001
 40
0.0
 40
0.0
 40
0.0
 40
0.0
 40
0.8593992128000907
 40
0.8593992128000907
 40
0.8593992128000907
 40
0.8593992128000907
 10
729.69735119414781
 20
131.46314895930919
 30
0.0
 10
729.75590339973223
 20
131.18316587655039
 30
0.0
 10
729.86434489280384
 20
130.91694070759479
 30
0.0
 10
730.01190069016434
 20
130.6720662376824
 30
0.0
 11
729.69735119414781
 21
131.46314895930919
 31
0.0
 11
729.82124959524003
 21
131.0544418686784
 31
0.0
 11
730.01190069016434
 21
130.6720662376824
 31
0.0
  0
SPLINE
  5
122
100
AcDbEntity
  8
1
  6
CONTINUOUS
 62
           7
100
AcDbSpline
210
0.0
220
0.0
230
1.0
 70
           0
 71
           4
 72
          10
 73
           6
 74
           7
 42
0.00000000001
 43
0.00000000001
 44
0.00000000001
 40
0.0
 40
0.0
 40
0.0
 40
0.0
 40
0.1958686205998785
 40
0.3916096190432785
 40
0.5878949836655202
 40
0.5878949836655202
 40
0.5878949836655202
 40
0.5878949836655202
 10
730.01190069016434
 20
130.6720662376824
 30
0.0
 10
730.06196517531225
 20
130.58810659576341
 30
0.0
 10
730.12142881259751
 20
130.51006349473579
 30
0.0
 10
730.25689689114847
 20
130.36877323263209
 30
0.0
 10
730.33246880703905
 20
130.30597718612279
 30
0.0
 10
730.41444407897052
 20
130.2522222307328
 30
0.0
 11
730.01190069016434
 21
130.6720662376824
 31
0.0
 11
730.07525789009946
 21
130.57370251238723
 31
0.0
 11
730.12914685480894
 21
130.50601708872452
 31
0.0
 11
730.18961587325362
 21
130.43994564492832
 31
0.0
 11
730.25309110976048
 21
130.37673741721915
 31
0.0
 11
730.31860409360695
 21
130.31989345399327
 31
0.0
 11
730.41444407897052
 21
130.2522222307328
 31
0.0
  0
SPLINE
  5
121
100
AcDbEntity
  8
1
  6
CONTINUOUS
 62
           7
100
AcDbSpline
210
0.0
220
0.0
230
1.0
 70
           0
 71
           4
 72
          10
 73
           6
 74
           7
 42
0.00000000001
 43
0.00000000001
 44
0.00000000001
 40
0.0
 40
0.0
 40
0.0
 40
0.0
 40
0.2028929169876029
 40
0.4056964604284024
 40
0.6090582340843309
 40
0.6090582340843309
 40
0.6090582340843309
 40
0.6090582340843309
 10
730.41444407897052
 20
130.2522222307328
 30
0.0
 10
730.50259573299775
 20
130.2024594593384
 30
0.0
 10
730.59636199533497
 20
130.16316945916091
 30
0.0
 10
730.79127445165659
 20
130.1071479311309
 30
0.0
 10
730.89174721132019
 20
130.09060996104429
 30
0.0
 10
730.99317420270825
 20
130.08588424258801
 30
0.0
 11
730.41444407897052
 21
130.2522222307328
 31
0.0
 11
730.52201274158369
 21
130.1964606844796
 31
0.0
 11
730.60540307762471
 21
130.16365447251951
 31
0.0
 11
730.69395012682901
 21
130.13589079213065
 31
0.0
 11
730.78373873035378
 21
130.11239031652923
 31
0.0
 11
730.87205999101332
 21
130.09584692187309
 31
0.0
 11
730.99317420270825
 21
130.08588424258801
 31
0.0
  0
SPLINE
  5
120
100
AcDbEntity
  8
1
  6
CONTINUOUS
 62
           7
100
AcDbSpline
210
0.0
220
0.0
230
1.0
 70
           0
 71
           4
 72
          10
 73
           6
 74
           7
 42
0.00000000001
 43
0.00000000001
 44
0.00000000001
 40
0.0
 40
0.0
 40
0.0
 40
0.0
 40
0.2541450830572174
 40
0.5076558916052387
 40
0.7617972681909979
 40
0.7617972681909979
 40
0.7617972681909979
 40
0.7617972681909979
 10
730.99317420270825
 20
130.08588424258801
 30
0.0
 10
731.11973970200233
 20
130.08076008927759
 30
0.0
 10
731.24642170292884
 20
130.09496484537459
 30
0.0
 10
731.49117015475599
 20
130.1610399948552
 30
0.0
 10
731.60778775849735
 20
130.2125192405444
 30
0.0
 10
731.71457595516495
 20
130.28064228200819
 30
0.0
 11
730.99317420270825
 21
130.08588424258801
 31
0.0
 11
731.14469746316502
 21
130.08677957211151
 31
0.0
 11
731.25570687101208
 21
130.10245804297188
 31
0.0
 11
731.36848281322057
 21
130.12916451317224
 31
0.0
 11
731.47937648927825
 21
130.16284257726468
 31
0.0
 11
731.58319191364467
 21
130.20516068980399
 31
0.0
 11
731.71457595516495
 21
130.28064228200819
 31
0.0
  0
SPLINE
  5
11F
100
AcDbEntity
  8
1
  6
CONTINUOUS
 62
           7
100
AcDbSpline
210
0.0
220
0.0
230
1.0
 70
           0
 71
           4
 72
          10
 73
           6
 74
           7
 42
0.00000000001
 43
0.00000000001
 44
0.00000000001
 40
0.0
 40
0.0
 40
0.0
 40
0.0
 40
0.1790105573567667
 40
0.357397586803276
 40
0.5359265315061101
 40
0.5359265315061101
 40
0.5359265315061101
 40
0.5359265315061101
 10
731.71457595516495
 20
130.28064228200819
 30
0.0
 10
731.7906441356057
 20
130.3274783508119
 30
0.0
 10
731.85999989782852
 20
130.3843311745166
 30
0.0
 10
731.98148710465057
 20
130.5149557926149
 30
0.0
 10
732.03305655033864
 20
130.5881233185014
 30
0.0
 10
732.07403928704275
 20
130.66714191168319
 30
0.0
 11
731.71457595516495
 21
130.28064228200819
 31
0.0
 11
731.8032127920726
 21
130.34037020578441
 31
0.0
 11
731.86304642383607
 21
130.3920212428016
 31
0.0
 11
731.92024513656611
 21
130.45021272660546
 31
0.0
 11
731.97412613627216
 21
130.51146750954379
 31
0.0
 11
732.02113997495155
 21
130.57469430057657
 31
0.0
 11
732.07403928704275
 21
130.66714191168319
 31
0.0
  0
SPLINE
  5
11E
100
AcDbEntity
  8
1
  6
CONTINUOUS
 62
           7
100
AcDbSpline
210
0.0
220
0.0
230
1.0
 70
           0
 71
           4
 72
          10
 73
           6
 74
           7
 42
0.00000000001
 43
0.00000000001
 44
0.00000000001
 40
0.0
 40
0.0
 40
0.0
 40
0.0
 40
0.3438606183297573
 40
0.6867513520960205
 40
1.0299465062969813
 40
1.0299465062969813
 40
1.0299465062969813
 40
1.0299465062969813
 10
732.07403928704275
 20
130.66714191168319
 30
0.0
 10
732.13997771285335
 20
130.8256882739586
 30
0.0
 10
732.18714691309924
 20
130.99124913820279
 30
0.0
 10
732.24204287391603
 20
131.3297169930853
 30
0.0
 10
732.24958316990978
 20
131.5014743132478
 30
0.0
 10
732.23706359916343
 20
131.67228852714069
 30
0.0
 11
732.07403928704275
 21
130.66714191168319
 31
0.0
 11
732.14616549777725
 21
130.85956500021115
 31
0.0
 11
732.18456469357488
 21
131.00655642267216
 31
0.0
 11
732.2133770699611
 21
131.16078906941289
 31
0.0
 11
732.23477609771771
 21
131.31620167105399
 31
0.0
 11
732.24475290672979
 21
131.46744822285049
 31
0.0
 11
732.23706359916343
 21
131.67228852714069
 31
0.0
  0
SPLINE
  5
11D
100
AcDbEntity
  8
1
  6
CONTINUOUS
 62
           7
100
AcDbSpline
210
0.0
220
0.0
230
1.0
 70
           0
 71
           4
 72
           8
 73
           4
 74
           3
 42
0.00000000001
 43
0.00000000001
 44
0.00000000001
 40
0.0
 40
0.0
 40
0.0
 40
0.0
 40
0.6914256077734151
 40
0.6914256077734151
 40
0.6914256077734151
 40
0.6914256077734151
 10
732.23706359916343
 20
131.67228852714069
 30
0.0
 10
732.23947257754185
 20
131.90275922061571
 30
0.0
 10
732.23892398434134
 20
132.1332398455713
 30
0.0
 10
732.23541795328265
 20
132.3636742221625
 30
0.0
 11
732.23706359916343
 21
131.67228852714069
 31
0.0
 11
732.23845890476196
 21
132.01799499348297
 31
0.0
 11
732.23541795328265
 21
132.3636742221625
 31
0.0
  0
SPLINE
  5
11C
100
AcDbEntity
  8
1
  6
CONTINUOUS
 62
           7
100
AcDbSpline
210
0.0
220
0.0
230
1.0
 70
           0
 71
           4
 72
          10
 73
           6
 74
           7
 42
0.00000000001
 43
0.00000000001
 44
0.00000000001
 40
0.0
 40
0.0
 40
0.0
 40
0.0
 40
0.1460286562227043
 40
0.2916659170884136
 40
0.4374240496903814
 40
0.4374240496903814
 40
0.4374240496903814
 40
0.4374240496903814
 10
732.30073730643971
 20
132.79145829901501
 30
0.0
 10
732.27379940363915
 20
132.72368885023451
 30
0.0
 10
732.25465217135968
 20
132.65313933451171
 30
0.0
 10
732.23266926537053
 20
132.50917071433099
 30
0.0
 10
732.22990410117643
 20
132.4362133849308
 30
0.0
 10
732.23541795328265
 20
132.3636742221625
 30
0.0
 11
732.30073730643971
 21
132.79145829901501
 31
0.0
 11
732.27131577419289
 21
132.70928639994037
 31
0.0
 11
732.25575185506659
 21
132.64666608149358
 31
0.0
 11
732.24416475132625
 21
132.58103401725484
 31
0.0
 11
732.23564263114235
 21
132.51494302092976
 31
0.0
 11
732.23182933228418
 21
132.45067236764697
 31
0.0
 11
732.23541795328265
 21
132.3636742221625
 31
0.0
  0
SPLINE
  5
11B
100
AcDbEntity
  8
1
  6
CONTINUOUS
 62
           7
100
AcDbSpline
210
0.0
220
0.0
230
1.0
 70
           0
 71
           4
 72
          16
 73
          12
 74
          19
 42
0.00000000001
 43
0.00000000001
 44
0.00000000001
 40
0.0
 40
0.0
 40
0.0
 40
0.0
 40
0.1021616145922078
 40
0.2040210981248612
 40
0.2555555702476371
 40
0.3576410980613345
 40
0.4092374408421228
 40
0.5113216105695644
 40
0.5628548235027673
 40
0.6647110930268805
 40
0.7668694768666361
 40
0.7668694768666361
 40
0.7668694768666361
 40
0.7668694768666361
 10
732.91452811440672
 20
132.9571644315088
 30
0.0
 10
732.87774497633905
 20
132.99216558476991
 30
0.0
 10
732.83406117861273
 20
133.0192271973153
 30
0.0
 10
732.73835304228373
 20
133.054088451251
 30
0.0
 10
732.68735631528421
 20
133.06151378978259
 30
0.0
 10
732.58545248906034
 20
133.0554256710306
 30
0.0
 10
732.53563952413049
 20
133.0419775814544
 30
0.0
 10
732.44451845759158
 20
132.99595444660079
 30
0.0
 10
732.40418871653605
 20
132.96387354852089
 30
0.0
 10
732.33903231689033
 20
132.8855834263689
 30
0.0
 10
732.31490523803086
 20
132.840214797892
 30
0.0
 10
732.30073730643971
 20
132.79145829901501
 30
0.0
 11
732.91452811440672
 21
132.9571644315088
 31
0.0
 11
732.86764580500505
 21
132.99628384048216
 31
0.0
 11
732.82579119997763
 21
133.01946025235085
 31
0.0
 11
732.77718605385519
 21
133.03922730008938
 31
0.0
 11
732.73133569327047
 21
133.05369251121243
 31
0.0
 11
732.71261402767118
 21
133.05743859134532
 31
0.0
 11
732.69231309205861
 21
133.05902920592189
 31
0.0
 11
732.63645987729228
 21
133.05777839381585
 31
0.0
 11
732.58084734431827
 21
133.052374055646
 31
0.0
 11
732.56065963135723
 21
133.0482802076429
 31
0.0
 11
732.54115446046876
 21
133.0416580622653
 31
0.0
 11
732.49037872540566
 21
133.01834055272886
 31
0.0
 11
732.44148549226384
 21
132.9913127496564
 31
0.0
 11
732.424743841029
 21
132.97972171020035
 31
0.0
 11
732.41045164435752
 21
132.96706280173464
 31
0.0
 11
732.37811241019722
 21
132.93148866486362
 31
0.0
 11
732.34606121771935
 21
132.88994672644549
 31
0.0
 11
732.32155927042152
 21
132.84885594143336
 31
0.0
 11
732.30073730643971
 21
132.79145829901501
 31
0.0
  0
SPLINE
  5
11A
100
AcDbEntity
  8
1
  6
CONTINUOUS
 62
           7
100
AcDbSpline
210
0.0
220
0.0
230
1.0
 70
           0
 71
           4
 72
          10
 73
           6
 74
           7
 42
0.00000000001
 43
0.00000000001
 44
0.00000000001
 40
0.0
 40
0.0
 40
0.0
 40
0.0
 40
0.1343959499912646
 40
0.2683107566606379
 40
0.4026100497494142
 40
0.4026100497494142
 40
0.4026100497494142
 40
0.4026100497494142
 10
733.13138747848188
 20
132.62300830638949
 30
0.0
 10
733.10681900725592
 20
132.68557627772481
 30
0.0
 10
733.07794687004491
 20
132.74623248456291
 30
0.0
 10
733.00600534152693
 20
132.8591819950523
 30
0.0
 10
732.96320544395155
 20
132.9110521886353
 30
0.0
 10
732.91452811440672
 20
132.9571644315088
 30
0.0
 11
733.13138747848188
 21
132.62300830638949
 31
0.0
 11
733.10025321254273
 21
132.69720274361967
 31
0.0
 11
733.0731100457831
 21
132.75000851002341
 31
0.0
 11
733.04153336442801
 21
132.80244753859139
 31
0.0
 11
733.00735204917078
 21
132.85324701055291
 31
0.0
 11
732.97067558806123
 21
132.89985096864723
 31
0.0
 11
732.91452811440672
 21
132.9571644315088
 31
0.0
  0
SPLINE
  5
119
100
AcDbEntity
  8
1
  6
CONTINUOUS
 62
           7
100
AcDbSpline
210
0.0
220
0.0
230
1.0
 70
           0
 71
           4
 72
           8
 73
           4
 74
           3
 42
0.00000000001
 43
0.00000000001
 44
0.00000000001
 40
0.0
 40
0.0
 40
0.0
 40
0.0
 40
0.7211812139279823
 40
0.7211812139279823
 40
0.7211812139279823
 40
0.7211812139279823
 10
733.98108280317308
 20
132.78540787674251
 30
0.0
 10
733.92738769934704
 20
133.01939449995899
 30
0.0
 10
733.84518325880822
 20
133.24590685888589
 30
0.0
 10
733.73627810081734
 20
133.45993790464831
 30
0.0
 11
733.98108280317308
 21
132.78540787674251
 31
0.0
 11
733.87938422230718
 21
133.13015623224069
 31
0.0
 11
733.73627810081734
 21
133.45993790464831
 31
0.0
  0
SPLINE
  5
118
100
AcDbEntity
  8
1
  6
CONTINUOUS
 62
           7
100
AcDbSpline
210
0.0
220
0.0
230
1.0
 70
           0
 71
           4
 72
           8
 73
           4
 74
           3
 42
0.00000000001
 43
0.00000000001
 44
0.00000000001
 40
0.0
 40
0.0
 40
0.0
 40
0.0
 40
0.7170841555062554
 40
0.7170841555062554
 40
0.7170841555062554
 40
0.7170841555062554
 10
733.73627810081734
 20
133.45993790464831
 30
0.0
 10
733.62888953311585
 20
133.67252840375639
 30
0.0
 10
733.48365842297665
 20
133.86395839524019
 30
0.0
 10
733.30757901956645
 20
134.025008717605
 30
0.0
 11
733.73627810081734
 21
133.45993790464831
 31
0.0
 11
733.54768762358265
 21
133.76180087740539
 31
0.0
 11
733.30757901956645
 21
134.025008717605
 31
0.0
  0
SPLINE
  5
117
100
AcDbEntity
  8
1
  6
CONTINUOUS
 62
           7
100
AcDbSpline
210
0.0
220
0.0
230
1.0
 70
           0
 71
           4
 72
          10
 73
           6
 74
           7
 42
0.00000000001
 43
0.00000000001
 44
0.00000000001
 40
0.0
 40
0.0
 40
0.0
 40
0.0
 40
0.245392334979298
 40
0.4903691918357904
 40
0.7366339261781116
 40
0.7366339261781116
 40
0.7366339261781116
 40
0.7366339261781116
 10
733.30757901956645
 20
134.025008717605
 30
0.0
 10
733.2167141356997
 20
134.10668406802489
 30
0.0
 10
733.11242871759077
 20
134.17230798962561
 30
0.0
 10
732.88599488076102
 20
134.26580332605391
 30
0.0
 10
732.76550510401853
 20
134.2929898817105
 30
0.0
 10
732.64292903008572
 20
134.29944506176449
 30
0.0
 11
733.30757901956645
 21
134.025008717605
 31
0.0
 11
733.19400144510837
 21
134.11689353672404
 31
0.0
 11
733.10070839208697
 21
134.17151588326095
 31
0.0
 11
732.99884534208149
 21
134.21780159968824
 31
0.0
 11
732.89397904922293
 21
134.25689514823574
 31
0.0
 11
732.78889339958846
 21
134.28417409439604
 31
0.0
 11
732.64292903008572
 21
134.29944506176449
 31
0.0
  0
SPLINE
  5
116
100
AcDbEntity
  8
1
  6
CONTINUOUS
 62
           7
100
AcDbSpline
210
0.0
220
0.0
230
1.0
 70
           0
 71
           4
 72
          10
 73
           6
 74
           7
 42
0.00000000001
 43
0.00000000001
 44
0.00000000001
 40
0.0
 40
0.0
 40
0.0
 40
0.0
 40
0.2761522908119531
 40
0.5518867123934256
 40
0.8280592852368909
 40
0.8280592852368909
 40
0.8280592852368909
 40
0.8280592852368909
 10
732.64292903008572
 20
134.29944506176449
 30
0.0
 10
732.50513266062831
 20
134.2983627748539
 30
0.0
 10
732.36791079080149
 20
134.2807178506591
 30
0.0
 10
732.10060276033664
 20
134.2130725397065
 30
0.0
 10
731.97149873057913
 20
134.1633206922414
 30
0.0
 10
731.84976095886873
 20
134.09872493853501
 30
0.0
 11
732.64292903008572
 21
134.29944506176449
 31
0.0
 11
732.47816177369191
 21
134.29212106454054
 31
0.0
 11
732.35755784978926
 21
134.27383423190383
 31
0.0
 11
732.23451343949364
 21
134.24589426347742
 31
0.0
 11
732.1129893708561
 21
134.21194373421713
 31
0.0
 11
731.99819406233348
 21
134.17065998041807
 31
0.0
 11
731.84976095886873
 21
134.09872493853501
 31
0.0
  0
SPLINE
  5
115
100
AcDbEntity
  8
1
  6
CONTINUOUS
 62
           7
100
AcDbSpline
210
0.0
220
0.0
230
1.0
 70
           0
 71
           4
 72
           8
 73
           4
 74
           3
 42
0.00000000001
 43
0.00000000001
 44
0.00000000001
 40
0.0
 40
0.0
 40
0.0
 40
0.0
 40
0.3554193216715899
 40
0.3554193216715899
 40
0.3554193216715899
 40
0.3554193216715899
 10
731.84976095886873
 20
134.09872493853501
 30
0.0
 10
731.74567104970993
 20
134.0424441627213
 30
0.0
 10
731.65086953555715
 20
133.9706012819544
 30
0.0
 10
731.56869288515213
 20
133.88572475295939
 30
0.0
 11
731.84976095886873
 21
134.09872493853501
 31
0.0
 11
731.70100944997773
 21
134.0029482531902
 31
0.0
 11
731.56869288515213
 21
133.88572475295939
 31
0.0
  0
SPLINE
  5
114
100
AcDbEntity
  8
1
  6
CONTINUOUS
 62
           7
100
AcDbSpline
210
0.0
220
0.0
230
1.0
 70
           0
 71
           4
 72
          10
 73
           6
 74
           7
 42
0.00000000001
 43
0.00000000001
 44
0.00000000001
 40
0.0
 40
0.0
 40
0.0
 40
0.0
 40
0.1821823386255049
 40
0.3638327712257655
 40
0.5455508034908629
 40
0.5455508034908629
 40
0.5455508034908629
 40
0.5455508034908629
 10
731.56869288515213
 20
133.88572475295939
 30
0.0
 10
731.50810843382942
 20
133.8178503236287
 30
0.0
 10
731.45552878995125
 20
133.74333056792059
 30
0.0
 10
731.3684382616525
 20
133.58391877555721
 30
0.0
 10
731.33421429938312
 20
133.49955192545551
 30
0.0
 10
731.30998178508969
 20
133.4121761252174
 30
0.0
 11
731.56869288515213
 21
133.88572475295939
 31
0.0
 11
731.49905389510218
 21
133.80201670725938
 31
0.0
 11
731.45407244187345
 21
133.73525001335739
 31
0.0
 11
731.41251798998837
 21
133.66324752367663
 31
0.0
 11
731.37439268575577
 21
133.58938916129517
 31
0.0
 11
731.34262572011107
 21
133.51568133216529
 31
0.0
 11
731.30998178508969
 21
133.4121761252174
 31
0.0
  0
SPLINE
  5
113
100
AcDbEntity
  8
1
  6
CONTINUOUS
 62
           7
100
AcDbSpline
210
0.0
220
0.0
230
1.0
 70
           0
 71
           4
 72
           8
 73
           4
 74
           3
 42
0.00000000001
 43
0.00000000001
 44
0.00000000001
 40
0.0
 40
0.0
 40
0.0
 40
0.0
 40
0.5914864055331481
 40
0.5914864055331481
 40
0.5914864055331481
 40
0.5914864055331481
 10
731.30998178508969
 20
133.4121761252174
 30
0.0
 10
731.25320628670443
 20
133.2235864497213
 30
0.0
 10
731.22578649600291
 20
133.0275852048843
 30
0.0
 10
731.2286748382113
 20
132.83098048534231
 30
0.0
 11
731.30998178508969
 21
133.4121761252174
 31
0.0
 11
731.24695437142793
 21
133.12458394679706
 31
0.0
 11
731.2286748382113
 21
132.83098048534231
 31
0.0
  0
SPLINE
  5
112
100
AcDbEntity
  8
1
  6
CONTINUOUS
 62
           7
100
AcDbSpline
210
0.0
220
0.0
230
1.0
 70
           0
 71
           4
 72
           8
 73
           4
 74
           3
 42
0.00000000001
 43
0.00000000001
 44
0.00000000001
 40
0.0
 40
0.0
 40
0.0
 40
0.0
 40
0.627422235594221
 40
0.627422235594221
 40
0.627422235594221
 40
0.627422235594221
 10
731.2286748382113
 20
132.83098048534231
 30
0.0
 10
731.22936475492634
 20
132.62183389696071
 30
0.0
 10
731.23284441175338
 20
132.41271614655261
 30
0.0
 10
731.23911289234661
 20
132.20368230397099
 30
0.0
 11
731.2286748382113
 21
132.83098048534231
 31
0.0
 11
731.23180190382459
 21
132.51728911498165
 31
0.0
 11
731.23911289234661
 21
132.20368230397099
 31
0.0
  0
SPLINE
  5
111
100
AcDbEntity
  8
1
  6
CONTINUOUS
 62
           7
100
AcDbSpline
210
0.0
220
0.0
230
1.0
 70
           0
 71
           4
 72
           8
 73
           4
 74
           3
 42
0.00000000001
 43
0.00000000001
 44
0.00000000001
 40
0.0
 40
0.0
 40
0.0
 40
0.0
 40
0.5063676213017256
 40
0.5063676213017256
 40
0.5063676213017256
 40
0.5063676213017256
 10
731.22460684969269
 20
131.69866995283371
 30
0.0
 10
731.24332830336039
 20
131.86638318569629
 30
0.0
 10
731.24817990880615
 20
132.03528663726939
 30
0.0
 10
731.23911289234661
 20
132.20368230397099
 30
0.0
 11
731.22460684969269
 21
131.69866995283371
 31
0.0
 11
731.24228054731725
 21
131.95092021571273
 31
0.0
 11
731.23911289234661
 21
132.20368230397099
 31
0.0
  0
SPLINE
  5
110
100
AcDbEntity
  8
1
  6
CONTINUOUS
 62
           7
100
AcDbSpline
210
0.0
220
0.0
230
1.0
 70
           0
 71
           4
 72
          10
 73
           6
 74
           7
 42
0.00000000001
 43
0.00000000001
 44
0.00000000001
 40
0.0
 40
0.0
 40
0.0
 40
0.0
 40
0.1014752105540652
 40
0.2024201819912586
 40
0.3035529002984185
 40
0.3035529002984185
 40
0.3035529002984185
 40
0.3035529002984185
 10
731.12022100665945
 20
131.42093434174299
 30
0.0
 10
731.15239816567055
 20
131.4599822136164
 30
0.0
 10
731.17788013018139
 20
131.5040186992689
 30
0.0
 10
731.21339435769005
 20
131.5985101110634
 30
0.0
 10
731.22318273340943
 20
131.64831613520309
 30
0.0
 10
731.22460684969269
 20
131.69866995283371
 30
0.0
 11
731.12022100665945
 21
131.42093434174299
 31
0.0
 11
731.15630345595309
 21
131.46949472246487
 31
0.0
 11
731.17749457526975
 21
131.50890239761696
 31
0.0
 11
731.19516920479521
 21
131.55149899910535
 31
0.0
 11
731.20991538964802
 21
131.59518332631035
 31
0.0
 11
731.21986530436288
 21
131.63862145541071
 31
0.0
 11
731.22460684969269
 21
131.69866995283371
 31
0.0
  0
SPLINE
  5
10F
100
AcDbEntity
  8
1
  6
CONTINUOUS
 62
           7
100
AcDbSpline
210
0.0
220
0.0
230
1.0
 70
           0
 71
           4
 72
          12
 73
           8
 74
          11
 42
0.00000000001
 43
0.00000000001
 44
0.00000000001
 40
0.0
 40
0.0
 40
0.0
 40
0.0
 40
0.0813389567355782
 40
0.1623613653303895
 40
0.2033380778127124
 40
0.2843632483703887
 40
0.3657079752392611
 40
0.3657079752392611
 40
0.3657079752392611
 40
0.3657079752392611
 10
730.79178388400146
 20
131.3349424993736
 30
0.0
 10
730.82940030830355
 20
131.32016264012151
 30
0.0
 10
730.8697756652972
 20
131.3134893692997
 30
0.0
 10
730.95071133556053
 20
131.3172374319366
 30
0.0
 10
730.99035187954905
 20
131.32761617165551
 30
0.0
 10
731.06274253263609
 20
131.3640122100324
 30
0.0
 10
731.09466997975187
 20
131.3896158967691
 30
0.0
 10
731.12022100665945
 20
131.42093434174299
 30
0.0
 11
730.79178388400146
 21
131.3349424993736
 31
0.0
 11
730.83810092862632
 21
131.3202239018151
 31
0.0
 11
730.87594058286231
 21
131.31590229648344
 31
0.0
 11
730.91766720690441
 21
131.31625614202466
 31
0.0
 11
730.95573931304398
 21
131.31973448484391
 31
0.0
 11
730.97045900871115
 21
131.32270293963387
 31
0.0
 11
730.98474472913858
 21
131.32732864503106
 31
0.0
 11
731.01963758312706
 21
131.34295397978022
 31
0.0
 11
731.05618529795197
 21
131.36309388235139
 31
0.0
 11
731.08705509487265
 21
131.38540531119986
 31
0.0
 11
731.12022100665945
 21
131.42093434174299
 31
0.0
  0
SPLINE
  5
10E
100
AcDbEntity
  8
1
  6
CONTINUOUS
 62
           7
100
AcDbSpline
210
0.0
220
0.0
230
1.0
 70
           0
 71
           4
 72
           8
 73
           4
 74
           3
 42
0.00000000001
 43
0.00000000001
 44
0.00000000001
 40
0.0
 40
0.0
 40
0.0
 40
0.0
 40
1.0438349935686959
 40
1.0438349935686959
 40
1.0438349935686959
 40
1.0438349935686959
 10
735.19052515274939
 20
108.0623615925719
 30
0.0
 10
735.45747420258851
 20
107.84094366819249
 30
0.0
 10
735.75796429163893
 20
107.6627236811899
 30
0.0
 10
736.08098958341793
 20
107.5342291680989
 30
0.0
 11
735.19052515274939
 21
108.0623615925719
 31
0.0
 11
735.61472877735628
 21
107.76344910110225
 31
0.0
 11
736.08098958341793
 21
107.5342291680989
 31
0.0
  0
SPLINE
  5
10D
100
AcDbEntity
  8
1
  6
CONTINUOUS
 62
           7
100
AcDbSpline
210
0.0
220
0.0
230
1.0
 70
           0
 71
           4
 72
          10
 73
           6
 74
           7
 42
0.00000000001
 43
0.00000000001
 44
0.00000000001
 40
0.0
 40
0.0
 40
0.0
 40
0.0
 40
0.3696586985746853
 40
0.7387605761764911
 40
1.1091150635853184
 40
1.1091150635853184
 40
1.1091150635853184
 40
1.1091150635853184
 10
734.56751596770505
 20
108.9600710025945
 30
0.0
 10
734.62884666022114
 20
108.7861747951268
 30
0.0
 10
734.71326451528148
 20
108.62126137610809
 30
0.0
 10
734.92372285142005
 20
108.3180395352078
 30
0.0
 10
735.04882953189167
 20
108.1810765042682
 30
0.0
 10
735.19052515274939
 20
108.0623615925719
 30
0.0
 11
734.56751596770505
 21
108.9600710025945
 31
0.0
 11
734.64932605444153
 21
108.7551777591834
 31
0.0
 11
734.72729028236881
 21
108.61185887724058
 31
0.0
 11
734.81969405188295
 21
108.47061980908742
 31
0.0
 11
734.91969611744696
 21
108.33462619473875
 31
0.0
 11
735.02690256902406
 21
108.21115492178214
 31
0.0
 11
735.19052515274939
 21
108.0623615925719
 31
0.0
  0
SPLINE
  5
10C
100
AcDbEntity
  8
1
  6
CONTINUOUS
 62
           7
100
AcDbSpline
210
0.0
220
0.0
230
1.0
 70
           0
 71
           4
 72
          10
 73
           6
 74
           7
 42
0.00000000001
 43
0.00000000001
 44
0.00000000001
 40
0.0
 40
0.0
 40
0.0
 40
0.0
 40
0.1308411321909987
 40
0.2613536601697567
 40
0.3924601241527058
 40
0.3924601241527058
 40
0.3924601241527058
 40
0.3924601241527058
 10
736.70743412761476
 20
110.1935541233828
 30
0.0
 10
736.72386164873296
 20
110.1304479588827
 30
0.0
 10
736.75030978825134
 20
110.07038104053279
 30
0.0
 10
736.82126023688784
 20
109.9608385656763
 30
0.0
 10
736.86531019792596
 20
109.9120614026139
 30
0.0
 10
736.91628014350931
 20
109.871110645087
 30
0.0
 11
736.70743412761476
 21
110.1935541233828
 31
0.0
 11
736.73073529137866
 21
110.11913815820148
 31
0.0
 11
736.75555622122465
 21
110.0670770511295
 31
0.0
 11
736.78630841326299
 21
110.01599952703383
 31
0.0
 11
736.82034491256252
 21
109.9670381703025
 31
0.0
 11
736.85778266207183
 21
109.92298113486703
 31
0.0
 11
736.91628014350931
 21
109.871110645087
 31
0.0
  0
SPLINE
  5
10B
100
AcDbEntity
  8
1
  6
CONTINUOUS
 62
           7
100
AcDbSpline
210
0.0
220
0.0
230
1.0
 70
           0
 71
           4
 72
           8
 73
           4
 74
           3
 42
0.00000000001
 43
0.00000000001
 44
0.00000000001
 40
0.0
 40
0.0
 40
0.0
 40
0.0
 40
0.3712543892950067
 40
0.3712543892950067
 40
0.3712543892950067
 40
0.3712543892950067
 10
736.91628014350931
 20
109.871110645087
 30
0.0
 10
737.01384240595166
 20
109.7958473883605
 30
0.0
 10
737.12483549384376
 20
109.73950795282271
 30
0.0
 10
737.24348747362444
 20
109.70502213784179
 30
0.0
 11
736.91628014350931
 21
109.871110645087
 31
0.0
 11
737.07197516456495
 21
109.77277485080978
 31
0.0
 11
737.24348747362444
 21
109.70502213784179
 31
0.0
  0
LINE
  5
10A
100
AcDbEntity
  8
1
  6
CONTINUOUS
 62
           7
100
AcDbLine
 10
728.22296809225
 20
147.523001280783
 11
726.539043385754
 21
147.626314066819
  0
LINE
  5
109
100
AcDbEntity
  8
1
  6
CONTINUOUS
 62
           7
100
AcDbLine
 10
726.256791666161
 20
154.770357222686
 11
724.562778642874
 21
154.870113263947
  0
LINE
  5
108
100
AcDbEntity
  8
1
  6
CONTINUOUS
 62
           7
100
AcDbLine
 10
736.070999830745
 20
118.192977302462
 11
737.921830567497
 21
118.078403841606
  0
LINE
  5
107
100
AcDbEntity
  8
1
  6
CONTINUOUS
 62
           7
100
AcDbLine
 10
725.931369991442
 20
148.735138743355
 11
725.552589055302
 21
148.468653084619
  0
LINE
  5
106
100
AcDbEntity
  8
1
  6
CONTINUOUS
 62
           7
100
AcDbLine
 10
725.311951210463
 20
147.829656631135
 11
725.614368233635
 21
146.701020935585
  0
LINE
  5
105
100
AcDbEntity
  8
1
  6
CONTINUOUS
 62
           7
100
AcDbLine
 10
738.231100882009
 20
116.924246814119
 11
737.921830567497
 21
118.078403841606
  0
LINE
  5
104
100
AcDbEntity
  8
1
  6
CONTINUOUS
 62
           7
100
AcDbLine
 10
733.476895520505
 20
117.357669625094
 11
738.231100882009
 21
116.924246814119
  0
LINE
  5
103
100
AcDbEntity
  8
1
  6
CONTINUOUS
 62
           7
100
AcDbLine
 10
733.178658368075
 20
118.470705830665
 11
733.476895520505
 21
117.357669625094
  0
LINE
  5
102
100
AcDbEntity
  8
1
  6
CONTINUOUS
 62
           7
100
AcDbLine
 10
734.40132028065
 20
118.296336815991
 11
736.070999830745
 21
118.192977302462
  0
LINE
  5
101
100
AcDbEntity
  8
1
  6
CONTINUOUS
 62
           7
100
AcDbLine
 10
735.756971861206
 20
119.364945639779
 11
734.354176015891
 21
118.480742906701
  0
LINE
  5
100
100
AcDbEntity
  8
1
  6
CONTINUOUS
 62
           7
100
AcDbLine
 10
735.941590308194
 20
118.675940215607
 11
735.756971861206
 21
119.364945639779
  0
LINE
  5
FF
100
AcDbEntity
  8
1
  6
CONTINUOUS
 62
           7
100
AcDbLine
 10
736.7160952403
 20
119.175595145113
 11
736.523900181864
 21
119.892876868159
  0
LINE
  5
FE
100
AcDbEntity
  8
1
  6
CONTINUOUS
 62
           7
100
AcDbLine
 10
735.941590308194
 20
118.675940215607
 11
736.7160952403
 21
119.175595145113
  0
LINE
  5
FD
100
AcDbEntity
  8
1
  6
CONTINUOUS
 62
           7
100
AcDbLine
 10
737.295294204108
 20
120.416627416103
 11
736.523900181864
 21
119.892876868159
  0
LINE
  5
FC
100
AcDbEntity
  8
1
  6
CONTINUOUS
 62
           7
100
AcDbLine
 10
736.965133097849
 20
121.648783324595
 11
737.295294204108
 21
120.416627416103
  0
LINE
  5
FB
100
AcDbEntity
  8
1
  6
CONTINUOUS
 62
           7
100
AcDbLine
 10
733.419539866936
 20
119.150406432048
 11
736.965133097849
 21
121.648783324595
  0
LINE
  5
FA
100
AcDbEntity
  8
1
  6
CONTINUOUS
 62
           7
100
AcDbLine
 10
732.162363939777
 20
122.263601229006
 11
732.508375183543
 21
120.9722367308
  0
LINE
  5
F9
100
AcDbEntity
  8
1
  6
CONTINUOUS
 62
           7
100
AcDbLine
 10
734.512783847347
 20
124.663320147554
 11
732.372792647291
 21
122.917044830249
  0
LINE
  5
F8
100
AcDbEntity
  8
1
  6
CONTINUOUS
 62
           7
100
AcDbLine
 10
731.670387741926
 20
124.099648439018
 11
734.42367855343
 21
124.837390488488
  0
LINE
  5
F7
100
AcDbEntity
  8
1
  6
CONTINUOUS
 62
           7
100
AcDbLine
 10
731.380770638364
 20
125.180494930202
 11
731.670387741926
 21
124.099648439018
  0
LINE
  5
F6
100
AcDbEntity
  8
1
  6
CONTINUOUS
 62
           7
100
AcDbLine
 10
735.708123153651
 20
126.340005542038
 11
731.380770638364
 21
125.180494930202
  0
LINE
  5
F5
100
AcDbEntity
  8
1
  6
CONTINUOUS
 62
           7
100
AcDbLine
 10
733.603070328787
 20
122.608522123906
 11
735.834446638403
 21
124.405935776967
  0
LINE
  5
F4
100
AcDbEntity
  8
1
  6
CONTINUOUS
 62
           7
100
AcDbLine
 10
736.549535509137
 20
123.199811881249
 11
733.691683410624
 21
122.434052719365
  0
LINE
  5
F3
100
AcDbEntity
  8
1
  6
CONTINUOUS
 62
           7
100
AcDbLine
 10
736.835722885317
 20
122.13174605286
 11
736.549535509137
 21
123.199811881249
  0
LINE
  5
F2
100
AcDbEntity
  8
1
  6
CONTINUOUS
 62
           7
100
AcDbLine
 10
732.508375183543
 20
120.9722367308
 11
736.835722885317
 21
122.13174605286
  0
LINE
  5
F1
100
AcDbEntity
  8
1
  6
CONTINUOUS
 62
           7
100
AcDbLine
 10
731.209805878761
 20
125.818563353392
 11
730.264033678754
 21
129.348233256206
  0
LINE
  5
F0
100
AcDbEntity
  8
1
  6
CONTINUOUS
 62
           7
100
AcDbLine
 10
734.887664649146
 20
126.804042640792
 11
731.209805878761
 21
125.818563353392
  0
LINE
  5
EF
100
AcDbEntity
  8
1
  6
CONTINUOUS
 62
           7
100
AcDbLine
 10
734.58960447173
 20
130.514374092184
 11
735.362315535977
 21
127.630577140842
  0
LINE
  5
EE
100
AcDbEntity
  8
1
  6
CONTINUOUS
 62
           7
100
AcDbLine
 10
733.760804720333
 20
130.29229786811
 11
734.58960447173
 21
130.514374092184
  0
LINE
  5
ED
100
AcDbEntity
  8
1
  6
CONTINUOUS
 62
           7
100
AcDbLine
 10
734.392843803308
 20
127.933538117981
 11
733.760804720333
 21
130.29229786811
  0
LINE
  5
EC
100
AcDbEntity
  8
1
  6
CONTINUOUS
 62
           7
100
AcDbLine
 10
731.710044707898
 20
127.214684266911
 11
734.392843803308
 21
127.933538117981
  0
LINE
  5
EB
100
AcDbEntity
  8
1
  6
CONTINUOUS
 62
           7
100
AcDbLine
 10
731.079793088697
 20
129.566815331319
 11
731.710044707898
 21
127.214684266911
  0
LINE
  5
EA
100
AcDbEntity
  8
1
  6
CONTINUOUS
 62
           7
100
AcDbLine
 10
730.264033678754
 20
129.348233256206
 11
731.079793088697
 21
129.566815331319
  0
LINE
  5
E9
100
AcDbEntity
  8
1
  6
CONTINUOUS
 62
           7
100
AcDbLine
 10
732.027769260385
 20
129.642427920432
 11
732.484012141901
 21
127.939706306025
  0
LINE
  5
E8
100
AcDbEntity
  8
1
  6
CONTINUOUS
 62
           7
100
AcDbLine
 10
732.856648991945
 20
129.86620983076
 11
732.027769260385
 21
129.642427920432
  0
LINE
  5
E7
100
AcDbEntity
  8
1
  6
CONTINUOUS
 62
           7
100
AcDbLine
 10
733.243682915084
 20
128.421779565352
 11
732.856648991945
 21
129.86620983076
  0
LINE
  5
E6
100
AcDbEntity
  8
1
  6
CONTINUOUS
 62
           7
100
AcDbLine
 10
732.484012141901
 20
127.939706306025
 11
733.243682915084
 21
128.421779565352
  0
LINE
  5
E5
100
AcDbEntity
  8
1
  6
CONTINUOUS
 62
           7
100
AcDbLine
 10
733.611145502221
 20
130.832526986458
 11
733.131387478482
 21
132.623008306389
  0
LINE
  5
E4
100
AcDbEntity
  8
1
  6
CONTINUOUS
 62
           7
100
AcDbLine
 10
734.444521925484
 20
131.055829526062
 11
733.611145502221
 21
130.832526986458
  0
LINE
  5
E3
100
AcDbEntity
  8
1
  6
CONTINUOUS
 62
           7
100
AcDbLine
 10
733.981082803173
 20
132.785407876743
 11
734.444521925484
 21
131.055829526062
  0
LINE
  5
E2
100
AcDbEntity
  8
1
  6
CONTINUOUS
 62
           7
100
AcDbLine
 10
730.136669414568
 20
133.109346544974
 11
730.492572876728
 21
131.781096741605
  0
LINE
  5
E1
100
AcDbEntity
  8
1
  6
CONTINUOUS
 62
           7
100
AcDbLine
 10
729.315645780653
 20
132.887667386326
 11
730.136669414568
 21
133.109346544974
  0
LINE
  5
E0
100
AcDbEntity
  8
1
  6
CONTINUOUS
 62
           7
100
AcDbLine
 10
729.697351194148
 20
131.463148959309
 11
729.315645780653
 21
132.887667386326
  0
LINE
  5
DF
100
AcDbEntity
  8
1
  6
CONTINUOUS
 62
           7
100
AcDbLine
 10
729.339306422323
 20
136.033314761126
 11
729.094497041603
 21
136.946955808144
  0
LINE
  5
DE
100
AcDbEntity
  8
1
  6
CONTINUOUS
 62
           7
100
AcDbLine
 10
728.155538671998
 20
137.217175546793
 11
729.173663769904
 21
133.417549155076
  0
LINE
  5
DD
100
AcDbEntity
  8
1
  6
CONTINUOUS
 62
           7
100
AcDbLine
 10
728.474868077281
 20
137.303450951606
 11
728.155538671998
 21
137.217175546793
  0
LINE
  5
DC
100
AcDbEntity
  8
1
  6
CONTINUOUS
 62
           7
100
AcDbLine
 10
732.858166023903
 20
136.976190349648
 11
729.339306422323
 21
136.033314761126
  0
LINE
  5
DB
100
AcDbEntity
  8
1
  6
CONTINUOUS
 62
           7
100
AcDbLine
 10
733.178484487309
 20
135.780745569616
 11
732.858166023903
 21
136.976190349648
  0
LINE
  5
DA
100
AcDbEntity
  8
1
  6
CONTINUOUS
 62
           7
100
AcDbLine
 10
729.659624885729
 20
134.837869981094
 11
733.178484487309
 21
135.780745569616
  0
LINE
  5
D9
100
AcDbEntity
  8
1
  6
CONTINUOUS
 62
           7
100
AcDbLine
 10
729.981730596453
 20
133.635755103266
 11
729.659624885729
 21
134.837869981094
  0
LINE
  5
D8
100
AcDbEntity
  8
1
  6
CONTINUOUS
 62
           7
100
AcDbLine
 10
729.173663769904
 20
133.417549155076
 11
729.981730596453
 21
133.635755103266
  0
LINE
  5
D7
100
AcDbEntity
  8
1
  6
CONTINUOUS
 62
           7
100
AcDbLine
 10
727.461506333544
 20
139.807407698127
 11
727.646512840704
 21
139.116954013676
  0
LINE
  5
D6
100
AcDbEntity
  8
1
  6
CONTINUOUS
 62
           7
100
AcDbLine
 10
731.653049557111
 20
141.473746232757
 11
727.827211089183
 21
140.448615904903
  0
LINE
  5
D5
100
AcDbEntity
  8
1
  6
CONTINUOUS
 62
           7
100
AcDbLine
 10
731.973865877877
 20
140.276464765351
 11
731.653049557111
 21
141.473746232757
  0
LINE
  5
D4
100
AcDbEntity
  8
1
  6
CONTINUOUS
 62
           7
100
AcDbLine
 10
727.646512840704
 20
139.116954013676
 11
731.973865877877
 21
140.276464765351
  0
LINE
  5
D3
100
AcDbEntity
  8
1
  6
CONTINUOUS
 62
           7
100
AcDbLine
 10
729.613701943536
 20
147.437676451082
 11
728.22296809225
 21
147.523001280783
  0
LINE
  5
D2
100
AcDbEntity
  8
1
  6
CONTINUOUS
 62
           7
100
AcDbLine
 10
730.439494264191
 20
146.002749449709
 11
730.1801453546
 21
146.970635385564
  0
LINE
  5
D1
100
AcDbEntity
  8
1
  6
CONTINUOUS
 62
           7
100
AcDbLine
 10
727.825750235905
 20
144.754890714141
 11
730.439494264191
 21
146.002749449709
  0
LINE
  5
D0
100
AcDbEntity
  8
1
  6
CONTINUOUS
 62
           7
100
AcDbLine
 10
726.477238335136
 20
143.480745876448
 11
726.219701566734
 21
144.441886180942
  0
LINE
  5
CF
100
AcDbEntity
  8
1
  6
CONTINUOUS
 62
           7
100
AcDbLine
 10
729.277116213703
 20
143.698025842318
 11
726.477238335136
 21
143.480745876448
  0
LINE
  5
CE
100
AcDbEntity
  8
1
  6
CONTINUOUS
 62
           7
100
AcDbLine
 10
727.196292332784
 20
140.797199823842
 11
726.985507588683
 21
141.583859198287
  0
LINE
  5
CD
100
AcDbEntity
  8
1
  6
CONTINUOUS
 62
           7
100
AcDbLine
 10
727.22648396175
 20
142.191696674223
 11
729.337917349361
 21
143.513565910902
  0
LINE
  5
CC
100
AcDbEntity
  8
1
  6
CONTINUOUS
 62
           7
100
AcDbLine
 10
731.1352106729
 20
143.406347258762
 11
727.196292332784
 21
140.797199823842
  0
LINE
  5
CB
100
AcDbEntity
  8
1
  6
CONTINUOUS
 62
           7
100
AcDbLine
 10
730.908361511859
 20
144.252944658684
 11
731.1352106729
 21
143.406347258762
  0
LINE
  5
CA
100
AcDbEntity
  8
1
  6
CONTINUOUS
 62
           7
100
AcDbLine
 10
727.875262593099
 20
144.56485468284
 11
730.257561595241
 21
144.71831657031
  0
LINE
  5
C9
100
AcDbEntity
  8
1
  6
CONTINUOUS
 62
           7
100
AcDbLine
 10
728.674156041323
 20
149.222790913612
 11
729.436504242713
 21
149.746005963363
  0
LINE
  5
C8
100
AcDbEntity
  8
1
  6
CONTINUOUS
 62
           7
100
AcDbLine
 10
728.86801347525
 20
148.499305120772
 11
728.674156041323
 21
149.222790913612
  0
LINE
  5
C7
100
AcDbEntity
  8
1
  6
CONTINUOUS
 62
           7
100
AcDbLine
 10
728.093558569699
 20
148.005964193927
 11
728.86801347525
 21
148.499305120772
  0
LINE
  5
C6
100
AcDbEntity
  8
1
  6
CONTINUOUS
 62
           7
100
AcDbLine
 10
727.905689755005
 20
148.707100155522
 11
728.093558569699
 21
148.005964193927
  0
LINE
  5
C5
100
AcDbEntity
  8
1
  6
CONTINUOUS
 62
           7
100
AcDbLine
 10
726.491621799054
 20
147.810582887003
 11
727.905689755005
 21
148.707100155522
  0
LINE
  5
C4
100
AcDbEntity
  8
1
  6
CONTINUOUS
 62
           7
100
AcDbLine
 10
728.635074845605
 20
146.213764716322
 11
726.566872653005
 21
145.199764467657
  0
LINE
  5
C3
100
AcDbEntity
  8
1
  6
CONTINUOUS
 62
           7
100
AcDbLine
 10
725.614368233635
 20
146.701020935585
 11
728.6009802541
 21
146.403059800296
  0
LINE
  5
C2
100
AcDbEntity
  8
1
  6
CONTINUOUS
 62
           7
100
AcDbLine
 10
729.108448924612
 20
150.970325078212
 11
725.931369991442
 21
148.735138743355
  0
LINE
  5
C1
100
AcDbEntity
  8
1
  6
CONTINUOUS
 62
           7
100
AcDbLine
 10
729.436504242713
 20
149.746005963363
 11
729.108448924612
 21
150.970325078212
  0
LINE
  5
C0
100
AcDbEntity
  8
1
  6
CONTINUOUS
 62
           7
100
AcDbLine
 10
724.218534103259
 20
153.200686202044
 11
723.896119713773
 21
153.113611711737
  0
LINE
  5
BF
100
AcDbEntity
  8
1
  6
CONTINUOUS
 62
           7
100
AcDbLine
 10
725.100088477703
 20
151.837523588022
 11
724.827983212947
 21
152.853034261099
  0
LINE
  5
BE
100
AcDbEntity
  8
1
  6
CONTINUOUS
 62
           7
100
AcDbLine
 10
728.623140060979
 20
152.781522414654
 11
725.100088477703
 21
151.837523588022
  0
LINE
  5
BD
100
AcDbEntity
  8
1
  6
CONTINUOUS
 62
           7
100
AcDbLine
 10
728.938606723538
 20
151.604205812907
 11
728.623140060979
 21
152.781522414654
  0
LINE
  5
BC
100
AcDbEntity
  8
1
  6
CONTINUOUS
 62
           7
100
AcDbLine
 10
725.415549887508
 20
150.660205578803
 11
728.938606723538
 21
151.604205812907
  0
LINE
  5
BB
100
AcDbEntity
  8
1
  6
CONTINUOUS
 62
           7
100
AcDbLine
 10
725.770506377688
 20
149.335489922977
 11
725.415549887508
 21
150.660205578803
  0
LINE
  5
BA
100
AcDbEntity
  8
1
  6
CONTINUOUS
 62
           7
100
AcDbLine
 10
724.966629951644
 20
149.11841311398
 11
725.770506377688
 21
149.335489922977
  0
LINE
  5
B9
100
AcDbEntity
  8
1
  6
CONTINUOUS
 62
           7
100
AcDbLine
 10
723.896119713773
 20
153.113611711737
 11
724.966629951644
 21
149.11841311398
  0
LINE
  5
B8
100
AcDbEntity
  8
1
  6
CONTINUOUS
 62
           7
100
AcDbLine
 10
728.42906345409
 20
153.505826172121
 11
728.119626746234
 21
154.660659687568
  0
LINE
  5
B7
100
AcDbEntity
  8
1
  6
CONTINUOUS
 62
           7
100
AcDbLine
 10
723.675357604165
 20
153.937507121179
 11
728.42906345409
 21
153.505826172121
  0
LINE
  5
B6
100
AcDbEntity
  8
1
  6
CONTINUOUS
 62
           7
100
AcDbLine
 10
723.38229162932
 20
155.031244229271
 11
723.675357604165
 21
153.937507121179
  0
LINE
  5
B5
100
AcDbEntity
  8
1
  6
CONTINUOUS
 62
           7
100
AcDbLine
 10
727.171266056542
 20
158.199989965399
 11
723.632224860698
 21
155.714032158375
  0
LINE
  5
B4
100
AcDbEntity
  8
1
  6
CONTINUOUS
 62
           7
100
AcDbLine
 10
727.500424326766
 20
156.971554577192
 11
727.171266056542
 21
158.199989965399
  0
LINE
  5
B3
100
AcDbEntity
  8
1
  6
CONTINUOUS
 62
           7
100
AcDbLine
 10
726.723657751641
 20
156.467799604071
 11
727.500424326766
 21
156.971554577192
  0
LINE
  5
B2
100
AcDbEntity
  8
1
  6
CONTINUOUS
 62
           7
100
AcDbLine
 10
726.917923509852
 20
155.742789924258
 11
726.723657751641
 21
156.467799604071
  0
LINE
  5
B1
100
AcDbEntity
  8
1
  6
CONTINUOUS
 62
           7
100
AcDbLine
 10
726.12738214361
 20
155.25332013583
 11
726.917923509852
 21
155.742789924258
  0
LINE
  5
B0
100
AcDbEntity
  8
1
  6
CONTINUOUS
 62
           7
100
AcDbLine
 10
725.943168185828
 20
155.940815985739
 11
726.12738214361
 21
155.25332013583
  0
LINE
  5
AF
100
AcDbEntity
  8
1
  6
CONTINUOUS
 62
           7
100
AcDbLine
 10
724.515919451845
 20
155.054903436285
 11
725.943168185828
 21
155.940815985739
  0
LINE
  5
AE
100
AcDbEntity
  8
1
  6
CONTINUOUS
 62
           7
100
AcDbLine
 10
728.119626746234
 20
154.660659687568
 11
726.256791666161
 21
154.770357222686
  0
LINE
  5
AD
100
AcDbEntity
  8
1
  6
CONTINUOUS
 62
           7
100
AcDbLine
 10
736.080989583418
 20
107.534229168099
 11
741.256828037704
 21
105.631956998552
  0
LINE
  5
AC
100
AcDbEntity
  8
1
  6
CONTINUOUS
 62
           7
100
AcDbLine
 10
733.481123337846
 20
113.014543494196
 11
734.140365243632
 21
110.55440130568
  0
LINE
  5
AB
100
AcDbEntity
  8
1
  6
CONTINUOUS
 62
           7
100
AcDbLine
 10
738.890287894262
 20
114.464005052025
 11
733.481123337846
 21
113.014543494196
  0
LINE
  5
AA
100
AcDbEntity
  8
1
  6
CONTINUOUS
 62
           7
100
AcDbLine
 10
739.549484275459
 20
112.003850665233
 11
738.890287894262
 21
114.464005052025
  0
LINE
  5
A9
100
AcDbEntity
  8
1
  6
CONTINUOUS
 62
           7
100
AcDbLine
 10
734.140365243632
 20
110.55440130568
 11
739.549484275459
 21
112.003850665233
  0
LINE
  5
A8
100
AcDbEntity
  8
1
  6
CONTINUOUS
 62
           7
100
AcDbLine
 10
734.462329923668
 20
109.352630663189
 11
734.567515967705
 21
108.960071002595
  0
LINE
  5
A7
100
AcDbEntity
  8
1
  6
CONTINUOUS
 62
           7
100
AcDbLine
 10
736.574641394451
 20
110.689105827452
 11
734.462329923668
 21
109.352630663189
  0
LINE
  5
A6
100
AcDbEntity
  8
1
  6
CONTINUOUS
 62
           7
100
AcDbLine
 10
736.707434127615
 20
110.193554123383
 11
736.574641394451
 21
110.689105827452
  0
LINE
  5
A5
100
AcDbEntity
  8
1
  6
CONTINUOUS
 62
           7
100
AcDbLine
 10
740.474018517682
 20
108.553441899922
 11
737.243487473624
 21
109.705022137842
  0
LINE
  5
A4
100
AcDbEntity
  8
1
  6
CONTINUOUS
 62
           7
100
AcDbLine
 10
741.256828037704
 20
105.631956998552
 11
740.474018517682
 21
108.553441899922
  0
ENDBLK
  5
13A
100
AcDbEntity
  8
0
100
AcDbBlockEnd
  0
BLOCK
  5
32
100
AcDbEntity
  8
0
100
AcDbBlockBegin
  2
63000023
 70
           0
 10
992.436953030268
 20
-425.331024603275
 30
0.0
  3
63000023
  1

  0
INSERT
  5
33
100
AcDbEntity
  8
0
100
AcDbBlockReference
  2
_5
 10
837.968906152358
 20
-256.427384354491
  0
ENDBLK
  5
13B
100
AcDbEntity
  8
0
100
AcDbBlockEnd
  0
BLOCK
  5
35
100
AcDbEntity
  8
0
100
AcDbBlockBegin
  2
63300081
 70
           0
 10
247.944451037415
 20
259.483104054928
 30
0.0
  3
63300081
  1

  0
ARC
  5
243
100
AcDbEntity
  8
1
  6
CONTINUOUS
 62
           7
100
AcDbCircle
 10
748.308509008787
 20
164.316198049141
 40
12.0
100
AcDbArc
 50
104.999999999999
 51
-164.999999999999
  0
ARC
  5
242
100
AcDbEntity
  8
1
  6
CONTINUOUS
 62
           7
100
AcDbCircle
 10
746.719132473924
 20
178.384192415897
 40
2.0
100
AcDbArc
 50
-74.999999999999
 51
-29.744881296941
  0
ARC
  5
241
100
AcDbEntity
  8
1
  6
CONTINUOUS
 62
           7
100
AcDbCircle
 10
595.660639103141
 20
133.45052116442
 40
2.0
100
AcDbArc
 50
-90.0
 51
-20.817454013836
  0
ARC
  5
240
100
AcDbEntity
  8
1
  6
CONTINUOUS
 62
           7
100
AcDbCircle
 10
587.481711075615
 20
133.45052116442
 40
2.0
100
AcDbArc
 50
-159.182545986163
 51
-90.0
  0
ARC
  5
23F
100
AcDbEntity
  8
1
  6
CONTINUOUS
 62
           7
100
AcDbCircle
 10
596.554283965998
 20
131.05052116442
 40
2.0
100
AcDbArc
 50
-90.0
 51
-36.098283967108
  0
ARC
  5
23E
100
AcDbEntity
  8
1
  6
CONTINUOUS
 62
           7
100
AcDbCircle
 10
586.588066212758
 20
131.05052116442
 40
2.0
100
AcDbArc
 50
-143.901716032892
 51
-90.0
  0
ARC
  5
23D
100
AcDbEntity
  8
1
  6
CONTINUOUS
 62
           7
100
AcDbCircle
 10
593.621175089378
 20
224.803577199172
 40
1.2
100
AcDbArc
 50
0.0
 51
81.457051731816
  0
ARC
  5
23C
100
AcDbEntity
  8
1
  6
CONTINUOUS
 62
           7
100
AcDbCircle
 10
589.521175089378
 20
224.803577199172
 40
1.2
100
AcDbArc
 50
98.542948268183
 51
180.0
  0
ARC
  5
23B
100
AcDbEntity
  8
1
  6
CONTINUOUS
 62
           7
100
AcDbCircle
 10
597.071175089378
 20
180.668104889051
 40
1.0
100
AcDbArc
 50
-90.0
 51
0.0
  0
ARC
  5
23A
100
AcDbEntity
  8
1
  6
CONTINUOUS
 62
           7
100
AcDbCircle
 10
586.071175089378
 20
180.668104889051
 40
1.0
100
AcDbArc
 50
180.0
 51
-90.0
  0
ARC
  5
239
100
AcDbEntity
  8
1
  6
CONTINUOUS
 62
           7
100
AcDbCircle
 10
589.306610096524
 20
224.465400488662
 40
1.5
100
AcDbArc
 50
99.656766650524
 51
176.965867755798
  0
ARC
  5
238
100
AcDbEntity
  8
1
  6
CONTINUOUS
 62
           7
100
AcDbCircle
 10
593.835740082232
 20
224.465400488662
 40
1.5
100
AcDbArc
 50
3.034132244201
 51
80.343233349472
  0
ARC
  5
237
100
AcDbEntity
  8
1
  6
CONTINUOUS
 62
           7
100
AcDbCircle
 10
593.321175089378
 20
211.168104889051
 40
1.5
100
AcDbArc
 50
-90.0
 51
0.0
  0
ARC
  5
236
100
AcDbEntity
  8
1
  6
CONTINUOUS
 62
           7
100
AcDbCircle
 10
589.821175089378
 20
211.168104889051
 40
1.5
100
AcDbArc
 50
180.0
 51
-90.0
  0
ARC
  5
235
100
AcDbEntity
  8
1
  6
CONTINUOUS
 62
           7
100
AcDbCircle
 10
727.776788723098
 20
177.068104889051
 40
0.8
100
AcDbArc
 50
-16.699244234005
 51
90.0
  0
ARC
  5
234
100
AcDbEntity
  8
1
  6
CONTINUOUS
 62
           7
100
AcDbCircle
 10
727.446788723098
 20
175.968104889051
 40
0.8
100
AcDbArc
 50
-90.0
 51
-16.699244234005
  0
ARC
  5
233
100
AcDbEntity
  8
1
  6
CONTINUOUS
 62
           7
100
AcDbCircle
 10
725.775222439078
 20
176.568104889051
 40
0.3
100
AcDbArc
 50
90.0
 51
163.300755766023
  0
ARC
  5
232
100
AcDbEntity
  8
1
  6
CONTINUOUS
 62
           7
100
AcDbCircle
 10
719.394773397653
 20
178.868104889051
 40
1.3
100
AcDbArc
 50
-16.699244233995
 51
90.0
  0
ARC
  5
231
100
AcDbEntity
  8
1
  6
CONTINUOUS
 62
           7
100
AcDbCircle
 10
725.745222439078
 20
176.468104889051
 40
0.3
100
AcDbArc
 50
163.300755766007
 51
-90.0
  0
ARC
  5
230
100
AcDbEntity
  8
1
  6
CONTINUOUS
 62
           7
100
AcDbCircle
 10
726.518804048544
 20
176.468104889051
 40
0.3
100
AcDbArc
 50
-89.999999999978
 51
-16.699244234007
  0
ARC
  5
22F
100
AcDbEntity
  8
1
  6
CONTINUOUS
 62
           7
100
AcDbCircle
 10
726.548804048544
 20
176.568104889051
 40
0.3
100
AcDbArc
 50
-16.699244234028
 51
90.0
  0
ARC
  5
22E
100
AcDbEntity
  8
1
  6
CONTINUOUS
 62
           7
100
AcDbCircle
 10
727.794773397653
 20
178.868104889051
 40
1.3
100
AcDbArc
 50
-16.699244233998
 51
90.0
  0
ARC
  5
22D
100
AcDbEntity
  8
1
  6
CONTINUOUS
 62
           7
100
AcDbCircle
 10
726.987610178722
 20
178.668104889051
 40
0.5
100
AcDbArc
 50
-16.699244234
 51
90.0
  0
ARC
  5
22C
100
AcDbEntity
  8
1
  6
CONTINUOUS
 62
           7
100
AcDbCircle
 10
726.762834699435
 20
178.468104889051
 40
0.7
100
AcDbArc
 50
90.0
 51
163.300755766014
  0
ARC
  5
22B
100
AcDbEntity
  8
1
  6
CONTINUOUS
 62
           7
100
AcDbCircle
 10
724.517237764524
 20
175.968104889051
 40
0.8
100
AcDbArc
 50
163.300755766013
 51
-90.0
  0
ARC
  5
22A
100
AcDbEntity
  8
1
  6
CONTINUOUS
 62
           7
100
AcDbCircle
 10
725.909253089969
 20
178.868104889051
 40
1.3
100
AcDbArc
 50
90.0
 51
163.300755765999
  0
ARC
  5
229
100
AcDbEntity
  8
1
  6
CONTINUOUS
 62
           7
100
AcDbCircle
 10
717.345222439078
 20
176.468104889051
 40
0.3
100
AcDbArc
 50
163.300755766013
 51
-90.0
  0
ARC
  5
228
100
AcDbEntity
  8
1
  6
CONTINUOUS
 62
           7
100
AcDbCircle
 10
717.681763910668
 20
176.468104889051
 40
0.3
100
AcDbArc
 50
-90.0
 51
-16.699244234013
  0
ARC
  5
227
100
AcDbEntity
  8
1
  6
CONTINUOUS
 62
           7
100
AcDbCircle
 10
717.711763910668
 20
176.568104889051
 40
0.3
100
AcDbArc
 50
-16.699244234034
 51
90.0
  0
ARC
  5
226
100
AcDbEntity
  8
1
  6
CONTINUOUS
 62
           7
100
AcDbCircle
 10
718.629176462742
 20
175.968104889051
 40
0.8
100
AcDbArc
 50
-90.0
 51
-16.699244234
  0
ARC
  5
225
100
AcDbEntity
  8
1
  6
CONTINUOUS
 62
           7
100
AcDbCircle
 10
720.151058147954
 20
176.308104889051
 40
0.56
100
AcDbArc
 50
90.0
 51
163.300755766001
  0
ARC
  5
224
100
AcDbEntity
  8
1
  6
CONTINUOUS
 62
           7
100
AcDbCircle
 10
718.587610178722
 20
178.668104889051
 40
0.5
100
AcDbArc
 50
-16.699244233996
 51
90.0
  0
ARC
  5
223
100
AcDbEntity
  8
1
  6
CONTINUOUS
 62
           7
100
AcDbCircle
 10
718.362834699435
 20
178.468104889051
 40
0.7
100
AcDbArc
 50
90.0
 51
163.30075576602
  0
ARC
  5
222
100
AcDbEntity
  8
1
  6
CONTINUOUS
 62
           7
100
AcDbCircle
 10
716.117237764524
 20
175.968104889051
 40
0.8
100
AcDbArc
 50
163.300755766013
 51
-90.0
  0
ARC
  5
221
100
AcDbEntity
  8
1
  6
CONTINUOUS
 62
           7
100
AcDbCircle
 10
717.509253089969
 20
178.868104889051
 40
1.3
100
AcDbArc
 50
90.0
 51
163.300755766001
  0
ARC
  5
220
100
AcDbEntity
  8
1
  6
CONTINUOUS
 62
           7
100
AcDbCircle
 10
700.042013243811
 20
165.668104889051
 40
1.0
100
AcDbArc
 50
180.0
 51
-90.0
  0
ARC
  5
21F
100
AcDbEntity
  8
1
  6
CONTINUOUS
 62
           7
100
AcDbCircle
 10
695.50557160348
 20
130.329985586279
 40
1.2
100
AcDbArc
 50
107.326361803577
 51
-164.999999999995
  0
ARC
  5
21E
100
AcDbEntity
  8
1
  6
CONTINUOUS
 62
           7
100
AcDbCircle
 10
695.530294088663
 20
130.237720015486
 40
1.2
100
AcDbArc
 50
-165.000000000001
 51
-77.326361803574
  0
ARC
  5
21D
100
AcDbEntity
  8
1
  6
CONTINUOUS
 62
           7
100
AcDbCircle
 10
705.988003408513
 20
125.209606588396
 40
6.0
100
AcDbArc
 50
15.0
 51
102.673638196424
  0
ARC
  5
21C
100
AcDbEntity
  8
1
  6
CONTINUOUS
 62
           7
100
AcDbCircle
 10
709.970763917525
 20
141.255368455635
 40
5.0
100
AcDbArc
 50
-75.080185288319
 51
14.999999999999
  0
ARC
  5
21B
100
AcDbEntity
  8
1
  6
CONTINUOUS
 62
           7
100
AcDbCircle
 10
707.339090214795
 20
162.668104889051
 40
2.0
100
AcDbArc
 50
15.000039234687
 51
90.0
  0
ARC
  5
21A
100
AcDbEntity
  8
1
  6
CONTINUOUS
 62
           2
100
AcDbCircle
 10
713.988016899855
 20
171.468104889051
 40
0.7
100
AcDbArc
 50
90.0
 51
-164.999999999988
  0
ARC
  5
219
100
AcDbEntity
  8
1
  6
CONTINUOUS
 62
           2
100
AcDbCircle
 10
715.42156480998
 20
170.368104889051
 40
0.3
100
AcDbArc
 50
90.0
 51
-164.999999999997
  0
ARC
  5
218
100
AcDbEntity
  8
1
  6
CONTINUOUS
 62
           2
100
AcDbCircle
 10
717.538363430186
 20
162.468104889051
 40
0.3
100
AcDbArc
 50
-164.99999999997
 51
-90.0
  0
ARC
  5
217
100
AcDbEntity
  8
1
  6
CONTINUOUS
 62
           2
100
AcDbCircle
 10
718.101056734291
 20
160.368104889051
 40
0.3
100
AcDbArc
 50
90.0
 51
-164.999999999991
  0
ARC
  5
216
100
AcDbEntity
  8
1
  6
CONTINUOUS
 62
           7
100
AcDbCircle
 10
710.670910356878
 20
123.187762879044
 40
9.0
100
AcDbArc
 50
15.000039234688
 51
102.673638196424
  0
ARC
  5
215
100
AcDbEntity
  8
1
  6
CONTINUOUS
 62
           7
100
AcDbCircle
 10
680.542013243811
 20
211.168104889051
 40
1.5
100
AcDbArc
 50
180.0
 51
-90.0
  0
ARC
  5
214
100
AcDbEntity
  8
1
  6
CONTINUOUS
 62
           7
100
AcDbCircle
 10
683.042013243811
 20
211.168104889051
 40
1.5
100
AcDbArc
 50
-90.0
 51
0.0
  0
SPLINE
  5
213
100
AcDbEntity
  8
1
  6
CONTINUOUS
 62
           7
100
AcDbSpline
210
0.0
220
0.0
230
1.0
 70
           0
 71
           4
 72
          23
 73
          19
 74
          33
 42
0.00000000001
 43
0.00000000001
 44
0.00000000001
 40
0.0
 40
0.0
 40
0.0
 40
0.0
 40
0.7206413385795931
 40
1.4081519458163823
 40
2.1860510637825743
 40
3.1197589662617191
 40
4.1916509026059305
 40
5.3703773555693974
 40
6.6230152397259063
 40
7.9131525482364591
 40
9.2032898567470127
 40
10.455927740903517
 40
11.634654193867
 40
12.706546130211324
 40
13.64025403269032
 40
14.41815315065652
 40
15.105663757893341
 40
15.826305096472939
 40
15.826305096472939
 40
15.826305096472939
 40
15.826305096472939
 10
584.07117508937802
 20
93.616759177593337
 30
0.0
 10
584.10604309906034
 20
93.361047597910726
 30
0.0
 10
584.48888514959435
 20
93.101438427709837
 30
0.0
 10
585.12634554440342
 20
92.843921282430216
 30
0.0
 10
585.87732622158887
 20
92.641054182518332
 30
0.0
 10
586.79417845138721
 20
92.464440378228232
 30
0.0
 10
587.85636772325302
 20
92.320543630756532
 30
0.0
 10
589.0302868905942
 20
92.214195901750116
 30
0.0
 10
590.28122509944615
 20
92.148963498311531
 30
0.0
 10
591.57117508937802
 20
92.126979452150209
 30
0.0
 10
592.86112507930989
 20
92.148963498311531
 30
0.0
 10
594.11206328816183
 20
92.214195901750031
 30
0.0
 10
595.28598245550302
 20
92.320543630756617
 30
0.0
 10
596.34817172736894
 20
92.464440378228318
 30
0.0
 10
597.26502395716716
 20
92.641054182518218
 30
0.0
 10
598.01600463435261
 20
92.843921282430131
 30
0.0
 10
598.65346502916168
 20
93.101438427709837
 30
0.0
 10
599.03630707969558
 20
93.361047597910527
 30
0.0
 10
599.07117508937802
 20
93.616759177593337
 30
0.0
 11
584.07117508937802
 21
93.616759177593337
 31
0.0
 11
584.22504702266338
 21
93.313043387516061
 31
0.0
 11
584.50516826926503
 21
93.119878143193404
 31
0.0
 11
584.80095845544622
 21
92.980185405744621
 31
0.0
 11
585.1068970188395
 21
92.865291047180463
 31
0.0
 11
585.46513194433942
 21
92.755545518981805
 31
0.0
 11
585.83434000295415
 21
92.661692083949674
 31
0.0
 11
586.28860245182966
 21
92.564410459893949
 31
0.0
 11
586.75047905289227
 21
92.481146127927929
 31
0.0
 11
587.2848045751623
 21
92.40028224499828
 31
0.0
 11
587.82151004941659
 21
92.332943322946562
 31
0.0
 11
588.41323622457753
 21
92.272174106795731
 31
0.0
 11
589.00611640028126
 21
92.223770315911523
 31
0.0
 11
589.63714696820045
 21
92.184500640809546
 31
0.0
 11
590.2688716496524
 21
92.156898009281207
 31
0.0
 11
590.91992331277766
 21
92.13996890837214
 31
0.0
 11
591.57117508937802
 21
92.134379161414643
 31
0.0
 11
592.22242686597849
 21
92.139968908372126
 31
0.0
 11
592.87347852910364
 21
92.156898009281178
 31
0.0
 11
593.50520321055546
 21
92.184500640809475
 31
0.0
 11
594.13623377847466
 21
92.22377031591148
 31
0.0
 11
594.7291139541785
 21
92.272174106795731
 31
0.0
 11
595.32084012933944
 21
92.332943322946633
 31
0.0
 11
595.85754560359385
 21
92.400282244998365
 31
0.0
 11
596.39187112586387
 21
92.481146127927971
 31
0.0
 11
596.85374772692637
 21
92.564410459893935
 31
0.0
 11
597.30801017580177
 21
92.661692083949575
 31
0.0
 11
597.67721823441661
 21
92.755545518981691
 31
0.0
 11
598.03545315991653
 21
92.865291047180378
 31
0.0
 11
598.34139172330981
 21
92.980185405744564
 31
0.0
 11
598.63718190949089
 21
93.119878143193347
 31
0.0
 11
598.91730315609266
 21
93.313043387515933
 31
0.0
 11
599.07117508937802
 21
93.616759177593337
 31
0.0
  0
SPLINE
  5
212
100
AcDbEntity
  8
1
  6
CONTINUOUS
 62
           7
100
AcDbSpline
210
0.0
220
0.0
230
1.0
 70
           0
 71
           3
 72
           6
 73
           3
 74
           3
 42
0.00000000001
 43
0.00000000001
 44
0.00000000001
 40
0.0
 40
0.0
 40
0.0
 40
14.455998487952961
 40
14.455998487952961
 40
14.455998487952961
 10
731.56437037533465
 20
200.16624179475721
 30
0.0
 10
738.39543659868059
 20
197.79678772303711
 30
0.0
 10
745.51965611228752
 20
199.00330131667781
 30
0.0
 11
731.56437037533465
 21
200.16624179475721
 31
0.0
 11
738.46872492124589
 21
198.69077963937733
 31
0.0
 11
745.51965611228752
 21
199.00330131667781
 31
0.0
  0
SPLINE
  5
211
100
AcDbEntity
  8
1
  6
CONTINUOUS
 62
           7
100
AcDbSpline
210
0.0
220
0.0
230
1.0
 70
           0
 71
           3
 72
           6
 73
           3
 74
           3
 42
0.00000000001
 43
0.00000000001
 44
0.00000000001
 40
0.0
 40
0.0
 40
0.0
 40
8.6482390418370372
 40
8.6482390418370372
 40
8.6482390418370372
 10
694.64571980261508
 20
187.2433188152082
 30
0.0
 10
691.85728774507106
 20
190.61931500738359
 30
0.0
 10
687.91740201562493
 20
192.26447955909751
 30
0.0
 11
694.64571980261508
 21
187.2433188152082
 31
0.0
 11
691.56942432709548
 21
190.18660709726822
 31
0.0
 11
687.91740201562493
 21
192.26447955909751
 31
0.0
  0
SPLINE
  5
210
100
AcDbEntity
  8
1
  6
CONTINUOUS
 62
           7
100
AcDbSpline
210
0.0
220
0.0
230
1.0
 70
           0
 71
           3
 72
           6
 73
           3
 74
           3
 42
0.00000000001
 43
0.00000000001
 44
0.00000000001
 40
0.0
 40
0.0
 40
0.0
 40
9.105290457633636
 40
9.105290457633636
 40
9.105290457633636
 10
698.85428674998138
 20
179.70555485267309
 30
0.0
 10
697.97810862508288
 20
184.2429108173539
 30
0.0
 10
694.64571980261508
 20
187.2433188152082
 30
0.0
 11
698.85428674998138
 21
179.70555485267309
 31
0.0
 11
697.36405595069061
 21
183.85867382564729
 31
0.0
 11
694.64571980261508
 21
187.2433188152082
 31
0.0
  0
SPLINE
  5
20F
100
AcDbEntity
  8
1
  6
CONTINUOUS
 62
           7
100
AcDbSpline
210
0.0
220
0.0
230
1.0
 70
           0
 71
           2
 72
           4
 73
           2
 74
           3
 42
0.00000000001
 43
0.00000000001
 44
0.00000000001
 40
0.0
 40
0.0
 40
7.3766400870610749
 40
7.3766400870610749
 10
709.27094151290748
 20
163.18574430213849
 30
0.0
 10
707.3617216902951
 20
170.31103016608671
 30
0.0
 11
709.27094151290748
 21
163.18574430213849
 31
0.0
 11
708.31633160160129
 21
166.74838723411261
 31
0.0
 11
707.3617216902951
 21
170.31103016608671
 31
0.0
  0
CIRCLE
  5
20E
100
AcDbEntity
  8
1
  6
CONTINUOUS
 62
           2
100
AcDbCircle
 10
591.571175089378
 20
190.668104889051
 40
0.85
  0
CIRCLE
  5
20D
100
AcDbEntity
  8
1
  6
CONTINUOUS
 62
           2
100
AcDbCircle
 10
591.571175089378
 20
190.668104889051
 40
4.0
  0
CIRCLE
  5
20C
100
AcDbEntity
  8
1
  6
CONTINUOUS
 62
           7
100
AcDbCircle
 10
690.242013243811
 20
183.168104889051
 40
2.1
  0
ARC
  5
20B
100
AcDbEntity
  8
1
  6
CONTINUOUS
 62
           7
100
AcDbCircle
 10
591.575554015863
 20
170.967328684026
 40
3.29922670096
100
AcDbArc
 50
-174.800796784575
 51
-9.525314422024
  0
ARC
  5
20A
100
AcDbEntity
  8
1
  6
CONTINUOUS
 62
           7
100
AcDbCircle
 10
693.542013243811
 20
211.668104889051
 40
14.5
100
AcDbArc
 50
61.134272584993
 51
90.0
  0
ARC
  5
209
100
AcDbEntity
  8
1
  6
CONTINUOUS
 62
           7
100
AcDbCircle
 10
591.571175089378
 20
190.668104889051
 40
7.768912012944
100
AcDbArc
 50
90.0
 51
176.001339364441
  0
ARC
  5
208
100
AcDbEntity
  8
1
  6
CONTINUOUS
 62
           7
100
AcDbCircle
 10
591.571175089378
 20
190.668104889051
 40
7.768912012944
100
AcDbArc
 50
-176.00133936444
 51
-3.998660635557
  0
ARC
  5
207
100
AcDbEntity
  8
1
  6
CONTINUOUS
 62
           7
100
AcDbCircle
 10
591.571175089378
 20
190.668104889051
 40
7.768912012944
100
AcDbArc
 50
3.998660635557
 51
90.0
  0
ARC
  5
206
100
AcDbEntity
  8
1
  6
CONTINUOUS
 62
           7
100
AcDbCircle
 10
591.571175089378
 20
190.668104889051
 40
10.0
100
AcDbArc
 50
61.755682144842
 51
118.244317855157
  0
ARC
  5
205
100
AcDbEntity
  8
1
  6
CONTINUOUS
 62
           7
100
AcDbCircle
 10
591.571175089378
 20
190.668104889051
 40
10.6
100
AcDbArc
 50
118.540863628198
 51
136.981384073547
  0
ARC
  5
204
100
AcDbEntity
  8
1
  6
CONTINUOUS
 62
           7
100
AcDbCircle
 10
591.571175089378
 20
211.156691107465
 40
15.0
100
AcDbArc
 50
81.457051731814
 51
98.542948268186
  0
ARC
  5
203
100
AcDbEntity
  8
1
  6
CONTINUOUS
 62
           7
100
AcDbCircle
 10
591.571175089378
 20
190.668104889051
 40
8.75
100
AcDbArc
 50
-152.339550100699
 51
-27.660449899301
  0
ARC
  5
202
100
AcDbEntity
  8
1
  6
CONTINUOUS
 62
           7
100
AcDbCircle
 10
591.571175089378
 20
190.668104889051
 40
10.6
100
AcDbArc
 50
43.018615926453
 51
61.459136371802
  0
ARC
  5
201
100
AcDbEntity
  8
1
  6
CONTINUOUS
 62
           7
100
AcDbCircle
 10
591.571175089378
 20
211.156691107465
 40
15.0
100
AcDbArc
 50
80.343233349473
 51
99.656766650526
  0
ARC
  5
200
100
AcDbEntity
  8
1
  6
CONTINUOUS
 62
           6
100
AcDbCircle
 10
690.242013243811
 20
182.918104889051
 40
4.0
100
AcDbArc
 50
0.0
 51
180.0
  0
ARC
  5
1FF
100
AcDbEntity
  8
1
  6
CONTINUOUS
 62
           7
100
AcDbCircle
 10
690.242013243811
 20
183.168104889051
 40
6.0
100
AcDbArc
 50
42.781340998444
 51
152.370219717441
  0
ARC
  5
1FE
100
AcDbEntity
  8
1
  6
CONTINUOUS
 62
           7
100
AcDbCircle
 10
671.642063525262
 20
160.661884060177
 40
37.0
100
AcDbArc
 50
15.116808533929
 51
58.377323210067
  0
ARC
  5
1FD
100
AcDbEntity
  8
1
  6
CONTINUOUS
 62
           7
100
AcDbCircle
 10
738.714169375466
 20
201.650645135574
 40
7.302265334847
100
AcDbArc
 50
-168.271178884298
 51
-21.256104497153
  0
ARC
  5
1FC
100
AcDbEntity
  8
1
  6
CONTINUOUS
 62
           7
100
AcDbCircle
 10
688.285198056989
 20
192.918104889051
 40
0.75
100
AcDbArc
 50
172.270074701055
 51
-119.366528795298
  0
ARC
  5
1FB
100
AcDbEntity
  8
1
  6
CONTINUOUS
 62
           7
100
AcDbCircle
 10
688.285198056989
 20
192.918104889051
 40
0.75
100
AcDbArc
 50
90.0
 51
172.270074701055
  0
ARC
  5
1FA
100
AcDbEntity
  8
1
  6
CONTINUOUS
 62
           7
100
AcDbCircle
 10
696.927852858927
 20
179.168104889051
 40
2.0
100
AcDbArc
 50
90.0
 51
103.079027230495
  0
ARC
  5
1F9
100
AcDbEntity
  8
1
  6
CONTINUOUS
 62
           7
100
AcDbCircle
 10
696.927852858927
 20
179.168104889051
 40
2.0
100
AcDbArc
 50
15.588409925401
 51
90.0
  0
ARC
  5
1F8
100
AcDbEntity
  8
1
  6
CONTINUOUS
 62
           7
100
AcDbCircle
 10
693.542013243811
 20
211.668104889051
 40
14.5
100
AcDbArc
 50
90.0
 51
180.0
  0
ARC
  5
1F7
100
AcDbEntity
  8
1
  6
CONTINUOUS
 62
           7
100
AcDbCircle
 10
672.593657416601
 20
169.837898022169
 40
61.273830446095
100
AcDbArc
 50
30.208519330164
 51
62.862836619303
  0
ARC
  5
1F6
100
AcDbEntity
  8
1
  6
CONTINUOUS
 62
           7
100
AcDbCircle
 10
688.042013243811
 20
211.668104889051
 40
10.5
100
AcDbArc
 50
-75.618140401305
 51
0.0
  0
ARC
  5
1F5
100
AcDbEntity
  8
1
  6
CONTINUOUS
 62
           7
100
AcDbCircle
 10
691.542013243811
 20
211.668104889051
 40
7.0
100
AcDbArc
 50
0.0
 51
180.0
  0
LINE
  5
1F4
100
AcDbEntity
  8
1
  6
CONTINUOUS
 62
           6
100
AcDbLine
 10
693.542013243811
 20
229.124389056636
 11
693.542013243811
 21
223.556101894011
  0
LINE
  5
1F3
100
AcDbEntity
  8
1
  6
CONTINUOUS
 62
           7
100
AcDbLine
 10
747.236770564129
 20
176.452340763319
 11
745.202680467556
 21
175.90730796461
  0
LINE
  5
1F2
100
AcDbEntity
  8
1
  6
CONTINUOUS
 62
           7
100
AcDbLine
 10
739.914464532486
 20
149.278758853813
 11
737.226272032666
 21
159.311229843667
  0
LINE
  5
1F1
100
AcDbEntity
  8
1
  6
CONTINUOUS
 62
           7
100
AcDbLine
 10
751.84443121304
 20
198.476236724949
 11
740.542013243811
 21
199.418104889051
  0
LINE
  5
1F0
100
AcDbEntity
  8
1
  6
CONTINUOUS
 62
           7
100
AcDbLine
 10
751.84443121304
 20
182.859973053153
 11
752.542013243811
 21
183.618104889051
  0
LINE
  5
1EF
100
AcDbEntity
  8
1
  6
CONTINUOUS
 62
           7
100
AcDbLine
 10
750.327727529525
 20
180.668104889051
 11
751.042013243811
 21
181.918104889051
  0
LINE
  5
1EE
100
AcDbEntity
  8
1
  6
CONTINUOUS
 62
           7
100
AcDbLine
 10
750.327727529525
 20
180.668104889051
 11
748.455618758172
 21
177.391914539183
  0
LINE
  5
1ED
100
AcDbEntity
  8
1
  6
CONTINUOUS
 62
           7
100
AcDbLine
 10
752.542013243811
 20
197.718104889051
 11
752.542013243811
 21
183.618104889051
  0
LINE
  5
1EC
100
AcDbEntity
  8
1
  6
CONTINUOUS
 62
           7
100
AcDbLine
 10
751.84443121304
 20
198.476236724949
 11
752.542013243811
 21
197.718104889051
  0
LINE
  5
1EB
100
AcDbEntity
  8
1
  6
CONTINUOUS
 62
           7
100
AcDbLine
 10
751.84443121304
 20
198.476236724949
 11
751.84443121304
 21
182.859973053153
  0
LINE
  5
1EA
100
AcDbEntity
  8
1
  6
CONTINUOUS
 62
           7
100
AcDbLine
 10
751.84443121304
 20
182.859973053153
 11
751.042013243811
 21
181.918104889051
  0
LINE
  5
1E9
100
AcDbEntity
  8
1
  6
CONTINUOUS
 62
           7
100
AcDbLine
 10
737.226272032666
 20
159.311229843667
 11
736.717399093318
 21
161.210369507911
  0
LINE
  5
1E8
100
AcDbEntity
  8
1
  6
CONTINUOUS
 62
           7
100
AcDbLine
 10
594.571175089378
 20
169.584884758134
 11
594.571175089378
 21
174.168104889051
  0
LINE
  5
1E7
100
AcDbEntity
  8
1
  6
CONTINUOUS
 62
           7
100
AcDbLine
 10
594.571175089378
 20
174.168104889051
 11
595.321175089378
 21
175.668104889051
  0
LINE
  5
1E6
100
AcDbEntity
  8
1
  6
CONTINUOUS
 62
           7
100
AcDbLine
 10
587.821175089378
 20
175.668104889051
 11
588.571175089378
 21
174.168104889051
  0
LINE
  5
1E5
100
AcDbEntity
  8
1
  6
CONTINUOUS
 62
           7
100
AcDbLine
 10
588.571175089378
 20
174.168104889051
 11
594.571175089378
 21
174.168104889051
  0
LINE
  5
1E4
100
AcDbEntity
  8
1
  6
CONTINUOUS
 62
           7
100
AcDbLine
 10
588.571175089378
 20
174.168104889051
 11
588.571175089378
 21
169.604022375663
  0
LINE
  5
1E3
100
AcDbEntity
  8
1
  6
CONTINUOUS
 62
           7
100
AcDbLine
 10
587.821175089378
 20
175.668104889051
 11
595.321175089378
 21
175.668104889051
  0
LINE
  5
1E2
100
AcDbEntity
  8
1
  6
CONTINUOUS
 62
           7
100
AcDbLine
 10
595.321175089378
 20
175.668104889051
 11
594.829292905621
 21
170.421361595643
  0
LINE
  5
1E1
100
AcDbEntity
  8
1
  6
CONTINUOUS
 62
           7
100
AcDbLine
 10
587.821175089378
 20
175.668104889051
 11
588.294265130573
 21
170.621811116303
  0
LINE
  5
1E0
100
AcDbEntity
  8
1
  6
CONTINUOUS
 62
           2
100
AcDbLine
 10
585.071175089378
 20
194.420881638783
 11
585.071175089378
 21
186.915328139318
  0
LINE
  5
1DF
100
AcDbEntity
  8
1
  6
CONTINUOUS
 62
           2
100
AcDbLine
 10
585.071175089378
 20
186.915328139318
 11
591.571175089378
 21
183.162551389586
  0
LINE
  5
1DE
100
AcDbEntity
  8
1
  6
CONTINUOUS
 62
           2
100
AcDbLine
 10
591.571175089378
 20
183.162551389586
 11
598.071175089378
 21
186.915328139318
  0
LINE
  5
1DD
100
AcDbEntity
  8
1
  6
CONTINUOUS
 62
           2
100
AcDbLine
 10
598.071175089378
 20
186.915328139318
 11
598.071175089378
 21
194.420881638784
  0
LINE
  5
1DC
100
AcDbEntity
  8
1
  6
CONTINUOUS
 62
           2
100
AcDbLine
 10
598.071175089378
 20
194.420881638784
 11
591.571175089378
 21
198.173658388516
  0
LINE
  5
1DB
100
AcDbEntity
  8
1
  6
CONTINUOUS
 62
           2
100
AcDbLine
 10
591.571175089378
 20
198.173658388516
 11
585.071175089378
 21
194.420881638783
  0
LINE
  5
1DA
100
AcDbEntity
  8
1
  6
DOT_CENTER
 62
           6
100
AcDbLine
 10
746.174873009738
 20
95.004969899324
 11
733.220102406255
 21
143.352831991922
  0
LINE
  5
1D9
100
AcDbEntity
  8
1
  6
CONTINUOUS
 62
           7
100
AcDbLine
 10
695.242013243811
 20
180.82971217037
 11
696.475263310292
 21
181.116222621753
  0
LINE
  5
1D8
100
AcDbEntity
  8
1
  6
CONTINUOUS
 62
           7
100
AcDbLine
 10
685.242013243811
 20
179.668104889051
 11
683.942013243811
 21
179.668104889051
  0
LINE
  5
1D7
100
AcDbEntity
  8
1
  6
CONTINUOUS
 62
           7
100
AcDbLine
 10
725.546501576737
 20
200.667730861307
 11
725.546501576737
 21
200.658104889051
  0
LINE
  5
1D6
100
AcDbEntity
  8
1
  6
DOT_CENTER
 62
           6
100
AcDbLine
 10
733.220102406255
 20
143.352831991922
 11
720.542013243811
 21
190.668104889051
  0
LINE
  5
1D5
100
AcDbEntity
  8
1
  6
CONTINUOUS
 62
           7
100
AcDbLine
 10
746.423917754063
 20
97.075522260144
 11
719.738165666518
 21
97.075522260144
  0
LINE
  5
1D4
100
AcDbEntity
  8
1
  6
CONTINUOUS
 62
           7
100
AcDbLine
 10
744.492066101485
 20
93.557884169939
 11
739.179474056895
 21
92.134379421875
  0
LINE
  5
1D3
100
AcDbEntity
  8
1
  6
CONTINUOUS
 62
           7
100
AcDbLine
 10
716.09720639222
 20
110.663767260112
 11
711.783558366247
 21
126.762520859011
  0
LINE
  5
1D2
100
AcDbEntity
  8
1
  6
CONTINUOUS
 62
           7
100
AcDbLine
 10
750.916086300594
 20
108.220147449578
 11
747.972758659759
 21
119.204795748495
  0
LINE
  5
1D1
100
AcDbEntity
  8
1
  6
CONTINUOUS
 62
           7
100
AcDbLine
 10
599.321175089378
 20
97.075522260144
 11
599.321175089378
 21
101.075522260144
  0
LINE
  5
1D0
100
AcDbEntity
  8
1
  6
CONTINUOUS
 62
           7
100
AcDbLine
 10
583.821175089378
 20
101.075522260144
 11
583.821175089378
 21
97.075522260144
  0
LINE
  5
1CF
100
AcDbEntity
  8
1
  6
CONTINUOUS
 62
           7
100
AcDbLine
 10
599.321175089378
 20
97.075522260144
 11
583.821175089378
 21
97.075522260144
  0
LINE
  5
1CE
100
AcDbEntity
  8
1
  6
CONTINUOUS
 62
           7
100
AcDbLine
 10
584.071175089378
 20
97.075522260144
 11
584.071175089378
 21
93.616771036537
  0
LINE
  5
1CD
100
AcDbEntity
  8
1
  6
CONTINUOUS
 62
           7
100
AcDbLine
 10
599.071175089378
 20
97.075522260144
 11
599.071175089378
 21
93.616747318736
  0
LINE
  5
1CC
100
AcDbEntity
  8
1
  6
CONTINUOUS
 62
           2
100
AcDbLine
 10
594.821175089378
 20
224.803577199172
 11
594.821175089378
 21
225.63879110399
  0
LINE
  5
1CB
100
AcDbEntity
  8
1
  6
CONTINUOUS
 62
           2
100
AcDbLine
 10
588.321175089378
 20
225.63879110399
 11
588.321175089378
 21
224.803577199172
  0
LINE
  5
1CA
100
AcDbEntity
  8
1
  6
DOT_CENTER
 62
           2
100
AcDbLine
 10
591.571175089378
 20
160.335857131365
 11
591.571175089378
 21
228.442349748075
  0
LINE
  5
1C9
100
AcDbEntity
  8
1
  6
DOT_CENTER
 62
           2
100
AcDbLine
 10
591.571175089378
 20
89.061390073985
 11
591.571175089378
 21
161.962794887996
  0
LINE
  5
1C8
100
AcDbEntity
  8
1
  6
DOT_CENTER
 62
           2
100
AcDbLine
 10
581.012064566978
 20
190.668104889051
 11
591.571175089378
 21
190.668104889051
  0
LINE
  5
1C7
100
AcDbEntity
  8
1
  6
DOT_CENTER
 62
           6
100
AcDbLine
 10
582.218183004075
 20
172.168104889051
 11
591.571175089378
 21
172.168104889051
  0
LINE
  5
1C6
100
AcDbEntity
  8
1
  6
DOT_CENTER
 62
           6
100
AcDbLine
 10
591.571175089378
 20
172.168104889051
 11
600.924167174681
 21
172.168104889051
  0
LINE
  5
1C5
100
AcDbEntity
  8
1
  6
CONTINUOUS
 62
           7
100
AcDbLine
 10
591.571175089378
 20
137.45052116442
 11
598.945863731513
 21
137.45052116442
  0
LINE
  5
1C4
100
AcDbEntity
  8
1
  6
CONTINUOUS
 62
           7
100
AcDbLine
 10
584.196486447243
 20
137.45052116442
 11
591.571175089378
 21
137.45052116442
  0
LINE
  5
1C3
100
AcDbEntity
  8
1
  6
CONTINUOUS
 62
           7
100
AcDbLine
 10
584.201388082408
 20
136.45052116442
 11
585.612276162045
 21
132.739737720657
  0
LINE
  5
1C2
100
AcDbEntity
  8
1
  6
CONTINUOUS
 62
           7
100
AcDbLine
 10
597.530074016711
 20
132.739737720657
 11
598.940962096348
 21
136.45052116442
  0
LINE
  5
1C1
100
AcDbEntity
  8
1
  6
CONTINUOUS
 62
           7
100
AcDbLine
 10
587.481711075615
 20
131.45052116442
 11
595.660639103141
 21
131.45052116442
  0
LINE
  5
1C0
100
AcDbEntity
  8
1
  6
CONTINUOUS
 62
           7
100
AcDbLine
 10
584.972051152325
 20
129.872176849521
 11
583.821175089378
 21
131.45052116442
  0
LINE
  5
1BF
100
AcDbEntity
  8
1
  6
CONTINUOUS
 62
           7
100
AcDbLine
 10
598.170299026431
 20
129.872176849521
 11
599.321175089378
 21
131.45052116442
  0
LINE
  5
1BE
100
AcDbEntity
  8
1
  6
CONTINUOUS
 62
           7
100
AcDbLine
 10
586.588066212758
 20
129.05052116442
 11
596.554283965998
 21
129.05052116442
  0
LINE
  5
1BD
100
AcDbEntity
  8
1
  6
CONTINUOUS
 62
           7
100
AcDbLine
 10
590.571175089378
 20
101.075522260144
 11
583.821175089378
 21
101.075522260144
  0
LINE
  5
1BC
100
AcDbEntity
  8
1
  6
CONTINUOUS
 62
           7
100
AcDbLine
 10
592.571175089378
 20
103.075522260144
 11
599.321175089378
 21
103.075522260144
  0
LINE
  5
1BB
100
AcDbEntity
  8
1
  6
CONTINUOUS
 62
           7
100
AcDbLine
 10
599.321175089378
 20
103.075522260144
 11
599.321175089378
 21
197.899805933757
  0
LINE
  5
1BA
100
AcDbEntity
  8
1
  6
CONTINUOUS
 62
           7
100
AcDbLine
 10
583.821175089378
 20
103.075522260144
 11
583.821175089378
 21
197.899805933757
  0
LINE
  5
1B9
100
AcDbEntity
  8
1
  6
CONTINUOUS
 62
           7
100
AcDbLine
 10
586.838852038965
 20
199.47748162901
 11
586.506649685258
 21
199.979956607749
  0
LINE
  5
1B8
100
AcDbEntity
  8
1
  6
CONTINUOUS
 62
           7
100
AcDbLine
 10
596.303498139791
 20
199.47748162901
 11
596.635700493498
 21
199.979956607749
  0
LINE
  5
1B7
100
AcDbEntity
  8
1
  6
CONTINUOUS
 62
           7
100
AcDbLine
 10
586.838852038965
 20
199.47748162901
 11
588.339348729689
 21
225.01163117184
  0
LINE
  5
1B6
100
AcDbEntity
  8
1
  6
CONTINUOUS
 62
           7
100
AcDbLine
 10
594.803001449067
 20
225.01163117184
 11
596.303498139791
 21
199.47748162901
  0
LINE
  5
1B5
100
AcDbEntity
  8
1
  6
CONTINUOUS
 62
           7
100
AcDbLine
 10
585.071175089378
 20
180.668104889051
 11
585.071175089378
 21
184.810417632121
  0
LINE
  5
1B4
100
AcDbEntity
  8
1
  6
CONTINUOUS
 62
           7
100
AcDbLine
 10
597.071175089378
 20
179.668104889051
 11
586.071175089378
 21
179.668104889051
  0
LINE
  5
1B3
100
AcDbEntity
  8
1
  6
CONTINUOUS
 62
           7
100
AcDbLine
 10
598.071175089378
 20
184.810417632121
 11
598.071175089378
 21
180.668104889051
  0
LINE
  5
1B2
100
AcDbEntity
  8
1
  6
DOT_CENTER
 62
           2
100
AcDbLine
 10
591.571175089378
 20
190.668104889051
 11
602.130285611778
 21
190.668104889051
  0
LINE
  5
1B1
100
AcDbEntity
  8
1
  6
CONTINUOUS
 62
           7
100
AcDbLine
 10
583.821175089378
 20
103.075522260144
 11
590.571175089378
 21
103.075522260144
  0
LINE
  5
1B0
100
AcDbEntity
  8
1
  6
CONTINUOUS
 62
           7
100
AcDbLine
 10
598.921175089378
 20
101.075522260144
 11
598.921175089378
 21
103.075522260144
  0
LINE
  5
1AF
100
AcDbEntity
  8
1
  6
CONTINUOUS
 62
           7
100
AcDbLine
 10
592.571175089378
 20
101.075522260144
 11
592.571175089378
 21
103.075522260144
  0
LINE
  5
1AE
100
AcDbEntity
  8
1
  6
CONTINUOUS
 62
           7
100
AcDbLine
 10
590.571175089378
 20
101.075522260144
 11
590.571175089378
 21
103.075522260144
  0
LINE
  5
1AD
100
AcDbEntity
  8
1
  6
CONTINUOUS
 62
           7
100
AcDbLine
 10
584.221175089378
 20
103.075522260144
 11
584.221175089378
 21
101.075522260144
  0
LINE
  5
1AC
100
AcDbEntity
  8
1
  6
CONTINUOUS
 62
           7
100
AcDbLine
 10
599.321175089378
 20
101.075522260144
 11
592.571175089378
 21
101.075522260144
  0
LINE
  5
1AB
100
AcDbEntity
  8
1
  6
CONTINUOUS
 62
           7
100
AcDbLine
 10
595.333637352202
 20
224.544796764487
 11
596.635700493498
 21
199.979956607749
  0
LINE
  5
1AA
100
AcDbEntity
  8
1
  6
CONTINUOUS
 62
           7
100
AcDbLine
 10
586.506649685258
 20
199.979956607749
 11
587.808712826554
 21
224.544796764487
  0
LINE
  5
1A9
100
AcDbEntity
  8
1
  6
CONTINUOUS
 62
           7
100
AcDbLine
 10
588.321175089378
 20
224.803577199172
 11
588.321175089378
 21
211.168104889051
  0
LINE
  5
1A8
100
AcDbEntity
  8
1
  6
CONTINUOUS
 62
           7
100
AcDbLine
 10
594.821175089378
 20
211.168104889051
 11
594.821175089378
 21
224.803577199172
  0
LINE
  5
1A7
100
AcDbEntity
  8
1
  6
CONTINUOUS
 62
           7
100
AcDbLine
 10
589.821175089378
 20
209.668104889051
 11
593.321175089378
 21
209.668104889051
  0
LINE
  5
1A6
100
AcDbEntity
  8
1
  6
DOT_CENTER
 62
           6
100
AcDbLine
 10
720.542013243811
 20
190.668104889051
 11
716.391691530709
 21
206.157316390106
  0
LINE
  5
1A5
100
AcDbEntity
  8
1
  6
CONTINUOUS
 62
           2
100
AcDbLine
 10
718.836666776135
 20
150.668104889051
 11
720.38958104675
 21
150.668104889051
  0
LINE
  5
1A4
100
AcDbEntity
  8
1
  6
CONTINUOUS
 62
           7
100
AcDbLine
 10
725.852013243811
 20
177.868104889051
 11
726.09235629978
 21
178.669248408947
  0
LINE
  5
1A3
100
AcDbEntity
  8
1
  6
CONTINUOUS
 62
           7
100
AcDbLine
 10
726.80615193411
 20
176.381900523381
 11
726.83615193411
 21
176.481900523381
  0
LINE
  5
1A2
100
AcDbEntity
  8
1
  6
CONTINUOUS
 62
           7
100
AcDbLine
 10
725.775222439078
 20
176.868104889051
 11
726.548804048544
 21
176.868104889051
  0
LINE
  5
1A1
100
AcDbEntity
  8
1
  6
CONTINUOUS
 62
           7
100
AcDbLine
 10
725.745222439078
 20
176.168104889051
 11
726.518804048544
 21
176.168104889051
  0
LINE
  5
1A0
100
AcDbEntity
  8
1
  6
CONTINUOUS
 62
           7
100
AcDbLine
 10
727.466523321332
 20
178.524430946268
 11
727.449625504167
 21
178.468104889051
  0
LINE
  5
19F
100
AcDbEntity
  8
1
  6
CONTINUOUS
 62
           7
100
AcDbLine
 10
726.762834699435
 20
179.168104889051
 11
726.987610178722
 21
179.168104889051
  0
LINE
  5
19E
100
AcDbEntity
  8
1
  6
CONTINUOUS
 62
           7
100
AcDbLine
 10
728.213049751275
 20
175.738226580598
 11
728.543049751275
 21
176.838226580598
  0
LINE
  5
19D
100
AcDbEntity
  8
1
  6
CONTINUOUS
 62
           7
100
AcDbLine
 10
729.03994756844
 20
178.494552637815
 11
729.032013243811
 21
178.468104889051
  0
LINE
  5
19C
100
AcDbEntity
  8
1
  6
CONTINUOUS
 62
           7
100
AcDbLine
 10
728.552013243811
 20
176.868104889051
 11
728.551058147954
 21
176.868104889051
  0
LINE
  5
19B
100
AcDbEntity
  8
1
  6
CONTINUOUS
 62
           7
100
AcDbLine
 10
727.776788723098
 20
177.868104889051
 11
725.852013243811
 21
177.868104889051
  0
LINE
  5
19A
100
AcDbEntity
  8
1
  6
CONTINUOUS
 62
           7
100
AcDbLine
 10
727.446788723098
 20
175.168104889051
 11
724.517237764524
 21
175.168104889051
  0
LINE
  5
199
100
AcDbEntity
  8
1
  6
CONTINUOUS
 62
           7
100
AcDbLine
 10
729.032013243811
 20
178.468104889051
 11
727.449625504167
 21
178.468104889051
  0
LINE
  5
198
100
AcDbEntity
  8
1
  6
CONTINUOUS
 62
           7
100
AcDbLine
 10
725.457874553512
 20
176.554309254721
 11
725.487874553512
 21
176.654309254721
  0
LINE
  5
197
100
AcDbEntity
  8
1
  6
CONTINUOUS
 62
           7
100
AcDbLine
 10
723.750976736347
 20
176.197983197504
 11
724.664078919182
 21
179.241657140287
  0
LINE
  5
196
100
AcDbEntity
  8
1
  6
CONTINUOUS
 62
           7
100
AcDbLine
 10
725.909253089969
 20
180.168104889051
 11
727.794773397653
 21
180.168104889051
  0
LINE
  5
195
100
AcDbEntity
  8
1
  6
CONTINUOUS
 62
           7
100
AcDbLine
 10
723.552013243811
 20
177.868104889051
 11
721.252013243811
 21
177.868104889051
  0
LINE
  5
194
100
AcDbEntity
  8
1
  6
CONTINUOUS
 62
           7
100
AcDbLine
 10
723.252013243811
 20
176.868104889051
 11
723.552013243811
 21
177.868104889051
  0
LINE
  5
193
100
AcDbEntity
  8
1
  6
CONTINUOUS
 62
           7
100
AcDbLine
 10
720.952013243811
 20
176.868104889051
 11
723.252013243811
 21
176.868104889051
  0
LINE
  5
192
100
AcDbEntity
  8
1
  6
CONTINUOUS
 62
           7
100
AcDbLine
 10
721.252013243811
 20
177.868104889051
 11
720.952013243811
 21
176.868104889051
  0
LINE
  5
191
100
AcDbEntity
  8
1
  6
CONTINUOUS
 62
           7
100
AcDbLine
 10
717.969111796235
 20
176.381900523381
 11
717.999111796235
 21
176.481900523381
  0
LINE
  5
190
100
AcDbEntity
  8
1
  6
CONTINUOUS
 62
           7
100
AcDbLine
 10
717.652013243811
 20
176.868104889051
 11
717.711763910668
 21
176.868104889051
  0
LINE
  5
18F
100
AcDbEntity
  8
1
  6
CONTINUOUS
 62
           7
100
AcDbLine
 10
717.345222439078
 20
176.168104889051
 11
717.681763910668
 21
176.168104889051
  0
LINE
  5
18E
100
AcDbEntity
  8
1
  6
CONTINUOUS
 62
           7
100
AcDbLine
 10
717.952013243811
 20
177.868104889051
 11
717.652013243811
 21
176.868104889051
  0
LINE
  5
18D
100
AcDbEntity
  8
1
  6
CONTINUOUS
 62
           7
100
AcDbLine
 10
719.066523321333
 20
178.524430946268
 11
719.049625504167
 21
178.468104889051
  0
LINE
  5
18C
100
AcDbEntity
  8
1
  6
CONTINUOUS
 62
           7
100
AcDbLine
 10
718.362834699435
 20
179.168104889051
 11
718.587610178722
 21
179.168104889051
  0
LINE
  5
18B
100
AcDbEntity
  8
1
  6
CONTINUOUS
 62
           7
100
AcDbLine
 10
720.152013243811
 20
176.868104889051
 11
720.452013243811
 21
177.868104889051
  0
LINE
  5
18A
100
AcDbEntity
  8
1
  6
CONTINUOUS
 62
           7
100
AcDbLine
 10
720.63994756844
 20
178.494552637815
 11
720.632013243811
 21
178.468104889051
  0
LINE
  5
189
100
AcDbEntity
  8
1
  6
CONTINUOUS
 62
           7
100
AcDbLine
 10
720.152013243811
 20
176.868104889051
 11
720.151058147954
 21
176.868104889051
  0
LINE
  5
188
100
AcDbEntity
  8
1
  6
CONTINUOUS
 62
           7
100
AcDbLine
 10
720.452013243811
 20
177.868104889051
 11
717.952013243811
 21
177.868104889051
  0
LINE
  5
187
100
AcDbEntity
  8
1
  6
CONTINUOUS
 62
           7
100
AcDbLine
 10
718.629176462742
 20
175.168104889051
 11
716.117237764524
 21
175.168104889051
  0
LINE
  5
186
100
AcDbEntity
  8
1
  6
CONTINUOUS
 62
           7
100
AcDbLine
 10
719.61467542823
 20
176.469019704968
 11
719.395437490919
 21
175.738226580598
  0
LINE
  5
185
100
AcDbEntity
  8
1
  6
CONTINUOUS
 62
           7
100
AcDbLine
 10
720.632013243811
 20
178.468104889051
 11
719.049625504167
 21
178.468104889051
  0
LINE
  5
184
100
AcDbEntity
  8
1
  6
CONTINUOUS
 62
           7
100
AcDbLine
 10
717.057874553512
 20
176.554309254721
 11
717.69235629978
 21
178.669248408947
  0
LINE
  5
183
100
AcDbEntity
  8
1
  6
CONTINUOUS
 62
           7
100
AcDbLine
 10
715.350976736347
 20
176.197983197504
 11
716.264078919182
 21
179.241657140287
  0
LINE
  5
182
100
AcDbEntity
  8
1
  6
CONTINUOUS
 62
           7
100
AcDbLine
 10
717.509253089969
 20
180.168104889051
 11
719.394773397653
 21
180.168104889051
  0
LINE
  5
181
100
AcDbEntity
  8
1
  6
CONTINUOUS
 62
           7
100
AcDbLine
 10
712.942013243811
 20
179.410529131475
 11
711.660013243811
 21
177.468104889051
  0
LINE
  5
180
100
AcDbEntity
  8
1
  6
CONTINUOUS
 62
           7
100
AcDbLine
 10
712.942013243811
 20
177.468104889051
 11
712.942013243811
 21
179.410529131475
  0
LINE
  5
17F
100
AcDbEntity
  8
1
  6
CONTINUOUS
 62
           7
100
AcDbLine
 10
711.660013243811
 20
177.468104889051
 11
712.942013243811
 21
177.468104889051
  0
LINE
  5
17E
100
AcDbEntity
  8
1
  6
CONTINUOUS
 62
           7
100
AcDbLine
 10
711.000013243811
 20
176.468104889051
 11
712.942013243811
 21
176.468104889051
  0
LINE
  5
17D
100
AcDbEntity
  8
1
  6
CONTINUOUS
 62
           7
100
AcDbLine
 10
710.142013243811
 20
175.168104889051
 11
711.000013243811
 21
176.468104889051
  0
LINE
  5
17C
100
AcDbEntity
  8
1
  6
CONTINUOUS
 62
           7
100
AcDbLine
 10
712.942013243811
 20
175.168104889051
 11
712.942013243811
 21
176.468104889051
  0
LINE
  5
17B
100
AcDbEntity
  8
1
  6
CONTINUOUS
 62
           7
100
AcDbLine
 10
712.942013243811
 20
175.168104889051
 11
714.342013243811
 21
175.168104889051
  0
LINE
  5
17A
100
AcDbEntity
  8
1
  6
CONTINUOUS
 62
           7
100
AcDbLine
 10
714.342013243811
 20
180.168104889051
 11
714.342013243811
 21
175.168104889051
  0
LINE
  5
179
100
AcDbEntity
  8
1
  6
CONTINUOUS
 62
           7
100
AcDbLine
 10
711.842013243811
 20
180.168104889051
 11
714.342013243811
 21
180.168104889051
  0
LINE
  5
178
100
AcDbEntity
  8
1
  6
CONTINUOUS
 62
           7
100
AcDbLine
 10
708.542013243811
 20
175.168104889051
 11
711.842013243811
 21
180.168104889051
  0
LINE
  5
177
100
AcDbEntity
  8
1
  6
CONTINUOUS
 62
           7
100
AcDbLine
 10
708.542013243811
 20
175.168104889051
 11
710.142013243811
 21
175.168104889051
  0
LINE
  5
176
100
AcDbEntity
  8
1
  6
CONTINUOUS
 62
           6
100
AcDbLine
 10
694.242013243811
 20
182.918104889051
 11
694.242013243811
 21
180.597390714106
  0
LINE
  5
175
100
AcDbEntity
  8
1
  6
CONTINUOUS
 62
           6
100
AcDbLine
 10
686.242013243811
 20
182.918104889051
 11
686.242013243811
 21
179.668104889051
  0
LINE
  5
174
100
AcDbEntity
  8
1
  6
CONTINUOUS
 62
           7
100
AcDbLine
 10
682.542013243811
 20
181.918104889051
 11
685.242013243811
 21
186.484729679406
  0
LINE
  5
173
100
AcDbEntity
  8
1
  6
CONTINUOUS
 62
           7
100
AcDbLine
 10
683.942013243811
 20
179.668104889051
 11
682.542013243811
 21
181.918104889051
  0
LINE
  5
172
100
AcDbEntity
  8
1
  6
CONTINUOUS
 62
           7
100
AcDbLine
 10
685.242013243811
 20
179.668104889051
 11
682.542013243811
 21
181.918104889051
  0
LINE
  5
171
100
AcDbEntity
  8
1
  6
CONTINUOUS
 62
           7
100
AcDbLine
 10
646.241757722722
 20
182.899192876107
 11
646.241757722722
 21
198.437016901995
  0
LINE
  5
170
100
AcDbEntity
  8
1
  6
CONTINUOUS
 62
           7
100
AcDbLine
 10
645.542013243811
 20
197.718104889051
 11
646.241757722722
 21
198.437016901995
  0
LINE
  5
16F
100
AcDbEntity
  8
1
  6
CONTINUOUS
 62
           7
100
AcDbLine
 10
645.542013243811
 20
197.718104889051
 11
645.542013243811
 21
183.618104889051
  0
LINE
  5
16E
100
AcDbEntity
  8
1
  6
CONTINUOUS
 62
           7
100
AcDbLine
 10
646.241757722722
 20
198.437016901995
 11
682.542013243811
 21
199.418104889051
  0
LINE
  5
16D
100
AcDbEntity
  8
1
  6
CONTINUOUS
 62
           7
100
AcDbLine
 10
646.241757722722
 20
182.899192876107
 11
682.542013243811
 21
181.918104889051
  0
LINE
  5
16C
100
AcDbEntity
  8
1
  6
CONTINUOUS
 62
           6
100
AcDbLine
 10
690.242013243811
 20
179.668104889051
 11
685.242013243811
 21
179.668104889051
  0
LINE
  5
16B
100
AcDbEntity
  8
1
  6
CONTINUOUS
 62
           7
100
AcDbLine
 10
699.042013243811
 20
178.798349079372
 11
699.042013243811
 21
165.668104889051
  0
LINE
  5
16A
100
AcDbEntity
  8
1
  6
CONTINUOUS
 62
           7
100
AcDbLine
 10
753.90227962005
 20
97.075522260144
 11
750.916086300594
 21
108.220147449578
  0
LINE
  5
169
100
AcDbEntity
  8
1
  6
CONTINUOUS
 62
           7
100
AcDbLine
 10
753.668361451231
 20
96.016665098413
 11
744.492066101485
 21
93.557884169939
  0
LINE
  5
168
100
AcDbEntity
  8
1
  6
CONTINUOUS
 62
           7
100
AcDbLine
 10
737.855498823694
 20
97.075522260144
 11
739.179474056895
 21
92.134379421875
  0
LINE
  5
167
100
AcDbEntity
  8
1
  6
CONTINUOUS
 62
           7
100
AcDbLine
 10
753.90227962005
 20
97.075522260144
 11
746.423917754063
 21
97.075522260144
  0
LINE
  5
166
100
AcDbEntity
  8
1
  6
CONTINUOUS
 62
           7
100
AcDbLine
 10
719.738165666518
 20
97.075522260144
 11
716.09720639222
 21
110.663767260112
  0
LINE
  5
165
100
AcDbEntity
  8
1
  6
CONTINUOUS
 62
           7
100
AcDbLine
 10
704.671619384158
 20
131.063420140297
 11
695.793570893534
 21
129.066957305106
  0
LINE
  5
164
100
AcDbEntity
  8
1
  6
CONTINUOUS
 62
           7
100
AcDbLine
 10
694.346460611933
 20
130.019402732156
 11
694.371183097117
 21
129.927137161363
  0
LINE
  5
163
100
AcDbEntity
  8
1
  6
CONTINUOUS
 62
           7
100
AcDbLine
 10
709.557539332261
 20
135.970819273946
 11
709.33481984171
 21
135.901337447035
  0
LINE
  5
162
100
AcDbEntity
  8
1
  6
CONTINUOUS
 62
           7
100
AcDbLine
 10
709.557539332261
 20
135.970819273946
 11
711.258098825047
 21
136.423932971653
  0
LINE
  5
161
100
AcDbEntity
  8
1
  6
CONTINUOUS
 62
           7
100
AcDbLine
 10
714.800427026544
 20
142.549479950291
 11
713.04114415455
 21
149.115195029319
  0
LINE
  5
160
100
AcDbEntity
  8
1
  6
CONTINUOUS
 62
           7
100
AcDbLine
 10
700.042013243811
 20
164.668104889051
 11
707.339090214795
 21
164.668104889051
  0
LINE
  5
15F
100
AcDbEntity
  8
1
  6
CONTINUOUS
 62
           2
100
AcDbLine
 10
713.311868821452
 20
171.286931557479
 11
718.836666776135
 21
150.668104889051
  0
LINE
  5
15E
100
AcDbEntity
  8
1
  6
CONTINUOUS
 62
           2
100
AcDbLine
 10
727.569625664607
 20
172.168104889051
 11
727.971549453254
 21
170.668104889051
  0
LINE
  5
15D
100
AcDbEntity
  8
1
  6
CONTINUOUS
 62
           2
100
AcDbLine
 10
730.249117588918
 20
162.168104889051
 11
730.651041377565
 21
160.668104889051
  0
LINE
  5
15C
100
AcDbEntity
  8
1
  6
CONTINUOUS
 62
           2
100
AcDbLine
 10
730.651041377565
 20
160.668104889051
 11
718.101056734291
 21
160.668104889051
  0
LINE
  5
15B
100
AcDbEntity
  8
1
  6
CONTINUOUS
 62
           2
100
AcDbLine
 10
730.249117588918
 20
162.168104889051
 11
717.538363430186
 21
162.168104889051
  0
LINE
  5
15A
100
AcDbEntity
  8
1
  6
CONTINUOUS
 62
           2
100
AcDbLine
 10
727.971549453254
 20
170.668104889051
 11
715.42156480998
 21
170.668104889051
  0
LINE
  5
159
100
AcDbEntity
  8
1
  6
CONTINUOUS
 62
           2
100
AcDbLine
 10
727.569625664607
 20
172.168104889051
 11
713.988016899855
 21
172.168104889051
  0
LINE
  5
158
100
AcDbEntity
  8
1
  6
CONTINUOUS
 62
           2
100
AcDbLine
 10
715.131787062093
 20
170.29045917552
 11
717.248585682299
 21
162.39045917552
  0
LINE
  5
157
100
AcDbEntity
  8
1
  6
CONTINUOUS
 62
           2
100
AcDbLine
 10
717.811278986404
 20
160.29045917552
 11
720.38958104675
 21
150.668104889051
  0
LINE
  5
156
100
AcDbEntity
  8
1
  6
CONTINUOUS
 62
           7
100
AcDbLine
 10
728.542013243811
 20
192.168104889051
 11
691.042013243811
 21
192.168104889051
  0
LINE
  5
155
100
AcDbEntity
  8
1
  6
CONTINUOUS
 62
           7
100
AcDbLine
 10
728.542013243811
 20
193.668104889051
 11
688.285198056989
 21
193.668104889051
  0
LINE
  5
154
100
AcDbEntity
  8
1
  6
CONTINUOUS
 62
           7
100
AcDbLine
 10
728.542013243811
 20
193.668104889051
 11
728.542013243811
 21
192.168104889051
  0
LINE
  5
153
100
AcDbEntity
  8
1
  6
CONTINUOUS
 62
           7
100
AcDbLine
 10
753.668361451231
 20
96.016665098413
 11
753.384641529845
 21
97.075522260144
  0
LINE
  5
152
100
AcDbEntity
  8
1
  6
CONTINUOUS
 62
           7
100
AcDbLine
 10
718.130470511931
 20
103.075522260144
 11
752.294584465464
 21
103.075522260144
  0
LINE
  5
151
100
AcDbEntity
  8
1
  6
CONTINUOUS
 62
           7
100
AcDbLine
 10
718.666368896793
 20
101.075522260144
 11
752.830482850326
 21
101.075522260144
  0
LINE
  5
150
100
AcDbEntity
  8
1
  6
CONTINUOUS
 62
           7
100
AcDbLine
 10
751.776946375259
 20
103.075522260144
 11
752.312844760121
 21
101.075522260144
  0
LINE
  5
14F
100
AcDbEntity
  8
1
  6
CONTINUOUS
 62
           7
100
AcDbLine
 10
718.648108602136
 20
103.075522260144
 11
719.184006986998
 21
101.075522260144
  0
LINE
  5
14E
100
AcDbEntity
  8
1
  6
DOT_CENTER
 62
           6
100
AcDbLine
 10
687.501476342626
 20
183.168104889051
 11
693.036572155956
 21
183.168104889051
  0
LINE
  5
14D
100
AcDbEntity
  8
1
  6
CONTINUOUS
 62
           6
100
AcDbLine
 10
690.242013243811
 20
179.668104889051
 11
695.242013243811
 21
180.82971217037
  0
LINE
  5
14C
100
AcDbEntity
  8
1
  6
CONTINUOUS
 62
           7
100
AcDbLine
 10
699.042013243811
 20
178.798349079372
 11
699.003008498111
 21
179.190081482779
  0
LINE
  5
14B
100
AcDbEntity
  8
1
  6
CONTINUOUS
 62
           7
100
AcDbLine
 10
699.003008498111
 20
179.190081482779
 11
698.865091622517
 21
179.668104889051
  0
LINE
  5
14A
100
AcDbEntity
  8
1
  6
CONTINUOUS
 62
           7
100
AcDbLine
 10
698.865091622517
 20
179.668104889051
 11
698.854286749981
 21
179.705554852673
  0
LINE
  5
149
100
AcDbEntity
  8
1
  6
CONTINUOUS
 62
           6
100
AcDbLine
 10
720.542013243811
 20
190.668104889051
 11
720.542013243811
 21
190.834917586664
  0
LINE
  5
148
100
AcDbEntity
  8
1
  6
CONTINUOUS
 62
           7
100
AcDbLine
 10
738.542013243811
 20
199.584771555718
 11
725.542013243811
 21
200.668104889051
  0
LINE
  5
147
100
AcDbEntity
  8
1
  6
CONTINUOUS
 62
           7
100
AcDbLine
 10
713.04114415455
 20
149.115195029319
 11
709.270941512907
 21
163.185744302138
  0
LINE
  5
146
100
AcDbEntity
  8
1
  6
CONTINUOUS
 62
           7
100
AcDbLine
 10
747.972758659759
 20
119.204795748495
 11
739.914464532486
 21
149.278758853813
  0
LINE
  5
145
100
AcDbEntity
  8
1
  6
CONTINUOUS
 62
           7
100
AcDbLine
 10
704.671619384158
 20
131.063420140297
 11
708.696334320345
 21
131.968483206896
  0
LINE
  5
144
100
AcDbEntity
  8
1
  6
CONTINUOUS
 62
           7
100
AcDbLine
 10
725.377471083165
 20
103.075522260144
 11
719.364241198383
 21
125.517140237939
  0
LINE
  5
143
100
AcDbEntity
  8
1
  6
CONTINUOUS
 62
           7
100
AcDbLine
 10
726.985170641387
 20
97.075522260144
 11
725.913370935905
 21
101.075522260144
  0
LINE
  5
142
100
AcDbEntity
  8
1
  6
CONTINUOUS
 62
           7
100
AcDbLine
 10
709.33481984171
 20
135.901337447035
 11
695.148194649536
 21
131.475534237707
  0
LINE
  5
141
100
AcDbEntity
  8
1
  6
CONTINUOUS
 62
           7
100
AcDbLine
 10
680.542013243811
 20
209.668104889051
 11
683.042013243811
 21
209.668104889051
  0
LINE
  5
140
100
AcDbEntity
  8
1
  6
CONTINUOUS
 62
           7
100
AcDbLine
 10
684.542013243811
 20
211.168104889051
 11
684.542013243811
 21
211.668104889051
  0
LINE
  5
13F
100
AcDbEntity
  8
1
  6
CONTINUOUS
 62
           7
100
AcDbLine
 10
679.042013243811
 20
211.168104889051
 11
679.042013243811
 21
211.668104889051
  0
LINE
  5
13E
100
AcDbEntity
  8
1
  6
CONTINUOUS
 62
           7
100
AcDbLine
 10
682.542013243811
 20
199.418104889051
 11
689.542013243811
 21
201.213037230579
  0
LINE
  5
13D
100
AcDbEntity
  8
1
  6
CONTINUOUS
 62
           7
100
AcDbLine
 10
689.542013243811
 20
201.213037230579
 11
690.650036968256
 21
201.497155461749
  0
POINT
  5
13C
100
AcDbEntity
  8
1
 62
           6
100
AcDbPoint
 10
645.542013243811
 20
198.418104889051
  0
INSERT
  5
36
100
AcDbEntity
  8
0
100
AcDbBlockReference
  2
63000023
 10
992.436953030268
 20
-425.331024603275
  0
ENDBLK
  5
244
100
AcDbEntity
  8
0
100
AcDbBlockEnd
  0
BLOCK
  5
38
100
AcDbEntity
  8
0
100
AcDbBlockBegin
  2
ST_SYOUNIN
 70
           0
 10
763.907996422105
 20
88.010175634571
 30
0.0
  3
ST_SYOUNIN
  1

  0
TEXT
  5
248
100
AcDbEntity
  8
1
 62
           2
100
AcDbText
 10
766.358356065831
 20
91.004930402963
 40
2.0
  1
承認済
 41
0.89
  7
CONVERTER_1
100
AcDbText
  0
CIRCLE
  5
246
100
AcDbEntity
  8
1
  6
CONTINUOUS
 62
           2
100
AcDbCircle
 10
769.388207345929
 20
90.432011931852
 40
4.2
  0
POINT
  5
245
100
AcDbEntity
  8
1
 62
           6
100
AcDbPoint
 10
765.61439969186
 20
88.959290075988
  0
ENDBLK
  5
249
100
AcDbEntity
  8
0
100
AcDbBlockEnd
  0
BLOCK
  5
3A
100
AcDbEntity
  8
0
100
AcDbBlockBegin
  2
ST_YAMAGUTI
 70
           0
 10
815.657996422105
 20
88.010175634571
 30
0.0
  3
ST_YAMAGUTI
  1

  0
TEXT
  5
25C
100
AcDbEntity
  8
1
 62
           6
100
AcDbText
 10
818.689263452078
 20
91.015420866179
 40
2.0
  1
山
 41
0.89
  7
CONVERTER_1
100
AcDbText
  0
TEXT
  5
25B
100
AcDbEntity
  8
1
 62
           6
100
AcDbText
 10
821.679045468427
 20
90.952478086887
 40
2.0
  1
口
 41
0.89
  7
CONVERTER_1
100
AcDbText
  0
ARC
  5
25A
100
AcDbEntity
  8
1
  6
CONTINUOUS
 62
           6
100
AcDbCircle
 10
816.657996422105
 20
93.010175634571
 40
0.5
100
AcDbArc
 50
90.0
 51
180.0
  0
ARC
  5
259
100
AcDbEntity
  8
1
  6
CONTINUOUS
 62
           6
100
AcDbCircle
 10
816.657996422105
 20
89.010175634571
 40
0.5
100
AcDbArc
 50
180.0
 51
-90.0
  0
ARC
  5
258
100
AcDbEntity
  8
1
  6
CONTINUOUS
 62
           6
100
AcDbCircle
 10
825.157996422105
 20
89.010175634571
 40
0.5
100
AcDbArc
 50
-90.0
 51
0.0
  0
ARC
  5
257
100
AcDbEntity
  8
1
  6
CONTINUOUS
 62
           6
100
AcDbCircle
 10
825.157996422105
 20
93.010175634571
 40
0.5
100
AcDbArc
 50
0.0
 51
90.0
  0
ARC
  5
256
100
AcDbEntity
  8
1
  6
CONTINUOUS
 62
           6
100
AcDbCircle
 10
816.157996422105
 20
93.510175634571
 40
0.5
100
AcDbArc
 50
90.0
 51
180.0
  0
ARC
  5
255
100
AcDbEntity
  8
1
  6
CONTINUOUS
 62
           6
100
AcDbCircle
 10
816.157996422105
 20
88.510175634571
 40
0.5
100
AcDbArc
 50
180.0
 51
-90.0
  0
ARC
  5
254
100
AcDbEntity
  8
1
  6
CONTINUOUS
 62
           6
100
AcDbCircle
 10
825.657996422105
 20
88.510175634571
 40
0.5
100
AcDbArc
 50
-90.0
 51
0.0
  0
ARC
  5
253
100
AcDbEntity
  8
1
  6
CONTINUOUS
 62
           6
100
AcDbCircle
 10
825.657996422105
 20
93.510175634571
 40
0.5
100
AcDbArc
 50
0.0
 51
90.0
  0
LINE
  5
252
100
AcDbEntity
  8
1
  6
CONTINUOUS
 62
           6
100
AcDbLine
 10
816.157996422105
 20
89.010175634571
 11
816.157996422105
 21
93.010175634571
  0
LINE
  5
251
100
AcDbEntity
  8
1
  6
CONTINUOUS
 62
           6
100
AcDbLine
 10
825.157996422105
 20
93.510175634571
 11
816.657996422105
 21
93.510175634571
  0
LINE
  5
250
100
AcDbEntity
  8
1
  6
CONTINUOUS
 62
           6
100
AcDbLine
 10
825.157996422105
 20
88.510175634571
 11
816.657996422105
 21
88.510175634571
  0
LINE
  5
24F
100
AcDbEntity
  8
1
  6
CONTINUOUS
 62
           6
100
AcDbLine
 10
825.657996422105
 20
93.010175634571
 11
825.657996422105
 21
89.010175634571
  0
LINE
  5
24E
100
AcDbEntity
  8
1
  6
CONTINUOUS
 62
           6
100
AcDbLine
 10
825.657996422105
 20
94.010175634571
 11
816.157996422105
 21
94.010175634571
  0
LINE
  5
24D
100
AcDbEntity
  8
1
  6
CONTINUOUS
 62
           6
100
AcDbLine
 10
826.157996422105
 20
93.510175634571
 11
826.157996422105
 21
88.510175634571
  0
LINE
  5
24C
100
AcDbEntity
  8
1
  6
CONTINUOUS
 62
           6
100
AcDbLine
 10
825.657996422105
 20
88.010175634571
 11
816.157996422105
 21
88.010175634571
  0
LINE
  5
24B
100
AcDbEntity
  8
1
  6
CONTINUOUS
 62
           6
100
AcDbLine
 10
815.657996422105
 20
88.510175634571
 11
815.657996422105
 21
93.510175634571
  0
POINT
  5
24A
100
AcDbEntity
  8
1
 62
           6
100
AcDbPoint
 10
817.36439969186
 20
88.959290075988
  0
ENDBLK
  5
25D
100
AcDbEntity
  8
0
100
AcDbBlockEnd
  0
BLOCK
  5
3C
100
AcDbEntity
  8
0
100
AcDbBlockBegin
  2
FORMAT_A4AI
 70
           0
 10
702.037996422105
 20
156.150175634571
 30
0.0
  3
FORMAT_A4AI
  1

  0
HATCH
  5
3C1
100
AcDbEntity
  8
0
  6
CONTINUOUS
 62
           3
100
AcDbHatch
 10
0.0
 20
0.0
 30
0.0
210
0.0
220
0.0
230
1.0
  2
USER
 70
           0
 71
           1
 91
        1
 92
        1
 93
        4
 72
           1
 10
810.4534847781764
 20
74.122915108588444
 11
810.4534847781764
 21
74.609889280843021
 72
           1
 10
809.69638119558545
 20
74.122915108588444
 11
810.4534847781764
 21
74.122915108588444
 72
           1
 10
809.69638119558545
 20
74.609889280842992
 11
809.69638119558545
 21
74.122915108588444
 72
           1
 10
810.4534847781764
 20
74.609889280843021
 11
809.69638119558545
 21
74.609889280842992
 97
        4
330
304
330
303
330
302
330
293
 75
           1
 76
           0
 52
45.0
 41
0.07
 77
           0
 78
           1
 53
45.0
 43
0.0
 44
0.0
 45
-0.0494974746830583
 46
0.0494974746830583
 79
           0
 98
        1
 10
0.0
 20
0.0
  0
TEXT
  5
3C0
100
AcDbEntity
  8
1
 62
           2
100
AcDbText
 10
765.617996422105
 20
88.960175634571
 40
1.5
  1
051020
 41
0.9
  7
CONVERTER_2
100
AcDbText
  0
TEXT
  5
3BF
100
AcDbEntity
  8
1
 62
           2
100
AcDbText
 10
811.997996422105
 20
80.350175634571
 40
3.5
  1
13
 41
0.9
  7
CONVERTER_2
100
AcDbText
  0
TEXT
  5
3BE
100
AcDbEntity
  8
1
 62
           2
100
AcDbText
 10
797.447996422105
 20
80.350175634571
 40
3.5
  1
04
 41
0.9
  7
CONVERTER_2
100
AcDbText
  0
TEXT
  5
3BD
100
AcDbEntity
  8
1
 62
           2
100
AcDbText
 10
775.537996422105
 20
80.350175634571
 40
3.5
  1
2005
 41
0.9
  7
CONVERTER_2
100
AcDbText
  0
TEXT
  5
3BC
100
AcDbEntity
  8
1
 62
           6
100
AcDbText
 10
794.173032918455
 20
61.583797897344
 40
3.0
  1
AG-61-SANKOU
 41
0.9
  7
CONVERTER_2
100
AcDbText
  0
TEXT
  5
3BB
100
AcDbEntity
  8
1
 62
           2
100
AcDbText
 10
774.287996422105
 20
100.420175634571
 40
3.5
  1
13908080（外観図）
 41
0.89
  7
CONVERTER_1
100
AcDbText
  0
TEXT
  5
3BA
100
AcDbEntity
  8
1
 62
           2
100
AcDbText
 10
774.287996422105
 20
115.400175634571
 40
3.5
  1
エアーダスター
 41
0.89
  7
CONVERTER_1
100
AcDbText
  0
TEXT
  5
3B9
100
AcDbEntity
  8
1
 62
           2
100
AcDbText
 10
774.287996422105
 20
122.350175634571
 40
3.5
  1
AG-61
 41
0.9
  7
CONVERTER_2
100
AcDbText
  0
TEXT
  5
3B8
100
AcDbEntity
  8
1
 62
           6
100
AcDbText
 10
795.987996422105
 20
95.050175634571
 40
2.2
  1
点検
 41
0.89
  7
CONVERTER_1
100
AcDbText
  0
TEXT
  5
3B7
100
AcDbEntity
  8
1
 62
           6
100
AcDbText
 10
778.737996422105
 20
95.050175634571
 40
2.2
  1
検証
 41
0.89
  7
CONVERTER_1
100
AcDbText
  0
TEXT
  5
3B6
100
AcDbEntity
  8
1
 62
           2
100
AcDbText
 10
761.487996422105
 20
95.050175634571
 40
2.2
  1
承認
 41
0.89
  7
CONVERTER_1
100
AcDbText
  0
TEXT
  5
3B5
100
AcDbEntity
  8
1
 62
           6
100
AcDbText
 10
813.237996422105
 20
95.050175634571
 40
2.2
  1
作成
 41
0.89
  7
CONVERTER_1
100
AcDbText
  0
TEXT
  5
3B4
100
AcDbEntity
  8
1
 62
           2
100
AcDbText
 10
827.319039302155
 20
134.461865159223
 40
1.7
  1
改
 41
0.89
  7
CONVERTER_1
100
AcDbText
  0
TEXT
  5
3B3
100
AcDbEntity
  8
1
 62
           2
100
AcDbText
 10
822.971213225403
 20
134.585177313372
 40
1.4
  1
CAD
 41
0.9
  7
CONVERTER_2
100
AcDbText
  0
TEXT
  5
3B2
100
AcDbEntity
  8
1
 62
           2
100
AcDbText
 10
761.316762335015
 20
98.773188364899
 40
3.5
  1
番
 41
0.89
  7
CONVERTER_1
100
AcDbText
  0
TEXT
  5
3B1
100
AcDbEntity
  8
1
 62
           2
100
AcDbText
 10
766.078965267068
 20
98.773188364899
 40
3.5
  1
号
 41
0.89
  7
CONVERTER_1
100
AcDbText
  0
TEXT
  5
3B0
100
AcDbEntity
  8
1
 62
           2
100
AcDbText
 10
760.382243239523
 20
102.279842842545
 40
3.5
  1
コード
 41
0.89
  7
CONVERTER_1
100
AcDbText
  0
TEXT
  5
3AF
100
AcDbEntity
  8
1
 62
           2
100
AcDbText
 10
761.873629337355
 20
130.47116888988
 40
3.5
  1
単位
 41
0.89
  7
CONVERTER_1
100
AcDbText
  0
TEXT
  5
3AE
100
AcDbEntity
  8
1
 62
           2
100
AcDbText
 10
761.873629337355
 20
121.904743847872
 40
3.5
  1
形式
 41
0.89
  7
CONVERTER_1
100
AcDbText
  0
TEXT
  5
3AD
100
AcDbEntity
  8
1
 62
           2
100
AcDbText
 10
763.89842071092
 20
116.453382457503
 40
3.5
  1
名
 41
0.89
  7
CONVERTER_1
100
AcDbText
  0
TEXT
  5
3AC
100
AcDbEntity
  8
1
 62
           2
100
AcDbText
 10
763.89842071092
 20
108.042710598077
 40
3.5
  1
称
 41
0.89
  7
CONVERTER_1
100
AcDbText
  0
TEXT
  5
3AB
100
AcDbEntity
  8
1
 62
           2
100
AcDbText
 10
788.663176741452
 20
80.318644098488
 40
3.5
  1
年
 41
0.89
  7
CONVERTER_1
100
AcDbText
  0
TEXT
  5
3AA
100
AcDbEntity
  8
1
 62
           2
100
AcDbText
 10
803.619432470038
 20
80.569941531835
 40
3.5
  1
月
 41
0.89
  7
CONVERTER_1
100
AcDbText
  0
TEXT
  5
3A9
100
AcDbEntity
  8
1
 62
           2
100
AcDbText
 10
819.4827002141
 20
80.306865658839
 40
3.5
  1
日
 41
0.89
  7
CONVERTER_1
100
AcDbText
  0
TEXT
  5
3A8
100
AcDbEntity
  8
1
 62
           2
100
AcDbText
 10
774.287996422105
 20
130.650175634571
 40
3.5
  1
mm
 41
0.9
  7
CONVERTER_2
100
AcDbText
  0
TEXT
  5
3A7
100
AcDbEntity
  8
1
 62
           6
100
AcDbText
 10
817.367996422105
 20
88.960175634571
 40
1.5
  1
050413
 41
0.9
  7
CONVERTER_2
100
AcDbText
  0
SPLINE
  5
3A5
100
AcDbEntity
  8
971
  6
CONTINUOUS
 62
           3
100
AcDbSpline
210
0.0
220
0.0
230
1.0
 70
           0
 71
           4
 72
          10
 73
           6
 74
           7
 42
0.00000000001
 43
0.00000000001
 44
0.00000000001
 40
0.0
 40
0.0
 40
0.0
 40
0.0
 40
0.2706186364532023
 40
0.5408167736029771
 40
0.8123217740080384
 40
0.8123217740080384
 40
0.8123217740080384
 40
0.8123217740080384
 10
809.99589552064299
 20
70.971666119615605
 30
0.0
 10
810.06804164357698
 20
70.857810492438688
 30
0.0
 10
810.15837092736456
 20
70.756369782941732
 30
0.0
 10
810.36831075189207
 20
70.586274799486702
 30
0.0
 10
810.48652280844397
 20
70.518753588992709
 30
0.0
 10
810.61334097077952
 20
70.471406705463394
 30
0.0
 11
809.99589552064299
 21
70.971666119615605
 31
0.0
 11
810.08882068268281
 21
70.839948163085651
 31
0.0
 11
810.17082080357602
 21
70.753335603923048
 31
0.0
 11
810.26409135942936
 21
70.672474534604291
 31
0.0
 11
810.36255226086928
 21
70.597970128800256
 31
0.0
 11
810.46466052701919
 21
70.535428065896355
 31
0.0
 11
810.61334097077952
 21
70.471406705463394
 31
0.0
  0
SPLINE
  5
3A4
100
AcDbEntity
  8
971
  6
CONTINUOUS
 62
           3
100
AcDbSpline
210
0.0
220
0.0
230
1.0
 70
           0
 71
           4
 72
          10
 73
           6
 74
           7
 42
0.00000000001
 43
0.00000000001
 44
0.00000000001
 40
0.0
 40
0.0
 40
0.0
 40
0.0
 40
0.4175463132745338
 40
0.8337691541517719
 40
1.2527267117383256
 40
1.2527267117383256
 40
1.2527267117383256
 40
1.2527267117383256
 10
809.54210102133584
 20
70.410342067562397
 30
0.0
 10
809.6720704440088
 20
70.248562657694833
 30
0.0
 10
809.8343187831324
 20
70.115196807899324
 30
0.0
 10
810.20300530230804
 20
69.922034431008612
 30
0.0
 10
810.40546766087255
 20
69.864320917771309
 30
0.0
 10
810.61334097077952
 20
69.849097638779185
 30
0.0
 11
809.54210102133584
 21
70.410342067562397
 31
0.0
 11
809.70921360687953
 21
70.227192703478252
 31
0.0
 11
809.85542634684248
 21
70.116189933554537
 31
0.0
 11
810.01969869498214
 21
70.02108036144287
 31
0.0
 11
810.19143697487482
 21
69.940106426960128
 31
0.0
 11
810.36661199477396
 21
69.882747913515431
 31
0.0
 11
810.61334097077952
 21
69.849097638779185
 31
0.0
  0
SPLINE
  5
3A3
100
AcDbEntity
  8
971
  6
CONTINUOUS
 62
           3
100
AcDbSpline
210
0.0
220
0.0
230
1.0
 70
           0
 71
           4
 72
           8
 73
           4
 74
           3
 42
0.00000000001
 43
0.00000000001
 44
0.00000000001
 40
0.0
 40
0.0
 40
0.0
 40
0.0
 40
0.8303817909230908
 40
0.8303817909230908
 40
0.8303817909230908
 40
0.8303817909230908
 10
809.1369169215568
 20
71.122959939430601
 30
0.0
 10
809.22366380656763
 20
70.861368478014327
 30
0.0
 10
809.3613327930907
 20
70.619243033674621
 30
0.0
 10
809.54210102133584
 20
70.410342067562397
 30
0.0
 11
809.1369169215568
 21
71.122959939430601
 31
0.0
 11
809.3042509677332
 21
70.746892067757472
 31
0.0
 11
809.54210102133584
 21
70.410342067562397
 31
0.0
  0
SPLINE
  5
3A2
100
AcDbEntity
  8
971
  6
CONTINUOUS
 62
           3
100
AcDbSpline
210
0.0
220
0.0
230
1.0
 70
           0
 71
           4
 72
           8
 73
           4
 74
           3
 42
0.00000000001
 43
0.00000000001
 44
0.00000000001
 40
0.0
 40
0.0
 40
0.0
 40
0.0
 40
0.7576243308687248
 40
0.7576243308687248
 40
0.7576243308687248
 40
0.7576243308687248
 10
809.68743523169951
 20
71.656800088216414
 30
0.0
 10
809.75344028660027
 20
71.413780263099738
 30
0.0
 10
809.85753223516826
 20
71.182577309662847
 30
0.0
 10
809.99589552064299
 20
70.971666119615605
 30
0.0
 11
809.68743523169951
 21
71.656800088216414
 31
0.0
 11
809.81453103970603
 21
71.302192365764967
 31
0.0
 11
809.99589552064299
 21
70.971666119615605
 31
0.0
  0
SPLINE
  5
3A1
100
AcDbEntity
  8
971
  6
CONTINUOUS
 62
           3
100
AcDbSpline
210
0.0
220
0.0
230
1.0
 70
           0
 71
           4
 72
           8
 73
           4
 74
           3
 42
0.00000000001
 43
0.00000000001
 44
0.00000000001
 40
0.0
 40
0.0
 40
0.0
 40
0.0
 40
1.3852157611895954
 40
1.3852157611895954
 40
1.3852157611895954
 40
1.3852157611895954
 10
808.84502938702099
 20
72.470468822331569
 30
0.0
 10
808.88871612824607
 20
72.011482706988559
 30
0.0
 10
808.98668648412786
 20
71.559199175861735
 30
0.0
 10
809.1369169215568
 20
71.122959939430601
 30
0.0
 11
808.84502938702099
 21
72.470468822331569
 31
0.0
 11
808.95101926821246
 21
71.788184301289135
 31
0.0
 11
809.1369169215568
 21
71.122959939430601
 31
0.0
  0
SPLINE
  5
3A0
100
AcDbEntity
  8
971
  6
CONTINUOUS
 62
           3
100
AcDbSpline
210
0.0
220
0.0
230
1.0
 70
           0
 71
           4
 72
           8
 73
           4
 74
           3
 42
0.00000000001
 43
0.00000000001
 44
0.00000000001
 40
0.0
 40
0.0
 40
0.0
 40
0.0
 40
1.6091192133092509
 40
1.6091192133092509
 40
1.6091192133092509
 40
1.6091192133092509
 10
809.44107983736774
 20
73.241983684731665
 30
0.0
 10
809.47306552741884
 20
72.700448445245129
 30
0.0
 10
809.55555021627231
 20
72.173018313667072
 30
0.0
 10
809.68743523169951
 20
71.656800088216414
 30
0.0
 11
809.44107983736774
 21
73.241983684731665
 31
0.0
 11
809.52679528751764
 21
72.439898006210598
 31
0.0
 11
809.68743523169951
 21
71.656800088216414
 31
0.0
  0
SPLINE
  5
39F
100
AcDbEntity
  8
971
  6
CONTINUOUS
 62
           3
100
AcDbSpline
210
0.0
220
0.0
230
1.0
 70
           0
 71
           4
 72
           8
 73
           4
 74
           3
 42
0.00000000001
 43
0.00000000001
 44
0.00000000001
 40
0.0
 40
0.0
 40
0.0
 40
0.0
 40
0.7765866697767181
 40
0.7765866697767181
 40
0.7765866697767181
 40
0.7765866697767181
 10
808.75776730561199
 20
73.241983684731665
 30
0.0
 10
808.78114599717674
 20
72.977587102588089
 30
0.0
 10
808.81024059696006
 20
72.723658438892301
 30
0.0
 10
808.84502938702099
 20
72.470468822331569
 30
0.0
 11
808.75776730561199
 21
73.241983684731665
 31
0.0
 11
808.79711955938046
 21
72.852023641438052
 31
0.0
 11
808.84502938702099
 21
72.470468822331569
 31
0.0
  0
SPLINE
  5
39E
100
AcDbEntity
  8
971
  6
CONTINUOUS
 62
           3
100
AcDbSpline
210
0.0
220
0.0
230
1.0
 70
           0
 71
           4
 72
          14
 73
          10
 74
          15
 42
0.00000000001
 43
0.00000000001
 44
0.00000000001
 40
0.0
 40
0.0
 40
0.0
 40
0.0
 40
0.0534690567033298
 40
0.1066790151393806
 40
0.1334624079939686
 40
0.1865489055609267
 40
0.2132652869209163
 40
0.2662257064510214
 40
0.3193360691362565
 40
0.3193360691362565
 40
0.3193360691362565
 40
0.3193360691362565
 10
810.39993916611877
 20
73.241983684731665
 30
0.0
 10
810.42651805118339
 20
73.243725762094073
 30
0.0
 10
810.45257600101252
 20
73.250128944698744
 30
0.0
 10
810.50123351257628
 20
73.271663712986069
 30
0.0
 10
810.52344852660326
 20
73.286625106122543
 30
0.0
 10
810.56159093313772
 20
73.323548446270564
 30
0.0
 10
810.57721688041011
 20
73.345218582514093
 30
0.0
 10
810.60012917056918
 20
73.392966179275305
 30
0.0
 10
810.60723443414497
 20
73.418666283280118
 30
0.0
 10
810.60965935832098
 20
73.445001026744805
 30
0.0
 11
810.39993916611877
 21
73.241983684731665
 31
0.0
 11
810.43176161934787
 21
73.245853311201202
 31
0.0
 11
810.45586362386155
 21
73.252860130667116
 31
0.0
 11
810.4812939595497
 21
73.263168946665886
 31
0.0
 11
810.50387246164416
 21
73.27419590885836
 31
0.0
 11
810.51234411820508
 21
73.279359201704807
 31
0.0
 11
810.52077253850416
 21
73.285769607492796
 31
0.0
 11
810.54231368851435
 21
73.305321760350338
 31
0.0
 11
810.56254664923699
 21
73.326214176285617
 31
0.0
 11
810.56920424914176
 21
73.334408867084434
 31
0.0
 11
810.57461938593394
 21
73.342693937209333
 31
0.0
 11
810.58628833700186
 21
73.364823353892049
 31
0.0
 11
810.59731192112429
 21
73.389810845105842
 31
0.0
 11
810.60496311534985
 21
73.413525615059925
 31
0.0
 11
810.60965935832098
 21
73.445001026744805
 31
0.0
  0
SPLINE
  5
39D
100
AcDbEntity
  8
971
  6
CONTINUOUS
 62
           3
100
AcDbSpline
210
0.0
220
0.0
230
1.0
 70
           0
 71
           4
 72
           8
 73
           4
 74
           3
 42
0.00000000001
 43
0.00000000001
 44
0.00000000001
 40
0.0
 40
0.0
 40
0.0
 40
0.0
 40
0.8989053455147829
 40
0.8989053455147829
 40
0.8989053455147829
 40
0.8989053455147829
 10
809.34670110939373
 20
74.762513801088062
 30
0.0
 10
809.34755728016034
 20
74.459672681763479
 30
0.0
 10
809.36430884768833
 20
74.157081578366672
 30
0.0
 10
809.39688766908273
 20
73.865889805449569
 30
0.0
 11
809.34670110939373
 21
74.762513801088062
 31
0.0
 11
809.3598983952528
 21
74.309833298366016
 31
0.0
 11
809.39688766908273
 21
73.865889805449569
 31
0.0
  0
SPLINE
  5
39C
100
AcDbEntity
  8
971
  6
CONTINUOUS
 62
           3
100
AcDbSpline
210
0.0
220
0.0
230
1.0
 70
           0
 71
           4
 72
           8
 73
           4
 74
           3
 42
0.00000000001
 43
0.00000000001
 44
0.00000000001
 40
0.0
 40
0.0
 40
0.0
 40
0.0
 40
0.8971042279560043
 40
0.8971042279560043
 40
0.8971042279560043
 40
0.8971042279560043
 10
808.7142355053378
 20
73.865889805449626
 30
0.0
 10
808.70511514503767
 20
74.158172702321608
 30
0.0
 10
808.69534046461786
 20
74.460354205278279
 30
0.0
 10
808.68491153182777
 20
74.762513801088062
 30
0.0
 11
808.7142355053378
 21
73.865889805449626
 31
0.0
 11
808.7000642332664
 21
74.310498041167165
 31
0.0
 11
808.68491153182777
 21
74.762513801088062
 31
0.0
  0
SPLINE
  5
39B
100
AcDbEntity
  8
971
  6
CONTINUOUS
 62
           3
100
AcDbSpline
210
0.0
220
0.0
230
1.0
 70
           0
 71
           4
 72
          12
 73
           8
 74
          11
 42
0.00000000001
 43
0.00000000001
 44
0.00000000001
 40
0.0
 40
0.0
 40
0.0
 40
0.0
 40
0.0542442949972526
 40
0.1082117345904927
 40
0.132555971212934
 40
0.1863986820111879
 40
0.240364061835331
 40
0.240364061835331
 40
0.240364061835331
 40
0.240364061835331
 10
808.70749547571199
 20
70.399024803792898
 30
0.0
 10
808.73243608800749
 20
70.40947529810056
 30
0.0
 10
808.75544039410511
 20
70.423993895849279
 30
0.0
 10
808.79567163638717
 20
70.459965157721669
 30
0.0
 10
808.81261536810666
 20
70.47744519811485
 30
0.0
 10
808.83875611099984
 20
70.524516410836611
 30
0.0
 10
808.84776910660071
 20
70.55005682225908
 30
0.0
 10
808.85235158814726
 20
70.576544665170601
 30
0.0
 11
808.70749547571199
 21
70.399024803792898
 31
0.0
 11
808.7368347736932
 21
70.413183984654395
 31
0.0
 11
808.75797144324474
 21
70.427761670336551
 31
0.0
 11
808.77958437392363
 21
70.445851403609026
 31
0.0
 11
808.79814311177188
 21
70.462830767190241
 31
0.0
 11
808.80405161808574
 21
70.468794003978701
 31
0.0
 11
808.80936084438031
 21
70.475240703554434
 31
0.0
 11
808.82269477420368
 21
70.496342308260907
 31
0.0
 11
808.83566077918658
 21
70.521265116804059
 31
0.0
 11
808.84513651630402
 21
70.544974563350678
 31
0.0
 11
808.85235158814726
 21
70.576544665170601
 31
0.0
  0
SPLINE
  5
39A
100
AcDbEntity
  8
971
  6
CONTINUOUS
 62
           3
100
AcDbSpline
210
0.0
220
0.0
230
1.0
 70
           0
 71
           4
 72
          14
 73
          10
 74
          15
 42
0.00000000001
 43
0.00000000001
 44
0.00000000001
 40
0.0
 40
0.0
 40
0.0
 40
0.0
 40
0.0569208319579415
 40
0.1135486024407415
 40
0.1420659597216374
 40
0.1985567009299671
 40
0.2270003831302657
 40
0.283355173085409
 40
0.3398892904476393
 40
0.3398892904476393
 40
0.3398892904476393
 40
0.3398892904476393
 10
808.34772494663639
 20
71.886539005789615
 30
0.0
 10
808.37602013825392
 20
71.888269614574313
 30
0.0
 10
808.40375696240994
 20
71.895130482631146
 30
0.0
 10
808.45536776676795
 20
71.918433470923901
 30
0.0
 10
808.47880562137516
 20
71.934678674452869
 30
0.0
 10
808.518625749732
 20
71.974748129401888
 30
0.0
 10
808.53467153236534
 20
71.998233782826802
 30
0.0
 10
808.55744590751181
 20
72.049781723499308
 30
0.0
 10
808.56398205024539
 20
72.077408416367419
 30
0.0
 10
808.56534358981696
 20
72.105520229075339
 30
0.0
 11
808.34772494663639
 21
71.886539005789615
 31
0.0
 11
808.38159786228607
 21
71.890572382110719
 31
0.0
 11
808.40722450551539
 21
71.898104500391071
 31
0.0
 11
808.4342105933024
 21
71.909244979704326
 31
0.0
 11
808.45813016124407
 21
71.921186465354054
 31
0.0
 11
808.46708370342208
 21
71.926790223297161
 31
0.0
 11
808.47595127503189
 21
71.933751734369451
 31
0.0
 11
808.49848404822546
 21
71.954967441842797
 31
0.0
 11
808.5195494204097
 21
71.977629326032513
 31
0.0
 11
808.52643040319447
 21
71.986516378361543
 31
0.0
 11
808.53195564015255
 21
71.995488169104235
 31
0.0
 11
808.54365512684944
 21
72.019392362376209
 31
0.0
 11
808.55451255802529
 21
72.046340308456962
 31
0.0
 11
808.56174108261575
 21
72.071850645961533
 31
0.0
 11
808.56534358981696
 21
72.105520229075339
 31
0.0
  0
SPLINE
  5
399
100
AcDbEntity
  8
971
  6
CONTINUOUS
 62
           3
100
AcDbSpline
210
0.0
220
0.0
230
1.0
 70
           0
 71
           4
 72
          14
 73
          10
 74
          15
 42
0.00000000001
 43
0.00000000001
 44
0.00000000001
 40
0.0
 40
0.0
 40
0.0
 40
0.0
 40
0.0696611993756826
 40
0.1390509256230748
 40
0.1740913817064189
 40
0.2436365406668158
 40
0.2787691523227487
 40
0.3484981913486339
 40
0.4186313188728832
 40
0.4186313188728832
 40
0.4186313188728832
 40
0.4186313188728832
 10
811.39194662167165
 20
70.193848281812592
 30
0.0
 10
811.38920926236324
 20
70.159282297106557
 30
0.0
 10
811.3931208722779
 20
70.124514652067802
 30
0.0
 10
811.41382467786934
 20
70.058285606002499
 30
0.0
 10
811.43042798020224
 20
70.027428452631341
 30
0.0
 10
811.47436587989546
 20
69.973521216518037
 30
0.0
 10
811.50129960521485
 20
69.950962962104498
 30
0.0
 10
811.56222288912397
 20
69.917044053495843
 30
0.0
 10
811.59565660773637
 20
69.905992862024704
 30
0.0
 10
811.63027878289836
 20
69.901439491717213
 30
0.0
 11
811.39194662167165
 21
70.193848281812592
 31
0.0
 11
811.39117227049417
 21
70.15214813386595
 31
0.0
 11
811.39629709810606
 21
70.119896290846512
 31
0.0
 11
811.40578902081904
 21
70.085420726661823
 31
0.0
 11
811.41682660946321
 21
70.054580735215183
 31
0.0
 11
811.42240583035391
 21
70.042863330585334
 31
0.0
 11
811.42970656022408
 21
70.03110102855095
 31
0.0
 11
811.45272428373369
 21
70.000768904785716
 31
0.0
 11
811.4777930712437
 21
69.972094533622155
 31
0.0
 11
811.48786766830403
 21
69.962537142194066
 31
0.0
 11
811.49823700991192
 21
69.95467871740901
 31
0.0
 11
811.52631731468455
 21
69.937520717158435
 31
0.0
 11
811.55828962444184
 21
69.921113720644684
 31
0.0
 11
811.58902657265583
 21
69.909391883152438
 31
0.0
 11
811.63027878289836
 21
69.901439491717213
 31
0.0
  0
SPLINE
  5
398
100
AcDbEntity
  8
971
  6
CONTINUOUS
 62
           3
100
AcDbSpline
210
0.0
220
0.0
230
1.0
 70
           0
 71
           4
 72
           8
 73
           4
 74
           3
 42
0.00000000001
 43
0.00000000001
 44
0.00000000001
 40
0.0
 40
0.0
 40
0.0
 40
0.0
 40
1.1178041209798704
 40
1.1178041209798704
 40
1.1178041209798704
 40
1.1178041209798704
 10
813.11492378750381
 20
69.915090696906148
 30
0.0
 10
813.48703753926316
 20
69.918491475411969
 30
0.0
 10
813.85781306505351
 20
69.957878733700824
 30
0.0
 10
814.22301982158615
 20
70.032803063735741
 30
0.0
 11
813.11492378750381
 21
69.915090696906148
 31
0.0
 11
813.67156192775496
 21
69.947125548497539
 31
0.0
 11
814.22301982158615
 21
70.032803063735741
 31
0.0
  0
SPLINE
  5
397
100
AcDbEntity
  8
971
  6
CONTINUOUS
 62
           3
100
AcDbSpline
210
0.0
220
0.0
230
1.0
 70
           0
 71
           4
 72
           8
 73
           4
 74
           3
 42
0.00000000001
 43
0.00000000001
 44
0.00000000001
 40
0.0
 40
0.0
 40
0.0
 40
0.0
 40
0.6398209451397029
 40
0.6398209451397029
 40
0.6398209451397029
 40
0.6398209451397029
 10
814.22301982158615
 20
70.032803063735741
 30
0.0
 10
814.43102394828497
 20
70.077173169787557
 30
0.0
 10
814.63462731268908
 20
70.142396557736419
 30
0.0
 10
814.83171407923317
 20
70.224076022488418
 30
0.0
 11
814.22301982158615
 21
70.032803063735741
 31
0.0
 11
814.53146096046771
 21
70.1144485335995
 31
0.0
 11
814.83171407923317
 21
70.224076022488418
 31
0.0
  0
SPLINE
  5
396
100
AcDbEntity
  8
971
  6
CONTINUOUS
 62
           3
100
AcDbSpline
210
0.0
220
0.0
230
1.0
 70
           0
 71
           4
 72
           8
 73
           4
 74
           3
 42
0.00000000001
 43
0.00000000001
 44
0.00000000001
 40
0.0
 40
0.0
 40
0.0
 40
0.0
 40
0.5051289039531508
 40
0.5051289039531508
 40
0.5051289039531508
 40
0.5051289039531508
 10
814.03474220209387
 20
70.592776837292377
 30
0.0
 10
814.20044016079396
 20
70.619946265870666
 30
0.0
 10
814.36351832563514
 20
70.663360644886552
 30
0.0
 10
814.52255235693156
 20
70.71892138212084
 30
0.0
 11
814.03474220209387
 21
70.592776837292377
 31
0.0
 11
814.28114625228909
 21
70.645202368960611
 31
0.0
 11
814.52255235693156
 21
70.71892138212084
 31
0.0
  0
SPLINE
  5
395
100
AcDbEntity
  8
971
  6
CONTINUOUS
 62
           3
100
AcDbSpline
210
0.0
220
0.0
230
1.0
 70
           0
 71
           4
 72
           8
 73
           4
 74
           3
 42
0.00000000001
 43
0.00000000001
 44
0.00000000001
 40
0.0
 40
0.0
 40
0.0
 40
0.0
 40
0.4057205829704249
 40
0.4057205829704249
 40
0.4057205829704249
 40
0.4057205829704249
 10
813.63437044091938
 20
70.530329277240284
 30
0.0
 10
813.76899519613403
 20
70.542943729990512
 30
0.0
 10
813.90270689874046
 20
70.563799270735188
 30
0.0
 10
814.03474220209387
 20
70.592776837292377
 30
0.0
 11
813.63437044091938
 21
70.530329277240284
 31
0.0
 11
813.83552736595459
 21
70.555416889588727
 31
0.0
 11
814.03474220209387
 21
70.592776837292377
 31
0.0
  0
SPLINE
  5
394
100
AcDbEntity
  8
971
  6
CONTINUOUS
 62
           3
100
AcDbSpline
210
0.0
220
0.0
230
1.0
 70
           0
 71
           4
 72
           8
 73
           4
 74
           3
 42
0.00000000001
 43
0.00000000001
 44
0.00000000001
 40
0.0
 40
0.0
 40
0.0
 40
0.0
 40
0.4186199157668324
 40
0.4186199157668324
 40
0.4186199157668324
 40
0.4186199157668324
 10
814.83171407923317
 20
70.224076022488418
 30
0.0
 10
814.89839850848432
 20
70.10150903514571
 30
0.0
 10
814.96598735796772
 20
69.979429164633899
 30
0.0
 10
815.03447517614609
 20
69.857846257590893
 30
0.0
 11
814.83171407923317
 21
70.224076022488418
 31
0.0
 11
814.93241835684194
 21
70.040592109927275
 31
0.0
 11
815.03447517614609
 21
69.857846257590893
 31
0.0
  0
SPLINE
  5
393
100
AcDbEntity
  8
971
  6
CONTINUOUS
 62
           3
100
AcDbSpline
210
0.0
220
0.0
230
1.0
 70
           0
 71
           4
 72
           8
 73
           4
 74
           3
 42
0.00000000001
 43
0.00000000001
 44
0.00000000001
 40
0.0
 40
0.0
 40
0.0
 40
0.0
 40
0.6628670346825974
 40
0.6628670346825974
 40
0.6628670346825974
 40
0.6628670346825974
 10
814.12214766815748
 20
71.247185991189468
 30
0.0
 10
814.25486278263259
 20
71.070536404117107
 30
0.0
 10
814.38833221345726
 20
70.894446616275062
 30
0.0
 10
814.52255235693156
 20
70.71892138212084
 30
0.0
 11
814.12214766815748
 21
71.247185991189468
 31
0.0
 11
814.32178562666991
 21
70.982632054310855
 31
0.0
 11
814.52255235693156
 21
70.71892138212084
 31
0.0
  0
SPLINE
  5
392
100
AcDbEntity
  8
971
  6
CONTINUOUS
 62
           3
100
AcDbSpline
210
0.0
220
0.0
230
1.0
 70
           0
 71
           4
 72
           8
 73
           4
 74
           3
 42
0.00000000001
 43
0.00000000001
 44
0.00000000001
 40
0.0
 40
0.0
 40
0.0
 40
0.0
 40
1.6969871367417595
 40
1.6969871367417595
 40
1.6969871367417595
 40
1.6969871367417595
 10
815.82296559903273
 20
69.857846257590893
 30
0.0
 10
815.53370599110985
 20
70.342484052413951
 30
0.0
 10
815.20971152371817
 20
70.807208849612579
 30
0.0
 10
814.85347596222709
 20
71.247133886446306
 30
0.0
 11
815.82296559903273
 21
69.857846257590893
 31
0.0
 11
815.36333676321794
 21
70.569257356264586
 31
0.0
 11
814.85347596222709
 21
71.247133886446306
 31
0.0
  0
SPLINE
  5
391
100
AcDbEntity
  8
971
  6
CONTINUOUS
 62
           3
100
AcDbSpline
210
0.0
220
0.0
230
1.0
 70
           0
 71
           4
 72
           8
 73
           4
 74
           3
 42
0.00000000001
 43
0.00000000001
 44
0.00000000001
 40
0.0
 40
0.0
 40
0.0
 40
0.0
 40
1.4198848083633866
 40
1.4198848083633866
 40
1.4198848083633866
 40
1.4198848083633866
 10
812.21615828563836
 20
70.49289368158685
 30
0.0
 10
812.68921606267702
 20
70.481761286371395
 30
0.0
 10
813.16237780969936
 20
70.494251019853252
 30
0.0
 10
813.63437044091938
 20
70.530329277240284
 30
0.0
 11
812.21615828563836
 21
70.49289368158685
 31
0.0
 11
812.92566379296068
 21
70.493907484687625
 31
0.0
 11
813.63437044091938
 21
70.530329277240284
 31
0.0
  0
SPLINE
  5
390
100
AcDbEntity
  8
971
  6
CONTINUOUS
 62
           3
100
AcDbSpline
210
0.0
220
0.0
230
1.0
 70
           0
 71
           4
 72
           8
 73
           4
 74
           3
 42
0.00000000001
 43
0.00000000001
 44
0.00000000001
 40
0.0
 40
0.0
 40
0.0
 40
0.0
 40
1.2943058541651795
 40
1.2943058541651795
 40
1.2943058541651795
 40
1.2943058541651795
 10
812.21615828563836
 20
70.49289368158685
 30
0.0
 10
812.48523580641688
 20
70.827733257148736
 30
0.0
 10
812.74296645456218
 20
71.175030639271171
 30
0.0
 10
812.98892797969609
 20
71.530497429789875
 30
0.0
 11
812.21615828563836
 21
70.49289368158685
 31
0.0
 11
812.61121163103405
 21
71.003960350079552
 31
0.0
 11
812.98892797969609
 21
71.530497429789875
 31
0.0
  0
SPLINE
  5
38F
100
AcDbEntity
  8
971
  6
CONTINUOUS
 62
           3
100
AcDbSpline
210
0.0
220
0.0
230
1.0
 70
           0
 71
           4
 72
          14
 73
          10
 74
          15
 42
0.00000000001
 43
0.00000000001
 44
0.00000000001
 40
0.0
 40
0.0
 40
0.0
 40
0.0
 40
0.0661622021224572
 40
0.1319387845577388
 40
0.1651005028055128
 40
0.2307042284667464
 40
0.2637747374341784
 40
0.3292173038607824
 40
0.3949223480405246
 40
0.3949223480405246
 40
0.3949223480405246
 40
0.3949223480405246
 10
815.63577248481806
 20
71.530140599784104
 30
0.0
 10
815.66866818968424
 20
71.531650776814502
 30
0.0
 10
815.70094527539231
 20
71.539559357644634
 30
0.0
 10
815.76059744131044
 20
71.567275380053019
 30
0.0
 10
815.78739240220978
 20
71.58681328238535
 30
0.0
 10
815.83187775772171
 20
71.635030519610339
 30
0.0
 10
815.84913553076251
 20
71.663240940256571
 30
0.0
 10
815.87172180549555
 20
71.724662350971272
 30
0.0
 10
815.8768306549099
 20
71.757276015764049
 30
0.0
 10
815.87546518486431
 20
71.789941148666642
 30
0.0
 11
815.63577248481806
 21
71.530140599784104
 31
0.0
 11
815.67515615836646
 21
71.53438827906875
 31
0.0
 11
815.70491051028125
 21
71.543163428821998
 31
0.0
 11
815.7361264271342
 21
71.556361171604152
 31
0.0
 11
815.76370272014196
 21
71.570601996846861
 31
0.0
 11
815.77397624446212
 21
71.577330100406911
 31
0.0
 11
815.78405325804908
 21
71.585711243479267
 31
0.0
 11
815.8093350566071
 21
71.611227122123978
 31
0.0
 11
815.83272438487529
 21
71.638474251800773
 31
0.0
 11
815.84023825335782
 21
71.64916151983094
 31
0.0
 11
815.84609093622726
 21
71.659920421133052
 31
0.0
 11
815.8579579802223
 21
71.688435377679212
 31
0.0
 11
815.86846638852785
 21
71.720470960877122
 31
0.0
 11
815.87465461143961
 21
71.750631224732103
 31
0.0
 11
815.87546518486431
 21
71.789941148666642
 31
0.0
  0
SPLINE
  5
38E
100
AcDbEntity
  8
971
  6
CONTINUOUS
 62
           3
100
AcDbSpline
210
0.0
220
0.0
230
1.0
 70
           0
 71
           4
 72
           8
 73
           4
 74
           3
 42
0.00000000001
 43
0.00000000001
 44
0.00000000001
 40
0.0
 40
0.0
 40
0.0
 40
0.0
 40
1.3179194435092421
 40
1.3179194435092421
 40
1.3179194435092421
 40
1.3179194435092421
 10
811.3924213225032
 20
70.484443188447798
 30
0.0
 10
811.67308370001729
 20
70.822489778090372
 30
0.0
 10
811.94013853652086
 20
71.171448465161845
 30
0.0
 10
812.19295690091167
 20
71.530497429789875
 30
0.0
 11
811.3924213225032
 21
70.484443188447798
 31
0.0
 11
811.80313061662866
 21
70.999594418499299
 31
0.0
 11
812.19295690091167
 21
71.530497429789875
 31
0.0
  0
SPLINE
  5
38D
100
AcDbEntity
  8
971
  6
CONTINUOUS
 62
           3
100
AcDbSpline
210
0.0
220
0.0
230
1.0
 70
           0
 71
           4
 72
          14
 73
          10
 74
          15
 42
0.00000000001
 43
0.00000000001
 44
0.00000000001
 40
0.0
 40
0.0
 40
0.0
 40
0.0
 40
0.0883609178920319
 40
0.1763848469957201
 40
0.2208931853726404
 40
0.3091839532276894
 40
0.3538369675797238
 40
0.44238919698448
 40
0.5314669996713239
 40
0.5314669996713239
 40
0.5314669996713239
 40
0.5314669996713239
 10
799.20372911855156
 20
69.973243790318577
 30
0.0
 10
799.24768536131137
 20
69.973243790318577
 30
0.0
 10
799.29119994248117
 20
69.982090055022695
 30
0.0
 10
799.37224567495355
 20
70.016438291409258
 30
0.0
 10
799.40896249853324
 20
70.041595140402961
 30
0.0
 10
799.47048068177787
 20
70.104925802950532
 30
0.0
 10
799.49466392176498
 20
70.142463285477319
 30
0.0
 10
799.5270443128278
 20
70.224882989475645
 30
0.0
 10
799.53491611364484
 20
70.268937077894662
 30
0.0
 10
799.53400821432979
 20
70.313253733038522
 30
0.0
 11
799.20372911855156
 21
69.973243790318577
 31
0.0
 11
799.25648018398772
 21
69.97659640849804
 31
0.0
 11
799.29660360976675
 21
69.986769987098398
 31
0.0
 11
799.33896141348009
 21
70.002948271620966
 31
0.0
 11
799.37648229794308
 21
70.020774307697224
 31
0.0
 11
799.39054343645978
 21
70.029376885554342
 31
0.0
 11
799.40437377720616
 21
70.04023167860953
 31
0.0
 11
799.43927950440229
 21
70.073643742648173
 31
0.0
 11
799.47168318363458
 21
70.109510332191917
 31
0.0
 11
799.48218106370564
 21
70.123697704259413
 31
0.0
 11
799.49041715557996
 21
70.138036968226103
 31
0.0
 11
799.50732761285781
 21
70.176240935566625
 31
0.0
 11
799.52249337188709
 21
70.219268117441572
 31
0.0
 11
799.53176945376651
 21
70.259983457973789
 31
0.0
 11
799.53400821432979
 21
70.313253733038522
 31
0.0
  0
SPLINE
  5
38C
100
AcDbEntity
  8
971
  6
CONTINUOUS
 62
           3
100
AcDbSpline
210
0.0
220
0.0
230
1.0
 70
           0
 71
           4
 72
          14
 73
          10
 74
          15
 42
0.00000000001
 43
0.00000000001
 44
0.00000000001
 40
0.0
 40
0.0
 40
0.0
 40
0.0
 40
0.087900750051331
 40
0.1752883206750357
 40
0.2193425623623878
 40
0.3064723965732915
 40
0.3503856027350837
 40
0.4372569358647236
 40
0.5244521572899145
 40
0.5244521572899145
 40
0.5244521572899145
 40
0.5244521572899145
 10
794.86422002874019
 20
70.306373075573347
 30
0.0
 10
794.86422002874019
 20
70.262626022489044
 30
0.0
 10
794.87276481341178
 20
70.219307024223014
 30
0.0
 10
794.90596797132753
 20
70.138473010318378
 30
0.0
 10
794.93030145933449
 20
70.101748936850655
 30
0.0
 10
794.99165289536086
 20
70.039881261064977
 30
0.0
 10
795.02807053373795
 20
70.015343019676408
 30
0.0
 10
795.10823004789188
 20
69.981860474816045
 30
0.0
 10
795.1511875813228
 20
69.973243790318463
 30
0.0
 10
795.19456959777278
 20
69.973243790318463
 30
0.0
 11
794.86422002874019
 21
70.306373075573347
 31
0.0
 11
794.86746356378183
 21
70.253848693182448
 31
0.0
 11
794.87731360810835
 21
70.213829065379443
 31
0.0
 11
794.89295310281386
 21
70.171605736134339
 31
0.0
 11
794.91020095810313
 21
70.134152800981909
 31
0.0
 11
794.91851723226137
 21
70.120116695053056
 31
0.0
 11
794.92904252694746
 21
70.106244831368116
 31
0.0
 11
794.96140402512492
 21
70.07119290348308
 31
0.0
 11
794.99617835982838
 21
70.038557300332883
 31
0.0
 11
795.00991596490758
 21
70.027964827623208
 31
0.0
 11
795.02384947078713
 21
70.019575803947674
 31
0.0
 11
795.06098362561647
 21
70.002194335734458
 31
0.0
 11
795.10286715787151
 21
69.986423537336876
 31
0.0
 11
795.14250075572852
 21
69.976509893263398
 31
0.0
 11
795.19456959777278
 21
69.973243790318463
 31
0.0
  0
SPLINE
  5
38B
100
AcDbEntity
  8
971
  6
CONTINUOUS
 62
           3
100
AcDbSpline
210
0.0
220
0.0
230
1.0
 70
           0
 71
           4
 72
          12
 73
           8
 74
          11
 42
0.00000000001
 43
0.00000000001
 44
0.00000000001
 40
0.0
 40
0.0
 40
0.0
 40
0.0
 40
0.0958177936777132
 40
0.1909630599960953
 40
0.2389791564645571
 40
0.3338035869328391
 40
0.4289502443602288
 40
0.4289502443602288
 40
0.4289502443602288
 40
0.4289502443602288
 10
776.40439368019179
 20
74.653822608367548
 30
0.0
 10
776.40028897532977
 20
74.70130850722451
 30
0.0
 10
776.38631495348932
 20
74.74739118584688
 30
0.0
 10
776.34044753562137
 20
74.830750658499497
 30
0.0
 10
776.30906767357919
 20
74.867094155555819
 30
0.0
 10
776.23350094679324
 20
74.924377158414359
 30
0.0
 10
776.19016013103692
 20
74.94467532074917
 30
0.0
 10
776.14408310519514
 20
74.95530884828402
 30
0.0
 11
776.40439368019179
 21
74.653822608367548
 31
0.0
 11
776.39570612594844
 21
74.71047035184138
 31
0.0
 11
776.38055632804731
 21
74.752721706413496
 31
0.0
 11
776.35856508876452
 21
74.796494852887861
 31
0.0
 11
776.33520074300395
 21
74.834789761702893
 31
0.0
 11
776.32448278461629
 21
74.848729656191097
 31
0.0
 11
776.31224281875075
 21
74.861366058355159
 31
0.0
 11
776.27783472048293
 21
74.889963950619148
 31
0.0
 11
776.23783378134101
 21
74.917964278320824
 31
0.0
 11
776.1984998959681
 21
74.938853270412977
 31
0.0
 11
776.14408310519514
 21
74.95530884828402
 31
0.0
  0
SPLINE
  5
38A
100
AcDbEntity
  8
971
  6
CONTINUOUS
 62
           3
100
AcDbSpline
210
0.0
220
0.0
230
1.0
 70
           0
 71
           4
 72
           8
 73
           4
 74
           3
 42
0.00000000001
 43
0.00000000001
 44
0.00000000001
 40
0.0
 40
0.0
 40
0.0
 40
0.0
 40
2.2276601986063245
 40
2.2276601986063245
 40
2.2276601986063245
 40
2.2276601986063245
 10
773.5319185964795
 20
70.748377153360494
 30
0.0
 10
774.23899382462639
 20
70.973657555393174
 30
0.0
 10
774.93223349613186
 20
71.240923250165366
 30
0.0
 10
775.60800446717701
 20
71.548773546477378
 30
0.0
 11
773.5319185964795
 21
70.748377153360494
 31
0.0
 11
774.58170062824149
 21
71.117611639564188
 31
0.0
 11
775.60800446717701
 21
71.548773546477378
 31
0.0
  0
SPLINE
  5
389
100
AcDbEntity
  8
971
  6
CONTINUOUS
 62
           3
100
AcDbSpline
210
0.0
220
0.0
230
1.0
 70
           0
 71
           4
 72
           8
 73
           4
 74
           3
 42
0.00000000001
 43
0.00000000001
 44
0.00000000001
 40
0.0
 40
0.0
 40
0.0
 40
0.0
 40
1.799652619296122
 40
1.799652619296122
 40
1.799652619296122
 40
1.799652619296122
 10
775.60800446717701
 20
72.373202702862187
 30
0.0
 10
776.13431736927362
 20
72.657859427699947
 30
0.0
 10
776.62027424695839
 20
73.012606587146834
 30
0.0
 10
777.0528052608247
 20
73.427903235047324
 30
0.0
 11
775.60800446717701
 21
72.373202702862187
 31
0.0
 11
776.36557307208727
 21
72.851562997806241
 31
0.0
 11
777.0528052608247
 21
73.427903235047324
 31
0.0
  0
SPLINE
  5
388
100
AcDbEntity
  8
971
  6
CONTINUOUS
 62
           3
100
AcDbSpline
210
0.0
220
0.0
230
1.0
 70
           0
 71
           4
 72
           8
 73
           4
 74
           3
 42
0.00000000001
 43
0.00000000001
 44
0.00000000001
 40
0.0
 40
0.0
 40
0.0
 40
0.0
 40
1.3288721514260697
 40
1.3288721514260697
 40
1.3288721514260697
 40
1.3288721514260697
 10
774.40206787244892
 20
71.818560332506252
 30
0.0
 10
774.81433338880458
 20
71.979795937741969
 30
0.0
 10
775.21698719092933
 20
72.164987149468544
 30
0.0
 10
775.60800446717701
 20
72.373202702862187
 30
0.0
 11
774.40206787244892
 21
71.818560332506252
 31
0.0
 11
775.01300425985346
 21
72.078264037124995
 31
0.0
 11
775.60800446717701
 21
72.373202702862187
 31
0.0
  0
SPLINE
  5
387
100
AcDbEntity
  8
971
  6
CONTINUOUS
 62
           3
100
AcDbSpline
210
0.0
220
0.0
230
1.0
 70
           0
 71
           4
 72
           8
 73
           4
 74
           3
 42
0.00000000001
 43
0.00000000001
 44
0.00000000001
 40
0.0
 40
0.0
 40
0.0
 40
0.0
 40
0.9349485083898173
 40
0.9349485083898173
 40
0.9349485083898173
 40
0.9349485083898173
 10
773.5319185964795
 20
71.477703565454107
 30
0.0
 10
773.82598459227847
 20
71.580607768899995
 30
0.0
 10
774.11622759717636
 20
71.694302390088836
 30
0.0
 10
774.40206787244892
 20
71.818560332506252
 30
0.0
 11
773.5319185964795
 21
71.477703565454107
 31
0.0
 11
773.97007787966163
 21
71.640124296865849
 31
0.0
 11
774.40206787244892
 21
71.818560332506252
 31
0.0
  0
SPLINE
  5
386
100
AcDbEntity
  8
971
  6
CONTINUOUS
 62
           3
100
AcDbSpline
210
0.0
220
0.0
230
1.0
 70
           0
 71
           4
 72
           8
 73
           4
 74
           3
 42
0.00000000001
 43
0.00000000001
 44
0.00000000001
 40
0.0
 40
0.0
 40
0.0
 40
0.0
 40
1.3395268109566771
 40
1.3395268109566771
 40
1.3395268109566771
 40
1.3395268109566771
 10
776.41836048196228
 20
71.975508691492848
 30
0.0
 10
776.80596204624544
 20
72.195542651603219
 30
0.0
 10
777.168866796982
 20
72.457143573369095
 30
0.0
 10
777.50076248025061
 20
72.755761250597047
 30
0.0
 11
776.41836048196228
 21
71.975508691492848
 31
0.0
 11
776.98045118648702
 21
72.336166077125853
 31
0.0
 11
777.50076248025061
 21
72.755761250597047
 31
0.0
  0
SPLINE
  5
385
100
AcDbEntity
  8
971
  6
CONTINUOUS
 62
           3
100
AcDbSpline
210
0.0
220
0.0
230
1.0
 70
           0
 71
           4
 72
           8
 73
           4
 74
           3
 42
0.00000000001
 43
0.00000000001
 44
0.00000000001
 40
0.0
 40
0.0
 40
0.0
 40
0.0
 40
0.8742373282387825
 40
0.8742373282387825
 40
0.8742373282387825
 40
0.8742373282387825
 10
777.50076248025061
 20
72.755761250597047
 30
0.0
 10
777.71886146339864
 20
72.947830109708988
 30
0.0
 10
777.90948233019935
 20
73.169482953515228
 30
0.0
 10
778.06717330852621
 20
73.414380492851194
 30
0.0
 11
777.50076248025061
 21
72.755761250597047
 31
0.0
 11
777.80662089619636
 21
73.065260116640104
 31
0.0
 11
778.06717330852621
 21
73.414380492851194
 31
0.0
  0
SPLINE
  5
384
100
AcDbEntity
  8
971
  6
CONTINUOUS
 62
           3
100
AcDbSpline
210
0.0
220
0.0
230
1.0
 70
           0
 71
           4
 72
          10
 73
           6
 74
           7
 42
0.00000000001
 43
0.00000000001
 44
0.00000000001
 40
0.0
 40
0.0
 40
0.0
 40
0.0
 40
0.1064204609147146
 40
0.2127344640522598
 40
0.3192745166161992
 40
0.3192745166161992
 40
0.3192745166161992
 40
0.3192745166161992
 10
778.06717330852621
 20
73.414380492851194
 30
0.0
 10
778.0895770643441
 20
73.462516089431688
 30
0.0
 10
778.10609169755526
 20
73.51322099319529
 30
0.0
 10
778.12661504201913
 20
73.617535228058742
 30
0.0
 10
778.13054758821386
 20
73.670757434158119
 30
0.0
 10
778.12806436937728
 20
73.723872176038299
 30
0.0
 11
778.06717330852621
 21
73.414380492851194
 31
0.0
 11
778.09185116746016
 21
73.472940448468663
 31
0.0
 11
778.10538929875611
 21
73.517951141612855
 31
0.0
 11
778.11595683119037
 21
73.565436513561792
 31
0.0
 11
778.12416819452289
 21
73.613389523042116
 31
0.0
 11
778.12870162617367
 21
73.66023602656233
 31
0.0
 11
778.12806436937728
 21
73.723872176038299
 31
0.0
  0
SPLINE
  5
383
100
AcDbEntity
  8
971
  6
CONTINUOUS
 62
           3
100
AcDbSpline
210
0.0
220
0.0
230
1.0
 70
           0
 71
           4
 72
          14
 73
          10
 74
          15
 42
0.00000000001
 43
0.00000000001
 44
0.00000000001
 40
0.0
 40
0.0
 40
0.0
 40
0.0
 40
0.0958307969428383
 40
0.1911963253396887
 40
0.2392064488587259
 40
0.3343282929190604
 40
0.3821991754405555
 40
0.4770472651189232
 40
0.5721387546563181
 40
0.5721387546563181
 40
0.5721387546563181
 40
0.5721387546563181
 10
778.12806436937728
 20
73.723872176038299
 30
0.0
 10
778.12839593712067
 20
73.771600841719362
 30
0.0
 10
778.12021537771432
 20
73.819001081011862
 30
0.0
 10
778.08761091693634
 20
73.908619902382085
 30
0.0
 10
778.06345243532792
 20
73.950108933784236
 30
0.0
 10
778.00172912690834
 20
74.022485714696217
 30
0.0
 10
777.964666764654
 20
74.052784274026891
 30
0.0
 10
777.88167857963742
 20
74.098709444285589
 30
0.0
 10
777.83642833021509
 20
74.113962196927218
 30
0.0
 10
777.78958170758915
 20
74.120777106802322
 30
0.0
 11
778.12806436937728
 21
73.723872176038299
 31
0.0
 11
778.12523037278402
 21
73.781244305363657
 31
0.0
 11
778.11570368987316
 21
73.825203837760469
 31
0.0
 11
778.10037565116124
 21
73.871930795955905
 31
0.0
 11
778.08337688174674
 21
73.913631458659609
 31
0.0
 11
778.07514308694954
 21
73.929394915611454
 31
0.0
 11
778.06465180869623
 21
73.94521418373003
 31
0.0
 11
778.03213864634142
 21
73.985953776926323
 31
0.0
 11
777.99704766412492
 21
74.024473798310552
 31
0.0
 11
777.98312416212582
 21
74.037280449224184
 31
0.0
 11
777.96888593434517
 21
74.04785520854027
 31
0.0
 11
777.93054569526373
 21
74.071037290428748
 31
0.0
 11
777.88700818599659
 21
74.09331922255214
 31
0.0
 11
777.84539027856829
 21
74.109370132910044
 31
0.0
 11
777.78958170758915
 21
74.120777106802322
 31
0.0
  0
SPLINE
  5
382
100
AcDbEntity
  8
971
  6
CONTINUOUS
 62
           3
100
AcDbSpline
210
0.0
220
0.0
230
1.0
 70
           0
 71
           4
 72
           8
 73
           4
 74
           3
 42
0.00000000001
 43
0.00000000001
 44
0.00000000001
 40
0.0
 40
0.0
 40
0.0
 40
0.0
 40
1.9305632329356206
 40
1.9305632329356206
 40
1.9305632329356206
 40
1.9305632329356206
 10
776.83850451680246
 20
72.202222467895069
 30
0.0
 10
777.41708487262736
 20
71.920339790203869
 30
0.0
 10
778.00732431138454
 20
71.663470165922732
 30
0.0
 10
778.60761369616421
 20
71.432313884402859
 30
0.0
 11
776.83850451680246
 21
72.202222467895069
 31
0.0
 11
777.71491822062535
 21
71.798245777584725
 31
0.0
 11
778.60761369616421
 21
71.432313884402859
 31
0.0
  0
SPLINE
  5
381
100
AcDbEntity
  8
971
  6
CONTINUOUS
 62
           3
100
AcDbSpline
210
0.0
220
0.0
230
1.0
 70
           0
 71
           4
 72
           8
 73
           4
 74
           3
 42
0.00000000001
 43
0.00000000001
 44
0.00000000001
 40
0.0
 40
0.0
 40
0.0
 40
0.0
 40
1.9144536346578538
 40
1.9144536346578538
 40
1.9144536346578538
 40
1.9144536346578538
 10
776.83850451680246
 20
71.419855816708704
 30
0.0
 10
777.41262409790465
 20
71.141174578113691
 30
0.0
 10
778.00348298429026
 20
70.89901435575814
 30
0.0
 10
778.60761369616421
 20
70.694796276915326
 30
0.0
 11
776.83850451680246
 21
71.419855816708704
 31
0.0
 11
777.71180493244378
 21
71.029402361904943
 31
0.0
 11
778.60761369616421
 21
70.694796276915326
 31
0.0
  0
SPLINE
  5
380
100
AcDbEntity
  8
971
  6
CONTINUOUS
 62
           3
100
AcDbSpline
210
0.0
220
0.0
230
1.0
 70
           0
 71
           4
 72
          10
 73
           6
 74
           7
 42
0.00000000001
 43
0.00000000001
 44
0.00000000001
 40
0.0
 40
0.0
 40
0.0
 40
0.0
 40
0.1974409266018448
 40
0.3947204901733076
 40
0.5925573167907748
 40
0.5925573167907748
 40
0.5925573167907748
 40
0.5925573167907748
 10
772.45263180232223
 20
73.203031204589465
 30
0.0
 10
772.50847846447004
 20
73.284130867123508
 30
0.0
 10
772.55368812609731
 20
73.372174427289508
 30
0.0
 10
772.62058277555241
 20
73.557766269990708
 30
0.0
 10
772.64198688980605
 20
73.654535299706367
 30
0.0
 10
772.65081501303405
 20
73.75286871129768
 30
0.0
 11
772.45263180232223
 21
73.203031204589465
 31
0.0
 11
772.51561112568277
 21
73.302631204623808
 31
0.0
 11
772.55354420109143
 21
73.381113900667046
 31
0.0
 11
772.58636984421537
 21
73.465178613576086
 31
0.0
 11
772.61473592885193
 21
73.550864909550313
 31
0.0
 11
772.63566510344219
 21
73.635698394162546
 31
0.0
 11
772.65081501303405
 21
73.75286871129768
 31
0.0
  0
SPLINE
  5
37F
100
AcDbEntity
  8
971
  6
CONTINUOUS
 62
           3
100
AcDbSpline
210
0.0
220
0.0
230
1.0
 70
           0
 71
           4
 72
          10
 73
           6
 74
           7
 42
0.00000000001
 43
0.00000000001
 44
0.00000000001
 40
0.0
 40
0.0
 40
0.0
 40
0.0
 40
0.2218875293008459
 40
0.4436420638579008
 40
0.6662437959997631
 40
0.6662437959997631
 40
0.6662437959997631
 40
0.6662437959997631
 10
771.98034532504425
 20
72.74698929423181
 30
0.0
 10
772.07733830376651
 20
72.800230810293968
 30
0.0
 10
772.166890102921
 20
72.866226225039512
 30
0.0
 10
772.32641368950726
 20
73.020262905473984
 30
0.0
 10
772.39567923973607
 20
73.10762222539735
 30
0.0
 10
772.45263180232223
 20
73.203031204589465
 30
0.0
 11
771.98034532504425
 21
72.74698929423181
 31
0.0
 11
772.09372884038009
 21
72.815349036199351
 31
0.0
 11
772.17108760799169
 21
72.875395335383985
 31
0.0
 11
772.24593121146438
 21
72.943825610053921
 31
0.0
 11
772.31696372674469
 21
73.016237528182657
 31
0.0
 11
772.37994681905207
 21
73.091714158739066
 31
0.0
 11
772.45263180232223
 21
73.203031204589465
 31
0.0
  0
SPLINE
  5
37E
100
AcDbEntity
  8
971
  6
CONTINUOUS
 62
           3
100
AcDbSpline
210
0.0
220
0.0
230
1.0
 70
           0
 71
           4
 72
           8
 73
           4
 74
           3
 42
0.00000000001
 43
0.00000000001
 44
0.00000000001
 40
0.0
 40
0.0
 40
0.0
 40
0.0
 40
0.6979670134929698
 40
0.6979670134929698
 40
0.6979670134929698
 40
0.6979670134929698
 10
771.32092646997739
 20
72.544803225600418
 30
0.0
 10
771.55135961932126
 20
72.569907313011768
 30
0.0
 10
771.77505564249066
 20
72.638495311588912
 30
0.0
 10
771.98034532504425
 20
72.74698929423181
 30
0.0
 11
771.32092646997739
 21
72.544803225600418
 31
0.0
 11
771.66006469755712
 21
72.614625049204278
 31
0.0
 11
771.98034532504425
 21
72.74698929423181
 31
0.0
  0
SPLINE
  5
37D
100
AcDbEntity
  8
971
  6
CONTINUOUS
 62
           3
100
AcDbSpline
210
0.0
220
0.0
230
1.0
 70
           0
 71
           4
 72
           8
 73
           4
 74
           3
 42
0.00000000001
 43
0.00000000001
 44
0.00000000001
 40
0.0
 40
0.0
 40
0.0
 40
0.0
 40
1.2024100183321895
 40
1.2024100183321895
 40
1.2024100183321895
 40
1.2024100183321895
 10
771.26448972112075
 20
71.846886870176519
 30
0.0
 10
771.66312857926482
 20
71.867104745606596
 30
0.0
 10
772.05350495699372
 20
71.969023499697101
 30
0.0
 10
772.41178941828036
 20
72.146421786667389
 30
0.0
 11
771.26448972112075
 21
71.846886870176519
 31
0.0
 11
771.85327246852194
 21
71.937711674094359
 31
0.0
 11
772.41178941828036
 21
72.146421786667389
 31
0.0
  0
SPLINE
  5
37C
100
AcDbEntity
  8
971
  6
CONTINUOUS
 62
           3
100
AcDbSpline
210
0.0
220
0.0
230
1.0
 70
           0
 71
           4
 72
          10
 73
           6
 74
           7
 42
0.00000000001
 43
0.00000000001
 44
0.00000000001
 40
0.0
 40
0.0
 40
0.0
 40
0.0
 40
0.490311022550516
 40
0.9795434067660025
 40
1.4720138644754175
 40
1.4720138644754175
 40
1.4720138644754175
 40
1.4720138644754175
 10
772.41178941828036
 20
72.146421786667389
 30
0.0
 10
772.62863285198728
 20
72.258025370298242
 30
0.0
 10
772.82237558208385
 20
72.410317963239592
 30
0.0
 10
773.14287955793066
 20
72.779946867996188
 30
0.0
 10
773.26670090140453
 20
72.993892666931387
 30
0.0
 10
773.34745130722695
 20
73.225496323326212
 30
0.0
 11
772.41178941828036
 21
72.146421786667389
 31
0.0
 11
772.66275050476838
 21
72.294652554705991
 31
0.0
 11
772.82748339890009
 21
72.433955991004694
 31
0.0
 11
772.98020990916302
 21
72.596771270171615
 31
0.0
 11
773.11984098636219
 21
72.771046406555016
 31
0.0
 11
773.23514413295345
 21
72.954740188338974
 31
0.0
 11
773.34745130722695
 21
73.225496323326212
 31
0.0
  0
SPLINE
  5
37B
100
AcDbEntity
  8
971
  6
CONTINUOUS
 62
           3
100
AcDbSpline
210
0.0
220
0.0
230
1.0
 70
           0
 71
           4
 72
           8
 73
           4
 74
           3
 42
0.00000000001
 43
0.00000000001
 44
0.00000000001
 40
0.0
 40
0.0
 40
0.0
 40
0.0
 40
0.9225467776806469
 40
0.9225467776806469
 40
0.9225467776806469
 40
0.9225467776806469
 10
773.34745130722695
 20
73.225496323326212
 30
0.0
 10
773.45558248495149
 20
73.512265154228302
 30
0.0
 10
773.5107345764917
 20
73.816576520437579
 30
0.0
 10
773.51017920560332
 20
74.123376126111737
 30
0.0
 11
773.34745130722695
 21
73.225496323326212
 31
0.0
 11
773.46957271214501
 21
73.666924684179435
 31
0.0
 11
773.51017920560332
 21
74.123376126111737
 31
0.0
  0
SPLINE
  5
37A
100
AcDbEntity
  8
971
  6
CONTINUOUS
 62
           3
100
AcDbSpline
210
0.0
220
0.0
230
1.0
 70
           0
 71
           4
 72
          14
 73
          10
 74
          15
 42
0.00000000001
 43
0.00000000001
 44
0.00000000001
 40
0.0
 40
0.0
 40
0.0
 40
0.0
 40
0.0853401972541273
 40
0.1702409822950732
 40
0.2129917594539376
 40
0.2976628627588161
 40
0.3402862186413551
 40
0.4247148534273809
 40
0.5093860809927575
 40
0.5093860809927575
 40
0.5093860809927575
 40
0.5093860809927575
 10
773.51017920560332
 20
74.123376126111737
 30
0.0
 10
773.50928349673438
 20
74.165867144068727
 30
0.0
 10
773.50067803108925
 20
74.207833669412537
 30
0.0
 10
773.46889958169686
 20
74.286562783816194
 30
0.0
 10
773.44599513582477
 20
74.322660087136242
 30
0.0
 10
773.38842348653145
 20
74.384746325003519
 30
0.0
 10
773.35424278162554
 20
74.410210611343899
 30
0.0
 10
773.27847571695474
 20
74.447460393665452
 30
0.0
 10
773.23752961267974
 20
74.458931117288444
 30
0.0
 10
773.19554789792903
 20
74.462679836331404
 30
0.0
 11
773.51017920560332
 21
74.123376126111737
 31
0.0
 11
773.50617176862204
 21
74.174362555143347
 31
0.0
 11
773.49643547902929
 21
74.213209181720785
 31
0.0
 11
773.48138119090163
 21
74.254312101180602
 31
0.0
 11
773.46494428158007
 21
74.290870703896587
 31
0.0
 11
773.45709532367141
 21
74.304623502451548
 31
0.0
 11
773.44720848642578
 21
74.318331557221484
 31
0.0
 11
773.41681226912385
 21
74.353374926889089
 31
0.0
 11
773.38416322128853
 21
74.386309050828714
 31
0.0
 11
773.37127847557497
 21
74.39715574125772
 31
0.0
 11
773.35818321163617
 21
74.405978583922689
 31
0.0
 11
773.32311509943406
 21
74.424957395939302
 31
0.0
 11
773.28344045687084
 21
74.442860799145535
 31
0.0
 11
773.24570916249763
 21
74.455237071213446
 31
0.0
 11
773.19554789792903
 21
74.462679836331404
 31
0.0
  0
SPLINE
  5
379
100
AcDbEntity
  8
971
  6
CONTINUOUS
 62
           3
100
AcDbSpline
210
0.0
220
0.0
230
1.0
 70
           0
 71
           4
 72
          10
 73
           6
 74
           7
 42
0.00000000001
 43
0.00000000001
 44
0.00000000001
 40
0.0
 40
0.0
 40
0.0
 40
0.0
 40
0.30607967731346
 40
0.6119286824711402
 40
0.9183960306190504
 40
0.9183960306190504
 40
0.9183960306190504
 40
0.9183960306190504
 10
770.29169839213694
 20
71.42379380063295
 30
0.0
 10
770.35975416161705
 20
71.560532546699363
 30
0.0
 10
770.41210066073336
 20
71.70466213264929
 30
0.0
 10
770.48333975277592
 20
72.002098858224485
 30
0.0
 10
770.50199933936483
 20
72.154433152185305
 30
0.0
 10
770.50333620035076
 20
72.307421804281262
 30
0.0
 11
770.29169839213694
 21
71.42379380063295
 31
0.0
 11
770.36745902960513
 21
71.590188106207478
 31
0.0
 11
770.41089952758375
 21
71.718239893442473
 31
0.0
 11
770.44665344947668
 21
71.853571819367843
 31
0.0
 11
770.4760970414568
 21
71.990428348423691
 31
0.0
 11
770.49542645415636
 21
72.124464609305178
 31
0.0
 11
770.50333620035076
 21
72.307421804281262
 31
0.0
  0
SPLINE
  5
378
100
AcDbEntity
  8
971
  6
CONTINUOUS
 62
           3
100
AcDbSpline
210
0.0
220
0.0
230
1.0
 70
           0
 71
           4
 72
          10
 73
           6
 74
           7
 42
0.00000000001
 43
0.00000000001
 44
0.00000000001
 40
0.0
 40
0.0
 40
0.0
 40
0.0
 40
0.2673045637254915
 40
0.5342941238518023
 40
0.8025992325166503
 40
0.8025992325166503
 40
0.8025992325166503
 40
0.8025992325166503
 10
769.733583022179
 20
70.869793965079609
 30
0.0
 10
769.85241184584959
 20
70.92990749234329
 30
0.0
 10
769.96117425582133
 20
71.008413193495272
 30
0.0
 10
770.15066173049763
 20
71.19650339036167
 30
0.0
 10
770.23021885809976
 20
71.304928561325895
 30
0.0
 10
770.29169839213694
 20
71.42379380063295
 30
0.0
 11
769.733583022179
 21
70.869793965079609
 31
0.0
 11
769.87211030952426
 21
70.94840210719488
 31
0.0
 11
769.96558857943614
 21
71.020149959823755
 31
0.0
 11
770.05488637851374
 21
71.103269599180393
 31
0.0
 11
770.13870315249505
 21
71.191960519157803
 31
0.0
 11
770.21151071507109
 21
71.28528602877617
 31
0.0
 11
770.29169839213694
 21
71.42379380063295
 31
0.0
  0
SPLINE
  5
377
100
AcDbEntity
  8
971
  6
CONTINUOUS
 62
           3
100
AcDbSpline
210
0.0
220
0.0
230
1.0
 70
           0
 71
           4
 72
           8
 73
           4
 74
           3
 42
0.00000000001
 43
0.00000000001
 44
0.00000000001
 40
0.0
 40
0.0
 40
0.0
 40
0.0
 40
0.9311833866416484
 40
0.9311833866416484
 40
0.9311833866416484
 40
0.9311833866416484
 10
768.85321491130912
 20
70.58155027262967
 30
0.0
 10
769.15737398117449
 20
70.640502621551946
 30
0.0
 10
769.45309415315751
 20
70.73732515891075
 30
0.0
 10
769.733583022179
 20
70.869793965079609
 30
0.0
 11
768.85321491130912
 21
70.58155027262967
 31
0.0
 11
769.30227529206047
 21
70.698103447387169
 31
0.0
 11
769.733583022179
 21
70.869793965079609
 31
0.0
  0
SPLINE
  5
376
100
AcDbEntity
  8
971
  6
CONTINUOUS
 62
           3
100
AcDbSpline
210
0.0
220
0.0
230
1.0
 70
           0
 71
           4
 72
           8
 73
           4
 74
           3
 42
0.00000000001
 43
0.00000000001
 44
0.00000000001
 40
0.0
 40
0.0
 40
0.0
 40
0.0
 40
1.0103684554629049
 40
1.0103684554629049
 40
1.0103684554629049
 40
1.0103684554629049
 10
768.85321491130912
 20
69.851796254307573
 30
0.0
 10
769.1849844502766
 20
69.907632654337931
 30
0.0
 10
769.5109941902831
 20
69.993953258399429
 30
0.0
 10
769.82716974348295
 20
70.109679253263593
 30
0.0
 11
768.85321491130912
 21
69.851796254307573
 31
0.0
 11
769.34604007205894
 21
69.958279155722906
 31
0.0
 11
769.82716974348295
 21
70.109679253263593
 31
0.0
  0
SPLINE
  5
375
100
AcDbEntity
  8
971
  6
CONTINUOUS
 62
           3
100
AcDbSpline
210
0.0
220
0.0
230
1.0
 70
           0
 71
           4
 72
          10
 73
           6
 74
           7
 42
0.00000000001
 43
0.00000000001
 44
0.00000000001
 40
0.0
 40
0.0
 40
0.0
 40
0.0
 40
0.3868680682839496
 40
0.7734528515802062
 40
1.1614021703193742
 40
1.1614021703193742
 40
1.1614021703193742
 40
1.1614021703193742
 10
769.82716974348295
 20
70.109679253263593
 30
0.0
 10
770.01060319595786
 20
70.169621999547402
 30
0.0
 10
770.18578224543319
 20
70.252719539929529
 30
0.0
 10
770.51129036915506
 20
70.461267510591625
 30
0.0
 10
770.66031291914408
 20
70.585880871187328
 30
0.0
 10
770.79205609491009
 20
70.727866867782097
 30
0.0
 11
769.82716974348295
 21
70.109679253263593
 31
0.0
 11
770.04373840359369
 21
70.189851302430199
 31
0.0
 11
770.19625349363923
 21
70.266707205339102
 31
0.0
 11
770.3475644597346
 21
70.358188064203219
 31
0.0
 11
770.49395347208065
 21
70.457418623143582
 31
0.0
 11
770.62799493076977
 21
70.564165171347099
 31
0.0
 11
770.79205609491009
 21
70.727866867782097
 31
0.0
  0
SPLINE
  5
374
100
AcDbEntity
  8
971
  6
CONTINUOUS
 62
           3
100
AcDbSpline
210
0.0
220
0.0
230
1.0
 70
           0
 71
           4
 72
           8
 73
           4
 74
           3
 42
0.00000000001
 43
0.00000000001
 44
0.00000000001
 40
0.0
 40
0.0
 40
0.0
 40
0.0
 40
0.7873183703798669
 40
0.7873183703798669
 40
0.7873183703798669
 40
0.7873183703798669
 10
770.79205609491009
 20
70.727866867782097
 30
0.0
 10
770.9593577667049
 20
70.928426862372902
 30
0.0
 10
771.08465682383633
 20
71.161073150250687
 30
0.0
 10
771.16039869862607
 20
71.411778952864722
 30
0.0
 11
770.79205609491009
 21
70.727866867782097
 31
0.0
 11
771.01056232064502
 21
71.051018232314703
 31
0.0
 11
771.16039869862607
 21
71.411778952864722
 31
0.0
  0
SPLINE
  5
373
100
AcDbEntity
  8
971
  6
CONTINUOUS
 62
           3
100
AcDbSpline
210
0.0
220
0.0
230
1.0
 70
           0
 71
           4
 72
           8
 73
           4
 74
           3
 42
0.00000000001
 43
0.00000000001
 44
0.00000000001
 40
0.0
 40
0.0
 40
0.0
 40
0.0
 40
0.4474191311599112
 40
0.4474191311599112
 40
0.4474191311599112
 40
0.4474191311599112
 10
771.26448972112075
 20
71.846886870176519
 30
0.0
 10
771.22762063674406
 20
71.702388073059339
 30
0.0
 10
771.19291966526134
 20
71.557335530883108
 30
0.0
 10
771.16039869862607
 20
71.411778952864722
 30
0.0
 11
771.26448972112075
 21
71.846886870176519
 31
0.0
 11
771.21081366572048
 21
71.629729579358568
 31
0.0
 11
771.16039869862607
 21
71.411778952864722
 31
0.0
  0
SPLINE
  5
372
100
AcDbEntity
  8
971
  6
CONTINUOUS
 62
           3
100
AcDbSpline
210
0.0
220
0.0
230
1.0
 70
           0
 71
           4
 72
           8
 73
           4
 74
           3
 42
0.00000000001
 43
0.00000000001
 44
0.00000000001
 40
0.0
 40
0.0
 40
0.0
 40
0.0
 40
0.5496797398834152
 40
0.5496797398834152
 40
0.5496797398834152
 40
0.5496797398834152
 10
782.05002356619104
 20
73.225496323326183
 30
0.0
 10
782.11353481203037
 20
73.397203395872182
 30
0.0
 10
782.16412180220527
 20
73.573493542472136
 30
0.0
 10
782.20135466621684
 20
73.752868711297651
 30
0.0
 11
782.05002356619104
 21
73.225496323326183
 31
0.0
 11
782.13554350938932
 21
73.486306981207093
 31
0.0
 11
782.20135466621684
 21
73.752868711297651
 31
0.0
  0
SPLINE
  5
371
100
AcDbEntity
  8
971
  6
CONTINUOUS
 62
           3
100
AcDbSpline
210
0.0
220
0.0
230
1.0
 70
           0
 71
           4
 72
           8
 73
           4
 74
           3
 42
0.00000000001
 43
0.00000000001
 44
0.00000000001
 40
0.0
 40
0.0
 40
0.0
 40
0.0
 40
1.4524935926300997
 40
1.4524935926300997
 40
1.4524935926300997
 40
1.4524935926300997
 10
781.27194102931901
 20
72.025410750823056
 30
0.0
 10
781.614226787147
 20
72.364058691867584
 30
0.0
 10
781.87968037065582
 20
72.773484428395477
 30
0.0
 10
782.05002356619104
 20
73.225496323326183
 30
0.0
 11
781.27194102931901
 21
72.025410750823056
 31
0.0
 11
781.72546075861487
 21
72.582942054367308
 31
0.0
 11
782.05002356619104
 21
73.225496323326183
 31
0.0
  0
SPLINE
  5
370
100
AcDbEntity
  8
971
  6
CONTINUOUS
 62
           3
100
AcDbSpline
210
0.0
220
0.0
230
1.0
 70
           0
 71
           4
 72
           8
 73
           4
 74
           3
 42
0.00000000001
 43
0.00000000001
 44
0.00000000001
 40
0.0
 40
0.0
 40
0.0
 40
0.0
 40
1.5093400379973283
 40
1.5093400379973283
 40
1.5093400379973283
 40
1.5093400379973283
 10
780.05599088874362
 20
71.15146551735883
 30
0.0
 10
780.50339620677778
 20
71.378102550808848
 30
0.0
 10
780.91352087217706
 20
71.672873269189068
 30
0.0
 10
781.27194102931901
 20
72.025410750823056
 30
0.0
 11
780.05599088874362
 21
71.15146551735883
 31
0.0
 11
780.69733539436584
 21
71.541225466021956
 31
0.0
 11
781.27194102931901
 21
72.025410750823056
 31
0.0
  0
SPLINE
  5
36F
100
AcDbEntity
  8
971
  6
CONTINUOUS
 62
           3
100
AcDbSpline
210
0.0
220
0.0
230
1.0
 70
           0
 71
           4
 72
           8
 73
           4
 74
           3
 42
0.00000000001
 43
0.00000000001
 44
0.00000000001
 40
0.0
 40
0.0
 40
0.0
 40
0.0
 40
0.952213049248178
 40
0.952213049248178
 40
0.952213049248178
 40
0.952213049248178
 10
783.10284140545139
 20
70.422454872448185
 30
0.0
 10
783.37106699520405
 20
70.252680694225361
 30
0.0
 10
783.64988423356249
 20
70.100549823292084
 30
0.0
 10
783.93755277578884
 20
69.967011842830999
 30
0.0
 11
783.10284140545139
 21
70.422454872448185
 31
0.0
 11
783.51290598344258
 21
70.181144783478928
 31
0.0
 11
783.93755277578884
 21
69.967011842830999
 31
0.0
  0
SPLINE
  5
36E
100
AcDbEntity
  8
971
  6
CONTINUOUS
 62
           3
100
AcDbSpline
210
0.0
220
0.0
230
1.0
 70
           0
 71
           4
 72
           8
 73
           4
 74
           3
 42
0.00000000001
 43
0.00000000001
 44
0.00000000001
 40
0.0
 40
0.0
 40
0.0
 40
0.0
 40
1.0540538130363559
 40
1.0540538130363559
 40
1.0540538130363559
 40
1.0540538130363559
 10
783.04609049075452
 20
71.330956413203481
 30
0.0
 10
783.3326786533072
 20
71.127595546985475
 30
0.0
 10
783.63029527558183
 20
70.940517527328652
 30
0.0
 10
783.93755277578884
 20
70.77059457048037
 30
0.0
 11
783.04609049075452
 21
71.330956413203481
 31
0.0
 11
783.48407063165132
 21
71.038236275828282
 31
0.0
 11
783.93755277578884
 21
70.77059457048037
 31
0.0
  0
SPLINE
  5
36D
100
AcDbEntity
  8
971
  6
CONTINUOUS
 62
           3
100
AcDbSpline
210
0.0
220
0.0
230
1.0
 70
           0
 71
           4
 72
           8
 73
           4
 74
           3
 42
0.00000000001
 43
0.00000000001
 44
0.00000000001
 40
0.0
 40
0.0
 40
0.0
 40
0.0
 40
0.9926942111078629
 40
0.9926942111078629
 40
0.9926942111078629
 40
0.9926942111078629
 10
782.26576541366819
 20
71.943777662479079
 30
0.0
 10
782.51794703730639
 20
71.729442053860225
 30
0.0
 10
782.77824969037658
 20
71.525015717031394
 30
0.0
 10
783.04609049075452
 20
71.330956413203481
 30
0.0
 11
782.26576541366819
 21
71.943777662479079
 31
0.0
 11
782.65005576093404
 21
71.629763423544674
 31
0.0
 11
783.04609049075452
 21
71.330956413203481
 31
0.0
  0
SPLINE
  5
36C
100
AcDbEntity
  8
971
  6
CONTINUOUS
 62
           3
100
AcDbSpline
210
0.0
220
0.0
230
1.0
 70
           0
 71
           4
 72
           8
 73
           4
 74
           3
 42
0.00000000001
 43
0.00000000001
 44
0.00000000001
 40
0.0
 40
0.0
 40
0.0
 40
0.0
 40
1.6581153661196346
 40
1.6581153661196346
 40
1.6581153661196346
 40
1.6581153661196346
 10
781.76651291719577
 20
71.395376872129887
 30
0.0
 10
782.17996398150717
 20
71.028578556340932
 30
0.0
 10
782.62747098396619
 20
70.702768389506545
 30
0.0
 10
783.10284140545139
 20
70.422454872448185
 30
0.0
 11
781.76651291719577
 21
71.395376872129887
 31
0.0
 11
782.41145740238346
 21
70.876484072765066
 31
0.0
 11
783.10284140545139
 21
70.422454872448185
 31
0.0
  0
SPLINE
  5
36B
100
AcDbEntity
  8
971
  6
CONTINUOUS
 62
           3
100
AcDbSpline
210
0.0
220
0.0
230
1.0
 70
           0
 71
           4
 72
           8
 73
           4
 74
           3
 42
0.00000000001
 43
0.00000000001
 44
0.00000000001
 40
0.0
 40
0.0
 40
0.0
 40
0.0
 40
1.3092677282220868
 40
1.3092677282220868
 40
1.3092677282220868
 40
1.3092677282220868
 10
780.70275063805036
 20
70.644215091057902
 30
0.0
 10
781.08741099289443
 20
70.848232325509059
 30
0.0
 10
781.44485211903293
 20
71.100634688520415
 30
0.0
 10
781.76651291719577
 20
71.395376872129887
 30
0.0
 11
780.70275063805036
 21
70.644215091057902
 31
0.0
 11
781.25825661137844
 21
70.985774125659532
 31
0.0
 11
781.76651291719577
 21
71.395376872129887
 31
0.0
  0
SPLINE
  5
36A
100
AcDbEntity
  8
971
  6
CONTINUOUS
 62
           3
100
AcDbSpline
210
0.0
220
0.0
230
1.0
 70
           0
 71
           4
 72
           8
 73
           4
 74
           3
 42
0.00000000001
 43
0.00000000001
 44
0.00000000001
 40
0.0
 40
0.0
 40
0.0
 40
0.0
 40
1.7197541083031243
 40
1.7197541083031243
 40
1.7197541083031243
 40
1.7197541083031243
 10
779.12300013453296
 20
69.97668379714986
 30
0.0
 10
779.66851475961835
 20
70.150571178973195
 30
0.0
 10
780.19726455724469
 20
70.373996989426985
 30
0.0
 10
780.70275063805036
 20
70.644215091057902
 30
0.0
 11
779.12300013453296
 21
69.97668379714986
 31
0.0
 11
779.92788609039656
 21
70.274325424176041
 31
0.0
 11
780.70275063805036
 21
70.644215091057902
 31
0.0
  0
SPLINE
  5
369
100
AcDbEntity
  8
971
  6
CONTINUOUS
 62
           3
100
AcDbSpline
210
0.0
220
0.0
230
1.0
 70
           0
 71
           4
 72
           8
 73
           4
 74
           3
 42
0.00000000001
 43
0.00000000001
 44
0.00000000001
 40
0.0
 40
0.0
 40
0.0
 40
0.0
 40
1.0231543725308629
 40
1.0231543725308629
 40
1.0231543725308629
 40
1.0231543725308629
 10
779.12300013453307
 20
70.73192134797867
 30
0.0
 10
779.43707217361634
 20
70.864709019117683
 30
0.0
 10
779.74814751085478
 20
71.004592338847587
 30
0.0
 10
780.05599088874362
 20
71.15146551735883
 30
0.0
 11
779.12300013453307
 21
70.73192134797867
 31
0.0
 11
779.59183125958623
 21
70.936411367404162
 31
0.0
 11
780.05599088874362
 21
71.15146551735883
 31
0.0
  0
SPLINE
  5
368
100
AcDbEntity
  8
971
  6
CONTINUOUS
 62
           3
100
AcDbSpline
210
0.0
220
0.0
230
1.0
 70
           0
 71
           4
 72
           8
 73
           4
 74
           3
 42
0.00000000001
 43
0.00000000001
 44
0.00000000001
 40
0.0
 40
0.0
 40
0.0
 40
0.0
 40
1.6495073818145514
 40
1.6495073818145514
 40
1.6495073818145514
 40
1.6495073818145514
 10
782.26576541366819
 20
71.943777662479079
 30
0.0
 10
782.58594504468306
 20
72.388248256115162
 30
0.0
 10
782.82613576942117
 20
72.886028677280564
 30
0.0
 10
782.97536576074992
 20
73.414380492851222
 30
0.0
 11
782.26576541366819
 21
71.943777662479079
 31
0.0
 11
782.68467170209135
 21
72.647623619439685
 31
0.0
 11
782.97536576074992
 21
73.414380492851222
 31
0.0
  0
SPLINE
  5
367
100
AcDbEntity
  8
971
  6
CONTINUOUS
 62
           3
100
AcDbSpline
210
0.0
220
0.0
230
1.0
 70
           0
 71
           4
 72
           8
 73
           4
 74
           3
 42
0.00000000001
 43
0.00000000001
 44
0.00000000001
 40
0.0
 40
0.0
 40
0.0
 40
0.0
 40
0.5849598412967583
 40
0.5849598412967583
 40
0.5849598412967583
 40
0.5849598412967583
 10
782.97536576074992
 20
73.414380492851222
 30
0.0
 10
783.02580577101685
 20
73.602648088730888
 30
0.0
 10
783.06655193260349
 20
73.793421428056561
 30
0.0
 10
783.09744083034047
 20
73.985935401765346
 30
0.0
 11
782.97536576074992
 21
73.414380492851222
 31
0.0
 11
783.04373496274388
 21
73.698565555622366
 31
0.0
 11
783.09744083034047
 21
73.985935401765346
 31
0.0
  0
SPLINE
  5
366
100
AcDbEntity
  8
971
  6
CONTINUOUS
 62
           3
100
AcDbSpline
210
0.0
220
0.0
230
1.0
 70
           0
 71
           4
 72
           8
 73
           4
 74
           3
 42
0.00000000001
 43
0.00000000001
 44
0.00000000001
 40
0.0
 40
0.0
 40
0.0
 40
0.0
 40
0.1176923349179909
 40
0.1176923349179909
 40
0.1176923349179909
 40
0.1176923349179909
 10
783.09744083034047
 20
73.985935401765346
 30
0.0
 10
783.09988780855656
 20
74.031705748909999
 30
0.0
 10
783.10095913393707
 20
74.057703511313619
 30
0.0
 10
783.10065333217187
 20
74.103539288558665
 30
0.0
 11
783.09744083034047
 21
73.985935401765346
 31
0.0
 11
783.10007937374905
 21
74.044712808874365
 31
0.0
 11
783.10065333217187
 21
74.103539288558665
 31
0.0
  0
SPLINE
  5
365
100
AcDbEntity
  8
971
  6
CONTINUOUS
 62
           3
100
AcDbSpline
210
0.0
220
0.0
230
1.0
 70
           0
 71
           4
 72
          14
 73
          10
 74
          15
 42
0.00000000001
 43
0.00000000001
 44
0.00000000001
 40
0.0
 40
0.0
 40
0.0
 40
0.0
 40
0.0779893645523514
 40
0.1556104268437389
 40
0.1947062258786163
 40
0.272142811519539
 40
0.3111262982616718
 40
0.3883313448616901
 40
0.4657319350414461
 40
0.4657319350414461
 40
0.4657319350414461
 40
0.4657319350414461
 10
783.10065333217187
 20
74.103539288558665
 30
0.0
 10
783.10409071123877
 20
74.142218981237519
 30
0.0
 10
783.10044989818562
 20
74.181206589767143
 30
0.0
 10
783.0793747626966
 20
74.255911796917403
 30
0.0
 10
783.06211975189888
 20
74.290993788088741
 30
0.0
 10
783.01589462751963
 20
74.353119971553099
 30
0.0
 10
782.98731780691662
 20
74.37963558134804
 30
0.0
 10
782.9220838615023
 20
74.420929062506602
 30
0.0
 10
782.8859817606741
 20
74.435355600338809
 30
0.0
 10
782.8481936552281
 20
74.442842998778318
 30
0.0
 11
783.10065333217187
 21
74.103539288558665
 31
0.0
 11
783.10210605639736
 21
74.150246966362019
 31
0.0
 11
783.09712499689147
 21
74.18650272699378
 31
0.0
 11
783.08752173962023
 21
74.22535510743667
 31
0.0
 11
783.07620453607956
 21
74.260214729586494
 31
0.0
 11
783.07042914092244
 21
74.273495894784475
 31
0.0
 11
783.06279423252727
 21
74.286935673258938
 31
0.0
 11
783.0386137610991
 21
74.321796283958918
 31
0.0
 11
783.01217286823214
 21
74.354958718419226
 31
0.0
 11
783.00152368107797
 21
74.366090086826034
 31
0.0
 11
782.99048179450858
 21
74.375400194514498
 31
0.0
 11
782.96045771157173
 21
74.396096456852234
 31
0.0
 11
782.92613852871466
 21
74.416261181603431
 31
0.0
 11
782.89305554894565
 21
74.431196325733353
 31
0.0
 11
782.8481936552281
 21
74.442842998778318
 31
0.0
  0
SPLINE
  5
364
100
AcDbEntity
  8
971
  6
CONTINUOUS
 62
           3
100
AcDbSpline
210
0.0
220
0.0
230
1.0
 70
           0
 71
           4
 72
           8
 73
           4
 74
           3
 42
0.00000000001
 43
0.00000000001
 44
0.00000000001
 40
0.0
 40
0.0
 40
0.0
 40
0.0
 40
1.9300574641440349
 40
1.9300574641440349
 40
1.9300574641440349
 40
1.9300574641440349
 10
785.2924244460944
 20
72.347659191904384
 30
0.0
 10
785.90581760864939
 20
72.156023299910458
 30
0.0
 10
786.54222431744756
 20
72.049472820554897
 30
0.0
 10
787.18411799279966
 20
72.030942143814428
 30
0.0
 11
785.2924244460944
 21
72.347659191904384
 31
0.0
 11
786.227583527148
 21
72.124386212139342
 31
0.0
 11
787.18411799279966
 21
72.030942143814428
 31
0.0
  0
SPLINE
  5
363
100
AcDbEntity
  8
971
  6
CONTINUOUS
 62
           3
100
AcDbSpline
210
0.0
220
0.0
230
1.0
 70
           0
 71
           4
 72
          14
 73
          10
 74
          15
 42
0.00000000001
 43
0.00000000001
 44
0.00000000001
 40
0.0
 40
0.0
 40
0.0
 40
0.0
 40
0.0710027733850641
 40
0.141861170053519
 40
0.1775763702296318
 40
0.2486221210744045
 40
0.2844340003495611
 40
0.3556557959003122
 40
0.4271951593796156
 40
0.4271951593796156
 40
0.4271951593796156
 40
0.4271951593796156
 10
788.19157164411104
 20
72.030942143814457
 30
0.0
 10
788.22642996761999
 20
72.036932608803127
 30
0.0
 10
788.26006600042092
 20
72.048695291713031
 30
0.0
 10
788.32217006476685
 20
72.082812700321256
 30
0.0
 10
788.35021078603563
 20
72.104932679397791
 30
0.0
 10
788.3979992243718
 20
72.157504191402751
 30
0.0
 10
788.41741813057968
 20
72.18759400328166
 30
0.0
 10
788.44573302004483
 20
72.252945446999831
 30
0.0
 10
788.45443418121818
 20
72.28775742479823
 30
0.0
 10
788.45732680392939
 20
72.32329634205135
 30
0.0
 11
788.19157164411104
 21
72.030942143814457
 31
0.0
 11
788.23309494245666
 21
72.040348517100043
 31
0.0
 11
788.26410269189648
 21
72.052588358906036
 31
0.0
 11
788.29665701855924
 21
72.069228977100323
 31
0.0
 11
788.32542172492617
 21
72.086380279808594
 31
0.0
 11
788.33615340936171
 21
72.094124606921596
 31
0.0
 11
788.34675173022777
 21
72.10345043335019
 31
0.0
 11
788.3738014742512
 21
72.131464267617076
 31
0.0
 11
788.39912724904434
 21
72.161060041923534
 31
0.0
 11
788.40743397933704
 21
72.172529583126391
 31
0.0
 11
788.41415011188042
 21
72.183971277059499
 31
0.0
 11
788.42860285264442
 21
72.214356853347951
 31
0.0
 11
788.44221431626875
 21
72.248490202194432
 31
0.0
 11
788.45163317906724
 21
72.280749621129047
 31
0.0
 11
788.45732680392939
 21
72.32329634205135
 31
0.0
  0
SPLINE
  5
362
100
AcDbEntity
  8
971
  6
CONTINUOUS
 62
           3
100
AcDbSpline
210
0.0
220
0.0
230
1.0
 70
           0
 71
           4
 72
           8
 73
           4
 74
           3
 42
0.00000000001
 43
0.00000000001
 44
0.00000000001
 40
0.0
 40
0.0
 40
0.0
 40
0.0
 40
1.1104325259574561
 40
1.1104325259574561
 40
1.1104325259574561
 40
1.1104325259574561
 10
786.23457924777404
 20
72.903265646533939
 30
0.0
 10
786.5969766279585
 20
72.828251967155552
 30
0.0
 10
786.96370670419753
 20
72.776372077349691
 30
0.0
 10
787.3325836226503
 20
72.747935201430778
 30
0.0
 11
786.23457924777404
 21
72.903265646533939
 31
0.0
 11
786.7811516083616
 21
72.808134122685061
 31
0.0
 11
787.3325836226503
 21
72.747935201430778
 31
0.0
  0
SPLINE
  5
361
100
AcDbEntity
  8
971
  6
CONTINUOUS
 62
           3
100
AcDbSpline
210
0.0
220
0.0
230
1.0
 70
           0
 71
           4
 72
           8
 73
           4
 74
           3
 42
0.00000000001
 43
0.00000000001
 44
0.00000000001
 40
0.0
 40
0.0
 40
0.0
 40
0.0
 40
0.9842772017120368
 40
0.9842772017120368
 40
0.9842772017120368
 40
0.9842772017120368
 10
785.2924244460944
 20
73.180076521208747
 30
0.0
 10
785.59831656826634
 20
73.061607572110191
 30
0.0
 10
785.91345597323084
 20
72.969017676928189
 30
0.0
 10
786.23457924777404
 20
72.903265646533939
 30
0.0
 11
785.2924244460944
 21
73.180076521208747
 31
0.0
 11
785.75779016479487
 21
73.021902239357232
 31
0.0
 11
786.23457924777404
 21
72.903265646533939
 31
0.0
  0
SPLINE
  5
360
100
AcDbEntity
  8
971
  6
CONTINUOUS
 62
           3
100
AcDbSpline
210
0.0
220
0.0
230
1.0
 70
           0
 71
           4
 72
          14
 73
          10
 74
          15
 42
0.00000000001
 43
0.00000000001
 44
0.00000000001
 40
0.0
 40
0.0
 40
0.0
 40
0.0
 40
0.0788794984419362
 40
0.1574133640402884
 40
0.1969340769863087
 40
0.275287235515268
 40
0.3147001411938886
 40
0.3928312949013714
 40
0.4711267097202606
 40
0.4711267097202606
 40
0.4711267097202606
 40
0.4711267097202606
 10
785.2924244460944
 20
74.46267983633139
 30
0.0
 10
785.29413306278582
 20
74.501937937307474
 30
0.0
 10
785.28907328803723
 20
74.541197461053514
 30
0.0
 10
785.26586737560115
 20
74.616224480678639
 30
0.0
 10
785.24789712944869
 20
74.651423301752388
 30
0.0
 10
785.20082176428696
 20
74.714058175795159
 30
0.0
 10
785.17207345771919
 20
74.741019481466765
 30
0.0
 10
785.10671476398238
 20
74.783829741132877
 30
0.0
 10
785.07059976957373
 20
74.799354210478981
 30
0.0
 10
785.03265660170416
 20
74.80830702706541
 30
0.0
 11
785.2924244460944
 21
74.46267983633139
 31
0.0
 11
785.29191144433116
 21
74.509976280638242
 31
0.0
 11
785.28567505860019
 21
74.546484195986508
 31
0.0
 11
785.27490372442776
 21
74.585535123070386
 31
0.0
 11
785.26264638457883
 21
74.620546787705479
 31
0.0
 11
785.25657336385541
 21
74.633869159274695
 31
0.0
 11
785.2486966122749
 21
74.647365984027502
 31
0.0
 11
785.2239844769058
 21
74.682489929663362
 31
0.0
 11
785.1971193207437
 21
74.715980227331826
 31
0.0
 11
785.18637395494068
 21
74.727258197893917
 31
0.0
 11
785.17528439171156
 21
74.736760720559573
 31
0.0
 11
785.14517027883937
 21
74.758118184240971
 31
0.0
 11
785.11078368815083
 21
74.77913608651663
 31
0.0
 11
785.07765853557544
 21
74.795032152428803
 31
0.0
 11
785.03265660170416
 21
74.80830702706541
 31
0.0
  0
SPLINE
  5
35F
100
AcDbEntity
  8
971
  6
CONTINUOUS
 62
           3
100
AcDbSpline
210
0.0
220
0.0
230
1.0
 70
           0
 71
           4
 72
          14
 73
          10
 74
          15
 42
0.00000000001
 43
0.00000000001
 44
0.00000000001
 40
0.0
 40
0.0
 40
0.0
 40
0.0
 40
0.0697510972228215
 40
0.1393660383626135
 40
0.174459638008118
 40
0.2442630459704686
 40
0.2794511249858662
 40
0.3494208956815061
 40
0.4196946535118222
 40
0.4196946535118222
 40
0.4196946535118222
 40
0.4196946535118222
 10
793.55175956784797
 20
73.42395135649258
 30
0.0
 10
793.58573991056039
 20
73.431188016494843
 30
0.0
 10
793.61828773465049
 20
73.444081792436492
 30
0.0
 10
793.67784562946497
 20
73.480124783366279
 30
0.0
 10
793.70443997678296
 20
73.503022412649869
 30
0.0
 10
793.74907563429224
 20
73.556689663761446
 30
0.0
 10
793.76680538062442
 20
73.587084679796817
 30
0.0
 10
793.79163280224475
 20
73.652501557946778
 30
0.0
 10
793.79855717825285
 20
73.687066800037385
 30
0.0
 10
793.79970791640801
 20
73.722069655344939
 30
0.0
 11
793.55175956784797
 21
73.42395135649258
 31
0.0
 11
793.5921440942152
 21
73.434814488991066
 31
0.0
 11
793.62208428912822
 21
73.448076897355321
 31
0.0
 11
793.65335782087072
 21
73.465743091313882
 31
0.0
 11
793.68088354124927
 21
73.483767609425954
 31
0.0
 11
793.691094552256
 21
73.491820072962312
 31
0.0
 11
793.70110222095934
 21
73.501425572148889
 31
0.0
 11
793.72644743357171
 21
73.530085888221549
 31
0.0
 11
793.75002072697407
 21
73.560233890853482
 31
0.0
 11
793.75767089381327
 21
73.571857200084011
 31
0.0
 11
793.76375395402079
 21
73.58338738287496
 31
0.0
 11
793.77656816306853
 21
73.613858938505189
 31
0.0
 11
793.78837298202689
 21
73.64797481986183
 31
0.0
 11
793.79612686129678
 21
73.680060628577323
 31
0.0
 11
793.79970791640801
 21
73.722069655344939
 31
0.0
  0
SPLINE
  5
35E
100
AcDbEntity
  8
971
  6
CONTINUOUS
 62
           3
100
AcDbSpline
210
0.0
220
0.0
230
1.0
 70
           0
 71
           4
 72
          14
 73
          10
 74
          15
 42
0.00000000001
 43
0.00000000001
 44
0.00000000001
 40
0.0
 40
0.0
 40
0.0
 40
0.0
 40
0.0720642678519528
 40
0.1438061630506466
 40
0.1798874381143344
 40
0.2514526081138774
 40
0.2874354306934554
 40
0.3588079595519989
 40
0.4303297671155983
 40
0.4303297671155983
 40
0.4303297671155983
 40
0.4303297671155983
 10
789.38908825452768
 20
73.722069655344939
 30
0.0
 10
789.39107061815594
 20
73.686211084387992
 30
0.0
 10
789.39900836563993
 20
73.650942360706381
 30
0.0
 10
789.42613268838545
 20
73.584525716389635
 30
0.0
 10
789.44512693301874
 20
73.553848736730089
 30
0.0
 10
789.49239563201672
 20
73.500115658909237
 30
0.0
 10
789.52033491787893
 20
73.477440566267674
 30
0.0
 10
789.58249346596858
 20
73.442364181404784
 30
0.0
 10
789.61627198013343
 20
73.430211605556792
 30
0.0
 10
789.6513413155044
 20
73.423951356492438
 30
0.0
 11
789.38908825452768
 21
73.722069655344939
 31
0.0
 11
789.39374042196471
 21
73.679087651186251
 31
0.0
 11
789.40247809975676
 21
73.646386727060786
 31
0.0
 11
789.41544309486414
 21
73.611719427870554
 31
0.0
 11
789.42936641314463
 21
73.580820548929069
 31
0.0
 11
789.43590884539617
 21
73.569164221303538
 31
0.0
 11
789.44406934902452
 21
73.557460526817536
 31
0.0
 11
789.46907551598042
 21
73.527228447573691
 31
0.0
 11
789.4958698809437
 21
73.498584362891677
 31
0.0
 11
789.50640850824402
 21
73.489033611009759
 31
0.0
 11
789.51711628984481
 21
73.481089091489764
 31
0.0
 11
789.54587920251174
 21
73.463470275649371
 31
0.0
 11
789.578480816769
 21
73.44635213577719
 31
0.0
 11
789.60959166378404
 21
73.433727629086576
 31
0.0
 11
789.6513413155044
 21
73.423951356492438
 31
0.0
  0
SPLINE
  5
35D
100
AcDbEntity
  8
971
  6
CONTINUOUS
 62
           3
100
AcDbSpline
210
0.0
220
0.0
230
1.0
 70
           0
 71
           4
 72
          10
 73
           6
 74
           7
 42
0.00000000001
 43
0.00000000001
 44
0.00000000001
 40
0.0
 40
0.0
 40
0.0
 40
0.0
 40
0.2709152855189279
 40
0.5417921704549109
 40
0.8134348321075908
 40
0.8134348321075908
 40
0.8134348321075908
 40
0.8134348321075908
 10
789.71174249206479
 20
71.806090467992391
 30
0.0
 10
789.82194882678755
 20
71.88439535157093
 30
0.0
 10
789.92327573607679
 20
71.97469182273332
 30
0.0
 10
790.10451157355897
 20
72.176007142579465
 30
0.0
 10
790.18387032640874
 20
72.286414860888527
 30
0.0
 10
790.25053700668059
 20
72.404579108803532
 30
0.0
 11
789.71174249206479
 21
71.806090467992391
 31
0.0
 11
789.84044583956575
 21
71.904195537426062
 31
0.0
 11
789.92813012718716
 21
71.985647415337681
 31
0.0
 11
790.01312462876467
 21
72.075884234595833
 31
0.0
 11
790.09399115909025
 21
72.169869615977504
 31
0.0
 11
790.16606799629403
 21
72.265886568592421
 31
0.0
 11
790.25053700668059
 21
72.404579108803532
 31
0.0
  0
SPLINE
  5
35C
100
AcDbEntity
  8
971
  6
CONTINUOUS
 62
           3
100
AcDbSpline
210
0.0
220
0.0
230
1.0
 70
           0
 71
           4
 72
           8
 73
           4
 74
           3
 42
0.00000000001
 43
0.00000000001
 44
0.00000000001
 40
0.0
 40
0.0
 40
0.0
 40
0.0
 40
0.8031780532346204
 40
0.8031780532346204
 40
0.8031780532346204
 40
0.8031780532346204
 10
789.01239749421609
 20
71.41693250420596
 30
0.0
 10
789.25812926025867
 20
71.522124949473792
 30
0.0
 10
789.49247791878281
 20
71.652530753544582
 30
0.0
 10
789.71174249206479
 20
71.806090467992391
 30
0.0
 11
789.01239749421609
 21
71.41693250420596
 31
0.0
 11
789.37199519042565
 21
71.59337376015668
 31
0.0
 11
789.71174249206479
 21
71.806090467992391
 31
0.0
  0
SPLINE
  5
35B
100
AcDbEntity
  8
971
  6
CONTINUOUS
 62
           3
100
AcDbSpline
210
0.0
220
0.0
230
1.0
 70
           0
 71
           4
 72
           8
 73
           4
 74
           3
 42
0.00000000001
 43
0.00000000001
 44
0.00000000001
 40
0.0
 40
0.0
 40
0.0
 40
0.0
 40
1.0937286111815308
 40
1.0937286111815308
 40
1.0937286111815308
 40
1.0937286111815308
 10
789.01239749421609
 20
70.776150314838333
 30
0.0
 10
789.35362676143495
 20
70.903403735357543
 30
0.0
 10
789.68393801837192
 20
71.058649024287831
 30
0.0
 10
790.00001315777035
 20
71.240326681282511
 30
0.0
 11
789.01239749421609
 21
70.776150314838333
 31
0.0
 11
789.51563812392601
 21
70.98782940938213
 31
0.0
 11
790.00001315777035
 21
71.240326681282511
 31
0.0
  0
SPLINE
  5
35A
100
AcDbEntity
  8
971
  6
CONTINUOUS
 62
           3
100
AcDbSpline
210
0.0
220
0.0
230
1.0
 70
           0
 71
           4
 72
           8
 73
           4
 74
           3
 42
0.00000000001
 43
0.00000000001
 44
0.00000000001
 40
0.0
 40
0.0
 40
0.0
 40
0.0
 40
0.4831158297924268
 40
0.4831158297924268
 40
0.4831158297924268
 40
0.4831158297924268
 10
790.78451291108343
 20
71.994418363064057
 30
0.0
 10
790.88011000250833
 20
72.123768982759202
 30
0.0
 10
790.96479198880684
 20
72.260969126636112
 30
0.0
 10
791.03767027425749
 20
72.404579108803588
 30
0.0
 11
790.78451291108343
 21
71.994418363064057
 31
0.0
 11
790.91961114491085
 21
72.194151475006691
 31
0.0
 11
791.03767027425749
 21
72.404579108803588
 31
0.0
  0
SPLINE
  5
359
100
AcDbEntity
  8
971
  6
CONTINUOUS
 62
           3
100
AcDbSpline
210
0.0
220
0.0
230
1.0
 70
           0
 71
           4
 72
          16
 73
          12
 74
          19
 42
0.00000000001
 43
0.00000000001
 44
0.00000000001
 40
0.0
 40
0.0
 40
0.0
 40
0.0
 40
0.0069126758324497
 40
0.0137985054805416
 40
0.0172739338496859
 40
0.0241527729264027
 40
0.0276209097754183
 40
0.0344800412554568
 40
0.0379370848020285
 40
0.0447753305653061
 40
0.0516382462330513
 40
0.0516382462330513
 40
0.0516382462330513
 40
0.0516382462330513
 10
790.78451291108343
 20
71.994418363064057
 30
0.0
 10
790.78309546538628
 20
71.991286144596614
 30
0.0
 10
790.7823049334379
 20
71.987902606585621
 30
0.0
 10
790.78206833822969
 20
71.981020842810977
 30
0.0
 10
790.78262459914595
 20
71.977590219523279
 30
0.0
 10
790.78502245798461
 20
71.971142840208145
 30
0.0
 10
790.78684050072582
 20
71.968189419514331
 30
0.0
 10
790.79150635883093
 20
71.963161750789823
 30
0.0
 10
790.7943083394963
 20
71.961136891675267
 30
0.0
 10
790.80052913320344
 20
71.958297291215317
 30
0.0
 10
790.80388683675687
 20
71.957510444466095
 30
0.0
 10
790.80729935241334
 20
71.957401660524894
 30
0.0
 11
790.78451291108343
 21
71.994418363064057
 31
0.0
 11
790.78304399552053
 21
71.990551950281869
 31
0.0
 11
790.78245436575708
 21
71.987365553075861
 31
0.0
 11
790.78220811265544
 21
71.983825307268944
 31
0.0
 11
790.78223195691862
 21
71.980574652693804
 31
0.0
 11
790.78237386988246
 21
71.979294892601146
 31
0.0
 11
790.78267951335101
 21
71.977955474293992
 31
0.0
 11
790.78386606130755
 21
71.974380566574652
 31
0.0
 11
790.78530401100079
 21
71.970900082369241
 31
0.0
 11
790.78595656295283
 21
71.969679163548932
 31
0.0
 11
790.78675336942001
 21
71.968546595255347
 31
0.0
 11
790.78920804418465
 21
71.965704243229951
 31
0.0
 11
790.79185914045547
 21
71.963045978134062
 31
0.0
 11
790.79291259822207
 21
71.962176927226366
 31
0.0
 11
790.79398731600281
 21
71.961480908153732
 31
0.0
 11
790.79686431153686
 21
71.960018077851089
 31
0.0
 11
790.80011920651168
 21
71.958670199581803
 31
0.0
 11
790.80321174443316
 21
71.957789615273313
 31
0.0
 11
790.80729935241334
 21
71.957401660524894
 31
0.0
  0
SPLINE
  5
358
100
AcDbEntity
  8
971
  6
CONTINUOUS
 62
           3
100
AcDbSpline
210
0.0
220
0.0
230
1.0
 70
           0
 71
           4
 72
          14
 73
          10
 74
          15
 42
0.00000000001
 43
0.00000000001
 44
0.00000000001
 40
0.0
 40
0.0
 40
0.0
 40
0.0
 40
0.0744260349401516
 40
0.1484782019301557
 40
0.1857337035707981
 40
0.2595839999198343
 40
0.2967337479650741
 40
0.3703910519463652
 40
0.4442450809373587
 40
0.4442450809373587
 40
0.4442450809373587
 40
0.4442450809373587
 10
790.00001315777035
 20
70.252931687043215
 30
0.0
 10
790.00459417894979
 20
70.216130749422859
 30
0.0
 10
790.01548250008693
 20
70.180412409169989
 30
0.0
 10
790.04890159553281
 20
70.114329979617992
 30
0.0
 10
790.07117829995809
 20
70.084468284380705
 30
0.0
 10
790.12487708145568
 20
70.033770087800207
 30
0.0
 10
790.15589091159802
 20
70.013319021331029
 30
0.0
 10
790.22347842928843
 20
69.984038893560808
 30
0.0
 10
790.25953828028742
 20
69.975432435490632
 30
0.0
 10
790.29625444970407
 20
69.973243790318378
 30
0.0
 11
790.00001315777035
 21
70.252931687043215
 31
0.0
 11
790.00792981917914
 21
70.209003430186584
 31
0.0
 11
790.01948671508762
 21
70.176023676404242
 31
0.0
 11
790.03566106906374
 21
70.141424631656221
 31
0.0
 11
790.05258525028432
 21
70.110821063795029
 31
0.0
 11
790.06033688916852
 21
70.099403893027457
 31
0.0
 11
790.06979731427646
 21
70.088112959618016
 31
0.0
 11
790.09833803057575
 21
70.059412474322144
 31
0.0
 11
790.12862587289783
 21
70.032580210477064
 31
0.0
 11
790.14040665196933
 21
70.023818778299415
 31
0.0
 11
790.15222612252012
 21
70.016766811070184
 31
0.0
 11
790.18362095646501
 21
70.001757028838384
 31
0.0
 11
790.21893573845728
 21
69.987756023530466
 31
0.0
 11
790.25228224472926
 21
69.978315166324705
 31
0.0
 11
790.29625444970407
 21
69.973243790318378
 31
0.0
  0
SPLINE
  5
357
100
AcDbEntity
  8
971
  6
CONTINUOUS
 62
           3
100
AcDbSpline
210
0.0
220
0.0
230
1.0
 70
           0
 71
           4
 72
          14
 73
          10
 74
          15
 42
0.00000000001
 43
0.00000000001
 44
0.00000000001
 40
0.0
 40
0.0
 40
0.0
 40
0.0
 40
0.0712092708881914
 40
0.1422779145147701
 40
0.1780993708198521
 40
0.2493572967162683
 40
0.2852752607111345
 40
0.3567067005079796
 40
0.4284518434522373
 40
0.4284518434522373
 40
0.4284518434522373
 40
0.4284518434522373
 10
793.51933541821654
 20
69.973243790318534
 30
0.0
 10
793.55417743845669
 20
69.979897108059134
 30
0.0
 10
793.58768971504867
 20
69.992311206648608
 30
0.0
 10
793.64934527324601
 20
70.027657270790115
 30
0.0
 10
793.67706495093239
 20
70.050346391548317
 30
0.0
 10
793.72404693434578
 20
70.10392236785863
 30
0.0
 10
793.7429864508091
 20
70.134441130180718
 30
0.0
 10
793.77023125066239
 20
70.200472724682172
 30
0.0
 10
793.77834934891757
 20
70.235531887426561
 30
0.0
 10
793.78063496651873
 20
70.271217128020851
 30
0.0
 11
793.51933541821654
 21
69.973243790318534
 31
0.0
 11
793.56079804594503
 21
69.983444122299815
 31
0.0
 11
793.59166621849636
 21
69.996286986728535
 31
0.0
 11
793.62400816079355
 21
70.013569341718394
 31
0.0
 11
793.65254177557654
 21
70.031292841660658
 31
0.0
 11
793.66316346476526
 21
70.039253525993516
 31
0.0
 11
793.67362362647998
 21
70.048796700841592
 31
0.0
 11
793.70024751523192
 21
70.077375291342847
 31
0.0
 11
793.72511596276036
 21
70.107507825589167
 31
0.0
 11
793.73324192058942
 21
70.119157464984539
 31
0.0
 11
793.73977444471859
 21
70.13075034550242
 31
0.0
 11
793.75373246333265
 21
70.161475984192961
 31
0.0
 11
793.76678281148486
 21
70.195944067082166
 31
0.0
 11
793.77566375546508
 21
70.228456069051518
 31
0.0
 11
793.78063496651873
 21
70.271217128020851
 31
0.0
  0
SPLINE
  5
356
100
AcDbEntity
  8
971
  6
CONTINUOUS
 62
           3
100
AcDbSpline
210
0.0
220
0.0
230
1.0
 70
           0
 71
           4
 72
          14
 73
          10
 74
          15
 42
0.00000000001
 43
0.00000000001
 44
0.00000000001
 40
0.0
 40
0.0
 40
0.0
 40
0.0
 40
0.0564890945056325
 40
0.1128464601716036
 40
0.1412746977025615
 40
0.1977892211733629
 40
0.2262978173219174
 40
0.2829552497991362
 40
0.3398791044685898
 40
0.3398791044685898
 40
0.3398791044685898
 40
0.3398791044685898
 10
793.93798680310454
 20
72.404579108803688
 30
0.0
 10
793.96577260630818
 20
72.408962178661199
 30
0.0
 10
793.99259130262726
 20
72.418183392874155
 30
0.0
 10
794.04189800338656
 20
72.445478116266059
 30
0.0
 10
794.06401082994512
 20
72.463343938125348
 30
0.0
 10
794.10117946670607
 20
72.505916039370931
 30
0.0
 10
794.11595245834224
 20
72.530298384879089
 30
0.0
 10
794.13655569595483
 20
72.583076896176678
 30
0.0
 10
794.14222917056054
 20
72.611071466852238
 30
0.0
 10
794.14302101441331
 20
72.639420576323104
 30
0.0
 11
793.93798680310454
 21
72.404579108803688
 31
0.0
 11
793.97108361719631
 21
72.411693365440598
 31
0.0
 11
793.99577149281356
 21
72.421346775161325
 31
0.0
 11
794.02163174421014
 21
72.434621087258876
 31
0.0
 11
794.04443373436357
 21
72.448373053571004
 31
0.0
 11
794.05291624973393
 21
72.454617443456655
 31
0.0
 11
794.0612435469568
 21
72.462159943452065
 31
0.0
 11
794.08233751278135
 21
72.484830395432098
 31
0.0
 11
794.10196464598073
 21
72.50879375012353
 31
0.0
 11
794.10834022600113
 21
72.518089973956322
 31
0.0
 11
794.11340609012939
 21
72.527356550041688
 31
0.0
 11
794.12405006378469
 21
72.551908029266997
 31
0.0
 11
794.13383071742317
 21
72.5794459187928
 31
0.0
 11
794.14021207266183
 21
72.605400617740997
 31
0.0
 11
794.14302101441331
 21
72.639420576323104
 31
0.0
  0
SPLINE
  5
355
100
AcDbEntity
  8
971
  6
CONTINUOUS
 62
           3
100
AcDbSpline
210
0.0
220
0.0
230
1.0
 70
           0
 71
           4
 72
          14
 73
          10
 74
          15
 42
0.00000000001
 43
0.00000000001
 44
0.00000000001
 40
0.0
 40
0.0
 40
0.0
 40
0.0
 40
0.0590812796893503
 40
0.1180365362676832
 40
0.1477592182551606
 40
0.206872869668137
 40
0.2366771943780019
 40
0.2959387033026201
 40
0.3554695510609508
 40
0.3554695510609508
 40
0.3554695510609508
 40
0.3554695510609508
 10
821.01365093449579
 20
72.984548361001856
 30
0.0
 10
821.04268638041651
 20
72.989336233920568
 30
0.0
 10
821.07071757703147
 20
72.999010713327081
 30
0.0
 10
821.12242887740103
 20
73.02732437950273
 30
0.0
 10
821.14574150597423
 20
73.045762361321167
 30
0.0
 10
821.18533246094898
 20
73.089659742422569
 30
0.0
 10
821.20132944278419
 20
73.114807194452055
 30
0.0
 10
821.22438953188566
 20
73.169398024548826
 30
0.0
 10
821.23128876761189
 20
73.198453464677982
 30
0.0
 10
821.2332689066078
 20
73.228054834252745
 30
0.0
 11
821.01365093449579
 21
72.984548361001856
 31
0.0
 11
821.04824187680185
 21
72.992169607806233
 31
0.0
 11
821.07407411073768
 21
73.002263885205608
 31
0.0
 11
821.10118279072287
 21
73.016056436746723
 31
0.0
 11
821.12512496240686
 21
73.030305220115409
 31
0.0
 11
821.13405205342701
 21
73.036755083428901
 31
0.0
 11
821.14285527043273
 21
73.044534507265041
 31
0.0
 11
821.16527959983227
 21
73.067917882184091
 31
0.0
 11
821.18624136115659
 21
73.09263286309519
 31
0.0
 11
821.19309994541493
 21
73.10221723175404
 31
0.0
 11
821.19862037763153
 21
73.111779458743712
 31
0.0
 11
821.21042684845304
 21
73.137162723667416
 31
0.0
 11
821.2214768852989
 21
73.165669092387986
 31
0.0
 11
821.22901325999408
 21
73.192595342259622
 31
0.0
 11
821.2332689066078
 21
73.228054834252745
 31
0.0
  0
SPLINE
  5
354
100
AcDbEntity
  8
971
  6
CONTINUOUS
 62
           3
100
AcDbSpline
210
0.0
220
0.0
230
1.0
 70
           0
 71
           4
 72
          14
 73
          10
 74
          15
 42
0.00000000001
 43
0.00000000001
 44
0.00000000001
 40
0.0
 40
0.0
 40
0.0
 40
0.0
 40
0.06053983602033
 40
0.1208614812898303
 40
0.1513523075453607
 40
0.2118550671638949
 40
0.2424433746441034
 40
0.3031221042816858
 40
0.3641510511806813
 40
0.3641510511806813
 40
0.3641510511806813
 40
0.3641510511806813
 10
821.11123952742548
 20
69.977248511429892
 30
0.0
 10
821.1413546051507
 20
69.97782050240545
 30
0.0
 10
821.17106614331681
 20
69.984344300252232
 30
0.0
 10
821.22631540844361
 20
70.008556272310855
 30
0.0
 10
821.25131693753326
 20
70.026009467689477
 30
0.0
 10
821.29324076646344
 20
70.069632586437351
 30
0.0
 10
821.30975619269577
 20
70.095379144476595
 30
0.0
 10
821.33202264032661
 20
70.151824813401092
 30
0.0
 10
821.33755756433834
 20
70.181976115235969
 30
0.0
 10
821.33718059646276
 20
70.21234760271696
 30
0.0
 11
821.11123952742548
 21
69.977248511429892
 31
0.0
 11
821.14734369736414
 21
69.980193146518317
 31
0.0
 11
821.17473465615319
 21
69.987570283434323
 31
0.0
 11
821.20362313880912
 21
69.999029136131782
 31
0.0
 11
821.22919875452271
 21
70.011540182231613
 31
0.0
 11
821.23877488054825
 21
70.017526238304342
 31
0.0
 11
821.24819302747494
 21
70.025035175172349
 31
0.0
 11
821.27197965444464
 21
70.048077606008832
 31
0.0
 11
821.29407193642453
 21
70.072764438190617
 31
0.0
 11
821.30123380315274
 21
70.082505637618766
 31
0.0
 11
821.30686505792562
 21
70.092335025826657
 31
0.0
 11
821.31847175479118
 21
70.118509660977494
 31
0.0
 11
821.32892421036308
 21
70.147977155868418
 31
0.0
 11
821.33539048956106
 21
70.175853044427583
 31
0.0
 11
821.33718059646276
 21
70.21234760271696
 31
0.0
  0
SPLINE
  5
353
100
AcDbEntity
  8
971
  6
CONTINUOUS
 62
           3
100
AcDbSpline
210
0.0
220
0.0
230
1.0
 70
           0
 71
           4
 72
          14
 73
          10
 74
          15
 42
0.00000000001
 43
0.00000000001
 44
0.00000000001
 40
0.0
 40
0.0
 40
0.0
 40
0.0
 40
0.0671888115660657
 40
0.1341045724103387
 40
0.1677934964959695
 40
0.2345785726225562
 40
0.268181258659668
 40
0.3347755121610171
 40
0.401500682617558
 40
0.401500682617558
 40
0.401500682617558
 40
0.401500682617558
 10
818.47423181093836
 20
73.591559815405162
 30
0.0
 10
818.47925735403919
 20
73.624642697550087
 30
0.0
 10
818.47846526610147
 20
73.658359792109522
 30
0.0
 10
818.46531844314848
 20
73.723971377181144
 30
0.0
 10
818.45306639450268
 20
73.755353392891237
 30
0.0
 10
818.41832823460402
 20
73.812392911122799
 30
0.0
 10
818.39611345396463
 20
73.837604892997547
 30
0.0
 10
818.34402904069691
 20
73.879101983184199
 30
0.0
 10
818.31456622569635
 20
73.895062968659232
 30
0.0
 10
818.2830333103301
 20
73.905504779475621
 30
0.0
 11
818.47423181093836
 21
73.591559815405162
 31
0.0
 11
818.4780762931299
 21
73.631652806876446
 31
0.0
 11
818.47602496093032
 21
73.663127835250805
 31
0.0
 11
818.47030580048965
 21
73.697165468168947
 31
0.0
 11
818.46294458507964
 21
73.727904442000167
 31
0.0
 11
818.45893242344596
 21
73.739723579307011
 31
0.0
 11
818.45338898583395
 21
73.75183638043373
 31
0.0
 11
818.43535467876211
 21
73.783687690629137
 31
0.0
 11
818.41533158763662
 21
73.814316169199998
 31
0.0
 11
818.40713324441572
 21
73.824764960638035
 31
0.0
 11
818.39848546137114
 21
73.833723668787542
 31
0.0
 11
818.37462706059648
 21
73.854240457533763
 31
0.0
 11
818.3470980872255
 21
73.874782262808225
 31
0.0
 11
818.32022079650733
 21
73.890837483247907
 31
0.0
 11
818.2830333103301
 21
73.905504779475621
 31
0.0
  0
SPLINE
  5
352
100
AcDbEntity
  8
971
  6
CONTINUOUS
 62
           3
100
AcDbSpline
210
0.0
220
0.0
230
1.0
 70
           0
 71
           4
 72
          10
 73
           6
 74
           7
 42
0.00000000001
 43
0.00000000001
 44
0.00000000001
 40
0.0
 40
0.0
 40
0.0
 40
0.0
 40
0.4513088057866527
 40
0.9132664118949995
 40
1.3762738035432824
 40
1.3762738035432824
 40
1.3762738035432824
 40
1.3762738035432824
 10
817.95697830424524
 20
72.331726038096548
 30
0.0
 10
818.08813385257645
 20
72.52142743798035
 30
0.0
 10
818.19820141639843
 20
72.71270207585718
 30
0.0
 10
818.37218983320872
 20
73.140642329464157
 30
0.0
 10
818.43558305220972
 20
73.363612158191501
 30
0.0
 10
818.47423181093836
 20
73.591559815405162
 30
0.0
 11
817.95697830424524
 21
72.331726038096548
 31
0.0
 11
818.10589891577411
 21
72.559620760615985
 31
0.0
 11
818.1982336630499
 21
72.73310889135189
 31
0.0
 11
818.28295911250484
 21
72.925802747430183
 31
0.0
 11
818.35870229084787
 21
73.124192589756944
 31
0.0
 11
818.41890433308754
 21
73.320323877883652
 31
0.0
 11
818.47423181093836
 21
73.591559815405162
 31
0.0
  0
SPLINE
  5
351
100
AcDbEntity
  8
971
  6
CONTINUOUS
 62
           3
100
AcDbSpline
210
0.0
220
0.0
230
1.0
 70
           0
 71
           4
 72
           8
 73
           4
 74
           3
 42
0.00000000001
 43
0.00000000001
 44
0.00000000001
 40
0.0
 40
0.0
 40
0.0
 40
0.0
 40
0.8184370993944872
 40
0.8184370993944872
 40
0.8184370993944872
 40
0.8184370993944872
 10
817.95697830424524
 20
72.331726038096548
 30
0.0
 10
818.163478041026
 20
72.153491342563925
 30
0.0
 10
818.38837080330052
 20
71.998146413648726
 30
0.0
 10
818.62778422236738
 20
71.868366094394418
 30
0.0
 11
817.95697830424524
 21
72.331726038096548
 31
0.0
 11
818.28003863244896
 21
72.081875675141106
 31
0.0
 11
818.62778422236738
 21
71.868366094394418
 31
0.0
  0
SPLINE
  5
350
100
AcDbEntity
  8
971
  6
CONTINUOUS
 62
           3
100
AcDbSpline
210
0.0
220
0.0
230
1.0
 70
           0
 71
           4
 72
           8
 73
           4
 74
           3
 42
0.00000000001
 43
0.00000000001
 44
0.00000000001
 40
0.0
 40
0.0
 40
0.0
 40
0.0
 40
0.6699290430242246
 40
0.6699290430242246
 40
0.6699290430242246
 40
0.6699290430242246
 10
818.03576894822152
 20
71.523731615483058
 30
0.0
 10
818.22378578534904
 20
71.403255657396215
 30
0.0
 10
818.42187673213789
 20
71.299567201251477
 30
0.0
 10
818.62778422236738
 20
71.213847944445675
 30
0.0
 11
818.03576894822152
 21
71.523731615483058
 31
0.0
 11
818.3250675903812
 21
71.355756016983975
 31
0.0
 11
818.62778422236738
 21
71.213847944445675
 31
0.0
  0
SPLINE
  5
34F
100
AcDbEntity
  8
971
  6
CONTINUOUS
 62
           3
100
AcDbSpline
210
0.0
220
0.0
230
1.0
 70
           0
 71
           4
 72
           8
 73
           4
 74
           3
 42
0.00000000001
 43
0.00000000001
 44
0.00000000001
 40
0.0
 40
0.0
 40
0.0
 40
0.0
 40
0.3439315580211894
 40
0.3439315580211894
 40
0.3439315580211894
 40
0.3439315580211894
 10
817.77813597439672
 20
71.740679834188342
 30
0.0
 10
817.84928394193525
 20
71.641896182715698
 30
0.0
 10
817.93703842444665
 20
71.571432253589705
 30
0.0
 10
818.03576894822152
 20
71.523731615483058
 30
0.0
 11
817.77813597439672
 21
71.740679834188342
 31
0.0
 11
817.89660900272031
 21
71.613049594823437
 31
0.0
 11
818.03576894822152
 21
71.523731615483058
 31
0.0
  0
SPLINE
  5
34E
100
AcDbEntity
  8
971
  6
CONTINUOUS
 62
           3
100
AcDbSpline
210
0.0
220
0.0
230
1.0
 70
           0
 71
           4
 72
           8
 73
           4
 74
           3
 42
0.00000000001
 43
0.00000000001
 44
0.00000000001
 40
0.0
 40
0.0
 40
0.0
 40
0.0
 40
1.0291468313453775
 40
1.0291468313453775
 40
1.0291468313453775
 40
1.0291468313453775
 10
816.27906906868907
 20
70.994049023163058
 30
0.0
 10
816.59655163790057
 20
71.113134751389282
 30
0.0
 10
816.89123739822321
 20
71.28665724551432
 30
0.0
 10
817.15011340832575
 20
71.519352000513152
 30
0.0
 11
816.27906906868907
 21
70.994049023163058
 31
0.0
 11
816.7365686981733
 21
71.214097126798379
 31
0.0
 11
817.15011340832575
 21
71.519352000513152
 31
0.0
  0
SPLINE
  5
34D
100
AcDbEntity
  8
971
  6
CONTINUOUS
 62
           3
100
AcDbSpline
210
0.0
220
0.0
230
1.0
 70
           0
 71
           4
 72
           8
 73
           4
 74
           3
 42
0.00000000001
 43
0.00000000001
 44
0.00000000001
 40
0.0
 40
0.0
 40
0.0
 40
0.0
 40
1.0683475113338639
 40
1.0683475113338639
 40
1.0683475113338639
 40
1.0683475113338639
 10
816.27906906868907
 20
71.634721760840279
 30
0.0
 10
816.58656155856659
 20
71.8125867289681
 30
0.0
 10
816.86939573445648
 20
72.03065172505805
 30
0.0
 10
817.12022470871
 20
72.283252302719077
 30
0.0
 11
816.27906906868907
 21
71.634721760840279
 31
0.0
 11
816.7208957070585
 21
71.930961178204726
 31
0.0
 11
817.12022470871
 21
72.283252302719077
 31
0.0
  0
SPLINE
  5
34C
100
AcDbEntity
  8
971
  6
CONTINUOUS
 62
           3
100
AcDbSpline
210
0.0
220
0.0
230
1.0
 70
           0
 71
           4
 72
          10
 73
           6
 74
           7
 42
0.00000000001
 43
0.00000000001
 44
0.00000000001
 40
0.0
 40
0.0
 40
0.0
 40
0.0
 40
0.3976566166372801
 40
0.7951682325091256
 40
1.1938059818840889
 40
1.1938059818840889
 40
1.1938059818840889
 40
1.1938059818840889
 10
817.12022470871
 20
72.283252302719077
 30
0.0
 10
817.25490507217944
 20
72.428915430999652
 30
0.0
 10
817.37200073477925
 20
72.590153901131259
 30
0.0
 10
817.56612722739487
 20
72.937040611193495
 30
0.0
 10
817.64247487552234
 20
73.121468066085285
 30
0.0
 10
817.69651098833856
 20
73.313024431707618
 30
0.0
 11
817.12022470871
 21
72.283252302719077
 31
0.0
 11
817.27505072620124
 21
72.463286271838697
 31
0.0
 11
817.37507514492563
 21
72.607643477483464
 31
0.0
 11
817.46771040141175
 21
72.76417380661691
 31
0.0
 11
817.55270281002572
 21
72.925018707874784
 31
0.0
 11
817.62367244894119
 21
73.086227381459381
 31
0.0
 11
817.69651098833856
 21
73.313024431707618
 31
0.0
  0
SPLINE
  5
34B
100
AcDbEntity
  8
971
  6
CONTINUOUS
 62
           3
100
AcDbSpline
210
0.0
220
0.0
230
1.0
 70
           0
 71
           4
 72
          14
 73
          10
 74
          15
 42
0.00000000001
 43
0.00000000001
 44
0.00000000001
 40
0.0
 40
0.0
 40
0.0
 40
0.0
 40
0.0611166361931318
 40
0.121992694400078
 40
0.1527648737401958
 40
0.2138156647701473
 40
0.2446866969895645
 40
0.3059243459934135
 40
0.3675341889664979
 40
0.3675341889664979
 40
0.3675341889664979
 40
0.3675341889664979
 10
814.74418901157651
 20
72.614035823598087
 30
0.0
 10
814.77456671911864
 20
72.61266897280565
 30
0.0
 10
814.8049130615351
 20
72.617369253680152
 30
0.0
 10
814.86205434768704
 20
72.638363726279351
 30
0.0
 10
814.88828644239561
 20
72.654451119745687
 30
0.0
 10
814.93305784774032
 20
72.695956786212363
 30
0.0
 10
814.95115615426789
 20
72.720966223053807
 30
0.0
 10
814.97669736216415
 20
72.776623175492105
 30
0.0
 10
814.98388867934602
 20
72.806722462941252
 30
0.0
 10
814.98508734658162
 20
72.837362428340327
 30
0.0
 11
814.74418901157651
 21
72.614035823598087
 31
0.0
 11
814.78075097170438
 21
72.614690088750365
 31
0.0
 11
814.80880916611022
 21
72.620406724343354
 31
0.0
 11
814.83861228652609
 21
72.630165029667495
 31
0.0
 11
814.86513611339808
 21
72.641203859385271
 31
0.0
 11
814.87514310168945
 21
72.646657056538004
 31
0.0
 11
814.8850763816796
 21
72.653663281043237
 31
0.0
 11
814.91038337761427
 21
72.6754821514794
 31
0.0
 11
814.93406598395359
 21
72.699070534560747
 31
0.0
 11
814.94183826491417
 21
72.708476549943171
 31
0.0
 11
814.94806437034754
 21
72.71806437339913
 31
0.0
 11
814.96120662851308
 21
72.743794854540553
 31
0.0
 11
814.97335039365839
 21
72.772915122737572
 31
0.0
 11
814.98136876987314
 21
72.80066582609507
 31
0.0
 11
814.98508734658162
 21
72.837362428340327
 31
0.0
  0
SPLINE
  5
34A
100
AcDbEntity
  8
971
  6
CONTINUOUS
 62
           3
100
AcDbSpline
210
0.0
220
0.0
230
1.0
 70
           0
 71
           4
 72
           8
 73
           4
 74
           3
 42
0.00000000001
 43
0.00000000001
 44
0.00000000001
 40
0.0
 40
0.0
 40
0.0
 40
0.0
 40
0.8751901611733841
 40
0.8751901611733841
 40
0.8751901611733841
 40
0.8751901611733841
 10
811.0557463120291
 20
72.729330008769239
 30
0.0
 10
811.33873559326253
 20
72.798757440320614
 30
0.0
 10
811.61463981911857
 20
72.89480931708944
 30
0.0
 10
811.87983082277856
 20
73.01622223532307
 30
0.0
 11
811.0557463120291
 21
72.729330008769239
 31
0.0
 11
811.47446292149368
 21
72.853281564540296
 31
0.0
 11
811.87983082277856
 21
73.01622223532307
 31
0.0
  0
SPLINE
  5
349
100
AcDbEntity
  8
971
  6
CONTINUOUS
 62
           3
100
AcDbSpline
210
0.0
220
0.0
230
1.0
 70
           0
 71
           4
 72
           8
 73
           4
 74
           3
 42
0.00000000001
 43
0.00000000001
 44
0.00000000001
 40
0.0
 40
0.0
 40
0.0
 40
0.0
 40
0.9578536084126142
 40
0.9578536084126142
 40
0.9578536084126142
 40
0.9578536084126142
 10
814.98542625587822
 20
73.044830604227457
 30
0.0
 10
815.26534049893496
 20
72.905000231194379
 30
0.0
 10
815.56673863733829
 20
72.796547703403334
 30
0.0
 10
815.88448454204331
 20
72.729999778021963
 30
0.0
 11
814.98542625587822
 21
73.044830604227457
 31
0.0
 11
815.42076852584262
 21
72.85993427325532
 31
0.0
 11
815.88448454204331
 21
72.729999778021963
 31
0.0
  0
SPLINE
  5
348
100
AcDbEntity
  8
971
  6
CONTINUOUS
 62
           3
100
AcDbSpline
210
0.0
220
0.0
230
1.0
 70
           0
 71
           4
 72
           8
 73
           4
 74
           3
 42
0.00000000001
 43
0.00000000001
 44
0.00000000001
 40
0.0
 40
0.0
 40
0.0
 40
0.0
 40
1.5397894460870427
 40
1.5397894460870427
 40
1.5397894460870427
 40
1.5397894460870427
 10
813.46033976883336
 20
74.09822339000057
 30
0.0
 10
813.80794279618794
 20
73.729222999760879
 30
0.0
 10
814.22558909024963
 20
73.427205136276001
 30
0.0
 10
814.69356641426884
 20
73.206424559404638
 30
0.0
 11
813.46033976883336
 21
74.09822339000057
 31
0.0
 11
814.03181273030191
 21
73.596741544689479
 31
0.0
 11
814.69356641426884
 21
73.206424559404638
 31
0.0
  0
SPLINE
  5
347
100
AcDbEntity
  8
971
  6
CONTINUOUS
 62
           3
100
AcDbSpline
210
0.0
220
0.0
230
1.0
 70
           0
 71
           4
 72
           8
 73
           4
 74
           3
 42
0.00000000001
 43
0.00000000001
 44
0.00000000001
 40
0.0
 40
0.0
 40
0.0
 40
0.0
 40
1.5123870450735333
 40
1.5123870450735333
 40
1.5123870450735333
 40
1.5123870450735333
 10
812.25404454558748
 20
73.206424559404525
 30
0.0
 10
812.69857633813126
 20
73.436792234457982
 30
0.0
 10
813.10337368893283
 20
73.737922491183184
 30
0.0
 10
813.46033976883336
 20
74.09822339000057
 30
0.0
 11
812.25404454558748
 21
73.206424559404525
 31
0.0
 11
812.89002929945161
 21
73.603599015791076
 31
0.0
 11
813.46033976883336
 21
74.09822339000057
 31
0.0
  0
SPLINE
  5
346
100
AcDbEntity
  8
971
  6
CONTINUOUS
 62
           3
100
AcDbSpline
210
0.0
220
0.0
230
1.0
 70
           0
 71
           4
 72
          10
 73
           6
 74
           7
 42
0.00000000001
 43
0.00000000001
 44
0.00000000001
 40
0.0
 40
0.0
 40
0.0
 40
0.0
 40
0.8403261456956093
 40
1.6777959180121673
 40
2.5199795970025716
 40
2.5199795970025716
 40
2.5199795970025716
 40
2.5199795970025716
 10
813.82358194089454
 20
74.70074920619092
 30
0.0
 10
814.10250745118344
 20
74.387298058761161
 30
0.0
 10
814.41871406491612
 20
74.109742657752037
 30
0.0
 10
815.11135990855723
 20
73.639001375484767
 30
0.0
 10
815.4851546370702
 20
73.447612770553476
 30
0.0
 10
815.88543726278635
 20
73.313221413784646
 30
0.0
 11
813.82358194089454
 21
74.70074920619092
 31
0.0
 11
814.17116984358245
 21
74.33847118928108
 31
0.0
 11
814.45561468839321
 21
74.100273845704777
 31
0.0
 11
814.76656535972472
 21
73.877231446874788
 31
0.0
 11
815.08821796318944
 21
73.670304647815499
 31
0.0
 11
815.41528967335853
 21
73.494636410441856
 31
0.0
 11
815.88543726278635
 21
73.313221413784646
 31
0.0
  0
SPLINE
  5
345
100
AcDbEntity
  8
971
  6
CONTINUOUS
 62
           3
100
AcDbSpline
210
0.0
220
0.0
230
1.0
 70
           0
 71
           4
 72
          10
 73
           6
 74
           7
 42
0.00000000001
 43
0.00000000001
 44
0.00000000001
 40
0.0
 40
0.0
 40
0.0
 40
0.0
 40
0.8283919172704205
 40
1.6562859341479186
 40
2.502185981811087
 40
2.502185981811087
 40
2.502185981811087
 40
2.502185981811087
 10
811.05669355218754
 20
73.309196625411587
 30
0.0
 10
811.444201347628
 20
73.452789881658191
 30
0.0
 10
811.81269437180902
 20
73.643970226099412
 30
0.0
 10
812.49500214438751
 20
74.112867450084082
 30
0.0
 10
812.80621979894659
 20
74.388799548418248
 30
0.0
 10
813.10293985351245
 20
74.699981745210948
 30
0.0
 11
811.05669355218754
 21
73.309196625411587
 31
0.0
 11
811.5135515840235
 21
73.498329763547943
 31
0.0
 11
811.83360533750238
 21
73.673845469535237
 31
0.0
 11
812.14961764809618
 21
73.879347323990871
 31
0.0
 11
812.45456889524348
 21
74.100262903845817
 31
0.0
 11
812.74037239017628
 21
74.339336404434846
 31
0.0
 11
813.10293985351245
 21
74.699981745210948
 31
0.0
  0
SPLINE
  5
344
100
AcDbEntity
  8
971
  6
CONTINUOUS
 62
           3
100
AcDbSpline
210
0.0
220
0.0
230
1.0
 70
           0
 71
           4
 72
           8
 73
           4
 74
           3
 42
0.00000000001
 43
0.00000000001
 44
0.00000000001
 40
0.0
 40
0.0
 40
0.0
 40
0.0
 40
1.2824959566402057
 40
1.2824959566402057
 40
1.2824959566402057
 40
1.2824959566402057
 10
807.594788632838
 20
70.771145344225772
 30
0.0
 10
808.01750501115862
 20
70.834084979873353
 30
0.0
 10
808.43732378204527
 20
70.915433972373265
 30
0.0
 10
808.8530677676863
 20
71.014964217992485
 30
0.0
 11
807.594788632838
 21
70.771145344225772
 31
0.0
 11
808.22654284751707
 21
70.879333302369758
 31
0.0
 11
808.8530677676863
 21
71.014964217992485
 31
0.0
  0
SPLINE
  5
343
100
AcDbEntity
  8
971
  6
CONTINUOUS
 62
           3
100
AcDbSpline
210
0.0
220
0.0
230
1.0
 70
           0
 71
           4
 72
           8
 73
           4
 74
           3
 42
0.00000000001
 43
0.00000000001
 44
0.00000000001
 40
0.0
 40
0.0
 40
0.0
 40
0.0
 40
1.0852764984345582
 40
1.0852764984345582
 40
1.0852764984345582
 40
1.0852764984345582
 10
805.83513128004597
 20
70.566384864958707
 30
0.0
 10
806.196062414327
 20
70.59024319023878
 30
0.0
 10
806.55624492228492
 20
70.624482796509426
 30
0.0
 10
806.91523903869825
 20
70.669061878886311
 30
0.0
 11
805.83513128004597
 21
70.566384864958707
 31
0.0
 11
806.37591154107247
 21
70.60995308801121
 31
0.0
 11
806.91523903869825
 21
70.669061878886311
 31
0.0
  0
SPLINE
  5
342
100
AcDbEntity
  8
971
  6
CONTINUOUS
 62
           3
100
AcDbSpline
210
0.0
220
0.0
230
1.0
 70
           0
 71
           4
 72
           8
 73
           4
 74
           3
 42
0.00000000001
 43
0.00000000001
 44
0.00000000001
 40
0.0
 40
0.0
 40
0.0
 40
0.0
 40
1.1564434417045335
 40
1.1564434417045335
 40
1.1564434417045335
 40
1.1564434417045335
 10
802.07875294751307
 20
70.104058452334712
 30
0.0
 10
802.39500684503548
 20
70.294240290167949
 30
0.0
 10
802.68216899031631
 20
70.556263519800211
 30
0.0
 10
802.93376809416986
 20
70.865514572861059
 30
0.0
 11
802.07875294751307
 21
70.104058452334712
 31
0.0
 11
802.53050606846728
 21
70.440135556887526
 31
0.0
 11
802.93376809416986
 21
70.865514572861059
 31
0.0
  0
SPLINE
  5
341
100
AcDbEntity
  8
971
  6
CONTINUOUS
 62
           3
100
AcDbSpline
210
0.0
220
0.0
230
1.0
 70
           0
 71
           4
 72
           8
 73
           4
 74
           3
 42
0.00000000001
 43
0.00000000001
 44
0.00000000001
 40
0.0
 40
0.0
 40
0.0
 40
0.0
 40
0.7901372346427311
 40
0.7901372346427311
 40
0.7901372346427311
 40
0.7901372346427311
 10
802.93376809416986
 20
70.865514572861059
 30
0.0
 10
803.10880891223542
 20
71.047070131265684
 30
0.0
 10
803.25333378784069
 20
71.284547822619857
 30
0.0
 10
803.36223113150947
 20
71.520583433133581
 30
0.0
 11
802.93376809416986
 21
70.865514572861059
 31
0.0
 11
803.17280341573849
 21
71.172618983456402
 31
0.0
 11
803.36223113150947
 21
71.520583433133581
 31
0.0
  0
SPLINE
  5
340
100
AcDbEntity
  8
971
  6
CONTINUOUS
 62
           3
100
AcDbSpline
210
0.0
220
0.0
230
1.0
 70
           0
 71
           4
 72
           8
 73
           4
 74
           3
 42
0.00000000001
 43
0.00000000001
 44
0.00000000001
 40
0.0
 40
0.0
 40
0.0
 40
0.0
 40
1.3245915443645304
 40
1.3245915443645304
 40
1.3245915443645304
 40
1.3245915443645304
 10
804.34763124575443
 20
70.992315885153602
 30
0.0
 10
804.62157056597221
 20
70.626076358406024
 30
0.0
 10
804.94226302754987
 20
70.320061933607292
 30
0.0
 10
805.30036620045416
 20
70.093105858209398
 30
0.0
 11
804.34763124575443
 21
70.992315885153602
 31
0.0
 11
804.7924372783466
 21
70.490479577425347
 31
0.0
 11
805.30036620045416
 21
70.093105858209398
 31
0.0
  0
SPLINE
  5
33F
100
AcDbEntity
  8
971
  6
CONTINUOUS
 62
           3
100
AcDbSpline
210
0.0
220
0.0
230
1.0
 70
           0
 71
           4
 72
           8
 73
           4
 74
           3
 42
0.00000000001
 43
0.00000000001
 44
0.00000000001
 40
0.0
 40
0.0
 40
0.0
 40
0.0
 40
0.6623686766860117
 40
0.6623686766860117
 40
0.6623686766860117
 40
0.6623686766860117
 10
803.98680683894838
 20
71.542351958919525
 30
0.0
 10
804.08019642838883
 20
71.342446394144289
 30
0.0
 10
804.20172571497301
 20
71.157188716504962
 30
0.0
 10
804.34763124575443
 20
70.992315885153602
 30
0.0
 11
803.98680683894838
 21
71.542351958919525
 31
0.0
 11
804.14752556434848
 21
71.254196647002615
 31
0.0
 11
804.34763124575443
 21
70.992315885153602
 31
0.0
  0
SPLINE
  5
33E
100
AcDbEntity
  8
971
  6
CONTINUOUS
 62
           3
100
AcDbSpline
210
0.0
220
0.0
230
1.0
 70
           0
 71
           4
 72
          12
 73
           8
 74
          11
 42
0.00000000001
 43
0.00000000001
 44
0.00000000001
 40
0.0
 40
0.0
 40
0.0
 40
0.0
 40
0.0700385358808867
 40
0.1398281685358272
 40
0.1751336110000279
 40
0.2451503594773298
 40
0.3156701291447602
 40
0.3156701291447602
 40
0.3156701291447602
 40
0.3156701291447602
 10
805.04487226434776
 20
72.218088082288148
 30
0.0
 10
805.07955423486533
 20
72.221303795246357
 30
0.0
 10
805.11322992752594
 20
72.231576924312947
 30
0.0
 10
805.17449778321736
 20
72.264996120669025
 30
0.0
 10
805.20145442985427
 20
72.287795538856471
 30
0.0
 10
805.24475443619451
 20
72.342817848134331
 30
0.0
 10
805.26064865558419
 20
72.37447000634711
 30
0.0
 10
805.26982638411607
 20
72.408349991295381
 30
0.0
 11
805.04487226434776
 21
72.218088082288148
 31
0.0
 11
805.0862393563682
 21
72.224632508365772
 31
0.0
 11
805.11711372103377
 21
72.235712089304073
 31
0.0
 11
805.14927903281261
 21
72.251760197681932
 31
0.0
 11
805.1774828606425
 21
72.26876693113455
 31
0.0
 11
805.1878047508859
 21
72.276561460643975
 31
0.0
 11
805.19720339359583
 21
72.285438486331373
 31
0.0
 11
805.21872525538333
 21
72.310477987879892
 31
0.0
 11
805.23998598882633
 21
72.339601761628643
 31
0.0
 11
805.25622220528646
 21
72.368390451903466
 31
0.0
 11
805.26982638411607
 21
72.408349991295381
 31
0.0
  0
SPLINE
  5
33D
100
AcDbEntity
  8
971
  6
CONTINUOUS
 62
           3
100
AcDbSpline
210
0.0
220
0.0
230
1.0
 70
           0
 71
           4
 72
          12
 73
           8
 74
          11
 42
0.00000000001
 43
0.00000000001
 44
0.00000000001
 40
0.0
 40
0.0
 40
0.0
 40
0.0
 40
0.1016263906828942
 40
0.2025591539035078
 40
0.2535043885753879
 40
0.3541033517340756
 40
0.4550324351152353
 40
0.4550324351152353
 40
0.4550324351152353
 40
0.4550324351152353
 10
802.20904301099654
 20
73.733357437416927
 30
0.0
 10
802.21040839228954
 20
73.682830736080234
 30
0.0
 10
802.22235334122729
 20
73.633165741133794
 30
0.0
 10
802.26583432820291
 20
73.542078824054698
 30
0.0
 10
802.29687936825212
 20
73.501685477769499
 30
0.0
 10
802.37350317396294
 20
73.43650155500481
 30
0.0
 10
802.4182166847836
 20
73.412447051396668
 30
0.0
 10
802.46639697100181
 20
73.398508855877282
 30
0.0
 11
802.20904301099654
 21
73.733357437416927
 31
0.0
 11
802.21470062129936
 21
73.672845762311454
 31
0.0
 11
802.22813282725474
 21
73.627176840303122
 31
0.0
 11
802.2487406715519
 21
73.579470905452013
 31
0.0
 11
802.2711510926631
 21
73.537487599318766
 31
0.0
 11
802.2816601281155
 21
73.522071010013775
 31
0.0
 11
802.29386570885367
 21
73.507947787578757
 31
0.0
 11
802.32860104758458
 21
73.475597695405824
 31
0.0
 11
802.36930424948446
 21
73.443557966804761
 31
0.0
 11
802.40972764951346
 21
73.419111248935465
 31
0.0
 11
802.46639697100181
 21
73.398508855877282
 31
0.0
  0
SPLINE
  5
33C
100
AcDbEntity
  8
971
  6
CONTINUOUS
 62
           3
100
AcDbSpline
210
0.0
220
0.0
230
1.0
 70
           0
 71
           4
 72
          10
 73
           6
 74
           7
 42
0.00000000001
 43
0.00000000001
 44
0.00000000001
 40
0.0
 40
0.0
 40
0.0
 40
0.0
 40
0.4061504360725305
 40
0.8260700551573842
 40
1.2844691695246282
 40
1.2844691695246282
 40
1.2844691695246282
 40
1.2844691695246282
 10
800.18161858226847
 20
71.084740943191846
 30
0.0
 10
800.34333010998444
 20
71.21798396862475
 30
0.0
 10
800.48820353438146
 20
71.350912062623522
 30
0.0
 10
800.73776794117339
 20
71.688625096655315
 30
0.0
 10
800.84151475253452
 20
71.872295537515114
 30
0.0
 10
800.92189654799927
 20
72.106329276671858
 30
0.0
 11
800.18161858226847
 21
71.084740943191846
 31
0.0
 11
800.36810668700002
 21
71.244722370915255
 31
0.0
 11
800.48956630765076
 21
71.369065599289556
 31
0.0
 11
800.606503094902
 21
71.51427144685961
 31
0.0
 11
800.71499880897773
 21
71.667706214052757
 31
0.0
 11
800.81544323389267
 21
71.840029130153269
 31
0.0
 11
800.92189654799927
 21
72.106329276671858
 31
0.0
  0
SPLINE
  5
33B
100
AcDbEntity
  8
971
  6
CONTINUOUS
 62
           3
100
AcDbSpline
210
0.0
220
0.0
230
1.0
 70
           0
 71
           4
 72
          10
 73
           6
 74
           7
 42
0.00000000001
 43
0.00000000001
 44
0.00000000001
 40
0.0
 40
0.0
 40
0.0
 40
0.0
 40
0.2321047043107099
 40
0.4633449425403104
 40
0.6855063816323628
 40
0.6855063816323628
 40
0.6855063816323628
 40
0.6855063816323628
 10
801.49935735270049
 20
72.191914115345241
 30
0.0
 10
801.56659656251395
 20
72.09755022324336
 30
0.0
 10
801.64574755390822
 20
72.012427787222819
 30
0.0
 10
801.82387136466173
 20
71.864969468301396
 30
0.0
 10
801.92208449870122
 20
71.823099322142411
 30
0.0
 10
802.02696611956844
 20
71.774974412572504
 30
0.0
 11
801.49935735270049
 21
72.191914115345241
 31
0.0
 11
801.58426623896571
 21
72.082239026194841
 31
0.0
 11
801.65624518796585
 21
72.008618629120349
 31
0.0
 11
801.73674815401398
 21
71.938986031102957
 31
0.0
 11
801.82113223458998
 21
71.877494498750792
 31
0.0
 11
801.90452944216167
 21
71.831576558472662
 31
0.0
 11
802.02696611956844
 21
71.774974412572504
 31
0.0
  0
SPLINE
  5
33A
100
AcDbEntity
  8
971
  6
CONTINUOUS
 62
           3
100
AcDbSpline
210
0.0
220
0.0
230
1.0
 70
           0
 71
           4
 72
           8
 73
           4
 74
           3
 42
0.00000000001
 43
0.00000000001
 44
0.00000000001
 40
0.0
 40
0.0
 40
0.0
 40
0.0
 40
0.7113489145902485
 40
0.7113489145902485
 40
0.7113489145902485
 40
0.7113489145902485
 10
801.51710114351022
 20
72.924296661597651
 30
0.0
 10
801.66410066425772
 20
72.733515689184529
 30
0.0
 10
801.8355517655782
 20
72.563245323210054
 30
0.0
 10
802.02696611956844
 20
72.437779819283605
 30
0.0
 11
801.51710114351022
 21
72.924296661597651
 31
0.0
 11
801.75537806907323
 21
72.656544939758135
 31
0.0
 11
802.02696611956844
 21
72.437779819283605
 31
0.0
  0
SPLINE
  5
339
100
AcDbEntity
  8
971
  6
CONTINUOUS
 62
           3
100
AcDbSpline
210
0.0
220
0.0
230
1.0
 70
           0
 71
           4
 72
           8
 73
           4
 74
           3
 42
0.00000000001
 43
0.00000000001
 44
0.00000000001
 40
0.0
 40
0.0
 40
0.0
 40
0.0
 40
1.6492603427582799
 40
1.6492603427582799
 40
1.6492603427582799
 40
1.6492603427582799
 10
800.18161858226847
 20
71.821821926730777
 30
0.0
 10
800.48961832660984
 20
72.254470684071933
 30
0.0
 10
800.73052747052441
 20
72.749838151639182
 30
0.0
 10
800.89673839830368
 20
73.292281231512291
 30
0.0
 11
800.18161858226847
 21
71.821821926730777
 31
0.0
 11
800.59234929649688
 21
72.515878708172053
 31
0.0
 11
800.89673839830368
 21
73.292281231512291
 31
0.0
  0
SPLINE
  5
338
100
AcDbEntity
  8
971
  6
CONTINUOUS
 62
           3
100
AcDbSpline
210
0.0
220
0.0
230
1.0
 70
           0
 71
           4
 72
          14
 73
          10
 74
          15
 42
0.00000000001
 43
0.00000000001
 44
0.00000000001
 40
0.0
 40
0.0
 40
0.0
 40
0.0
 40
0.0510709965088985
 40
0.1020271510672666
 40
0.127709716180413
 40
0.1787957650371761
 40
0.2045482786930001
 40
0.2557672644567351
 40
0.3072259734033747
 40
0.3072259734033747
 40
0.3072259734033747
 40
0.3072259734033747
 10
801.82565881684832
 20
73.333964592298798
 30
0.0
 10
801.85095791397691
 20
73.336658757420437
 30
0.0
 10
801.87563939250276
 20
73.343562564174164
 30
0.0
 10
801.92176025333163
 20
73.36522811018115
 30
0.0
 10
801.94288092788156
 20
73.379840134590751
 30
0.0
 10
801.97952543636154
 20
73.415434577781454
 30
0.0
 10
801.99479604672251
 20
73.436171029232867
 30
0.0
 10
802.01799232141082
 20
73.481836304259417
 30
0.0
 10
802.02575769314069
 20
73.506449568304788
 30
0.0
 10
802.02937459680948
 20
73.531842802643737
 30
0.0
 11
801.82565881684832
 21
73.333964592298798
 31
0.0
 11
801.85589816516858
 21
73.338807736385277
 31
0.0
 11
801.87871513057451
 21
73.346177387723714
 31
0.0
 11
801.90283435212348
 21
73.356639327181028
 31
0.0
 11
801.92425454939507
 21
73.367644007436525
 31
0.0
 11
801.93230551588852
 21
73.372717273975269
 31
0.0
 11
801.94033047236223
 21
73.378934030721624
 31
0.0
 11
801.96099564927192
 21
73.397827898345255
 31
0.0
 11
801.98049063498661
 21
73.417937875499433
 31
0.0
 11
801.98696193490798
 21
73.4258007134774
 31
0.0
 11
801.99228795241845
 21
73.4337155909854
 31
0.0
 11
802.003998881808
 21
73.454888504432873
 31
0.0
 11
802.0152666825262
 21
73.478791106774082
 31
0.0
 11
802.02343902321081
 21
73.501540653216608
 31
0.0
 11
802.02937459680948
 21
73.531842802643737
 31
0.0
  0
SPLINE
  5
337
100
AcDbEntity
  8
971
  6
CONTINUOUS
 62
           3
100
AcDbSpline
210
0.0
220
0.0
230
1.0
 70
           0
 71
           4
 72
          14
 73
          10
 74
          15
 42
0.00000000001
 43
0.00000000001
 44
0.00000000001
 40
0.2054375419641353
 40
0.2054375419641353
 40
0.2054375419641353
 40
0.2054375419641353
 40
0.2542489860377696
 40
0.3094068318800615
 40
0.3404616810977058
 40
0.4021208287218602
 40
0.4332700019478666
 40
0.495089871655048
 40
0.5572292168898954
 40
0.5572292168898954
 40
0.5572292168898954
 40
0.5572292168898954
 10
804.9279644248719
 20
73.398508855877466
 30
0.0
 10
804.95178284914562
 20
73.403380172367747
 30
0.0
 10
804.97477773580829
 20
73.411835019220149
 30
0.0
 10
805.02308845534094
 20
73.438451975022787
 30
0.0
 10
805.04698054030268
 20
73.458290622560142
 30
0.0
 10
805.08618176081654
 20
73.505883844724238
 30
0.0
 10
805.1011365914751
 20
73.533208266632812
 30
0.0
 10
805.12017365372753
 20
73.592023966504613
 30
0.0
 10
805.12408382628269
 20
73.622983661775635
 30
0.0
 10
805.12217894656271
 20
73.653858657189204
 30
0.0
 11
804.9279644248719
 21
73.398508855877466
 31
0.0
 11
804.95594416937411
 21
73.405583846339155
 31
0.0
 11
804.97650495566359
 21
73.413972750316347
 31
0.0
 11
805.00174386974822
 21
73.427039495504403
 31
0.0
 11
805.02478786190943
 21
73.44098129752328
 31
0.0
 11
805.03443633450922
 21
73.448172305728079
 31
0.0
 11
805.04364713011171
 21
73.456786020745383
 31
0.0
 11
805.06623492085362
 21
73.482288291932107
 31
0.0
 11
805.08683489064072
 21
73.509105642115358
 31
0.0
 11
805.09339814321095
 21
73.519524799018484
 31
0.0
 11
805.09844183077143
 21
73.52990161979109
 31
0.0
 11
805.10853562038665
 21
73.557282135308114
 31
0.0
 11
805.11732303363806
 21
73.587912343239665
 31
0.0
 11
805.12226557034342
 21
73.616639217656171
 31
0.0
 11
805.12217894656271
 21
73.653858657189204
 31
0.0
  0
SPLINE
  5
336
100
AcDbEntity
  8
971
  6
CONTINUOUS
 62
           3
100
AcDbSpline
210
0.0
220
0.0
230
1.0
 70
           0
 71
           4
 72
           8
 73
           4
 74
           3
 42
0.00000000001
 43
0.00000000001
 44
0.00000000001
 40
0.0
 40
0.0
 40
0.0
 40
0.0
 40
1.7987497243801844
 40
1.7987497243801844
 40
1.7987497243801844
 40
1.7987497243801844
 10
802.07875294751307
 20
70.79666300620471
 30
0.0
 10
802.53044976553724
 20
71.18857196899657
 30
0.0
 10
802.89071931397211
 20
71.673651644272582
 30
0.0
 10
803.13444791144468
 20
72.218088082288162
 30
0.0
 11
802.07875294751307
 21
70.79666300620471
 31
0.0
 11
802.68458851218566
 21
71.450177741037535
 31
0.0
 11
803.13444791144468
 21
72.218088082288162
 31
0.0
  0
SPLINE
  5
335
100
AcDbEntity
  8
971
  6
CONTINUOUS
 62
           3
100
AcDbSpline
210
0.0
220
0.0
230
1.0
 70
           0
 71
           4
 72
           8
 73
           4
 74
           3
 42
0.00000000001
 43
0.00000000001
 44
0.00000000001
 40
0.0
 40
0.0
 40
0.0
 40
0.0
 40
1.7647936928485284
 40
1.7647936928485284
 40
1.7647936928485284
 40
1.7647936928485284
 10
804.25427039366639
 20
72.163908004854576
 30
0.0
 10
804.5148786387947
 20
71.638996971206907
 30
0.0
 10
804.86934070977418
 20
71.165532851841476
 30
0.0
 10
805.30036620045416
 20
70.766610887665294
 30
0.0
 11
804.25427039366639
 21
72.163908004854576
 31
0.0
 11
804.71341182997844
 21
71.418013545208126
 31
0.0
 11
805.30036620045416
 21
70.766610887665294
 31
0.0
  0
SPLINE
  5
334
100
AcDbEntity
  8
971
  6
CONTINUOUS
 62
           3
100
AcDbSpline
210
0.0
220
0.0
230
1.0
 70
           0
 71
           4
 72
           8
 73
           4
 74
           3
 42
0.00000000001
 43
0.00000000001
 44
0.00000000001
 40
0.0
 40
0.0
 40
0.0
 40
0.0
 40
1.0275034151330558
 40
1.0275034151330558
 40
1.0275034151330558
 40
1.0275034151330558
 10
805.83513128004597
 20
69.945694137058126
 30
0.0
 10
806.17732787495197
 20
69.959118686224002
 30
0.0
 10
806.51876065258034
 20
69.987558881816511
 30
0.0
 10
806.85843109074403
 20
70.030931550314691
 30
0.0
 11
805.83513128004597
 21
69.945694137058126
 31
0.0
 11
806.34772849417345
 21
69.977082298936793
 31
0.0
 11
806.85843109074403
 21
70.030931550314691
 31
0.0
  0
SPLINE
  5
333
100
AcDbEntity
  8
971
  6
CONTINUOUS
 62
           3
100
AcDbSpline
210
0.0
220
0.0
230
1.0
 70
           0
 71
           4
 72
           8
 73
           4
 74
           3
 42
0.00000000001
 43
0.00000000001
 44
0.00000000001
 40
0.0
 40
0.0
 40
0.0
 40
0.0
 40
1.8897513903181777
 40
1.8897513903181777
 40
1.8897513903181777
 40
1.8897513903181777
 10
806.85843109074403
 20
70.030931550314691
 30
0.0
 10
807.48409038227271
 20
70.101836076349855
 30
0.0
 10
808.10263048906506
 20
70.224968857537419
 30
0.0
 10
808.70749547571199
 20
70.399024803792898
 30
0.0
 11
806.85843109074403
 21
70.030931550314691
 31
0.0
 11
807.79076114755867
 21
70.17629639447118
 31
0.0
 11
808.70749547571199
 21
70.399024803792898
 31
0.0
  0
LINE
  5
332
100
AcDbEntity
  8
1
  6
CONTINUOUS
 62
           6
100
AcDbLine
 10
829.537996422105
 20
66.650175634571
 11
829.537996422105
 21
59.650175634571
  0
LINE
  5
331
100
AcDbEntity
  8
1
  6
CONTINUOUS
 62
           7
100
AcDbLine
 10
574.537996422105
 20
244.650175634571
 11
574.537996422105
 21
66.650175634571
  0
LINE
  5
330
100
AcDbEntity
  8
1
  6
CONTINUOUS
 62
           7
100
AcDbLine
 10
829.537996422105
 20
244.650175634571
 11
829.537996422105
 21
66.650175634571
  0
LINE
  5
32F
100
AcDbEntity
  8
1
  6
CONTINUOUS
 62
           7
100
AcDbLine
 10
760.537996422105
 20
66.650175634571
 11
760.537996422105
 21
136.650175634571
  0
LINE
  5
32E
100
AcDbEntity
  8
1
  6
CONTINUOUS
 62
           7
100
AcDbLine
 10
829.537996422105
 20
136.650175634571
 11
760.537996422105
 21
136.650175634571
  0
LINE
  5
32D
100
AcDbEntity
  8
1
  6
CONTINUOUS
 62
           7
100
AcDbLine
 10
760.537996422105
 20
128.150175634571
 11
829.537996422105
 21
128.150175634571
  0
LINE
  5
32C
100
AcDbEntity
  8
1
  6
CONTINUOUS
 62
           7
100
AcDbLine
 10
829.537996422105
 20
106.150175634571
 11
760.537996422105
 21
106.150175634571
  0
LINE
  5
32B
100
AcDbEntity
  8
1
  6
CONTINUOUS
 62
           7
100
AcDbLine
 10
760.537996422105
 20
98.150175634571
 11
829.537996422105
 21
98.150175634571
  0
LINE
  5
32A
100
AcDbEntity
  8
1
  6
CONTINUOUS
 62
           7
100
AcDbLine
 10
829.537996422105
 20
86.150175634571
 11
760.537996422105
 21
86.150175634571
  0
LINE
  5
329
100
AcDbEntity
  8
1
  6
CONTINUOUS
 62
           7
100
AcDbLine
 10
760.537996422105
 20
78.150175634571
 11
829.537996422105
 21
78.150175634571
  0
LINE
  5
328
100
AcDbEntity
  8
1
  6
CONTINUOUS
 62
           2
100
AcDbLine
 10
777.787996422105
 20
86.150175634571
 11
777.787996422105
 21
98.150175634571
  0
LINE
  5
327
100
AcDbEntity
  8
1
  6
CONTINUOUS
 62
           6
100
AcDbLine
 10
795.037996422105
 20
98.150175634571
 11
795.037996422105
 21
86.150175634571
  0
LINE
  5
326
100
AcDbEntity
  8
1
  6
CONTINUOUS
 62
           6
100
AcDbLine
 10
812.287996422105
 20
86.150175634571
 11
812.287996422105
 21
98.150175634571
  0
LINE
  5
325
100
AcDbEntity
  8
1
  6
CONTINUOUS
 62
           2
100
AcDbLine
 10
795.037996422105
 20
128.150175634571
 11
795.037996422105
 21
136.650175634571
  0
LINE
  5
324
100
AcDbEntity
  8
1
  6
CONTINUOUS
 62
           2
100
AcDbLine
 10
770.037996422105
 20
136.650175634571
 11
770.037996422105
 21
98.150175634571
  0
LINE
  5
323
100
AcDbEntity
  8
1
  6
CONTINUOUS
 62
           6
100
AcDbLine
 10
574.537996422105
 20
59.650175634571
 11
829.537996422105
 21
59.650175634571
  0
LINE
  5
322
100
AcDbEntity
  8
1
  6
CONTINUOUS
 62
           6
100
AcDbLine
 10
574.537996422105
 20
66.650175634571
 11
574.537996422105
 21
59.650175634571
  0
LINE
  5
321
100
AcDbEntity
  8
1
  6
CONTINUOUS
 62
           7
100
AcDbLine
 10
829.537996422105
 20
66.650175634571
 11
574.537996422105
 21
66.650175634571
  0
LINE
  5
320
100
AcDbEntity
  8
1
  6
CONTINUOUS
 62
           6
100
AcDbLine
 10
574.537996422105
 20
252.650175634571
 11
829.537996422105
 21
252.650175634571
  0
LINE
  5
31F
100
AcDbEntity
  8
1
  6
CONTINUOUS
 62
           6
100
AcDbLine
 10
574.537996422105
 20
252.650175634571
 11
574.537996422105
 21
244.650175634571
  0
LINE
  5
31E
100
AcDbEntity
  8
1
  6
CONTINUOUS
 62
           6
100
AcDbLine
 10
829.537996422105
 20
252.650175634571
 11
829.537996422105
 21
244.650175634571
  0
LINE
  5
31D
100
AcDbEntity
  8
1
  6
CONTINUOUS
 62
           7
100
AcDbLine
 10
574.537996422105
 20
244.650175634571
 11
829.537996422105
 21
244.650175634571
  0
LINE
  5
31C
100
AcDbEntity
  8
1
  6
CONTINUOUS
 62
           2
100
AcDbLine
 10
822.537996422105
 20
136.650175634571
 11
822.537996422105
 21
128.150175634571
  0
LINE
  5
31B
100
AcDbEntity
  8
971
  6
CONTINUOUS
 62
           3
100
AcDbLine
 10
817.696510988339
 20
73.313024431708
 11
816.358335001484
 21
73.313024431707
  0
LINE
  5
31A
100
AcDbEntity
  8
971
  6
CONTINUOUS
 62
           3
100
AcDbLine
 10
816.358335001484
 20
73.905504779476
 11
816.358335001484
 21
73.313024431707
  0
LINE
  5
319
100
AcDbEntity
  8
971
  6
CONTINUOUS
 62
           3
100
AcDbLine
 10
817.124276923518
 20
73.905504779476
 11
816.358335001484
 21
73.905504779476
  0
LINE
  5
318
100
AcDbEntity
  8
971
  6
CONTINUOUS
 62
           3
100
AcDbLine
 10
817.124276923518
 20
74.752515921447
 11
817.124276923518
 21
73.905504779476
  0
LINE
  5
317
100
AcDbEntity
  8
971
  6
CONTINUOUS
 62
           3
100
AcDbLine
 10
817.773017320576
 20
74.752515921447
 11
817.124276923518
 21
74.752515921447
  0
LINE
  5
316
100
AcDbEntity
  8
971
  6
CONTINUOUS
 62
           3
100
AcDbLine
 10
817.773017320576
 20
73.905504779476
 11
817.773017320576
 21
74.752515921447
  0
LINE
  5
315
100
AcDbEntity
  8
971
  6
CONTINUOUS
 62
           3
100
AcDbLine
 10
817.773017320576
 20
73.905504779476
 11
818.28303331033
 21
73.905504779476
  0
LINE
  5
314
100
AcDbEntity
  8
971
  6
CONTINUOUS
 62
           3
100
AcDbLine
 10
821.337180596463
 20
70.584373479484
 11
820.227824104074
 21
70.584373479484
  0
LINE
  5
313
100
AcDbEntity
  8
971
  6
CONTINUOUS
 62
           3
100
AcDbLine
 10
821.337180596463
 20
70.212347602717
 11
821.337180596463
 21
70.584373479484
  0
LINE
  5
312
100
AcDbEntity
  8
971
  6
CONTINUOUS
 62
           3
100
AcDbLine
 10
820.227824104074
 20
72.984548361002
 11
820.227824104074
 21
70.584373479484
  0
LINE
  5
311
100
AcDbEntity
  8
971
  6
CONTINUOUS
 62
           3
100
AcDbLine
 10
818.328214204423
 20
69.97724851143
 11
821.111239527425
 21
69.97724851143
  0
LINE
  5
310
100
AcDbEntity
  8
971
  6
CONTINUOUS
 62
           3
100
AcDbLine
 10
818.328214204423
 20
70.584373479484
 11
818.328214204423
 21
69.97724851143
  0
LINE
  5
30F
100
AcDbEntity
  8
971
  6
CONTINUOUS
 62
           3
100
AcDbLine
 10
819.538265932573
 20
70.584373479484
 11
818.328214204423
 21
70.584373479484
  0
LINE
  5
30E
100
AcDbEntity
  8
971
  6
CONTINUOUS
 62
           3
100
AcDbLine
 10
819.538265932573
 20
72.984548361002
 11
819.538265932573
 21
70.584373479484
  0
LINE
  5
30D
100
AcDbEntity
  8
971
  6
CONTINUOUS
 62
           3
100
AcDbLine
 10
818.616706880941
 20
72.984548361002
 11
819.538265932573
 21
72.984548361002
  0
LINE
  5
30C
100
AcDbEntity
  8
971
  6
CONTINUOUS
 62
           3
100
AcDbLine
 10
818.616706880941
 20
73.582353475828
 11
818.616706880941
 21
72.984548361002
  0
LINE
  5
30B
100
AcDbEntity
  8
971
  6
CONTINUOUS
 62
           3
100
AcDbLine
 10
819.538265932573
 20
73.582353475828
 11
818.616706880941
 21
73.582353475828
  0
LINE
  5
30A
100
AcDbEntity
  8
971
  6
CONTINUOUS
 62
           3
100
AcDbLine
 10
821.013650934496
 20
72.984548361002
 11
820.227824104074
 21
72.984548361002
  0
LINE
  5
309
100
AcDbEntity
  8
971
  6
CONTINUOUS
 62
           3
100
AcDbLine
 10
821.233268906608
 20
73.582353475828
 11
821.233268906608
 21
73.228054834253
  0
LINE
  5
308
100
AcDbEntity
  8
971
  6
CONTINUOUS
 62
           3
100
AcDbLine
 10
820.227824104074
 20
73.582353475828
 11
821.233268906608
 21
73.582353475828
  0
LINE
  5
307
100
AcDbEntity
  8
971
  6
CONTINUOUS
 62
           3
100
AcDbLine
 10
820.227824104074
 20
74.752515921447
 11
820.227824104074
 21
73.582353475828
  0
LINE
  5
306
100
AcDbEntity
  8
971
  6
CONTINUOUS
 62
           3
100
AcDbLine
 10
819.538265932573
 20
74.752515921447
 11
820.227824104074
 21
74.752515921447
  0
LINE
  5
305
100
AcDbEntity
  8
971
  6
CONTINUOUS
 62
           3
100
AcDbLine
 10
819.538265932573
 20
73.582353475828
 11
819.538265932573
 21
74.752515921447
  0
LINE
  5
304
100
AcDbEntity
  8
971
  6
CONTINUOUS
 62
           3
100
AcDbLine
 10
810.453484778176
 20
74.122915108588
 11
810.453484778176
 21
74.609889280843
  0
LINE
  5
303
100
AcDbEntity
  8
971
  6
CONTINUOUS
 62
           3
100
AcDbLine
 10
809.696381195585
 20
74.122915108588
 11
810.453484778176
 21
74.122915108588
  0
LINE
  5
302
100
AcDbEntity
  8
971
  6
CONTINUOUS
 62
           3
100
AcDbLine
 10
809.696381195585
 20
74.609889280843
 11
809.696381195585
 21
74.122915108588
  0
LINE
  5
301
100
AcDbEntity
  8
971
  6
CONTINUOUS
 62
           3
100
AcDbLine
 10
799.534008214329
 20
74.619058052201
 11
794.86422002874
 21
74.619058052201
  0
LINE
  5
300
100
AcDbEntity
  8
971
  6
CONTINUOUS
 62
           3
100
AcDbLine
 10
799.53400821433
 20
70.313253733039
 11
799.534008214329
 21
74.619058052201
  0
LINE
  5
2FF
100
AcDbEntity
  8
971
  6
CONTINUOUS
 62
           3
100
AcDbLine
 10
795.194569597773
 20
69.973243790318
 11
799.203729118552
 21
69.973243790319
  0
LINE
  5
2FE
100
AcDbEntity
  8
971
  6
CONTINUOUS
 62
           3
100
AcDbLine
 10
794.86422002874
 20
74.619058052201
 11
794.86422002874
 21
70.306373075573
  0
LINE
  5
2FD
100
AcDbEntity
  8
971
  6
CONTINUOUS
 62
           3
100
AcDbLine
 10
774.01262918913
 20
74.123376126112
 11
775.610575293072
 21
74.123376126112
  0
LINE
  5
2FC
100
AcDbEntity
  8
971
  6
CONTINUOUS
 62
           3
100
AcDbLine
 10
775.610575293072
 20
74.123376126112
 11
775.610575293072
 21
74.955308848284
  0
LINE
  5
2FB
100
AcDbEntity
  8
971
  6
CONTINUOUS
 62
           3
100
AcDbLine
 10
775.610575293072
 20
74.955308848284
 11
776.144083105195
 21
74.955308848284
  0
LINE
  5
2FA
100
AcDbEntity
  8
971
  6
CONTINUOUS
 62
           3
100
AcDbLine
 10
776.404393680192
 20
74.653822608368
 11
776.404393680192
 21
74.120777106802
  0
LINE
  5
2F9
100
AcDbEntity
  8
971
  6
CONTINUOUS
 62
           3
100
AcDbLine
 10
774.01262918913
 20
74.123376126112
 11
774.01262918913
 21
73.414380492851
  0
LINE
  5
2F8
100
AcDbEntity
  8
971
  6
CONTINUOUS
 62
           3
100
AcDbLine
 10
774.01262918913
 20
73.414380492851
 11
776.784318455963
 21
73.414380492851
  0
LINE
  5
2F7
100
AcDbEntity
  8
971
  6
CONTINUOUS
 62
           3
100
AcDbLine
 10
773.53191859648
 20
71.477703565454
 11
773.53191859648
 21
70.74837715336
  0
LINE
  5
2F6
100
AcDbEntity
  8
971
  6
CONTINUOUS
 62
           3
100
AcDbLine
 10
775.608004467177
 20
71.548773546477
 11
775.608004467177
 21
69.849097638779
  0
LINE
  5
2F5
100
AcDbEntity
  8
971
  6
CONTINUOUS
 62
           3
100
AcDbLine
 10
775.608004467177
 20
69.849097638779
 11
776.418360481962
 21
69.849097638779
  0
LINE
  5
2F4
100
AcDbEntity
  8
971
  6
CONTINUOUS
 62
           3
100
AcDbLine
 10
776.418360481962
 20
69.849097638779
 11
776.418360481962
 21
71.975508691493
  0
LINE
  5
2F3
100
AcDbEntity
  8
971
  6
CONTINUOUS
 62
           3
100
AcDbLine
 10
776.404393680192
 20
74.120777106802
 11
777.789581707589
 21
74.120777106802
  0
LINE
  5
2F2
100
AcDbEntity
  8
971
  6
CONTINUOUS
 62
           3
100
AcDbLine
 10
776.838504516802
 20
72.202222467895
 11
776.838504516802
 21
71.419855816709
  0
LINE
  5
2F1
100
AcDbEntity
  8
971
  6
CONTINUOUS
 62
           3
100
AcDbLine
 10
778.607613696164
 20
71.432313884403
 11
778.607613696164
 21
70.694796276915
  0
LINE
  5
2F0
100
AcDbEntity
  8
971
  6
CONTINUOUS
 62
           3
100
AcDbLine
 10
768.737180596463
 20
74.462679836331
 11
768.737180596463
 21
73.752868711298
  0
LINE
  5
2EF
100
AcDbEntity
  8
971
  6
CONTINUOUS
 62
           3
100
AcDbLine
 10
768.737180596463
 20
73.752868711298
 11
772.650815013034
 21
73.752868711298
  0
LINE
  5
2EE
100
AcDbEntity
  8
971
  6
CONTINUOUS
 62
           3
100
AcDbLine
 10
768.737180596463
 20
74.462679836331
 11
773.195547897929
 21
74.462679836331
  0
LINE
  5
2ED
100
AcDbEntity
  8
971
  6
CONTINUOUS
 62
           3
100
AcDbLine
 10
771.320926469977
 20
72.5448032256
 11
771.320926469978
 21
73.225496323326
  0
LINE
  5
2EC
100
AcDbEntity
  8
971
  6
CONTINUOUS
 62
           3
100
AcDbLine
 10
771.320926469978
 20
73.225496323326
 11
770.503336200351
 21
73.225496323326
  0
LINE
  5
2EB
100
AcDbEntity
  8
971
  6
CONTINUOUS
 62
           3
100
AcDbLine
 10
770.503336200351
 20
73.225496323326
 11
770.503336200351
 21
72.307421804281
  0
LINE
  5
2EA
100
AcDbEntity
  8
971
  6
CONTINUOUS
 62
           3
100
AcDbLine
 10
768.853214911309
 20
70.58155027263
 11
768.853214911309
 21
69.851796254308
  0
LINE
  5
2E9
100
AcDbEntity
  8
971
  6
CONTINUOUS
 62
           3
100
AcDbLine
 10
779.470711592352
 20
74.442842998778
 11
782.848193655228
 21
74.442842998778
  0
LINE
  5
2E8
100
AcDbEntity
  8
971
  6
CONTINUOUS
 62
           3
100
AcDbLine
 10
779.470711592351
 20
73.752868711298
 11
782.201354666217
 21
73.752868711298
  0
LINE
  5
2E7
100
AcDbEntity
  8
971
  6
CONTINUOUS
 62
           3
100
AcDbLine
 10
779.470711592352
 20
74.442842998778
 11
779.470711592351
 21
73.752868711298
  0
LINE
  5
2E6
100
AcDbEntity
  8
971
  6
CONTINUOUS
 62
           3
100
AcDbLine
 10
779.123000134533
 20
70.731921347979
 11
779.123000134533
 21
69.97668379715
  0
LINE
  5
2E5
100
AcDbEntity
  8
971
  6
CONTINUOUS
 62
           3
100
AcDbLine
 10
783.937552775789
 20
69.967011842831
 11
783.937552775789
 21
70.77059457048
  0
LINE
  5
2E4
100
AcDbEntity
  8
971
  6
CONTINUOUS
 62
           3
100
AcDbLine
 10
784.470999406656
 20
74.808307027065
 11
784.470999406657
 21
69.946938597282
  0
LINE
  5
2E3
100
AcDbEntity
  8
971
  6
CONTINUOUS
 62
           3
100
AcDbLine
 10
784.470999406657
 20
69.946938597282
 11
785.292424446094
 21
69.946938597282
  0
LINE
  5
2E2
100
AcDbEntity
  8
971
  6
CONTINUOUS
 62
           3
100
AcDbLine
 10
785.292424446094
 20
69.946938597282
 11
785.292424446094
 21
72.347659191904
  0
LINE
  5
2E1
100
AcDbEntity
  8
971
  6
CONTINUOUS
 62
           3
100
AcDbLine
 10
787.1841179928
 20
72.030942143814
 11
788.191571644111
 21
72.030942143814
  0
LINE
  5
2E0
100
AcDbEntity
  8
971
  6
CONTINUOUS
 62
           3
100
AcDbLine
 10
788.457326803929
 20
72.323296342051
 11
788.457326803929
 21
72.747935201431
  0
LINE
  5
2DF
100
AcDbEntity
  8
971
  6
CONTINUOUS
 62
           3
100
AcDbLine
 10
788.457326803929
 20
72.747935201431
 11
787.33258362265
 21
72.747935201431
  0
LINE
  5
2DE
100
AcDbEntity
  8
971
  6
CONTINUOUS
 62
           3
100
AcDbLine
 10
785.292424446094
 20
73.180076521209
 11
785.292424446094
 21
74.462679836331
  0
LINE
  5
2DD
100
AcDbEntity
  8
971
  6
CONTINUOUS
 62
           3
100
AcDbLine
 10
784.470999406656
 20
74.808307027065
 11
785.032656601704
 21
74.808307027065
  0
LINE
  5
2DC
100
AcDbEntity
  8
971
  6
CONTINUOUS
 62
           3
100
AcDbLine
 10
789.389088254528
 20
74.649479670597
 11
790.080482688012
 21
74.649479670597
  0
LINE
  5
2DB
100
AcDbEntity
  8
971
  6
CONTINUOUS
 62
           3
100
AcDbLine
 10
791.239164393781
 20
74.795909003595
 11
791.94009530221
 21
74.795909003595
  0
LINE
  5
2DA
100
AcDbEntity
  8
971
  6
CONTINUOUS
 62
           3
100
AcDbLine
 10
793.113081720396
 20
74.649479670597
 11
793.799707916408
 21
74.649479670597
  0
LINE
  5
2D9
100
AcDbEntity
  8
971
  6
CONTINUOUS
 62
           3
100
AcDbLine
 10
790.080482688011
 20
74.029201274598
 11
791.239164393781
 21
74.029201274598
  0
LINE
  5
2D8
100
AcDbEntity
  8
971
  6
CONTINUOUS
 62
           3
100
AcDbLine
 10
791.94009530221
 20
74.029201274598
 11
793.113081720396
 21
74.029201274598
  0
LINE
  5
2D7
100
AcDbEntity
  8
971
  6
CONTINUOUS
 62
           3
100
AcDbLine
 10
789.651341315504
 20
73.423951356492
 11
793.551759567848
 21
73.423951356493
  0
LINE
  5
2D6
100
AcDbEntity
  8
971
  6
CONTINUOUS
 62
           3
100
AcDbLine
 10
791.037670274257
 20
72.404579108804
 11
793.937986803105
 21
72.404579108804
  0
LINE
  5
2D5
100
AcDbEntity
  8
971
  6
CONTINUOUS
 62
           3
100
AcDbLine
 10
793.113081720396
 20
74.649479670597
 11
793.113081720396
 21
74.029201274598
  0
LINE
  5
2D4
100
AcDbEntity
  8
971
  6
CONTINUOUS
 62
           3
100
AcDbLine
 10
791.94009530221
 20
74.795909003595
 11
791.94009530221
 21
74.029201274598
  0
LINE
  5
2D3
100
AcDbEntity
  8
971
  6
CONTINUOUS
 62
           3
100
AcDbLine
 10
791.239164393781
 20
74.795909003595
 11
791.239164393781
 21
74.029201274598
  0
LINE
  5
2D2
100
AcDbEntity
  8
971
  6
CONTINUOUS
 62
           3
100
AcDbLine
 10
790.080482688012
 20
74.649479670597
 11
790.080482688011
 21
74.029201274598
  0
LINE
  5
2D1
100
AcDbEntity
  8
971
  6
CONTINUOUS
 62
           3
100
AcDbLine
 10
789.389088254528
 20
74.649479670597
 11
789.389088254528
 21
73.722069655345
  0
LINE
  5
2D0
100
AcDbEntity
  8
971
  6
CONTINUOUS
 62
           3
100
AcDbLine
 10
793.799707916408
 20
74.649479670597
 11
793.799707916408
 21
73.722069655345
  0
LINE
  5
2CF
100
AcDbEntity
  8
971
  6
CONTINUOUS
 62
           3
100
AcDbLine
 10
794.143021014413
 20
72.639420576323
 11
794.143021014414
 21
73.034474224121
  0
LINE
  5
2CE
100
AcDbEntity
  8
971
  6
CONTINUOUS
 62
           3
100
AcDbLine
 10
794.143021014414
 20
73.034474224121
 11
789.012397494216
 21
73.034474224121
  0
LINE
  5
2CD
100
AcDbEntity
  8
971
  6
CONTINUOUS
 62
           3
100
AcDbLine
 10
789.012397494216
 20
73.034474224121
 11
789.012397494216
 21
72.404579108804
  0
LINE
  5
2CC
100
AcDbEntity
  8
971
  6
CONTINUOUS
 62
           3
100
AcDbLine
 10
789.012397494216
 20
72.404579108804
 11
790.250537006681
 21
72.404579108804
  0
LINE
  5
2CB
100
AcDbEntity
  8
971
  6
CONTINUOUS
 62
           3
100
AcDbLine
 10
789.012397494216
 20
71.416932504206
 11
789.012397494216
 21
70.776150314838
  0
LINE
  5
2CA
100
AcDbEntity
  8
971
  6
CONTINUOUS
 62
           3
100
AcDbLine
 10
790.00001315777
 20
71.240326681283
 11
790.00001315777
 21
70.252931687043
  0
LINE
  5
2C9
100
AcDbEntity
  8
971
  6
CONTINUOUS
 62
           3
100
AcDbLine
 10
793.780634966519
 20
71.957401660525
 11
790.807299352413
 21
71.957401660525
  0
LINE
  5
2C8
100
AcDbEntity
  8
971
  6
CONTINUOUS
 62
           3
100
AcDbLine
 10
793.780634966519
 20
71.957401660525
 11
793.780634966519
 21
70.271217128021
  0
LINE
  5
2C7
100
AcDbEntity
  8
971
  6
CONTINUOUS
 62
           3
100
AcDbLine
 10
790.296254449704
 20
69.973243790318
 11
793.519335418217
 21
69.973243790319
  0
LINE
  5
2C6
100
AcDbEntity
  8
971
  6
CONTINUOUS
 62
           3
100
AcDbLine
 10
793.067442926576
 20
71.343921143748
 11
790.690789564385
 21
71.343921143748
  0
LINE
  5
2C5
100
AcDbEntity
  8
971
  6
CONTINUOUS
 62
           3
100
AcDbLine
 10
790.690789564385
 20
71.343921143748
 11
790.690789564385
 21
70.5921114917
  0
LINE
  5
2C4
100
AcDbEntity
  8
971
  6
CONTINUOUS
 62
           3
100
AcDbLine
 10
790.690789564385
 20
70.5921114917
 11
793.067442926576
 21
70.5921114917
  0
LINE
  5
2C3
100
AcDbEntity
  8
971
  6
CONTINUOUS
 62
           3
100
AcDbLine
 10
793.067442926576
 20
70.5921114917
 11
793.067442926576
 21
71.343921143748
  0
LINE
  5
2C2
100
AcDbEntity
  8
971
  6
CONTINUOUS
 62
           3
100
AcDbLine
 10
795.574582126316
 20
70.5921114917
 11
796.836354464642
 21
70.5921114917
  0
LINE
  5
2C1
100
AcDbEntity
  8
971
  6
CONTINUOUS
 62
           3
100
AcDbLine
 10
796.836354464642
 20
70.5921114917
 11
796.836354464642
 21
72.004151935092
  0
LINE
  5
2C0
100
AcDbEntity
  8
971
  6
CONTINUOUS
 62
           3
100
AcDbLine
 10
796.836354464642
 20
72.004151935092
 11
795.574582126316
 21
72.004151935092
  0
LINE
  5
2BF
100
AcDbEntity
  8
971
  6
CONTINUOUS
 62
           3
100
AcDbLine
 10
795.574582126316
 20
72.004151935092
 11
795.574582126316
 21
70.5921114917
  0
LINE
  5
2BE
100
AcDbEntity
  8
971
  6
CONTINUOUS
 62
           3
100
AcDbLine
 10
795.574582126316
 20
72.634412930944
 11
796.836354464642
 21
72.634412930944
  0
LINE
  5
2BD
100
AcDbEntity
  8
971
  6
CONTINUOUS
 62
           3
100
AcDbLine
 10
796.836354464642
 20
72.634412930944
 11
796.836354464642
 21
73.985221296655
  0
LINE
  5
2BC
100
AcDbEntity
  8
971
  6
CONTINUOUS
 62
           3
100
AcDbLine
 10
796.836354464642
 20
73.985221296655
 11
795.574582126316
 21
73.985221296655
  0
LINE
  5
2BB
100
AcDbEntity
  8
971
  6
CONTINUOUS
 62
           3
100
AcDbLine
 10
795.574582126316
 20
73.985221296655
 11
795.574582126316
 21
72.634412930944
  0
LINE
  5
2BA
100
AcDbEntity
  8
971
  6
CONTINUOUS
 62
           3
100
AcDbLine
 10
797.557418937809
 20
72.634412930944
 11
798.819191276135
 21
72.634412930944
  0
LINE
  5
2B9
100
AcDbEntity
  8
971
  6
CONTINUOUS
 62
           3
100
AcDbLine
 10
798.819191276135
 20
72.634412930944
 11
798.819191276135
 21
73.985221296655
  0
LINE
  5
2B8
100
AcDbEntity
  8
971
  6
CONTINUOUS
 62
           3
100
AcDbLine
 10
798.819191276135
 20
73.985221296655
 11
797.557418937809
 21
73.985221296655
  0
LINE
  5
2B7
100
AcDbEntity
  8
971
  6
CONTINUOUS
 62
           3
100
AcDbLine
 10
797.557418937809
 20
73.985221296655
 11
797.557418937809
 21
72.634412930944
  0
LINE
  5
2B6
100
AcDbEntity
  8
971
  6
CONTINUOUS
 62
           3
100
AcDbLine
 10
797.557418937808
 20
70.5921114917
 11
798.819191276135
 21
70.5921114917
  0
LINE
  5
2B5
100
AcDbEntity
  8
971
  6
CONTINUOUS
 62
           3
100
AcDbLine
 10
798.819191276135
 20
70.5921114917
 11
798.819191276135
 21
72.004151935092
  0
LINE
  5
2B4
100
AcDbEntity
  8
971
  6
CONTINUOUS
 62
           3
100
AcDbLine
 10
798.819191276135
 20
72.004151935092
 11
797.557418937808
 21
72.004151935092
  0
LINE
  5
2B3
100
AcDbEntity
  8
971
  6
CONTINUOUS
 62
           3
100
AcDbLine
 10
797.557418937808
 20
72.004151935092
 11
797.557418937808
 21
70.5921114917
  0
LINE
  5
2B2
100
AcDbEntity
  8
971
  6
CONTINUOUS
 62
           3
100
AcDbLine
 10
818.627784222367
 20
71.868366094394
 11
818.627784222367
 21
71.213847944446
  0
LINE
  5
2B1
100
AcDbEntity
  8
971
  6
CONTINUOUS
 62
           3
100
AcDbLine
 10
816.279069068689
 20
71.63472176084
 11
816.279069068689
 21
70.994049023163
  0
LINE
  5
2B0
100
AcDbEntity
  8
971
  6
CONTINUOUS
 62
           3
100
AcDbLine
 10
817.778135974397
 20
71.740679834188
 11
817.794653452848
 21
71.473475637388
  0
LINE
  5
2AF
100
AcDbEntity
  8
971
  6
CONTINUOUS
 62
           3
100
AcDbLine
 10
817.150113408326
 20
71.519352000513
 11
817.133595929874
 21
71.257107013101
  0
LINE
  5
2AE
100
AcDbEntity
  8
971
  6
CONTINUOUS
 62
           3
100
AcDbLine
 10
817.133595929874
 20
69.851577243473
 11
817.794653452848
 21
69.851577243473
  0
LINE
  5
2AD
100
AcDbEntity
  8
971
  6
CONTINUOUS
 62
           3
100
AcDbLine
 10
814.985426255878
 20
73.044830604227
 11
814.985087346582
 21
72.83736242834
  0
LINE
  5
2AC
100
AcDbEntity
  8
971
  6
CONTINUOUS
 62
           3
100
AcDbLine
 10
815.635772484818
 20
71.530140599784
 11
812.988927979696
 21
71.53049742979
  0
LINE
  5
2AB
100
AcDbEntity
  8
971
  6
CONTINUOUS
 62
           3
100
AcDbLine
 10
814.122147668157
 20
71.247185991189
 11
814.853475962227
 21
71.247133886446
  0
LINE
  5
2AA
100
AcDbEntity
  8
971
  6
CONTINUOUS
 62
           3
100
AcDbLine
 10
815.034475176146
 20
69.857846257591
 11
815.822965599033
 21
69.857846257591
  0
LINE
  5
2A9
100
AcDbEntity
  8
971
  6
CONTINUOUS
 62
           3
100
AcDbLine
 10
811.630278782898
 20
69.901439491717
 11
813.114923787504
 21
69.915090696906
  0
LINE
  5
2A8
100
AcDbEntity
  8
971
  6
CONTINUOUS
 62
           3
100
AcDbLine
 10
811.392421322503
 20
70.484443188448
 11
811.391946621672
 21
70.193848281813
  0
LINE
  5
2A7
100
AcDbEntity
  8
971
  6
CONTINUOUS
 62
           3
100
AcDbLine
 10
811.054764891256
 20
72.127969206085
 11
815.875465184864
 21
72.127969206085
  0
LINE
  5
2A6
100
AcDbEntity
  8
971
  6
CONTINUOUS
 62
           3
100
AcDbLine
 10
811.056693552188
 20
73.309196625412
 11
811.055746312029
 21
72.729330008769
  0
LINE
  5
2A5
100
AcDbEntity
  8
971
  6
CONTINUOUS
 62
           3
100
AcDbLine
 10
815.885437262786
 20
73.313221413785
 11
815.884484542043
 21
72.729999778022
  0
LINE
  5
2A4
100
AcDbEntity
  8
971
  6
CONTINUOUS
 62
           3
100
AcDbLine
 10
812.254044545587
 20
73.206424559405
 11
814.693566414269
 21
73.206424559405
  0
LINE
  5
2A3
100
AcDbEntity
  8
971
  6
CONTINUOUS
 62
           3
100
AcDbLine
 10
813.102939853512
 20
74.699981745211
 11
813.823581940895
 21
74.700749206191
  0
LINE
  5
2A2
100
AcDbEntity
  8
971
  6
CONTINUOUS
 62
           3
100
AcDbLine
 10
808.853067767686
 20
71.014964217992
 11
808.852351588147
 21
70.576544665171
  0
LINE
  5
2A1
100
AcDbEntity
  8
971
  6
CONTINUOUS
 62
           3
100
AcDbLine
 10
807.596600319765
 20
71.88653900579
 11
807.594788632838
 21
70.771145344226
  0
LINE
  5
2A0
100
AcDbEntity
  8
971
  6
CONTINUOUS
 62
           3
100
AcDbLine
 10
806.027532665234
 20
72.485811051929
 11
808.565343589817
 21
72.485811051929
  0
LINE
  5
29F
100
AcDbEntity
  8
971
  6
CONTINUOUS
 62
           3
100
AcDbLine
 10
802.078752947513
 20
70.796663006205
 11
802.078752947513
 21
70.104058452335
  0
LINE
  5
29E
100
AcDbEntity
  8
971
  6
CONTINUOUS
 62
           3
100
AcDbLine
 10
804.254361044555
 20
72.218088082288
 11
804.254270393666
 21
72.163908004855
  0
LINE
  5
29D
100
AcDbEntity
  8
971
  6
CONTINUOUS
 62
           3
100
AcDbLine
 10
805.044872264348
 20
72.218088082288
 11
804.254361044555
 21
72.218088082288
  0
LINE
  5
29C
100
AcDbEntity
  8
971
  6
CONTINUOUS
 62
           3
100
AcDbLine
 10
802.466396971002
 20
73.398508855877
 11
803.362231131509
 21
73.398508855877
  0
LINE
  5
29B
100
AcDbEntity
  8
971
  6
CONTINUOUS
 62
           3
100
AcDbLine
 10
800.905588062361
 20
69.849097638779
 11
801.515874831152
 21
69.849097638779
  0
LINE
  5
29A
100
AcDbEntity
  8
971
  6
CONTINUOUS
 62
           3
100
AcDbLine
 10
800.921896547999
 20
72.106329276672
 11
800.905402210421
 21
71.796820880509
  0
LINE
  5
299
100
AcDbEntity
  8
971
  6
CONTINUOUS
 62
           3
100
AcDbLine
 10
800.181618582268
 20
71.821821926731
 11
800.181618582268
 21
71.084740943192
  0
LINE
  5
298
100
AcDbEntity
  8
971
  6
CONTINUOUS
 62
           3
100
AcDbLine
 10
801.515874831152
 20
69.849097638779
 11
801.515874831152
 21
71.923745040715
  0
LINE
  5
297
100
AcDbEntity
  8
971
  6
CONTINUOUS
 62
           3
100
AcDbLine
 10
802.026966119568
 20
72.437779819284
 11
802.026966119568
 21
71.774974412573
  0
LINE
  5
296
100
AcDbEntity
  8
971
  6
CONTINUOUS
 62
           3
100
AcDbLine
 10
801.518683853329
 20
74.781279335899
 11
801.518683853329
 21
73.894206585225
  0
LINE
  5
295
100
AcDbEntity
  8
971
  6
CONTINUOUS
 62
           3
100
AcDbLine
 10
800.897754076908
 20
74.781279335899
 11
800.897754076908
 21
73.894206585225
  0
LINE
  5
294
100
AcDbEntity
  8
971
  6
CONTINUOUS
 62
           3
100
AcDbLine
 10
800.897754076908
 20
74.781279335899
 11
801.518683853329
 21
74.781279335899
  0
LINE
  5
293
100
AcDbEntity
  8
971
  6
CONTINUOUS
 62
           3
100
AcDbLine
 10
810.453484778176
 20
74.609889280843
 11
809.696381195585
 21
74.609889280843
  0
LINE
  5
292
100
AcDbEntity
  8
971
  6
CONTINUOUS
 62
           3
100
AcDbLine
 10
817.794653452848
 20
71.473475637388
 11
817.794653452848
 21
69.851577243473
  0
LINE
  5
291
100
AcDbEntity
  8
971
  6
CONTINUOUS
 62
           3
100
AcDbLine
 10
817.133595929874
 20
71.257107013101
 11
817.133595929874
 21
69.851577243473
  0
LINE
  5
290
100
AcDbEntity
  8
971
  6
CONTINUOUS
 62
           3
100
AcDbLine
 10
801.515874831152
 20
71.923745040715
 11
801.4993573527
 21
72.191914115345
  0
LINE
  5
28F
100
AcDbEntity
  8
971
  6
CONTINUOUS
 62
           3
100
AcDbLine
 10
800.905402210421
 20
71.796820880509
 11
800.905588062361
 21
69.849097638779
  0
LINE
  5
28E
100
AcDbEntity
  8
971
  6
CONTINUOUS
 62
           3
100
AcDbLine
 10
776.784318455963
 20
73.414380492851
 11
777.052805260825
 21
73.427903235047
  0
LINE
  5
28D
100
AcDbEntity
  8
971
  6
CONTINUOUS
 62
           3
100
AcDbLine
 10
814.744189011577
 20
72.614035823598
 11
811.879830822779
 21
72.614035823598
  0
LINE
  5
28C
100
AcDbEntity
  8
971
  6
CONTINUOUS
 62
           3
100
AcDbLine
 10
811.879830822779
 20
72.614035823598
 11
811.879830822779
 21
73.016222235323
  0
LINE
  5
28B
100
AcDbEntity
  8
971
  6
CONTINUOUS
 62
           3
100
AcDbLine
 10
811.054764891256
 20
72.127969206085
 11
811.054764891256
 21
71.53049742979
  0
LINE
  5
28A
100
AcDbEntity
  8
971
  6
CONTINUOUS
 62
           3
100
AcDbLine
 10
811.054764891256
 20
71.53049742979
 11
812.192956900912
 21
71.53049742979
  0
LINE
  5
289
100
AcDbEntity
  8
971
  6
CONTINUOUS
 62
           3
100
AcDbLine
 10
815.875465184864
 20
72.127969206085
 11
815.875465184864
 21
71.789941148667
  0
LINE
  5
288
100
AcDbEntity
  8
971
  6
CONTINUOUS
 62
           3
100
AcDbLine
 10
810.609659358321
 20
73.86588980545
 11
809.396887669083
 21
73.86588980545
  0
LINE
  5
287
100
AcDbEntity
  8
971
  6
CONTINUOUS
 62
           3
100
AcDbLine
 10
805.814850053394
 20
73.241983684732
 11
808.757767305612
 21
73.241983684732
  0
LINE
  5
286
100
AcDbEntity
  8
971
  6
CONTINUOUS
 62
           3
100
AcDbLine
 10
810.609659358321
 20
73.86588980545
 11
810.609659358321
 21
73.445001026745
  0
LINE
  5
285
100
AcDbEntity
  8
971
  6
CONTINUOUS
 62
           3
100
AcDbLine
 10
810.399939166119
 20
73.241983684732
 11
809.441079837368
 21
73.241983684732
  0
LINE
  5
284
100
AcDbEntity
  8
971
  6
CONTINUOUS
 62
           3
100
AcDbLine
 10
805.814850053394
 20
73.241983684732
 11
805.814850053394
 21
73.86588980545
  0
LINE
  5
283
100
AcDbEntity
  8
971
  6
CONTINUOUS
 62
           3
100
AcDbLine
 10
805.814850053394
 20
73.86588980545
 11
808.714235505338
 21
73.86588980545
  0
LINE
  5
282
100
AcDbEntity
  8
971
  6
CONTINUOUS
 62
           3
100
AcDbLine
 10
806.027532665234
 20
71.88653900579
 11
806.027532665234
 21
72.485811051929
  0
LINE
  5
281
100
AcDbEntity
  8
971
  6
CONTINUOUS
 62
           3
100
AcDbLine
 10
806.027532665234
 20
71.88653900579
 11
806.915239038698
 21
71.88653900579
  0
LINE
  5
280
100
AcDbEntity
  8
971
  6
CONTINUOUS
 62
           3
100
AcDbLine
 10
806.915239038698
 20
71.88653900579
 11
806.915239038698
 21
70.669061878886
  0
LINE
  5
27F
100
AcDbEntity
  8
971
  6
CONTINUOUS
 62
           3
100
AcDbLine
 10
807.596600319765
 20
71.88653900579
 11
808.347724946636
 21
71.88653900579
  0
LINE
  5
27E
100
AcDbEntity
  8
971
  6
CONTINUOUS
 62
           3
100
AcDbLine
 10
808.565343589817
 20
72.105520229075
 11
808.565343589817
 21
72.485811051929
  0
LINE
  5
27D
100
AcDbEntity
  8
971
  6
CONTINUOUS
 62
           3
100
AcDbLine
 10
805.835131280046
 20
70.566384864959
 11
805.835131280046
 21
69.945694137058
  0
LINE
  5
27C
100
AcDbEntity
  8
971
  6
CONTINUOUS
 62
           3
100
AcDbLine
 10
809.346701109394
 20
74.762513801088
 11
808.684911531828
 21
74.762513801088
  0
LINE
  5
27B
100
AcDbEntity
  8
971
  6
CONTINUOUS
 62
           3
100
AcDbLine
 10
810.61334097078
 20
69.849097638779
 11
810.61334097078
 21
70.471406705463
  0
LINE
  5
27A
100
AcDbEntity
  8
971
  6
CONTINUOUS
 62
           3
100
AcDbLine
 10
802.029374596809
 20
73.894206585225
 11
801.518683853329
 21
73.894206585225
  0
LINE
  5
279
100
AcDbEntity
  8
971
  6
CONTINUOUS
 62
           3
100
AcDbLine
 10
800.236309051911
 20
73.894206585225
 11
800.897754076908
 21
73.894206585225
  0
LINE
  5
278
100
AcDbEntity
  8
971
  6
CONTINUOUS
 62
           3
100
AcDbLine
 10
802.029374596809
 20
73.894206585225
 11
802.029374596809
 21
73.531842802644
  0
LINE
  5
277
100
AcDbEntity
  8
971
  6
CONTINUOUS
 62
           3
100
AcDbLine
 10
800.236309051911
 20
73.894206585225
 11
800.236309051911
 21
73.333964592299
  0
LINE
  5
276
100
AcDbEntity
  8
971
  6
CONTINUOUS
 62
           3
100
AcDbLine
 10
800.236309051911
 20
73.333964592299
 11
800.896806490089
 21
73.333964592299
  0
LINE
  5
275
100
AcDbEntity
  8
971
  6
CONTINUOUS
 62
           3
100
AcDbLine
 10
800.896806490089
 20
73.333964592299
 11
800.896738398304
 21
73.292281231512
  0
LINE
  5
274
100
AcDbEntity
  8
971
  6
CONTINUOUS
 62
           3
100
AcDbLine
 10
801.825658816848
 20
73.333964592299
 11
801.517737951451
 21
73.333964592299
  0
LINE
  5
273
100
AcDbEntity
  8
971
  6
CONTINUOUS
 62
           3
100
AcDbLine
 10
801.517737951451
 20
73.333964592299
 11
801.51710114351
 21
72.924296661598
  0
LINE
  5
272
100
AcDbEntity
  8
971
  6
CONTINUOUS
 62
           3
100
AcDbLine
 10
805.122178946563
 20
73.983207585406
 11
805.122178946563
 21
73.653858657189
  0
LINE
  5
271
100
AcDbEntity
  8
971
  6
CONTINUOUS
 62
           3
100
AcDbLine
 10
802.209043010997
 20
73.733357437417
 11
802.209043010997
 21
74.599550328131
  0
LINE
  5
270
100
AcDbEntity
  8
971
  6
CONTINUOUS
 62
           3
100
AcDbLine
 10
802.209043010997
 20
74.599550328131
 11
802.81352107113
 21
74.599550328131
  0
LINE
  5
26F
100
AcDbEntity
  8
971
  6
CONTINUOUS
 62
           3
100
AcDbLine
 10
802.81352107113
 20
74.599550328131
 11
802.81352107113
 21
73.983207585406
  0
LINE
  5
26E
100
AcDbEntity
  8
971
  6
CONTINUOUS
 62
           3
100
AcDbLine
 10
802.81352107113
 20
73.983207585406
 11
803.362231131509
 21
73.983207585406
  0
LINE
  5
26D
100
AcDbEntity
  8
971
  6
CONTINUOUS
 62
           3
100
AcDbLine
 10
803.362231131509
 20
73.983207585406
 11
803.362231131509
 21
74.781279335899
  0
LINE
  5
26C
100
AcDbEntity
  8
971
  6
CONTINUOUS
 62
           3
100
AcDbLine
 10
803.362231131509
 20
69.849097638779
 11
803.362231131509
 21
71.520583433134
  0
LINE
  5
26B
100
AcDbEntity
  8
971
  6
CONTINUOUS
 62
           3
100
AcDbLine
 10
805.270458795766
 20
72.795489831577
 11
805.269826384116
 21
72.408349991295
  0
LINE
  5
26A
100
AcDbEntity
  8
971
  6
CONTINUOUS
 62
           3
100
AcDbLine
 10
803.362231131509
 20
69.849097638779
 11
803.986806838948
 21
69.849097638779
  0
LINE
  5
269
100
AcDbEntity
  8
971
  6
CONTINUOUS
 62
           3
100
AcDbLine
 10
803.986806838948
 20
69.849097638779
 11
803.986806838948
 21
71.54235195892
  0
LINE
  5
268
100
AcDbEntity
  8
971
  6
CONTINUOUS
 62
           3
100
AcDbLine
 10
805.270458795766
 20
72.795489831577
 11
803.986806838948
 21
72.795489831577
  0
LINE
  5
267
100
AcDbEntity
  8
971
  6
CONTINUOUS
 62
           3
100
AcDbLine
 10
803.986806838948
 20
72.795489831577
 11
803.986806838948
 21
73.398508855877
  0
LINE
  5
266
100
AcDbEntity
  8
971
  6
CONTINUOUS
 62
           3
100
AcDbLine
 10
803.986806838948
 20
73.398508855877
 11
804.927964424872
 21
73.398508855877
  0
LINE
  5
265
100
AcDbEntity
  8
971
  6
CONTINUOUS
 62
           3
100
AcDbLine
 10
805.122178946563
 20
73.983207585406
 11
803.986806838948
 21
73.983207585406
  0
LINE
  5
264
100
AcDbEntity
  8
971
  6
CONTINUOUS
 62
           3
100
AcDbLine
 10
803.986806838948
 20
73.983207585406
 11
803.986806838948
 21
74.781279335899
  0
LINE
  5
263
100
AcDbEntity
  8
971
  6
CONTINUOUS
 62
           3
100
AcDbLine
 10
803.986806838948
 20
74.781279335899
 11
803.362231131509
 21
74.781279335899
  0
LINE
  5
262
100
AcDbEntity
  8
971
  6
CONTINUOUS
 62
           3
100
AcDbLine
 10
803.362231131509
 20
73.398508855877
 11
803.362231131509
 21
72.795489831577
  0
LINE
  5
261
100
AcDbEntity
  8
971
  6
CONTINUOUS
 62
           3
100
AcDbLine
 10
803.362231131509
 20
72.795489831577
 11
802.145316826732
 21
72.795489831577
  0
LINE
  5
260
100
AcDbEntity
  8
971
  6
CONTINUOUS
 62
           3
100
AcDbLine
 10
805.300366200454
 20
70.093105858209
 11
805.300366200454
 21
70.766610887665
  0
LINE
  5
25F
100
AcDbEntity
  8
971
  6
CONTINUOUS
 62
           3
100
AcDbLine
 10
802.145316826732
 20
72.795489831577
 11
802.145316826732
 21
72.218088082288
  0
LINE
  5
25E
100
AcDbEntity
  8
971
  6
CONTINUOUS
 62
           3
100
AcDbLine
 10
802.145316826732
 20
72.218088082288
 11
803.134447911445
 21
72.218088082288
  0
INSERT
  5
3D
100
AcDbEntity
  8
0
100
AcDbBlockReference
  2
ST_SYOUNIN
 10
763.907996422105
 20
88.010175634571
  0
INSERT
  5
3E
100
AcDbEntity
  8
0
100
AcDbBlockReference
  2
ST_YAMAGUTI
 10
815.657996422105
 20
88.010175634571
  0
ENDBLK
  5
3C2
100
AcDbEntity
  8
0
100
AcDbBlockEnd
  0
BLOCK
  5
40
100
AcDbEntity
  8
0
100
AcDbBlockBegin
  2
AG_4B_SITUZU
 70
           0
 10
1063.42156292657
 20
219.540407791911
 30
0.0
  3
AG_4B_SITUZU
  1

  0
TEXT
  5
3CD
100
AcDbEntity
  8
1
 62
           7
100
AcDbText
 10
796.109504568269
 20
224.346593730157
 40
4.0
  1
06.02.20
 41
0.9
  7
CONVERTER_2
100
AcDbText
  0
TEXT
  5
3CC
100
AcDbEntity
  8
1
 62
           7
100
AcDbText
 10
800.206181610198
 20
232.079556364427
 40
7.0
  1
参考
 41
0.89
  7
CONVERTER_1
100
AcDbText
  0
TEXT
  5
3CB
100
AcDbEntity
  8
1
 62
           7
100
AcDbText
 10
800.079023540772
 20
213.630616415891
 40
7.0
  1
営業
 41
0.89
  7
CONVERTER_1
100
AcDbText
  0
TEXT
  5
3CA
100
AcDbEntity
  8
1
 62
           7
100
AcDbText
 10
800.206181610198
 20
232.079556364427
 40
7.0
  1
参考
 41
0.89
  7
CONVERTER_1
100
AcDbText
  0
TEXT
  5
3C9
100
AcDbEntity
  8
1
 62
           7
100
AcDbText
 10
800.079023540772
 20
213.630616415891
 40
7.0
  1
営業
 41
0.89
  7
CONVERTER_1
100
AcDbText
  0
CIRCLE
  5
3C8
100
AcDbEntity
  8
1
  6
CONTINUOUS
 62
           7
100
AcDbCircle
 10
806.665483419986
 20
226.260655592421
 40
15.0
  0
CIRCLE
  5
3C7
100
AcDbEntity
  8
1
  6
CONTINUOUS
 62
           7
100
AcDbCircle
 10
806.665483419986
 20
226.260655592421
 40
15.0
  0
LINE
  5
3C6
100
AcDbEntity
  8
1
  6
CONTINUOUS
 62
           7
100
AcDbLine
 10
820.97457144124
 20
230.760655592421
 11
792.356395398731
 21
230.760655592421
  0
LINE
  5
3C5
100
AcDbEntity
  8
1
  6
CONTINUOUS
 62
           7
100
AcDbLine
 10
792.356395398731
 20
221.760655592421
 11
820.97457144124
 21
221.760655592421
  0
LINE
  5
3C4
100
AcDbEntity
  8
1
  6
CONTINUOUS
 62
           7
100
AcDbLine
 10
820.97457144124
 20
230.760655592421
 11
792.356395398731
 21
230.760655592421
  0
LINE
  5
3C3
100
AcDbEntity
  8
1
  6
CONTINUOUS
 62
           7
100
AcDbLine
 10
792.356395398731
 20
221.760655592421
 11
820.97457144124
 21
221.760655592421
  0
ENDBLK
  5
3CE
100
AcDbEntity
  8
0
100
AcDbBlockEnd
  0
BLOCK
  5
452
100
AcDbEntity
  8
0
100
AcDbBlockBegin
  2
*D9
 70
           1
 10
0.0
 20
0.0
 30
0.0
  3
*D9
  1

  0
LINE
  5
453
100
AcDbEntity
  8
0
  6
CONTINUOUS
 62
           2
100
AcDbLine
 10
626.149474186076
 20
76.459868483834
 11
753.384641529845
 21
76.459868483834
  0
LINE
  5
454
100
AcDbEntity
  8
0
  6
CONTINUOUS
 62
           2
100
AcDbLine
 10
753.384641529845
 20
96.275522260144
 11
753.384641529845
 21
75.459868483834
  0
LINE
  5
455
100
AcDbEntity
  8
0
  6
CONTINUOUS
 62
           2
100
AcDbLine
 10
626.149474186076
 20
186.368104889051
 11
626.149474186076
 21
75.459868483834
  0
SOLID
  5
456
100
AcDbEntity
  8
0
 62
           2
100
AcDbTrace
 10
750.584641529845
 20
76.09124149059
 11
750.584641529845
 21
76.828495477079
 12
753.384641529845
 22
76.459868483834
 13
753.384641529845
 23
76.459868483834
  0
SOLID
  5
457
100
AcDbEntity
  8
0
 62
           2
100
AcDbTrace
 10
628.949474186076
 20
76.828495477079
 11
628.949474186076
 21
76.09124149059
 12
626.149474186076
 22
76.459868483834
 13
626.149474186076
 23
76.459868483834
  0
TEXT
  5
458
100
AcDbEntity
  8
0
 62
           2
100
AcDbText
 10
689.350814496849
 20
77.459868483834
 40
2.8
  1
128
 41
0.9
  7
CONVERTER_2
100
AcDbText
  0
ENDBLK
  5
459
100
AcDbEntity
  8
0
100
AcDbBlockEnd
  0
BLOCK
  5
45D
100
AcDbEntity
  8
0
100
AcDbBlockBegin
  2
*D10
 70
           1
 10
0.0
 20
0.0
 30
0.0
  3
*D10
  1

  0
LINE
  5
45E
100
AcDbEntity
  8
0
  6
CONTINUOUS
 62
           2
100
AcDbLine
 10
582.571175089378
 20
235.61531580024
 11
600.571175089378
 21
235.61531580024
  0
LINE
  5
45F
100
AcDbEntity
  8
0
  6
CONTINUOUS
 62
           2
100
AcDbLine
 10
582.571175089378
 20
186.117543614302
 11
582.571175089378
 21
236.61531580024
  0
LINE
  5
460
100
AcDbEntity
  8
0
  6
CONTINUOUS
 62
           2
100
AcDbLine
 10
600.571175089378
 20
186.117543614302
 11
600.571175089378
 21
236.61531580024
  0
SOLID
  5
461
100
AcDbEntity
  8
0
 62
           2
100
AcDbTrace
 10
585.371175089378
 20
235.983942793485
 11
585.371175089378
 21
235.246688806995
 12
582.571175089378
 22
235.61531580024
 13
582.571175089378
 23
235.61531580024
  0
SOLID
  5
462
100
AcDbEntity
  8
0
 62
           2
100
AcDbTrace
 10
597.771175089378
 20
235.246688806995
 11
597.771175089378
 21
235.983942793485
 12
600.571175089378
 22
235.61531580024
 13
600.571175089378
 23
235.61531580024
  0
TEXT
  5
463
100
AcDbEntity
  8
0
 62
           2
100
AcDbText
 10
588.977279299477
 20
236.61531580024
 40
2.8
  1
18
 41
0.9
  7
CONVERTER_2
100
AcDbText
  0
ENDBLK
  5
464
100
AcDbEntity
  8
0
100
AcDbBlockEnd
  0
BLOCK
  5
468
100
AcDbEntity
  8
0
100
AcDbBlockBegin
  2
*D11
 70
           1
 10
0.0
 20
0.0
 30
0.0
  3
*D11
  1

  0
LINE
  5
469
100
AcDbEntity
  8
0
  6
CONTINUOUS
 62
           2
100
AcDbLine
 10
613.076622844563
 20
92.134379421875
 11
613.076622844563
 21
226.168104889051
  0
LINE
  5
46A
100
AcDbEntity
  8
0
  6
CONTINUOUS
 62
           2
100
AcDbLine
 10
692.742013243811
 20
226.168104889051
 11
612.076622844563
 21
226.168104889051
  0
LINE
  5
46B
100
AcDbEntity
  8
0
  6
CONTINUOUS
 62
           2
100
AcDbLine
 10
738.379474056895
 20
92.134379421875
 11
612.076622844563
 21
92.134379421875
  0
SOLID
  5
46C
100
AcDbEntity
  8
0
 62
           2
100
AcDbTrace
 10
613.445249837808
 20
223.368104889051
 11
612.707995851318
 21
223.368104889051
 12
613.076622844563
 22
226.168104889051
 13
613.076622844563
 23
226.168104889051
  0
SOLID
  5
46D
100
AcDbEntity
  8
0
 62
           2
100
AcDbTrace
 10
612.707995851318
 20
94.934379421875
 11
613.445249837808
 21
94.934379421875
 12
613.076622844563
 22
92.134379421875
 13
613.076622844563
 23
92.134379421875
  0
MTEXT
  5
46E
100
AcDbEntity
  8
0
 62
           2
100
AcDbMText
 10
612.076622844563
 20
159.037155958033
 30
0.0
 40
2.8
 41
0.0
 71
           7
 72
           1
  1
134
  7
CONVERTER_2
 11
0.0
 21
1.0
 31
0.0
  0
ENDBLK
  5
46F
100
AcDbEntity
  8
0
100
AcDbBlockEnd
  0
ENDSEC
  0
SECTION
  2
ENTITIES
  0
DIMENSION
  5
471
100
AcDbEntity
  8
0
100
AcDbDimension
  2
*D11
 10
613.076622844563
 20
226.168104889051
 11
610.676622844563
 21
161.977155958033
 31
0.0
 53
90.0
  1
<>
  3
ME10_DIM_2
100
AcDbAlignedDimension
 13
739.179474056895
 23
92.134379421875
 14
693.542013243811
 24
226.168104889051
 50
90.0
100
AcDbRotatedDimension
  0
DIMENSION
  5
466
100
AcDbEntity
  8
0
100
AcDbDimension
  2
*D10
 10
582.571175089378
 20
235.61531580024
 11
590.657279299477
 21
238.01531580024
 31
0.0
  1
<>
  3
ME10_DIM_1
100
AcDbAlignedDimension
 13
600.571175089378
 23
185.317543614302
 14
582.571175089378
 24
185.317543614302
100
AcDbRotatedDimension
  0
DIMENSION
  5
45B
100
AcDbEntity
  8
0
100
AcDbDimension
  2
*D9
 10
753.384641529845
 20
76.459868483834
 11
692.290814496849
 21
78.859868483834
 31
0.0
  1
<>
  3
ME10_DIM_0
100
AcDbAlignedDimension
 13
626.149474186076
 23
187.168104889051
 14
753.384641529845
 24
97.075522260144
100
AcDbRotatedDimension
  0
TEXT
  5
450
100
AcDbEntity
  8
1
 62
           2
100
AcDbText
 10
801.667268988959
 20
178.461122152095
 40
3.5
  1
1.37
 41
0.9
  7
CONVERTER_2
100
AcDbText
  0
TEXT
  5
44F
100
AcDbEntity
  8
1
 62
           2
100
AcDbText
 10
800.372050331001
 20
171.261122152095
 40
3.5
  1
0.69
 41
0.9
  7
CONVERTER_2
100
AcDbText
  0
TEXT
  5
44E
100
AcDbEntity
  8
1
 62
           2
100
AcDbText
 10
811.802803228829
 20
178.086745539894
 40
4.0
  1
K
 41
0.9
  7
CONVERTER_2
100
AcDbText
  0
TEXT
  5
44D
100
AcDbEntity
  8
1
 62
           2
100
AcDbText
 10
811.427438265325
 20
170.886745539894
 40
4.0
  1
K
 41
0.9
  7
CONVERTER_2
100
AcDbText
  0
TEXT
  5
44C
100
AcDbEntity
  8
1
 62
           2
100
AcDbText
 10
802.069991649915
 20
185.667910643072
 40
3.5
  1
φ1.7ｍｍ
 41
0.89
  7
CONVERTER_1
100
AcDbText
  0
TEXT
  5
44B
100
AcDbEntity
  8
1
 62
           2
100
AcDbText
 10
768.793121087782
 20
185.256540148024
 40
3.5
  1
ノズル口径
 41
0.89
  7
CONVERTER_1
100
AcDbText
  0
TEXT
  5
44A
100
AcDbEntity
  8
1
 62
           2
100
AcDbText
 10
768.793121087782
 20
178.056540148024
 40
3.5
  1
最高使用圧力
 41
0.89
  7
CONVERTER_1
100
AcDbText
  0
TEXT
  5
449
100
AcDbEntity
  8
1
 62
           2
100
AcDbText
 10
712.373052326986
 20
220.351456767428
 40
3.5
  1
G1/4
 41
0.9
  7
CONVERTER_2
100
AcDbText
  0
TEXT
  5
448
100
AcDbEntity
  8
1
 62
           2
100
AcDbText
 10
811.657623720286
 20
143.309812937633
 40
3.6
  1
8
 41
0.9
  7
CONVERTER_2
100
AcDbText
  0
TEXT
  5
447
100
AcDbEntity
  8
1
 62
           2
100
AcDbText
 10
811.427438265325
 20
163.686745539894
 40
4.0
  1
K
 41
0.9
  7
CONVERTER_2
100
AcDbText
  0
TEXT
  5
446
100
AcDbEntity
  8
1
 62
           2
100
AcDbText
 10
811.705756835468
 20
156.597867332578
 40
3.6
  1
,*
 41
0.9
  7
CONVERTER_2
100
AcDbText
  0
TEXT
  5
445
100
AcDbEntity
  8
1
 62
           2
100
AcDbText
 10
800.529500068483
 20
164.061122152095
 40
3.5
  1
0.34
 41
0.9
  7
CONVERTER_2
100
AcDbText
  0
TEXT
  5
444
100
AcDbEntity
  8
1
 62
           2
100
AcDbText
 10
802.263446326139
 20
156.780205751281
 40
3.5
  1
105
 41
0.9
  7
CONVERTER_2
100
AcDbText
  0
TEXT
  5
443
100
AcDbEntity
  8
1
 62
           2
100
AcDbText
 10
800.612608001369
 20
149.118814199198
 40
3.5
  1
0.4　kW以上
 41
0.89
  7
CONVERTER_1
100
AcDbText
  0
TEXT
  5
442
100
AcDbEntity
  8
1
 62
           2
100
AcDbText
 10
802.317208763043
 20
142.542038552909
 40
3.5
  1
185
 41
0.9
  7
CONVERTER_2
100
AcDbText
  0
TEXT
  5
441
100
AcDbEntity
  8
1
 62
           2
100
AcDbText
 10
768.793121087782
 20
141.894707346396
 40
3.5
  1
質量
 41
0.89
  7
CONVERTER_1
100
AcDbText
  0
TEXT
  5
440
100
AcDbEntity
  8
1
 62
           2
100
AcDbText
 10
768.954953889409
 20
149.499289350467
 40
3.5
  1
所要圧縮機
 41
0.89
  7
CONVERTER_1
100
AcDbText
  0
TEXT
  5
43F
100
AcDbEntity
  8
1
 62
           2
100
AcDbText
 10
768.793121087782
 20
156.780205751281
 40
3.5
  1
空気使用量
 41
0.89
  7
CONVERTER_1
100
AcDbText
  0
TEXT
  5
43E
100
AcDbEntity
  8
1
 62
           2
100
AcDbText
 10
768.793121087782
 20
164.061122152095
 40
3.5
  1
吹付け空気圧力
 41
0.89
  7
CONVERTER_1
100
AcDbText
  0
TEXT
  5
43D
100
AcDbEntity
  8
1
 62
           2
100
AcDbText
 10
768.793121087782
 20
170.856540148024
 40
3.5
  1
標準使用圧力
 41
0.89
  7
CONVERTER_1
100
AcDbText
  0
LEADER
  5
43C
100
AcDbEntity
  8
976
  6
CONTINUOUS
 62
           2
100
AcDbLeader
  3
Standard
 71
           0
 73
           3
 74
           0
 75
           0
 40
0.0
 76
           3
 10
733.016118302675
 20
208.298276981027
 30
0.0
 10
726.280678441319
 20
219.553726702822
 30
0.0
 10
711.548551966494
 20
219.553726702822
 30
0.0
 77
           2
  0
SPLINE
  5
43A
100
AcDbEntity
  8
1
  6
CONTINUOUS
 62
           7
100
AcDbSpline
210
0.0
220
0.0
230
1.0
 70
           0
 71
           4
 72
          12
 73
           8
 74
          11
 42
0.00000000001
 43
0.00000000001
 44
0.00000000001
 40
0.0
 40
0.0
 40
0.0
 40
0.0
 40
0.1639712938396378
 40
0.3268565508092505
 40
0.4089309969077229
 40
0.5713906176650367
 40
0.734462945339053
 40
0.734462945339053
 40
0.734462945339053
 40
0.734462945339053
 10
735.83444663840328
 20
124.405935776967
 30
0.0
 10
735.89795131098253
 20
124.45727582409251
 30
0.0
 10
735.95095832287234
 20
124.5202449849005
 30
0.0
 10
736.03018682338336
 20
124.6625631202341
 30
0.0
 10
736.05566780746176
 20
124.7405819266385
 30
0.0
 10
736.07557983712809
 20
124.90181666064819
 30
0.0
 10
736.06982477609608
 20
124.9835256172499
 30
0.0
 10
736.05047119110895
 20
125.062345272374
 30
0.0
 11
735.83444663840328
 21
124.405935776967
 31
0.0
 11
735.90695760200936
 21
124.47219916011863
 31
0.0
 11
735.95373160662928
 21
124.53323497948314
 31
0.0
 11
735.99705017459439
 21
124.6051124052906
 31
0.0
 11
736.03163293821945
 21
124.67373354111243
 31
0.0
 11
736.04244248266946
 21
124.7017779123711
 31
0.0
 11
736.05026316966371
 21
124.73081009548443
 31
0.0
 11
736.06278643050427
 21
124.80646745831301
 31
0.0
 11
736.07015585276076
 21
124.88985353691477
 31
0.0
 11
736.06852806750135
 21
124.96631979906202
 31
0.0
 11
736.05047119110895
 21
125.062345272374
 31
0.0
  0
ARC
  5
439
100
AcDbEntity
  8
1
  6
CONTINUOUS
 62
           2
100
AcDbCircle
 10
738.542013243811
 20
188.44640165638
 40
22.725514402649
100
AcDbArc
 50
77.419161526208
 51
102.58083847379
  0
ARC
  5
438
100
AcDbEntity
  8
1
  6
CONTINUOUS
 62
           2
100
AcDbCircle
 10
738.542013243811
 20
187.972251935657
 40
22.725514402649
100
AcDbArc
 50
77.419161526209
 51
102.580838473791
  0
ARC
  5
437
100
AcDbEntity
  8
1
  6
CONTINUOUS
 62
           2
100
AcDbCircle
 10
738.542013243811
 20
187.498102214934
 40
22.725514402649
100
AcDbArc
 50
77.419161526209
 51
102.580838473791
  0
ARC
  5
436
100
AcDbEntity
  8
1
  6
CONTINUOUS
 62
           2
100
AcDbCircle
 10
738.542013243811
 20
187.023952494211
 40
22.725514402649
100
AcDbArc
 50
77.419161526209
 51
102.580838473791
  0
ARC
  5
435
100
AcDbEntity
  8
1
  6
CONTINUOUS
 62
           2
100
AcDbCircle
 10
738.542013243811
 20
186.549802773488
 40
22.725514402649
100
AcDbArc
 50
77.419161526209
 51
102.580838473791
  0
ARC
  5
434
100
AcDbEntity
  8
1
  6
CONTINUOUS
 62
           2
100
AcDbCircle
 10
738.542013243811
 20
186.075653052765
 40
22.725514402649
100
AcDbArc
 50
77.419161526209
 51
102.580838473791
  0
ARC
  5
433
100
AcDbEntity
  8
1
  6
CONTINUOUS
 62
           2
100
AcDbCircle
 10
738.542013243811
 20
185.601503332042
 40
22.725514402649
100
AcDbArc
 50
77.419161526209
 51
102.580838473791
  0
ARC
  5
432
100
AcDbEntity
  8
1
  6
CONTINUOUS
 62
           2
100
AcDbCircle
 10
738.542013243811
 20
185.127353611319
 40
22.725514402649
100
AcDbArc
 50
77.419161526209
 51
102.580838473791
  0
ARC
  5
431
100
AcDbEntity
  8
1
  6
CONTINUOUS
 62
           2
100
AcDbCircle
 10
738.542013243811
 20
184.653203890596
 40
22.725514402649
100
AcDbArc
 50
77.419161526209
 51
102.580838473791
  0
ARC
  5
430
100
AcDbEntity
  8
1
  6
CONTINUOUS
 62
           2
100
AcDbCircle
 10
738.542013243811
 20
184.179054169873
 40
22.725514402649
100
AcDbArc
 50
77.419161526209
 51
102.580838473791
  0
ARC
  5
42F
100
AcDbEntity
  8
1
  6
CONTINUOUS
 62
           2
100
AcDbCircle
 10
738.542013243811
 20
183.70490444915
 40
22.725514402649
100
AcDbArc
 50
77.419161526209
 51
102.580838473791
  0
ARC
  5
42E
100
AcDbEntity
  8
1
  6
CONTINUOUS
 62
           7
100
AcDbCircle
 10
733.309289533415
 20
201.032751260239
 40
3.352032680539
100
AcDbArc
 50
55.771504196938
 51
114.020677081028
  0
ARC
  5
42D
100
AcDbEntity
  8
1
  6
CONTINUOUS
 62
           7
100
AcDbCircle
 10
733.309289533415
 20
202.936791851197
 40
3.352032680539
100
AcDbArc
 50
-114.020677081027
 51
-55.771504196938
  0
ARC
  5
42C
100
AcDbEntity
  8
1
  6
CONTINUOUS
 62
           7
100
AcDbCircle
 10
743.774736954206
 20
201.032751260239
 40
3.352032680539
100
AcDbArc
 50
65.979322918973
 51
124.228495803063
  0
ARC
  5
42B
100
AcDbEntity
  8
1
  6
CONTINUOUS
 62
           7
100
AcDbCircle
 10
738.542013243811
 20
193.244727982422
 40
11.077304228586
100
AcDbArc
 50
72.412046226006
 51
107.587953773993
  0
ARC
  5
42A
100
AcDbEntity
  8
1
  6
CONTINUOUS
 62
           7
100
AcDbCircle
 10
743.774736954206
 20
202.936791851197
 40
3.352032680539
100
AcDbArc
 50
-124.228495803062
 51
-65.979322918972
  0
ARC
  5
429
100
AcDbEntity
  8
1
  6
CONTINUOUS
 62
           7
100
AcDbCircle
 10
738.542013243811
 20
210.724815129013
 40
11.077304228586
100
AcDbArc
 50
-107.587953773993
 51
-72.412046226006
  0
LINE
  5
428
100
AcDbEntity
  8
1
  6
CONTINUOUS
 62
           2
100
AcDbLine
 10
767.850862228198
 20
183.717661090873
 11
826.145535717715
 21
183.717661090873
  0
LINE
  5
427
100
AcDbEntity
  8
1
  6
CONTINUOUS
 62
           2
100
AcDbLine
 10
767.850862228198
 20
190.917661090873
 11
826.145535717715
 21
190.917661090873
  0
LINE
  5
426
100
AcDbEntity
  8
1
  6
CONTINUOUS
 62
           2
100
AcDbLine
 10
767.850862228198
 20
183.717661090873
 11
826.145535717715
 21
183.717661090873
  0
LINE
  5
425
100
AcDbEntity
  8
1
  6
CONTINUOUS
 62
           2
100
AcDbLine
 10
795.963718214045
 20
190.917661090873
 11
795.963718214045
 21
140.517661090873
  0
LINE
  5
424
100
AcDbEntity
  8
1
  6
CONTINUOUS
 62
           2
100
AcDbLine
 10
767.850862228198
 20
140.517661090873
 11
767.850862228198
 21
190.917661090873
  0
LINE
  5
423
100
AcDbEntity
  8
1
  6
CONTINUOUS
 62
           2
100
AcDbLine
 10
826.145535717715
 20
190.917661090873
 11
826.145535717715
 21
140.517661090873
  0
LINE
  5
422
100
AcDbEntity
  8
1
  6
CONTINUOUS
 62
           2
100
AcDbLine
 10
795.963718214045
 20
183.717661090873
 11
795.963718214045
 21
140.517661090873
  0
LINE
  5
421
100
AcDbEntity
  8
1
  6
CONTINUOUS
 62
           2
100
AcDbLine
 10
767.850862228198
 20
140.517661090873
 11
767.850862228198
 21
183.717661090873
  0
LINE
  5
420
100
AcDbEntity
  8
1
  6
CONTINUOUS
 62
           2
100
AcDbLine
 10
826.145535717715
 20
183.717661090873
 11
826.145535717715
 21
140.517661090873
  0
LINE
  5
41F
100
AcDbEntity
  8
1
  6
CONTINUOUS
 62
           2
100
AcDbLine
 10
767.850862228198
 20
183.717661090873
 11
826.145535717715
 21
183.717661090873
  0
LINE
  5
41E
100
AcDbEntity
  8
1
  6
CONTINUOUS
 62
           2
100
AcDbLine
 10
795.963718214045
 20
183.717661090873
 11
795.963718214045
 21
140.517661090873
  0
LINE
  5
41D
100
AcDbEntity
  8
1
  6
CONTINUOUS
 62
           2
100
AcDbLine
 10
767.850862228198
 20
140.517661090873
 11
767.850862228198
 21
183.717661090873
  0
LINE
  5
41C
100
AcDbEntity
  8
1
  6
CONTINUOUS
 62
           2
100
AcDbLine
 10
826.145535717715
 20
183.717661090873
 11
826.145535717715
 21
140.517661090873
  0
LINE
  5
41B
100
AcDbEntity
  8
1
  6
CONTINUOUS
 62
           6
100
AcDbLine
 10
732.819513243811
 20
199.584771555718
 11
732.819513243811
 21
196.384771555718
  0
LINE
  5
41A
100
AcDbEntity
  8
1
  6
CONTINUOUS
 62
           6
100
AcDbLine
 10
735.042013243811
 20
199.37978997062
 11
735.042013243811
 21
191.183809661394
  0
LINE
  5
419
100
AcDbEntity
  8
1
  6
CONTINUOUS
 62
           6
100
AcDbLine
 10
734.292013243811
 20
188.384771555718
 11
733.292013243811
 21
188.384771555718
  0
LINE
  5
418
100
AcDbEntity
  8
1
  6
CONTINUOUS
 62
           6
100
AcDbLine
 10
732.819513243811
 20
188.857271555718
 11
733.292013243811
 21
188.384771555718
  0
LINE
  5
417
100
AcDbEntity
  8
1
  6
CONTINUOUS
 62
           6
100
AcDbLine
 10
732.042013243811
 20
189.634771555718
 11
732.819513243811
 21
188.857271555718
  0
LINE
  5
416
100
AcDbEntity
  8
1
  6
CONTINUOUS
 62
           6
100
AcDbLine
 10
735.042013243811
 20
191.183809661394
 11
734.292013243811
 21
188.384771555718
  0
LINE
  5
415
100
AcDbEntity
  8
1
  6
CONTINUOUS
 62
           6
100
AcDbLine
 10
738.542013243811
 20
188.384771555718
 11
734.292013243811
 21
188.384771555718
  0
LINE
  5
414
100
AcDbEntity
  8
1
  6
CONTINUOUS
 62
           6
100
AcDbLine
 10
738.542013243811
 20
191.183809661394
 11
735.042013243811
 21
191.183809661394
  0
LINE
  5
413
100
AcDbEntity
  8
1
  6
CONTINUOUS
 62
           6
100
AcDbLine
 10
732.819513243811
 20
196.384771555718
 11
732.042013243811
 21
195.84036019476
  0
LINE
  5
412
100
AcDbEntity
  8
1
  6
CONTINUOUS
 62
           6
100
AcDbLine
 10
732.819513243811
 20
188.857271555718
 11
732.819513243811
 21
196.384771555718
  0
LINE
  5
411
100
AcDbEntity
  8
1
  6
CONTINUOUS
 62
           6
100
AcDbLine
 10
732.042013243811
 20
195.84036019476
 11
732.042013243811
 21
189.634771555718
  0
LINE
  5
410
100
AcDbEntity
  8
1
  6
CONTINUOUS
 62
           7
100
AcDbLine
 10
733.942013243811
 20
210.701491071277
 11
733.942013243811
 21
211.384771555718
  0
LINE
  5
40F
100
AcDbEntity
  8
1
  6
CONTINUOUS
 62
           2
100
AcDbLine
 10
733.592013243811
 20
210.384771555718
 11
733.592013243811
 21
210.626268762949
  0
LINE
  5
40E
100
AcDbEntity
  8
1
  6
CONTINUOUS
 62
           6
100
AcDbLine
 10
735.042013243811
 20
199.37978997062
 11
735.042013243811
 21
199.584771555718
  0
LINE
  5
40D
100
AcDbEntity
  8
1
  6
CONTINUOUS
 62
           7
100
AcDbLine
 10
732.447566743276
 20
204.384771555718
 11
744.636459744346
 21
204.384771555718
  0
LINE
  5
40C
100
AcDbEntity
  8
1
  6
CONTINUOUS
 62
           7
100
AcDbLine
 10
731.442013243811
 20
200.165328139318
 11
731.442013243811
 21
203.804214972117
  0
LINE
  5
40B
100
AcDbEntity
  8
1
  6
CONTINUOUS
 62
           7
100
AcDbLine
 10
731.442013243811
 20
203.804214972117
 11
732.447566743276
 21
204.384771555718
  0
LINE
  5
40A
100
AcDbEntity
  8
1
  6
CONTINUOUS
 62
           7
100
AcDbLine
 10
732.447566743276
 20
199.584771555718
 11
731.442013243811
 21
200.165328139318
  0
LINE
  5
409
100
AcDbEntity
  8
1
  6
CONTINUOUS
 62
           7
100
AcDbLine
 10
732.447566743276
 20
199.584771555718
 11
744.636459744346
 21
199.584771555718
  0
LINE
  5
408
100
AcDbEntity
  8
1
  6
CONTINUOUS
 62
           2
100
AcDbLine
 10
733.942013243811
 20
211.384771555718
 11
736.042013243811
 21
211.384771555718
  0
LINE
  5
407
100
AcDbEntity
  8
1
  6
CONTINUOUS
 62
           6
100
AcDbLine
 10
733.942013243811
 20
210.384771555718
 11
733.942013243811
 21
210.701491071277
  0
LINE
  5
406
100
AcDbEntity
  8
1
  6
CONTINUOUS
 62
           6
100
AcDbLine
 10
733.592013243811
 20
210.384771555718
 11
733.942013243811
 21
210.384771555718
  0
LINE
  5
405
100
AcDbEntity
  8
1
  6
CONTINUOUS
 62
           7
100
AcDbLine
 10
733.592013243811
 20
204.384771555718
 11
733.592013243811
 21
205.884771555718
  0
LINE
  5
404
100
AcDbEntity
  8
1
  6
CONTINUOUS
 62
           7
100
AcDbLine
 10
733.592013243811
 20
205.884771555718
 11
733.592013243811
 21
210.384771555718
  0
LINE
  5
403
100
AcDbEntity
  8
1
  6
CONTINUOUS
 62
           6
100
AcDbLine
 10
733.592013243811
 20
210.384771555718
 11
733.042013243811
 21
210.067228907663
  0
LINE
  5
402
100
AcDbEntity
  8
1
  6
CONTINUOUS
 62
           6
100
AcDbLine
 10
733.042013243811
 20
206.269885701733
 11
733.042013243811
 21
210.067228907663
  0
LINE
  5
401
100
AcDbEntity
  8
1
  6
CONTINUOUS
 62
           6
100
AcDbLine
 10
733.592013243811
 20
205.884771555718
 11
733.042013243811
 21
206.269885701733
  0
LINE
  5
400
100
AcDbEntity
  8
1
  6
CONTINUOUS
 62
           6
100
AcDbLine
 10
743.142013243811
 20
210.701491071277
 11
743.142013243811
 21
210.384771555718
  0
LINE
  5
3FF
100
AcDbEntity
  8
1
  6
CONTINUOUS
 62
           2
100
AcDbLine
 10
743.492013243811
 20
210.384771555718
 11
743.492013243811
 21
210.626268762949
  0
LINE
  5
3FE
100
AcDbEntity
  8
1
  6
CONTINUOUS
 62
           6
100
AcDbLine
 10
741.742013243811
 20
204.384771555718
 11
741.742013243811
 21
211.384771555718
  0
LINE
  5
3FD
100
AcDbEntity
  8
1
  6
CONTINUOUS
 62
           7
100
AcDbLine
 10
741.889236494078
 20
200.165328139318
 11
741.889236494078
 21
203.804214972117
  0
LINE
  5
3FC
100
AcDbEntity
  8
1
  6
CONTINUOUS
 62
           7
100
AcDbLine
 10
735.194789993543
 20
200.165328139318
 11
735.194789993543
 21
203.804214972117
  0
LINE
  5
3FB
100
AcDbEntity
  8
1
  6
CONTINUOUS
 62
           7
100
AcDbLine
 10
745.642013243811
 20
203.804214972117
 11
745.642013243811
 21
200.165328139318
  0
LINE
  5
3FA
100
AcDbEntity
  8
1
  6
CONTINUOUS
 62
           7
100
AcDbLine
 10
745.642013243811
 20
200.165328139318
 11
744.636459744346
 21
199.584771555718
  0
LINE
  5
3F9
100
AcDbEntity
  8
1
  6
CONTINUOUS
 62
           7
100
AcDbLine
 10
744.636459744346
 20
204.384771555718
 11
745.642013243811
 21
203.804214972117
  0
LINE
  5
3F8
100
AcDbEntity
  8
1
  6
CONTINUOUS
 62
           2
100
AcDbLine
 10
736.042013243811
 20
211.384771555718
 11
738.542013243811
 21
211.384771555718
  0
LINE
  5
3F7
100
AcDbEntity
  8
1
  6
CONTINUOUS
 62
           6
100
AcDbLine
 10
735.342013243811
 20
211.384771555718
 11
735.342013243811
 21
204.384771555718
  0
LINE
  5
3F6
100
AcDbEntity
  8
1
  6
CONTINUOUS
 62
           6
100
AcDbLine
 10
743.792013243811
 20
188.384771555718
 11
742.792013243811
 21
188.384771555718
  0
LINE
  5
3F5
100
AcDbEntity
  8
1
  6
CONTINUOUS
 62
           6
100
AcDbLine
 10
743.792013243811
 20
188.384771555718
 11
744.264513243811
 21
188.857271555718
  0
LINE
  5
3F4
100
AcDbEntity
  8
1
  6
CONTINUOUS
 62
           6
100
AcDbLine
 10
745.042013243811
 20
189.634771555718
 11
745.042013243811
 21
195.84036019476
  0
LINE
  5
3F3
100
AcDbEntity
  8
1
  6
CONTINUOUS
 62
           6
100
AcDbLine
 10
744.264513243811
 20
196.384771555718
 11
744.264513243811
 21
199.584771555718
  0
LINE
  5
3F2
100
AcDbEntity
  8
1
  6
CONTINUOUS
 62
           6
100
AcDbLine
 10
744.264513243811
 20
196.384771555718
 11
744.264513243811
 21
188.857271555718
  0
LINE
  5
3F1
100
AcDbEntity
  8
1
  6
CONTINUOUS
 62
           6
100
AcDbLine
 10
744.264513243811
 20
188.857271555718
 11
745.042013243811
 21
189.634771555718
  0
LINE
  5
3F0
100
AcDbEntity
  8
1
  6
CONTINUOUS
 62
           6
100
AcDbLine
 10
742.792013243811
 20
188.384771555718
 11
742.042013243811
 21
191.183809661394
  0
LINE
  5
3EF
100
AcDbEntity
  8
1
  6
CONTINUOUS
 62
           6
100
AcDbLine
 10
742.042013243811
 20
191.183809661394
 11
742.042013243811
 21
199.584771555718
  0
LINE
  5
3EE
100
AcDbEntity
  8
1
  6
CONTINUOUS
 62
           2
100
AcDbLine
 10
738.542013243811
 20
211.384771555718
 11
741.042013243811
 21
211.384771555718
  0
LINE
  5
3ED
100
AcDbEntity
  8
1
  6
CONTINUOUS
 62
           7
100
AcDbLine
 10
743.142013243811
 20
211.384771555718
 11
743.142013243811
 21
210.701491071277
  0
LINE
  5
3EC
100
AcDbEntity
  8
1
  6
CONTINUOUS
 62
           6
100
AcDbLine
 10
743.142013243811
 20
210.384771555718
 11
743.492013243811
 21
210.384771555718
  0
LINE
  5
3EB
100
AcDbEntity
  8
1
  6
CONTINUOUS
 62
           7
100
AcDbLine
 10
743.492013243811
 20
205.884771555718
 11
743.492013243811
 21
204.384771555718
  0
LINE
  5
3EA
100
AcDbEntity
  8
1
  6
CONTINUOUS
 62
           2
100
AcDbLine
 10
741.042013243811
 20
211.384771555718
 11
743.142013243811
 21
211.384771555718
  0
LINE
  5
3E9
100
AcDbEntity
  8
1
  6
CONTINUOUS
 62
           7
100
AcDbLine
 10
743.492013243811
 20
210.384771555718
 11
743.492013243811
 21
205.884771555718
  0
LINE
  5
3E8
100
AcDbEntity
  8
1
  6
CONTINUOUS
 62
           6
100
AcDbLine
 10
742.042013243811
 20
191.183809661394
 11
738.542013243811
 21
191.183809661394
  0
LINE
  5
3E7
100
AcDbEntity
  8
1
  6
CONTINUOUS
 62
           6
100
AcDbLine
 10
745.042013243811
 20
195.84036019476
 11
744.264513243811
 21
196.384771555718
  0
LINE
  5
3E6
100
AcDbEntity
  8
1
  6
CONTINUOUS
 62
           6
100
AcDbLine
 10
744.042013243811
 20
210.067228907663
 11
743.492013243811
 21
210.384771555718
  0
LINE
  5
3E5
100
AcDbEntity
  8
1
  6
CONTINUOUS
 62
           6
100
AcDbLine
 10
744.042013243811
 20
210.067228907663
 11
744.042013243811
 21
206.269885701733
  0
LINE
  5
3E4
100
AcDbEntity
  8
1
  6
CONTINUOUS
 62
           6
100
AcDbLine
 10
744.042013243811
 20
206.269885701733
 11
743.492013243811
 21
205.884771555718
  0
LINE
  5
3E3
100
AcDbEntity
  8
1
  6
CONTINUOUS
 62
           6
100
AcDbLine
 10
738.542013243811
 20
188.384771555718
 11
742.792013243811
 21
188.384771555718
  0
LINE
  5
3E2
100
AcDbEntity
  8
1
  6
CONTINUOUS
 62
           7
100
AcDbLine
 10
736.050471191109
 20
125.062345272374
 11
735.708123153651
 21
126.340005542038
  0
LINE
  5
3E1
100
AcDbEntity
  8
1
  6
CONTINUOUS
 62
           7
100
AcDbLine
 10
740.542013243811
 20
199.418104889051
 11
738.542013243811
 21
199.584771555718
  0
LINE
  5
3E0
100
AcDbEntity
  8
1
  6
DOT_CENTER
 62
           2
100
AcDbLine
 10
580.601589049333
 20
183.168104889051
 11
602.569490702434
 21
183.168104889051
  0
LINE
  5
3DF
100
AcDbEntity
  8
1
  6
CONTINUOUS
 62
           7
100
AcDbLine
 10
582.571175089378
 20
185.317543614302
 11
582.571175089378
 21
181.018383973256
  0
LINE
  5
3DE
100
AcDbEntity
  8
1
  6
CONTINUOUS
 62
           7
100
AcDbLine
 10
600.571175089378
 20
185.317543614302
 11
600.571175089378
 21
181.018383973256
  0
LINE
  5
3DD
100
AcDbEntity
  8
1
  6
CONTINUOUS
 62
           7
100
AcDbLine
 10
583.821175089378
 20
181.018383973256
 11
582.571175089378
 21
181.018383973256
  0
LINE
  5
3DC
100
AcDbEntity
  8
1
  6
CONTINUOUS
 62
           7
100
AcDbLine
 10
600.571175089378
 20
181.018383973256
 11
599.321175089378
 21
181.018383973256
  0
LINE
  5
3DB
100
AcDbEntity
  8
1
  6
CONTINUOUS
 62
           7
100
AcDbLine
 10
599.321175089378
 20
185.317543614302
 11
600.571175089378
 21
185.317543614302
  0
LINE
  5
3DA
100
AcDbEntity
  8
1
  6
CONTINUOUS
 62
           7
100
AcDbLine
 10
583.821175089378
 20
185.317543614302
 11
582.571175089378
 21
185.317543614302
  0
LINE
  5
3D9
100
AcDbEntity
  8
1
  6
CONTINUOUS
 62
           2
100
AcDbLine
 10
826.145535717715
 20
147.717661090873
 11
767.850862228198
 21
147.717661090873
  0
LINE
  5
3D8
100
AcDbEntity
  8
1
  6
CONTINUOUS
 62
           2
100
AcDbLine
 10
767.850862228198
 20
154.917661090873
 11
826.145535717715
 21
154.917661090873
  0
LINE
  5
3D7
100
AcDbEntity
  8
1
  6
CONTINUOUS
 62
           2
100
AcDbLine
 10
826.145535717715
 20
162.117661090873
 11
767.850862228198
 21
162.117661090873
  0
LINE
  5
3D6
100
AcDbEntity
  8
1
  6
CONTINUOUS
 62
           2
100
AcDbLine
 10
767.850862228198
 20
169.317661090873
 11
826.145535717715
 21
169.317661090873
  0
LINE
  5
3D5
100
AcDbEntity
  8
1
  6
CONTINUOUS
 62
           2
100
AcDbLine
 10
795.963718214045
 20
176.517661090873
 11
795.963718214045
 21
140.517661090873
  0
LINE
  5
3D4
100
AcDbEntity
  8
1
  6
CONTINUOUS
 62
           2
100
AcDbLine
 10
767.850862228198
 20
140.517661090873
 11
767.850862228198
 21
176.517661090873
  0
LINE
  5
3D3
100
AcDbEntity
  8
1
  6
CONTINUOUS
 62
           2
100
AcDbLine
 10
826.145535717715
 20
140.517661090873
 11
767.850862228198
 21
140.517661090873
  0
LINE
  5
3D2
100
AcDbEntity
  8
1
  6
CONTINUOUS
 62
           2
100
AcDbLine
 10
826.145535717715
 20
176.517661090873
 11
826.145535717715
 21
140.517661090873
  0
LINE
  5
3D1
100
AcDbEntity
  8
1
  6
CONTINUOUS
 62
           2
100
AcDbLine
 10
767.850862228198
 20
176.517661090873
 11
826.145535717715
 21
176.517661090873
  0
LINE
  5
3D0
100
AcDbEntity
  8
1
  6
DASH_CENTER
 62
           6
100
AcDbLine
 10
738.542013243811
 20
186.549802773488
 11
738.542013243811
 21
214.17381209962
  0
INSERT
  5
43
100
AcDbEntity
  8
0
100
AcDbBlockReference
  2
AG_6_A__2
 10
879.778909143279
 20
254.799846148758
  0
INSERT
  5
44
100
AcDbEntity
  8
0
100
AcDbBlockReference
  2
63300081
 10
247.944451037415
 20
259.483104054928
  0
INSERT
  5
45
100
AcDbEntity
  8
0
100
AcDbBlockReference
  2
FORMAT_A4AI
 10
702.037996422105
 20
156.150175634571
  0
INSERT
  5
46
100
AcDbEntity
  8
0
100
AcDbBlockReference
  2
AG_4B_SITUZU
 10
1063.42156292657
 20
219.540407791911
  0
SOLID
  5
43B
100
AcDbEntity
  8
0
 62
           2
100
AcDbTrace
 10
731.262013876109
 20
210.511646250003
 11
731.894645655703
 21
210.89022315374
 12
733.016118302675
 22
208.298276981027
 13
733.016118302675
 23
208.298276981027
  0
ENDSEC
  0
SECTION
  2
OBJECTS
  0
DICTIONARY
  5
19
100
AcDbDictionary
  3
ACAD_GROUP
350
1A
  3
ACAD_MLINESTYLE
350
1B
  0
DICTIONARY
  5
1A
102
{ACAD_REACTORS
330
19
102
}
100
AcDbDictionary
  0
DICTIONARY
  5
1B
102
{ACAD_REACTORS
330
19
102
}
100
AcDbDictionary
  3
STANDARD
350
1C
  0
MLINESTYLE
  5
1C
102
{ACAD_REACTORS
330
1B
102
}
100
AcDbMlineStyle
  2
STANDARD
 70
           0
  3

 62
           0
 51
90.0
 52
90.0
 71
           2
 49
0.5
 62
         256
  6
BYLAYER
 49
-0.5
 62
         256
  6
BYLAYER
  0
ENDSEC
  0
EOF
