  0
SECTION
  2
HEADER
  9
$ACADVER
  1
AC1014
  9
$ACADMAINTVER
 70
     9
  9
$DWGCODEPAGE
  3
DOS932
  9
$INSBASE
 10
0.0
 20
0.0
 30
0.0
  9
$EXTMIN
 10
0.0
 20
0.0
 30
0.0
  9
$EXTMAX
 10
1500.0
 20
841.0
 30
0.0
  9
$LIMMIN
 10
0.0
 20
0.0
  9
$LIMMAX
 10
1500.0
 20
841.0
  9
$ORTHOMODE
 70
     0
  9
$REGENMODE
 70
     1
  9
$FILLMODE
 70
     1
  9
$QTEXTMODE
 70
     0
  9
$MIRRTEXT
 70
     1
  9
$DRAGMODE
 70
     2
  9
$LTSCALE
 40
1.0
  9
$OSMODE
 70
    37
  9
$ATTMODE
 70
     1
  9
$TEXTSIZE
 40
3.5
  9
$TRACEWID
 40
1.0
  9
$TEXTSTYLE
  7
STANDARD
  9
$CLAYER
  8
0
  9
$CELTYPE
  6
BYLAYER
  9
$CECOLOR
 62
   256
  9
$CELTSCALE
 40
1.0
  9
$DELOBJ
 70
     1
  9
$DISPSILH
 70
     0
  9
$DIMSCALE
 40
1.0
  9
$DIMASZ
 40
3.0
  9
$DIMEXO
 40
1.0
  9
$DIMDLI
 40
3.75
  9
$DIMRND
 40
0.0
  9
$DIMDLE
 40
0.0
  9
$DIMEXE
 40
1.0
  9
$DIMTP
 40
0.0
  9
$DIMTM
 40
0.0
  9
$DIMTXT
 40
3.5
  9
$DIMCEN
 40
2.5
  9
$DIMTSZ
 40
0.0
  9
$DIMTOL
 70
     0
  9
$DIMLIM
 70
     0
  9
$DIMTIH
 70
     1
  9
$DIMTOH
 70
     1
  9
$DIMSE1
 70
     0
  9
$DIMSE2
 70
     0
  9
$DIMTAD
 70
     1
  9
$DIMZIN
 70
     0
  9
$DIMBLK
  1

  9
$DIMASO
 70
     1
  9
$DIMSHO
 70
     1
  9
$DIMPOST
  1

  9
$DIMAPOST
  1

  9
$DIMALT
 70
     0
  9
$DIMALTD
 70
     3
  9
$DIMALTF
 40
0.0393700787
  9
$DIMLFAC
 40
1.0
  9
$DIMTOFL
 70
     1
  9
$DIMTVP
 40
0.0
  9
$DIMTIX
 70
     0
  9
$DIMSOXD
 70
     0
  9
$DIMSAH
 70
     0
  9
$DIMBLK1
  1

  9
$DIMBLK2
  1

  9
$DIMSTYLE
  2
ISO-25
  9
$DIMCLRD
 70
     0
  9
$DIMCLRE
 70
     0
  9
$DIMCLRT
 70
     0
  9
$DIMTFAC
 40
1.0
  9
$DIMGAP
 40
1.524
  9
$DIMJUST
 70
     0
  9
$DIMSD1
 70
     0
  9
$DIMSD2
 70
     0
  9
$DIMTOLJ
 70
     0
  9
$DIMTZIN
 70
     0
  9
$DIMALTZ
 70
     0
  9
$DIMALTTZ
 70
     0
  9
$DIMFIT
 70
     3
  9
$DIMUPT
 70
     0
  9
$DIMUNIT
 70
     2
  9
$DIMDEC
 70
     2
  9
$DIMTDEC
 70
     2
  9
$DIMALTU
 70
     2
  9
$DIMALTTD
 70
     3
  9
$DIMTXSTY
  7
STANDARD
  9
$DIMAUNIT
 70
     0
  9
$LUNITS
 70
     2
  9
$LUPREC
 70
     3
  9
$SKETCHINC
 40
1.0
  9
$FILLETRAD
 40
10.0
  9
$AUNITS
 70
     0
  9
$AUPREC
 70
     3
  9
$MENU
  1
.
  9
$ELEVATION
 40
0.0
  9
$PELEVATION
 40
0.0
  9
$THICKNESS
 40
0.0
  9
$LIMCHECK
 70
     0
  9
$CHAMFERA
 40
0.0
  9
$CHAMFERB
 40
0.0
  9
$CHAMFERC
 40
0.0
  9
$CHAMFERD
 40
0.0
  9
$SKPOLY
 70
     0
  9
$TDCREATE
 40
2458169.412626007
  9
$TDUPDATE
 40
2458169.412627095
  9
$TDINDWG
 40
0.0000000116
  9
$TDUSRTIMER
 40
0.0000000116
  9
$USRTIMER
 70
     1
  9
$ANGBASE
 50
0.0
  9
$ANGDIR
 70
     0
  9
$PDMODE
 70
     0
  9
$PDSIZE
 40
-1.0
  9
$PLINEWID
 40
0.0
  9
$COORDS
 70
     1
  9
$SPLFRAME
 70
     0
  9
$SPLINETYPE
 70
     6
  9
$SPLINESEGS
 70
     8
  9
$ATTDIA
 70
     0
  9
$ATTREQ
 70
     1
  9
$HANDLING
 70
     1
  9
$HANDSEED
  5
57F
  9
$SURFTAB1
 70
     6
  9
$SURFTAB2
 70
     6
  9
$SURFTYPE
 70
     6
  9
$SURFU
 70
     6
  9
$SURFV
 70
     6
  9
$UCSNAME
  2

  9
$UCSORG
 10
0.0
 20
0.0
 30
0.0
  9
$UCSXDIR
 10
1.0
 20
0.0
 30
0.0
  9
$UCSYDIR
 10
0.0
 20
1.0
 30
0.0
  9
$PUCSNAME
  2

  9
$PUCSORG
 10
0.0
 20
0.0
 30
0.0
  9
$PUCSXDIR
 10
1.0
 20
0.0
 30
0.0
  9
$PUCSYDIR
 10
0.0
 20
1.0
 30
0.0
  9
$USERI1
 70
     0
  9
$USERI2
 70
     0
  9
$USERI3
 70
     0
  9
$USERI4
 70
     0
  9
$USERI5
 70
     0
  9
$USERR1
 40
0.0
  9
$USERR2
 40
0.0
  9
$USERR3
 40
0.0
  9
$USERR4
 40
0.0
  9
$USERR5
 40
0.0
  9
$WORLDVIEW
 70
     1
  9
$SHADEDGE
 70
     3
  9
$SHADEDIF
 70
    70
  9
$TILEMODE
 70
     1
  9
$MAXACTVP
 70
    64
  9
$PINSBASE
 10
0.0
 20
0.0
 30
0.0
  9
$PLIMCHECK
 70
     0
  9
$PEXTMIN
 10
1.0000000000E+20
 20
1.0000000000E+20
 30
1.0000000000E+20
  9
$PEXTMAX
 10
-1.0000000000E+20
 20
-1.0000000000E+20
 30
-1.0000000000E+20
  9
$PLIMMIN
 10
0.0
 20
0.0
  9
$PLIMMAX
 10
420.0
 20
297.0
  9
$UNITMODE
 70
     0
  9
$VISRETAIN
 70
     1
  9
$PLINEGEN
 70
     0
  9
$PSLTSCALE
 70
     1
  9
$TREEDEPTH
 70
  3020
  9
$PICKSTYLE
 70
     1
  9
$CMLSTYLE
  2
STANDARD
  9
$CMLJUST
 70
     0
  9
$CMLSCALE
 40
20.0
  9
$PROXYGRAPHICS
 70
     1
  9
$MEASUREMENT
 70
     1
  0
ENDSEC
  0
SECTION
  2
CLASSES
  0
CLASS
  1
ACDBDICTIONARYWDFLT
  2
AcDbDictionaryWithDefault
  3
ObjectDBX Classes
 90
        0
280
     0
281
     0
  0
CLASS
  1
VISUALSTYLE
  2
AcDbVisualStyle
  3
ObjectDBX Classes
 90
     4095
280
     0
281
     0
  0
CLASS
  1
MATERIAL
  2
AcDbMaterial
  3
ObjectDBX Classes
 90
     1153
280
     0
281
     0
  0
CLASS
  1
SCALE
  2
AcDbScale
  3
ObjectDBX Classes
 90
     1153
280
     0
281
     0
  0
CLASS
  1
SUN
  2
AcDbSun
  3
SCENEOE
 90
     1153
280
     0
281
     0
  0
CLASS
  1
XRECORD
  2
AcDbXrecord
  3
ObjectDBX Classes
 90
        0
280
     0
281
     0
  0
CLASS
  1
LWPOLYLINE
  2
AcDbPolyline
  3
ObjectDBX Classes
 90
        0
280
     0
281
     1
  0
CLASS
  1
HATCH
  2
AcDbHatch
  3
ObjectDBX Classes
 90
        0
280
     0
281
     1
  0
ENDSEC
  0
SECTION
  2
TABLES
  0
TABLE
  2
VPORT
  5
8
330
0
100
AcDbSymbolTable
 70
     1
  0
VPORT
  5
29
330
8
100
AcDbSymbolTableRecord
100
AcDbViewportTableRecord
  2
*ACTIVE
 70
     0
 10
0.0
 20
0.0
 11
1.0
 21
1.0
 12
750.0
 22
420.5
 13
0.0
 23
0.0
 14
10.0
 24
10.0
 15
10.0
 25
10.0
 16
0.0
 26
0.0
 36
1.0
 17
0.0
 27
0.0
 37
0.0
 40
841.0
 41
1.7835909631
 42
50.0
 43
0.0
 44
0.0
 50
0.0
 51
0.0
 71
     0
 72
  2000
 73
     1
 74
     3
 75
     0
 76
     0
 77
     0
 78
     0
  0
ENDTAB
  0
TABLE
  2
LTYPE
  5
5
330
0
100
AcDbSymbolTable
 70
     8
  0
LTYPE
  5
14
330
5
100
AcDbSymbolTableRecord
100
AcDbLinetypeTableRecord
  2
BYBLOCK
 70
     0
  3

 72
    65
 73
     0
 40
0.0
  0
LTYPE
  5
15
330
5
100
AcDbSymbolTableRecord
100
AcDbLinetypeTableRecord
  2
BYLAYER
 70
     0
  3

 72
    65
 73
     0
 40
0.0
  0
LTYPE
  5
16
330
5
100
AcDbSymbolTableRecord
100
AcDbLinetypeTableRecord
  2
CONTINUOUS
 70
     0
  3
Solid line
 72
    65
 73
     0
 40
0.0
  0
LTYPE
  5
6A
330
5
100
AcDbSymbolTableRecord
100
AcDbLinetypeTableRecord
  2
SLD-実線
 70
     0
  3
SolidWorks Line Style
 72
    65
 73
     0
 40
0.0
  0
LTYPE
  5
6B
330
5
100
AcDbSymbolTableRecord
100
AcDbLinetypeTableRecord
  2
SLD-破線
 70
     0
  3
SolidWorks Line Style
 72
    65
 73
     2
 40
1.905
 49
1.27
 74
     0
 49
-0.635
 74
     0
  0
LTYPE
  5
6C
330
5
100
AcDbSymbolTableRecord
100
AcDbLinetypeTableRecord
  2
SLD-2点鎖線
 70
     0
  3
SolidWorks Line Style
 72
    65
 73
     6
 40
12.7
 49
6.35
 74
     0
 49
-1.27
 74
     0
 49
1.27
 74
     0
 49
-1.27
 74
     0
 49
1.27
 74
     0
 49
-1.27
 74
     0
  0
LTYPE
  5
6D
330
5
100
AcDbSymbolTableRecord
100
AcDbLinetypeTableRecord
  2
SLD-鎖線
 70
     0
  3
SolidWorks Line Style
 72
    65
 73
     4
 40
10.16
 49
6.35
 74
     0
 49
-1.27
 74
     0
 49
1.27
 74
     0
 49
-1.27
 74
     0
  0
LTYPE
  5
6E
330
5
100
AcDbSymbolTableRecord
100
AcDbLinetypeTableRecord
  2
SLD-1点鎖線_中心線_
 70
     0
  3
SolidWorks Line Style
 72
    65
 73
     4
 40
34.29
 49
30.48
 74
     0
 49
-1.27
 74
     0
 49
1.27
 74
     0
 49
-1.27
 74
     0
  0
LTYPE
  5
6F
330
5
100
AcDbSymbolTableRecord
100
AcDbLinetypeTableRecord
  2
SLD-点線
 70
     0
  3
SolidWorks Line Style
 72
    65
 73
     2
 40
0.635
 49
0.0
 74
     0
 49
-0.635
 74
     0
  0
LTYPE
  5
70
330
5
100
AcDbSymbolTableRecord
100
AcDbLinetypeTableRecord
  2
SLD-細-太鎖線_切断面_
 70
     0
  3
SolidWorks Line Style
 72
    65
 73
     4
 40
10.16
 49
6.35
 74
     0
 49
-1.27
 74
     0
 49
1.27
 74
     0
 49
-1.27
 74
     0
  0
ENDTAB
  0
TABLE
  2
LAYER
  5
2
330
0
100
AcDbSymbolTable
 70
     2
  0
LAYER
  5
10
330
2
100
AcDbSymbolTableRecord
100
AcDbLayerTableRecord
  2
0
 70
     0
 62
     7
  6
CONTINUOUS
  0
LAYER
  5
71
330
2
100
AcDbSymbolTableRecord
100
AcDbLayerTableRecord
  2
SLD-DEFPOINTS
 70
     0
 62
     7
  6
CONTINUOUS
  0
ENDTAB
  0
TABLE
  2
STYLE
  5
3
330
0
100
AcDbSymbolTable
 70
     4
  0
STYLE
  5
11
330
3
100
AcDbSymbolTableRecord
100
AcDbTextStyleTableRecord
  2
STANDARD
 70
     0
 40
0.0
 41
1.0
 50
0.0
 71
     0
 42
3.5
  3
GOTHIC.TTF
  4

1001
ACAD
1000
CENTURY GOTHIC
1071
       34
  0
STYLE
  5
72
330
3
100
AcDbSymbolTableRecord
100
AcDbTextStyleTableRecord
  2
SLDTEXTSTYLE0
 70
     0
 40
0.0
 41
1.0
 50
0.0
 71
     0
 42
2.5
  3
MSGOTHIC.TTC
  4

1001
ACAD
1000
ＭＳ ゴシック
1071
      305
  0
STYLE
  5
578
330
3
100
AcDbSymbolTableRecord
100
AcDbTextStyleTableRecord
  2
SLDTEXTSTYLE1
 70
     0
 40
0.0
 41
0.913
 50
0.0
 71
     0
 42
3.5
  3
GOTHIC.TTF
  4
bigfont
1001
ACAD
1000
Century Gothic
1071
      290
  0
STYLE
  5
57A
330
3
100
AcDbSymbolTableRecord
100
AcDbTextStyleTableRecord
  2
SLDTEXTSTYLE2
 70
     0
 40
0.0
 41
1.0
 50
0.0
 71
     0
 42
3.5
  3
HGRSGU.TTC
  4
bigfont
1001
ACAD
1000
HGS創英角ｺﾞｼｯｸUB
1071
      306
  0
ENDTAB
  0
TABLE
  2
VIEW
  5
6
330
0
100
AcDbSymbolTable
 70
     0
  0
ENDTAB
  0
TABLE
  2
UCS
  5
7
330
0
100
AcDbSymbolTable
 70
     0
  0
ENDTAB
  0
TABLE
  2
APPID
  5
9
330
0
100
AcDbSymbolTable
 70
     1
  0
APPID
  5
12
330
9
100
AcDbSymbolTableRecord
100
AcDbRegAppTableRecord
  2
ACAD
 70
     0
  0
ENDTAB
  0
TABLE
  2
DIMSTYLE
  5
A
330
0
100
AcDbSymbolTable
 70
     3
  0
DIMSTYLE
105
27
330
A
100
AcDbSymbolTableRecord
100
AcDbDimStyleTableRecord
  2
ISO-25
 70
     0
  3

  4

  5

  6

  7

 40
1.0
 41
2.5
 42
0.625
 43
3.75
 44
1.25
 45
0.0
 46
0.0
 47
0.0
 48
0.0
140
2.5
141
2.5
142
0.0
143
0.0393700787
144
1.0
145
0.0
146
1.0
147
0.625
 71
     0
 72
     0
 73
     0
 74
     0
 75
     0
 76
     0
 77
     1
 78
     8
170
     0
171
     3
172
     1
173
     0
174
     0
175
     0
176
     0
177
     0
178
     0
270
     2
271
     2
272
     2
273
     2
274
     3
340
72
275
     0
280
     0
281
     0
282
     0
283
     0
284
     8
285
     0
286
     0
287
     3
288
     0
  0
DIMSTYLE
105
474
102
{ACAD_REACTORS
330
473
330
47E
330
56A
102
}
330
A
100
AcDbSymbolTableRecord
100
AcDbDimStyleTableRecord
  2
SLDDIMSTYLE0
 70
     0
  3

  4

  5

  6

  7

 40
1.0
 41
3.0
 42
0.0625
 43
0.38
 44
0.0
 45
0.000000001
 46
0.0
 47
0.0
 48
0.0
140
3.5
141
0.09
142
0.0
143
25.4
144
1.0
145
0.0
146
1.0
147
0.875
 71
     0
 72
     0
 73
     0
 74
     0
 75
     0
 76
     0
 77
     3
 78
    12
170
     0
171
     2
172
     0
173
     1
174
     0
175
     0
176
     0
177
     0
178
     0
270
     2
271
     2
272
     2
273
     2
274
     2
340
72
275
     0
280
     0
281
     0
282
     0
283
     1
284
    12
285
     0
286
     0
287
     3
288
     0
  0
DIMSTYLE
105
57D
330
A
100
AcDbSymbolTableRecord
100
AcDbDimStyleTableRecord
  2
SLDDIMSTYLE1
 70
     0
  3

  4

  5

  6

  7

 40
1.0
 41
3.0
 42
0.0625
 43
0.38
 44
0.0
 45
0.000000001
 46
0.0
 47
0.0
 48
0.0
140
0.18
141
0.09
142
0.0
143
25.4
144
1.0
145
0.0
146
3.0
147
0.0
 71
     0
 72
     0
 73
     1
 74
     1
 75
     0
 76
     0
 77
     0
 78
     0
170
     0
171
     2
172
     0
173
     1
174
     0
175
     0
176
     0
177
     0
178
     0
270
     2
271
     0
272
     0
273
     2
274
     2
340
11
275
     0
280
     0
281
     0
282
     0
283
     1
284
     0
285
     0
286
     0
287
     3
288
     0
  0
ENDTAB
  0
TABLE
  2
BLOCK_RECORD
  5
1
330
0
100
AcDbSymbolTable
 70
     5
  0
BLOCK_RECORD
  5
1F
330
1
100
AcDbSymbolTableRecord
100
AcDbBlockTableRecord
  2
*MODEL_SPACE
  0
BLOCK_RECORD
  5
1B
330
1
100
AcDbSymbolTableRecord
100
AcDbBlockTableRecord
  2
*PAPER_SPACE
  0
BLOCK_RECORD
  5
23
330
1
100
AcDbSymbolTableRecord
100
AcDbBlockTableRecord
  2
*PAPER_SPACE0
  0
BLOCK_RECORD
  5
475
330
1
100
AcDbSymbolTableRecord
100
AcDbBlockTableRecord
  2
_D
  0
BLOCK_RECORD
  5
47F
330
1
100
AcDbSymbolTableRecord
100
AcDbBlockTableRecord
  2
_D_1
  0
BLOCK_RECORD
  5
56B
330
1
100
AcDbSymbolTableRecord
100
AcDbBlockTableRecord
  2
_D_2
  0
BLOCK_RECORD
  5
574
330
1
100
AcDbSymbolTableRecord
100
AcDbBlockTableRecord
  2
SW_NOTE_3
  0
ENDTAB
  0
ENDSEC
  0
SECTION
  2
BLOCKS
  0
BLOCK
  5
20
330
1F
100
AcDbEntity
  8
0
100
AcDbBlockBegin
  2
*MODEL_SPACE
 70
     0
 10
0.0
 20
0.0
 30
0.0
  3
*MODEL_SPACE
  1

  0
ENDBLK
  5
21
330
1F
100
AcDbEntity
  8
0
100
AcDbBlockEnd
  0
BLOCK
  5
1C
330
1B
100
AcDbEntity
 67
     1
  8
0
100
AcDbBlockBegin
  2
*PAPER_SPACE
 70
     0
 10
0.0
 20
0.0
 30
0.0
  3
*PAPER_SPACE
  1

  0
ENDBLK
  5
1D
330
1B
100
AcDbEntity
 67
     1
  8
0
100
AcDbBlockEnd
  0
BLOCK
  5
24
330
23
100
AcDbEntity
  8
0
100
AcDbBlockBegin
  2
*PAPER_SPACE0
 70
     0
 10
0.0
 20
0.0
 30
0.0
  3
*PAPER_SPACE0
  1
*PAPER_SPACE0
  0
ENDBLK
  5
25
330
23
100
AcDbEntity
  8
0
100
AcDbBlockEnd
  0
BLOCK
  5
476
330
475
100
AcDbEntity
  8
0
100
AcDbBlockBegin
  2
_D
 70
     0
 10
0.0
 20
0.0
 30
0.0
  3
_D
  1
_D
  0
SOLID
  5
478
330
475
100
AcDbEntity
  8
0
  6
SLD-実線
 62
     7
100
AcDbTrace
 10
74.1667186469
 20
201.5072420004
 30
0.0
 11
77.1667186469
 21
201.0072420004
 31
0.0
 12
77.1667186469
 22
202.0072420004
 32
0.0
 13
77.1667186469
 23
202.0072420004
 33
0.0
  0
SOLID
  5
479
330
475
100
AcDbEntity
  8
0
  6
SLD-実線
 62
     7
100
AcDbTrace
 10
934.1667186469
 20
201.5072420004
 30
0.0
 11
931.1667186469
 21
202.0072420004
 31
0.0
 12
931.1667186469
 22
201.0072420004
 32
0.0
 13
931.1667186469
 23
201.0072420004
 33
0.0
  0
LINE
  5
47A
330
475
100
AcDbEntity
  8
0
  6
SLD-実線
 62
     7
100
AcDbLine
 10
74.1667186469
 20
213.5072420004
 30
0.0
 11
74.1667186469
 21
200.5072420004
 31
0.0
  0
LINE
  5
47B
330
475
100
AcDbEntity
  8
0
  6
SLD-実線
 62
     7
100
AcDbLine
 10
934.1667186469
 20
213.5072420004
 30
0.0
 11
934.1667186469
 21
200.5072420004
 31
0.0
  0
LINE
  5
47C
330
475
100
AcDbEntity
  8
0
  6
SLD-実線
 62
     7
100
AcDbLine
 10
74.1667186469
 20
201.5072420004
 30
0.0
 11
934.1667186469
 21
201.5072420004
 31
0.0
  0
MTEXT
  5
47D
330
475
100
AcDbEntity
  8
0
  6
SLD-実線
 62
     7
100
AcDbMText
 10
501.1115102843
 20
205.5799690403
 30
0.0
 40
3.5
 41
0.0
 71
     1
 72
     1
  1
860
  7
SLDTEXTSTYLE0
  0
ENDBLK
  5
477
330
475
100
AcDbEntity
  8
0
100
AcDbBlockEnd
  0
BLOCK
  5
480
330
47F
100
AcDbEntity
  8
0
100
AcDbBlockBegin
  2
_D_1
 70
     0
 10
0.0
 20
0.0
 30
0.0
  3
_D_1
  1
_D_1
  0
SOLID
  5
482
330
47F
100
AcDbEntity
  8
0
  6
SLD-実線
 62
     7
100
AcDbTrace
 10
944.1667186469
 20
211.5072420004
 30
0.0
 11
944.6667186469
 21
214.5072420004
 31
0.0
 12
943.6667186469
 22
214.5072420004
 32
0.0
 13
943.6667186469
 23
214.5072420004
 33
0.0
  0
SOLID
  5
483
330
47F
100
AcDbEntity
  8
0
  6
SLD-実線
 62
     7
100
AcDbTrace
 10
944.1667186469
 20
761.5072420004
 30
0.0
 11
943.6667186469
 21
758.5072420004
 31
0.0
 12
944.6667186469
 22
758.5072420004
 32
0.0
 13
944.6667186469
 23
758.5072420004
 33
0.0
  0
LINE
  5
484
330
47F
100
AcDbEntity
  8
0
  6
SLD-実線
 62
     7
100
AcDbLine
 10
932.1667186469
 20
211.5072420004
 30
0.0
 11
945.1667186469
 21
211.5072420004
 31
0.0
  0
LINE
  5
485
330
47F
100
AcDbEntity
  8
0
  6
SLD-実線
 62
     7
100
AcDbLine
 10
932.1667186469
 20
761.5072420004
 30
0.0
 11
945.1667186469
 21
761.5072420004
 31
0.0
  0
LINE
  5
486
330
47F
100
AcDbEntity
  8
0
  6
SLD-実線
 62
     7
100
AcDbLine
 10
944.1667186469
 20
211.5072420004
 30
0.0
 11
944.1667186469
 21
761.5072420004
 31
0.0
  0
MTEXT
  5
487
330
47F
100
AcDbEntity
  8
0
  6
SLD-実線
 62
     7
100
AcDbMText
 10
940.093991607
 20
483.4520336378
 30
0.0
 40
3.5
 41
0.0
 71
     1
 72
     1
  1
550
  7
SLDTEXTSTYLE0
 11
6.123233995736766E-17
 21
1.0
 31
0.0
  0
ENDBLK
  5
481
330
47F
100
AcDbEntity
  8
0
100
AcDbBlockEnd
  0
BLOCK
  5
56C
330
56B
100
AcDbEntity
  8
0
100
AcDbBlockBegin
  2
_D_2
 70
     0
 10
0.0
 20
0.0
 30
0.0
  3
_D_2
  1
_D_2
  0
SOLID
  5
56E
330
56B
100
AcDbEntity
  8
0
  6
SLD-実線
 62
     7
100
AcDbTrace
 10
1076.0776457066
 20
141.5072420004
 30
0.0
 11
1079.0776457066
 21
141.0072420004
 31
0.0
 12
1079.0776457066
 22
142.0072420004
 32
0.0
 13
1079.0776457066
 23
142.0072420004
 33
0.0
  0
SOLID
  5
56F
330
56B
100
AcDbEntity
  8
0
  6
SLD-実線
 62
     7
100
AcDbTrace
 10
1338.0776457066
 20
141.5072420004
 30
0.0
 11
1335.0776457066
 21
142.0072420004
 31
0.0
 12
1335.0776457066
 22
141.0072420004
 32
0.0
 13
1335.0776457066
 23
141.0072420004
 33
0.0
  0
LINE
  5
570
330
56B
100
AcDbEntity
  8
0
  6
SLD-実線
 62
     7
100
AcDbLine
 10
1076.0776457066
 20
214.5072420004
 30
0.0
 11
1076.0776457066
 21
140.5072420004
 31
0.0
  0
LINE
  5
571
330
56B
100
AcDbEntity
  8
0
  6
SLD-実線
 62
     7
100
AcDbLine
 10
1338.0776457066
 20
244.5072420004
 30
0.0
 11
1338.0776457066
 21
140.5072420004
 31
0.0
  0
LINE
  5
572
330
56B
100
AcDbEntity
  8
0
  6
SLD-実線
 62
     7
100
AcDbLine
 10
1076.0776457066
 20
141.5072420004
 30
0.0
 11
1338.0776457066
 21
141.5072420004
 31
0.0
  0
MTEXT
  5
573
330
56B
100
AcDbEntity
  8
0
  6
SLD-実線
 62
     7
100
AcDbMText
 10
1204.022437344
 20
145.5799690403
 30
0.0
 40
3.5
 41
0.0
 71
     1
 72
     1
  1
262
  7
SLDTEXTSTYLE0
  0
ENDBLK
  5
56D
330
56B
100
AcDbEntity
  8
0
100
AcDbBlockEnd
  0
BLOCK
  5
575
330
574
100
AcDbEntity
  8
0
100
AcDbBlockBegin
  2
SW_NOTE_3
 70
     0
 10
0.0
 20
0.0
 30
0.0
  3
SW_NOTE_3
  1
SW_NOTE_3
  0
LINE
  5
577
330
574
100
AcDbEntity
  8
0
  6
SLD-実線
 62
     0
100
AcDbLine
 10
-36.9128011238
 20
0.0
 30
0.0
 11
0.0
 21
0.0
 31
0.0
  0
MTEXT
  5
579
330
574
100
AcDbEntity
  8
0
  6
CONTINUOUS
 62
     0
100
AcDbMText
 10
-37.3459177914
 20
9.0806039449
 30
0.0
 40
3.5
 41
0.0
 71
     1
 72
     1
  1
接続コード 取付部
  7
SLDTEXTSTYLE1
  0
MTEXT
  5
57B
330
574
100
AcDbEntity
  8
0
  6
CONTINUOUS
 62
     0
100
AcDbMText
 10
-37.3459177914
 20
4.1826280535
 30
0.0
 40
3.5
 41
0.0
 71
     1
 72
     1
  1
10GΩ
  7
SLDTEXTSTYLE2
  0
ENDBLK
  5
576
330
574
100
AcDbEntity
  8
0
100
AcDbBlockEnd
  0
ENDSEC
  0
SECTION
  2
ENTITIES
  0
LINE
  5
73
330
1F
100
AcDbEntity
  8
0
  6
SLD-実線
 62
     7
100
AcDbLine
 10
157.7444341052
 20
232.8850910902
 30
0.0
 11
156.6722049828
 21
232.813131634
 31
0.0
  0
LINE
  5
74
330
1F
100
AcDbEntity
  8
0
  6
SLD-実線
 62
     7
100
AcDbLine
 10
156.6722049828
 20
232.813131634
 30
0.0
 11
155.9278652468
 21
233.5882521481
 31
0.0
  0
LINE
  5
75
330
1F
100
AcDbEntity
  8
0
  6
SLD-実線
 62
     7
100
AcDbLine
 10
155.9278652468
 20
233.5882521481
 30
0.0
 11
155.3834330632
 21
234.7643824172
 31
0.0
  0
ARC
  5
76
330
1F
100
AcDbEntity
  8
0
  6
SLD-実線
 62
     7
100
AcDbCircle
 10
156.1667186469
 20
231.5072420004
 30
0.0
 40
3.350000000000017
100
AcDbArc
 50
103.5218752025
 51
124.1570802282
  0
LINE
  5
77
330
1F
100
AcDbEntity
  8
0
  6
SLD-実線
 62
     7
100
AcDbLine
 10
154.2858153815
 20
234.2793716702
 30
0.0
 11
154.7888695572
 21
233.0849574587
 31
0.0
  0
LINE
  5
78
330
1F
100
AcDbEntity
  8
0
  6
SLD-実線
 62
     7
100
AcDbLine
 10
154.7888695572
 20
233.0849574587
 30
0.0
 11
154.8608290133
 21
232.0127283364
 31
0.0
  0
LINE
  5
79
330
1F
100
AcDbEntity
  8
0
  6
SLD-実線
 62
     7
100
AcDbLine
 10
154.8608290133
 20
232.0127283364
 30
0.0
 11
154.0857084993
 21
231.2683886003
 31
0.0
  0
LINE
  5
7A
330
1F
100
AcDbEntity
  8
0
  6
SLD-実線
 62
     7
100
AcDbLine
 10
154.0857084993
 20
231.2683886003
 30
0.0
 11
152.9095782301
 21
230.7239564168
 31
0.0
  0
ARC
  5
7B
330
1F
100
AcDbEntity
  8
0
  6
SLD-実線
 62
     7
100
AcDbCircle
 10
156.1667186469
 20
231.5072420004
 30
0.0
 40
3.349999999999989
100
AcDbArc
 50
193.5218752025
 51
214.1570802282
  0
LINE
  5
7C
330
1F
100
AcDbEntity
  8
0
  6
SLD-実線
 62
     7
100
AcDbLine
 10
153.3945889771
 20
229.626338735
 30
0.0
 11
154.5890031886
 21
230.1293929107
 31
0.0
  0
LINE
  5
7D
330
1F
100
AcDbEntity
  8
0
  6
SLD-実線
 62
     7
100
AcDbLine
 10
154.5890031886
 20
230.1293929107
 30
0.0
 11
155.6612323109
 21
230.2013523669
 31
0.0
  0
LINE
  5
7E
330
1F
100
AcDbEntity
  8
0
  6
SLD-実線
 62
     7
100
AcDbLine
 10
155.6612323109
 20
230.2013523669
 30
0.0
 11
156.405572047
 21
229.4262318528
 31
0.0
  0
LINE
  5
7F
330
1F
100
AcDbEntity
  8
0
  6
SLD-実線
 62
     7
100
AcDbLine
 10
156.405572047
 20
229.4262318528
 30
0.0
 11
156.9500042305
 21
228.2501015837
 31
0.0
  0
ARC
  5
80
330
1F
100
AcDbEntity
  8
0
  6
SLD-実線
 62
     7
100
AcDbCircle
 10
156.1667186469
 20
231.5072420004
 30
0.0
 40
3.349999999999996
100
AcDbArc
 50
283.5218752025
 51
304.1570802282
  0
LINE
  5
81
330
1F
100
AcDbEntity
  8
0
  6
SLD-実線
 62
     7
100
AcDbLine
 10
158.0476219123
 20
228.7351123307
 30
0.0
 11
157.5445677366
 21
229.9295265422
 31
0.0
  0
LINE
  5
82
330
1F
100
AcDbEntity
  8
0
  6
SLD-実線
 62
     7
100
AcDbLine
 10
157.5445677366
 20
229.9295265422
 30
0.0
 11
157.4726082805
 21
231.0017556645
 31
0.0
  0
LINE
  5
83
330
1F
100
AcDbEntity
  8
0
  6
SLD-実線
 62
     7
100
AcDbLine
 10
157.4726082805
 20
231.0017556645
 30
0.0
 11
158.2477287945
 21
231.7460954006
 31
0.0
  0
LINE
  5
84
330
1F
100
AcDbEntity
  8
0
  6
SLD-実線
 62
     7
100
AcDbLine
 10
158.2477287945
 20
231.7460954006
 30
0.0
 11
159.4238590636
 21
232.2905275841
 31
0.0
  0
ARC
  5
85
330
1F
100
AcDbEntity
  8
0
  6
SLD-実線
 62
     7
100
AcDbCircle
 10
156.1667186469
 20
231.5072420004
 30
0.0
 40
3.350000000000023
100
AcDbArc
 50
13.5218752025
 51
34.1570802282
  0
LINE
  5
86
330
1F
100
AcDbEntity
  8
0
  6
SLD-実線
 62
     7
100
AcDbLine
 10
158.9388483167
 20
233.3881452659
 30
0.0
 11
157.7444341052
 21
232.8850910902
 31
0.0
  0
CIRCLE
  5
87
330
1F
100
AcDbEntity
  8
0
  6
SLD-実線
 62
     7
100
AcDbCircle
 10
156.1667186469
 20
231.5072420004
 30
0.0
 40
5.999999999999983
  0
LINE
  5
88
330
1F
100
AcDbEntity
  8
0
  6
SLD-実線
 62
     7
100
AcDbLine
 10
159.1239460812
 20
232.4296626984
 30
0.0
 11
159.4238590636
 21
232.2905275841
 31
0.0
  0
ARC
  5
89
330
1F
100
AcDbEntity
  8
0
  6
SLD-実線
 62
     7
100
AcDbCircle
 10
156.1667186469
 20
231.5072420004
 30
0.0
 40
3.0977498353624
100
AcDbArc
 50
17.3237855353
 51
30.3551698954
  0
LINE
  5
8A
330
1F
100
AcDbEntity
  8
0
  6
SLD-実線
 62
     7
100
AcDbLine
 10
158.839795921
 20
233.0727169857
 30
0.0
 11
158.9388483167
 21
233.3881452659
 31
0.0
  0
LINE
  5
8B
330
1F
100
AcDbEntity
  8
0
  6
SLD-実線
 62
     7
100
AcDbLine
 10
158.1034571108
 20
231.9572770681
 30
0.0
 11
158.2477287945
 21
231.7460954006
 31
0.0
  0
LINE
  5
8C
330
1F
100
AcDbEntity
  8
0
  6
SLD-実線
 62
     7
100
AcDbLine
 10
158.1034571108
 20
231.9572770681
 30
0.0
 11
159.1239460812
 21
232.4296626984
 31
0.0
  0
LINE
  5
8D
330
1F
100
AcDbEntity
  8
0
  6
SLD-実線
 62
     7
100
AcDbLine
 10
158.839795921
 20
233.0727169857
 30
0.0
 11
157.803442584
 21
232.6362336714
 31
0.0
  0
LINE
  5
8E
330
1F
100
AcDbEntity
  8
0
  6
SLD-実線
 62
     7
100
AcDbLine
 10
157.803442584
 20
232.6362336714
 30
0.0
 11
157.7444341052
 21
232.8850910902
 31
0.0
  0
LINE
  5
8F
330
1F
100
AcDbEntity
  8
0
  6
SLD-実線
 62
     7
100
AcDbLine
 10
157.213047862
 20
231.1022268234
 30
0.0
 11
157.4726082805
 21
231.0017556645
 31
0.0
  0
LINE
  5
90
330
1F
100
AcDbEntity
  8
0
  6
SLD-実線
 62
     7
100
AcDbLine
 10
157.213047862
 20
231.1022268234
 30
0.0
 11
158.1034571108
 21
231.9572770681
 31
0.0
  0
LINE
  5
91
330
1F
100
AcDbEntity
  8
0
  6
SLD-実線
 62
     7
100
AcDbLine
 10
157.2957103179
 20
229.8705180633
 30
0.0
 11
157.5445677366
 21
229.9295265422
 31
0.0
  0
LINE
  5
92
330
1F
100
AcDbEntity
  8
0
  6
SLD-実線
 62
     7
100
AcDbLine
 10
157.2957103179
 20
229.8705180633
 30
0.0
 11
157.213047862
 21
231.1022268234
 31
0.0
  0
LINE
  5
93
330
1F
100
AcDbEntity
  8
0
  6
SLD-実線
 62
     7
100
AcDbLine
 10
157.0891393448
 20
228.5500145661
 30
0.0
 11
156.9500042305
 21
228.2501015837
 31
0.0
  0
ARC
  5
94
330
1F
100
AcDbEntity
  8
0
  6
SLD-実線
 62
     7
100
AcDbCircle
 10
156.1667186469
 20
231.5072420004
 30
0.0
 40
3.097749835362375
100
AcDbArc
 50
287.3237855353
 51
300.3551698955
  0
LINE
  5
95
330
1F
100
AcDbEntity
  8
0
  6
SLD-実線
 62
     7
100
AcDbLine
 10
157.7321936321
 20
228.8341647264
 30
0.0
 11
158.0476219123
 21
228.7351123307
 31
0.0
  0
LINE
  5
96
330
1F
100
AcDbEntity
  8
0
  6
SLD-実線
 62
     7
100
AcDbLine
 10
157.7321936321
 20
228.8341647264
 30
0.0
 11
157.2957103179
 21
229.8705180633
 31
0.0
  0
LINE
  5
97
330
1F
100
AcDbEntity
  8
0
  6
SLD-実線
 62
     7
100
AcDbLine
 10
157.803442584
 20
232.6362336714
 30
0.0
 11
156.5717338239
 21
232.5535712155
 31
0.0
  0
LINE
  5
98
330
1F
100
AcDbEntity
  8
0
  6
SLD-実線
 62
     7
100
AcDbLine
 10
156.5717338239
 20
232.5535712155
 30
0.0
 11
156.6722049828
 21
232.813131634
 31
0.0
  0
LINE
  5
99
330
1F
100
AcDbEntity
  8
0
  6
SLD-実線
 62
     7
100
AcDbLine
 10
156.6167537146
 20
229.5705035366
 30
0.0
 11
156.405572047
 21
229.4262318528
 31
0.0
  0
LINE
  5
9A
330
1F
100
AcDbEntity
  8
0
  6
SLD-実線
 62
     7
100
AcDbLine
 10
156.6167537146
 20
229.5705035366
 30
0.0
 11
157.0891393448
 21
228.5500145661
 31
0.0
  0
LINE
  5
9B
330
1F
100
AcDbEntity
  8
0
  6
SLD-実線
 62
     7
100
AcDbLine
 10
155.7617034699
 20
230.4609127854
 30
0.0
 11
155.6612323109
 21
230.2013523669
 31
0.0
  0
LINE
  5
9C
330
1F
100
AcDbEntity
  8
0
  6
SLD-実線
 62
     7
100
AcDbLine
 10
155.7617034699
 20
230.4609127854
 30
0.0
 11
156.6167537146
 21
229.5705035366
 31
0.0
  0
LINE
  5
9D
330
1F
100
AcDbEntity
  8
0
  6
SLD-実線
 62
     7
100
AcDbLine
 10
156.5717338239
 20
232.5535712155
 30
0.0
 11
155.7166835792
 21
233.4439804643
 31
0.0
  0
LINE
  5
9E
330
1F
100
AcDbEntity
  8
0
  6
SLD-実線
 62
     7
100
AcDbLine
 10
155.7166835792
 20
233.4439804643
 30
0.0
 11
155.9278652468
 21
233.5882521481
 31
0.0
  0
LINE
  5
9F
330
1F
100
AcDbEntity
  8
0
  6
SLD-実線
 62
     7
100
AcDbLine
 10
155.7166835792
 20
233.4439804643
 30
0.0
 11
155.2442979489
 21
234.4644694348
 31
0.0
  0
LINE
  5
A0
330
1F
100
AcDbEntity
  8
0
  6
SLD-実線
 62
     7
100
AcDbLine
 10
155.2442979489
 20
234.4644694348
 30
0.0
 11
155.3834330632
 21
234.7643824172
 31
0.0
  0
LINE
  5
A1
330
1F
100
AcDbEntity
  8
0
  6
SLD-実線
 62
     7
100
AcDbLine
 10
154.5299947097
 20
230.3782503295
 30
0.0
 11
154.5890031886
 21
230.1293929107
 31
0.0
  0
LINE
  5
A2
330
1F
100
AcDbEntity
  8
0
  6
SLD-実線
 62
     7
100
AcDbLine
 10
154.5299947097
 20
230.3782503295
 30
0.0
 11
155.7617034699
 21
230.4609127854
 31
0.0
  0
LINE
  5
A3
330
1F
100
AcDbEntity
  8
0
  6
SLD-実線
 62
     7
100
AcDbLine
 10
155.0377269759
 20
233.1439659376
 30
0.0
 11
154.7888695572
 21
233.0849574587
 31
0.0
  0
LINE
  5
A4
330
1F
100
AcDbEntity
  8
0
  6
SLD-実線
 62
     7
100
AcDbLine
 10
155.0377269759
 20
233.1439659376
 30
0.0
 11
155.1203894318
 21
231.9122571775
 31
0.0
  0
LINE
  5
A5
330
1F
100
AcDbEntity
  8
0
  6
SLD-実線
 62
     7
100
AcDbLine
 10
155.1203894318
 20
231.9122571775
 30
0.0
 11
154.8608290133
 21
232.0127283364
 31
0.0
  0
LINE
  5
A6
330
1F
100
AcDbEntity
  8
0
  6
SLD-実線
 62
     7
100
AcDbLine
 10
155.1203894318
 20
231.9122571775
 30
0.0
 11
154.229980183
 21
231.0572069328
 31
0.0
  0
LINE
  5
A7
330
1F
100
AcDbEntity
  8
0
  6
SLD-実線
 62
     7
100
AcDbLine
 10
154.229980183
 20
231.0572069328
 30
0.0
 11
154.0857084993
 21
231.2683886003
 31
0.0
  0
ARC
  5
A8
330
1F
100
AcDbEntity
  8
0
  6
SLD-実線
 62
     7
100
AcDbCircle
 10
156.1667186469
 20
231.5072420004
 30
0.0
 40
3.0977498353624
100
AcDbArc
 50
107.3237855353
 51
120.3551698954
  0
LINE
  5
A9
330
1F
100
AcDbEntity
  8
0
  6
SLD-実線
 62
     7
100
AcDbLine
 10
154.6012436617
 20
234.1803192745
 30
0.0
 11
154.2858153815
 21
234.2793716702
 31
0.0
  0
LINE
  5
AA
330
1F
100
AcDbEntity
  8
0
  6
SLD-実線
 62
     7
100
AcDbLine
 10
154.6012436617
 20
234.1803192745
 30
0.0
 11
155.0377269759
 21
233.1439659376
 31
0.0
  0
LINE
  5
AB
330
1F
100
AcDbEntity
  8
0
  6
SLD-実線
 62
     7
100
AcDbLine
 10
153.4936413728
 20
229.9417670152
 30
0.0
 11
153.3945889771
 21
229.626338735
 31
0.0
  0
LINE
  5
AC
330
1F
100
AcDbEntity
  8
0
  6
SLD-実線
 62
     7
100
AcDbLine
 10
153.4936413728
 20
229.9417670152
 30
0.0
 11
154.5299947097
 21
230.3782503295
 31
0.0
  0
LINE
  5
AD
330
1F
100
AcDbEntity
  8
0
  6
SLD-実線
 62
     7
100
AcDbLine
 10
154.229980183
 20
231.0572069328
 30
0.0
 11
153.2094912125
 21
230.5848213025
 31
0.0
  0
LINE
  5
AE
330
1F
100
AcDbEntity
  8
0
  6
SLD-実線
 62
     7
100
AcDbLine
 10
153.2094912125
 20
230.5848213025
 30
0.0
 11
152.9095782301
 21
230.7239564168
 31
0.0
  0
ARC
  5
AF
330
1F
100
AcDbEntity
  8
0
  6
SLD-実線
 62
     7
100
AcDbCircle
 10
156.1667186469
 20
231.5072420004
 30
0.0
 40
3.097749835362373
100
AcDbArc
 50
197.3237855353
 51
210.3551698955
  0
LINE
  5
B0
330
1F
100
AcDbEntity
  8
0
  6
SLD-実線
 62
     7
100
AcDbLine
 10
157.7444341052
 20
676.8850910902
 30
0.0
 11
156.6722049828
 21
676.813131634
 31
0.0
  0
LINE
  5
B1
330
1F
100
AcDbEntity
  8
0
  6
SLD-実線
 62
     7
100
AcDbLine
 10
156.6722049828
 20
676.813131634
 30
0.0
 11
155.9278652468
 21
677.5882521481
 31
0.0
  0
LINE
  5
B2
330
1F
100
AcDbEntity
  8
0
  6
SLD-実線
 62
     7
100
AcDbLine
 10
155.9278652468
 20
677.5882521481
 30
0.0
 11
155.3834330632
 21
678.7643824172
 31
0.0
  0
ARC
  5
B3
330
1F
100
AcDbEntity
  8
0
  6
SLD-実線
 62
     7
100
AcDbCircle
 10
156.1667186469
 20
675.5072420004
 30
0.0
 40
3.349999999999987
100
AcDbArc
 50
103.5218752025
 51
124.1570802282
  0
LINE
  5
B4
330
1F
100
AcDbEntity
  8
0
  6
SLD-実線
 62
     7
100
AcDbLine
 10
154.2858153815
 20
678.2793716702
 30
0.0
 11
154.7888695572
 21
677.0849574587
 31
0.0
  0
LINE
  5
B5
330
1F
100
AcDbEntity
  8
0
  6
SLD-実線
 62
     7
100
AcDbLine
 10
154.7888695572
 20
677.0849574587
 30
0.0
 11
154.8608290133
 21
676.0127283364
 31
0.0
  0
LINE
  5
B6
330
1F
100
AcDbEntity
  8
0
  6
SLD-実線
 62
     7
100
AcDbLine
 10
154.8608290133
 20
676.0127283364
 30
0.0
 11
154.0857084993
 21
675.2683886003
 31
0.0
  0
LINE
  5
B7
330
1F
100
AcDbEntity
  8
0
  6
SLD-実線
 62
     7
100
AcDbLine
 10
154.0857084993
 20
675.2683886003
 30
0.0
 11
152.9095782301
 21
674.7239564168
 31
0.0
  0
ARC
  5
B8
330
1F
100
AcDbEntity
  8
0
  6
SLD-実線
 62
     7
100
AcDbCircle
 10
156.1667186469
 20
675.5072420004
 30
0.0
 40
3.349999999999982
100
AcDbArc
 50
193.5218752025
 51
214.1570802282
  0
LINE
  5
B9
330
1F
100
AcDbEntity
  8
0
  6
SLD-実線
 62
     7
100
AcDbLine
 10
153.3945889771
 20
673.626338735
 30
0.0
 11
154.5890031886
 21
674.1293929107
 31
0.0
  0
LINE
  5
BA
330
1F
100
AcDbEntity
  8
0
  6
SLD-実線
 62
     7
100
AcDbLine
 10
154.5890031886
 20
674.1293929107
 30
0.0
 11
155.6612323109
 21
674.2013523669
 31
0.0
  0
LINE
  5
BB
330
1F
100
AcDbEntity
  8
0
  6
SLD-実線
 62
     7
100
AcDbLine
 10
155.6612323109
 20
674.2013523669
 30
0.0
 11
156.405572047
 21
673.4262318528
 31
0.0
  0
LINE
  5
BC
330
1F
100
AcDbEntity
  8
0
  6
SLD-実線
 62
     7
100
AcDbLine
 10
156.405572047
 20
673.4262318528
 30
0.0
 11
156.9500042305
 21
672.2501015837
 31
0.0
  0
ARC
  5
BD
330
1F
100
AcDbEntity
  8
0
  6
SLD-実線
 62
     7
100
AcDbCircle
 10
156.1667186469
 20
675.5072420004
 30
0.0
 40
3.349999999999987
100
AcDbArc
 50
283.5218752025
 51
304.1570802282
  0
LINE
  5
BE
330
1F
100
AcDbEntity
  8
0
  6
SLD-実線
 62
     7
100
AcDbLine
 10
158.0476219123
 20
672.7351123307
 30
0.0
 11
157.5445677366
 21
673.9295265422
 31
0.0
  0
LINE
  5
BF
330
1F
100
AcDbEntity
  8
0
  6
SLD-実線
 62
     7
100
AcDbLine
 10
157.5445677366
 20
673.9295265422
 30
0.0
 11
157.4726082805
 21
675.0017556645
 31
0.0
  0
LINE
  5
C0
330
1F
100
AcDbEntity
  8
0
  6
SLD-実線
 62
     7
100
AcDbLine
 10
157.4726082805
 20
675.0017556645
 30
0.0
 11
158.2477287945
 21
675.7460954006
 31
0.0
  0
LINE
  5
C1
330
1F
100
AcDbEntity
  8
0
  6
SLD-実線
 62
     7
100
AcDbLine
 10
158.2477287945
 20
675.7460954006
 30
0.0
 11
159.4238590636
 21
676.2905275841
 31
0.0
  0
ARC
  5
C2
330
1F
100
AcDbEntity
  8
0
  6
SLD-実線
 62
     7
100
AcDbCircle
 10
156.1667186469
 20
675.5072420004
 30
0.0
 40
3.35000000000001
100
AcDbArc
 50
13.5218752025
 51
34.1570802282
  0
LINE
  5
C3
330
1F
100
AcDbEntity
  8
0
  6
SLD-実線
 62
     7
100
AcDbLine
 10
158.9388483167
 20
677.3881452659
 30
0.0
 11
157.7444341052
 21
676.8850910902
 31
0.0
  0
CIRCLE
  5
C4
330
1F
100
AcDbEntity
  8
0
  6
SLD-実線
 62
     7
100
AcDbCircle
 10
156.1667186469
 20
675.5072420004
 30
0.0
 40
5.999999999999932
  0
LINE
  5
C5
330
1F
100
AcDbEntity
  8
0
  6
SLD-実線
 62
     7
100
AcDbLine
 10
159.1239460812
 20
676.4296626984
 30
0.0
 11
159.4238590636
 21
676.2905275841
 31
0.0
  0
ARC
  5
C6
330
1F
100
AcDbEntity
  8
0
  6
SLD-実線
 62
     7
100
AcDbCircle
 10
156.1667186469
 20
675.5072420004
 30
0.0
 40
3.097749835362391
100
AcDbArc
 50
17.3237855353
 51
30.3551698954
  0
LINE
  5
C7
330
1F
100
AcDbEntity
  8
0
  6
SLD-実線
 62
     7
100
AcDbLine
 10
158.839795921
 20
677.0727169857
 30
0.0
 11
158.9388483167
 21
677.3881452659
 31
0.0
  0
LINE
  5
C8
330
1F
100
AcDbEntity
  8
0
  6
SLD-実線
 62
     7
100
AcDbLine
 10
158.1034571108
 20
675.9572770681
 30
0.0
 11
158.2477287945
 21
675.7460954006
 31
0.0
  0
LINE
  5
C9
330
1F
100
AcDbEntity
  8
0
  6
SLD-実線
 62
     7
100
AcDbLine
 10
158.1034571108
 20
675.9572770681
 30
0.0
 11
159.1239460812
 21
676.4296626984
 31
0.0
  0
LINE
  5
CA
330
1F
100
AcDbEntity
  8
0
  6
SLD-実線
 62
     7
100
AcDbLine
 10
158.839795921
 20
677.0727169857
 30
0.0
 11
157.803442584
 21
676.6362336714
 31
0.0
  0
LINE
  5
CB
330
1F
100
AcDbEntity
  8
0
  6
SLD-実線
 62
     7
100
AcDbLine
 10
157.803442584
 20
676.6362336714
 30
0.0
 11
157.7444341052
 21
676.8850910902
 31
0.0
  0
LINE
  5
CC
330
1F
100
AcDbEntity
  8
0
  6
SLD-実線
 62
     7
100
AcDbLine
 10
157.213047862
 20
675.1022268234
 30
0.0
 11
157.4726082805
 21
675.0017556645
 31
0.0
  0
LINE
  5
CD
330
1F
100
AcDbEntity
  8
0
  6
SLD-実線
 62
     7
100
AcDbLine
 10
157.213047862
 20
675.1022268234
 30
0.0
 11
158.1034571108
 21
675.9572770681
 31
0.0
  0
LINE
  5
CE
330
1F
100
AcDbEntity
  8
0
  6
SLD-実線
 62
     7
100
AcDbLine
 10
157.2957103179
 20
673.8705180633
 30
0.0
 11
157.5445677366
 21
673.9295265422
 31
0.0
  0
LINE
  5
CF
330
1F
100
AcDbEntity
  8
0
  6
SLD-実線
 62
     7
100
AcDbLine
 10
157.2957103179
 20
673.8705180633
 30
0.0
 11
157.213047862
 21
675.1022268234
 31
0.0
  0
LINE
  5
D0
330
1F
100
AcDbEntity
  8
0
  6
SLD-実線
 62
     7
100
AcDbLine
 10
157.7321936321
 20
672.8341647264
 30
0.0
 11
158.0476219123
 21
672.7351123307
 31
0.0
  0
LINE
  5
D1
330
1F
100
AcDbEntity
  8
0
  6
SLD-実線
 62
     7
100
AcDbLine
 10
157.7321936321
 20
672.8341647264
 30
0.0
 11
157.2957103179
 21
673.8705180633
 31
0.0
  0
LINE
  5
D2
330
1F
100
AcDbEntity
  8
0
  6
SLD-実線
 62
     7
100
AcDbLine
 10
157.0891393448
 20
672.5500145661
 30
0.0
 11
156.9500042305
 21
672.2501015837
 31
0.0
  0
ARC
  5
D3
330
1F
100
AcDbEntity
  8
0
  6
SLD-実線
 62
     7
100
AcDbCircle
 10
156.1667186469
 20
675.5072420004
 30
0.0
 40
3.097749835362454
100
AcDbArc
 50
287.3237855353
 51
300.3551698955
  0
LINE
  5
D4
330
1F
100
AcDbEntity
  8
0
  6
SLD-実線
 62
     7
100
AcDbLine
 10
157.803442584
 20
676.6362336714
 30
0.0
 11
156.5717338239
 21
676.5535712155
 31
0.0
  0
LINE
  5
D5
330
1F
100
AcDbEntity
  8
0
  6
SLD-実線
 62
     7
100
AcDbLine
 10
156.5717338239
 20
676.5535712155
 30
0.0
 11
156.6722049828
 21
676.813131634
 31
0.0
  0
LINE
  5
D6
330
1F
100
AcDbEntity
  8
0
  6
SLD-実線
 62
     7
100
AcDbLine
 10
156.6167537146
 20
673.5705035366
 30
0.0
 11
156.405572047
 21
673.4262318528
 31
0.0
  0
LINE
  5
D7
330
1F
100
AcDbEntity
  8
0
  6
SLD-実線
 62
     7
100
AcDbLine
 10
156.6167537146
 20
673.5705035366
 30
0.0
 11
157.0891393448
 21
672.5500145661
 31
0.0
  0
LINE
  5
D8
330
1F
100
AcDbEntity
  8
0
  6
SLD-実線
 62
     7
100
AcDbLine
 10
156.5717338239
 20
676.5535712155
 30
0.0
 11
155.7166835792
 21
677.4439804643
 31
0.0
  0
LINE
  5
D9
330
1F
100
AcDbEntity
  8
0
  6
SLD-実線
 62
     7
100
AcDbLine
 10
155.7166835792
 20
677.4439804643
 30
0.0
 11
155.9278652468
 21
677.5882521481
 31
0.0
  0
LINE
  5
DA
330
1F
100
AcDbEntity
  8
0
  6
SLD-実線
 62
     7
100
AcDbLine
 10
155.7617034699
 20
674.4609127854
 30
0.0
 11
155.6612323109
 21
674.2013523669
 31
0.0
  0
LINE
  5
DB
330
1F
100
AcDbEntity
  8
0
  6
SLD-実線
 62
     7
100
AcDbLine
 10
155.7617034699
 20
674.4609127854
 30
0.0
 11
156.6167537146
 21
673.5705035366
 31
0.0
  0
LINE
  5
DC
330
1F
100
AcDbEntity
  8
0
  6
SLD-実線
 62
     7
100
AcDbLine
 10
155.7166835792
 20
677.4439804643
 30
0.0
 11
155.2442979489
 21
678.4644694348
 31
0.0
  0
LINE
  5
DD
330
1F
100
AcDbEntity
  8
0
  6
SLD-実線
 62
     7
100
AcDbLine
 10
155.2442979489
 20
678.4644694348
 30
0.0
 11
155.3834330632
 21
678.7643824172
 31
0.0
  0
LINE
  5
DE
330
1F
100
AcDbEntity
  8
0
  6
SLD-実線
 62
     7
100
AcDbLine
 10
154.5299947097
 20
674.3782503295
 30
0.0
 11
154.5890031886
 21
674.1293929107
 31
0.0
  0
LINE
  5
DF
330
1F
100
AcDbEntity
  8
0
  6
SLD-実線
 62
     7
100
AcDbLine
 10
154.5299947097
 20
674.3782503295
 30
0.0
 11
155.7617034699
 21
674.4609127854
 31
0.0
  0
LINE
  5
E0
330
1F
100
AcDbEntity
  8
0
  6
SLD-実線
 62
     7
100
AcDbLine
 10
155.0377269759
 20
677.1439659376
 30
0.0
 11
154.7888695572
 21
677.0849574587
 31
0.0
  0
LINE
  5
E1
330
1F
100
AcDbEntity
  8
0
  6
SLD-実線
 62
     7
100
AcDbLine
 10
155.0377269759
 20
677.1439659376
 30
0.0
 11
155.1203894318
 21
675.9122571775
 31
0.0
  0
LINE
  5
E2
330
1F
100
AcDbEntity
  8
0
  6
SLD-実線
 62
     7
100
AcDbLine
 10
155.1203894318
 20
675.9122571775
 30
0.0
 11
154.8608290133
 21
676.0127283364
 31
0.0
  0
LINE
  5
E3
330
1F
100
AcDbEntity
  8
0
  6
SLD-実線
 62
     7
100
AcDbLine
 10
155.1203894318
 20
675.9122571775
 30
0.0
 11
154.229980183
 21
675.0572069328
 31
0.0
  0
LINE
  5
E4
330
1F
100
AcDbEntity
  8
0
  6
SLD-実線
 62
     7
100
AcDbLine
 10
154.229980183
 20
675.0572069328
 30
0.0
 11
154.0857084993
 21
675.2683886003
 31
0.0
  0
ARC
  5
E5
330
1F
100
AcDbEntity
  8
0
  6
SLD-実線
 62
     7
100
AcDbCircle
 10
156.1667186469
 20
675.5072420004
 30
0.0
 40
3.097749835362454
100
AcDbArc
 50
107.3237855353
 51
120.3551698954
  0
LINE
  5
E6
330
1F
100
AcDbEntity
  8
0
  6
SLD-実線
 62
     7
100
AcDbLine
 10
154.6012436617
 20
678.1803192745
 30
0.0
 11
154.2858153815
 21
678.2793716702
 31
0.0
  0
LINE
  5
E7
330
1F
100
AcDbEntity
  8
0
  6
SLD-実線
 62
     7
100
AcDbLine
 10
154.6012436617
 20
678.1803192745
 30
0.0
 11
155.0377269759
 21
677.1439659376
 31
0.0
  0
LINE
  5
E8
330
1F
100
AcDbEntity
  8
0
  6
SLD-実線
 62
     7
100
AcDbLine
 10
153.4936413728
 20
673.9417670152
 30
0.0
 11
153.3945889771
 21
673.626338735
 31
0.0
  0
LINE
  5
E9
330
1F
100
AcDbEntity
  8
0
  6
SLD-実線
 62
     7
100
AcDbLine
 10
153.4936413728
 20
673.9417670152
 30
0.0
 11
154.5299947097
 21
674.3782503295
 31
0.0
  0
LINE
  5
EA
330
1F
100
AcDbEntity
  8
0
  6
SLD-実線
 62
     7
100
AcDbLine
 10
154.229980183
 20
675.0572069328
 30
0.0
 11
153.2094912125
 21
674.5848213025
 31
0.0
  0
LINE
  5
EB
330
1F
100
AcDbEntity
  8
0
  6
SLD-実線
 62
     7
100
AcDbLine
 10
153.2094912125
 20
674.5848213025
 30
0.0
 11
152.9095782301
 21
674.7239564168
 31
0.0
  0
ARC
  5
EC
330
1F
100
AcDbEntity
  8
0
  6
SLD-実線
 62
     7
100
AcDbCircle
 10
156.1667186469
 20
675.5072420004
 30
0.0
 40
3.097749835362364
100
AcDbArc
 50
197.3237855353
 51
210.3551698954
  0
LINE
  5
ED
330
1F
100
AcDbEntity
  8
0
  6
SLD-実線
 62
     7
100
AcDbLine
 10
853.7444341052
 20
676.8850910902
 30
0.0
 11
852.6722049828
 21
676.813131634
 31
0.0
  0
LINE
  5
EE
330
1F
100
AcDbEntity
  8
0
  6
SLD-実線
 62
     7
100
AcDbLine
 10
852.6722049828
 20
676.813131634
 30
0.0
 11
851.9278652468
 21
677.5882521481
 31
0.0
  0
LINE
  5
EF
330
1F
100
AcDbEntity
  8
0
  6
SLD-実線
 62
     7
100
AcDbLine
 10
851.9278652468
 20
677.5882521481
 30
0.0
 11
851.3834330632
 21
678.7643824172
 31
0.0
  0
ARC
  5
F0
330
1F
100
AcDbEntity
  8
0
  6
SLD-実線
 62
     7
100
AcDbCircle
 10
852.1667186469
 20
675.5072420004
 30
0.0
 40
3.349999999999955
100
AcDbArc
 50
103.5218752025
 51
124.1570802282
  0
LINE
  5
F1
330
1F
100
AcDbEntity
  8
0
  6
SLD-実線
 62
     7
100
AcDbLine
 10
850.2858153815
 20
678.2793716702
 30
0.0
 11
850.7888695572
 21
677.0849574587
 31
0.0
  0
LINE
  5
F2
330
1F
100
AcDbEntity
  8
0
  6
SLD-実線
 62
     7
100
AcDbLine
 10
850.7888695572
 20
677.0849574587
 30
0.0
 11
850.8608290133
 21
676.0127283364
 31
0.0
  0
LINE
  5
F3
330
1F
100
AcDbEntity
  8
0
  6
SLD-実線
 62
     7
100
AcDbLine
 10
850.8608290133
 20
676.0127283364
 30
0.0
 11
850.0857084993
 21
675.2683886003
 31
0.0
  0
LINE
  5
F4
330
1F
100
AcDbEntity
  8
0
  6
SLD-実線
 62
     7
100
AcDbLine
 10
850.0857084993
 20
675.2683886003
 30
0.0
 11
848.9095782301
 21
674.7239564168
 31
0.0
  0
ARC
  5
F5
330
1F
100
AcDbEntity
  8
0
  6
SLD-実線
 62
     7
100
AcDbCircle
 10
852.1667186469
 20
675.5072420004
 30
0.0
 40
3.349999999999927
100
AcDbArc
 50
193.5218752025
 51
214.1570802282
  0
LINE
  5
F6
330
1F
100
AcDbEntity
  8
0
  6
SLD-実線
 62
     7
100
AcDbLine
 10
849.3945889771
 20
673.626338735
 30
0.0
 11
850.5890031886
 21
674.1293929107
 31
0.0
  0
LINE
  5
F7
330
1F
100
AcDbEntity
  8
0
  6
SLD-実線
 62
     7
100
AcDbLine
 10
850.5890031886
 20
674.1293929107
 30
0.0
 11
851.6612323109
 21
674.2013523669
 31
0.0
  0
LINE
  5
F8
330
1F
100
AcDbEntity
  8
0
  6
SLD-実線
 62
     7
100
AcDbLine
 10
851.6612323109
 20
674.2013523669
 30
0.0
 11
852.405572047
 21
673.4262318528
 31
0.0
  0
LINE
  5
F9
330
1F
100
AcDbEntity
  8
0
  6
SLD-実線
 62
     7
100
AcDbLine
 10
852.405572047
 20
673.4262318528
 30
0.0
 11
852.9500042305
 21
672.2501015837
 31
0.0
  0
ARC
  5
FA
330
1F
100
AcDbEntity
  8
0
  6
SLD-実線
 62
     7
100
AcDbCircle
 10
852.1667186469
 20
675.5072420004
 30
0.0
 40
3.350000000000019
100
AcDbArc
 50
283.5218752025
 51
304.1570802282
  0
LINE
  5
FB
330
1F
100
AcDbEntity
  8
0
  6
SLD-実線
 62
     7
100
AcDbLine
 10
854.0476219123
 20
672.7351123307
 30
0.0
 11
853.5445677366
 21
673.9295265422
 31
0.0
  0
LINE
  5
FC
330
1F
100
AcDbEntity
  8
0
  6
SLD-実線
 62
     7
100
AcDbLine
 10
853.5445677366
 20
673.9295265422
 30
0.0
 11
853.4726082805
 21
675.0017556645
 31
0.0
  0
LINE
  5
FD
330
1F
100
AcDbEntity
  8
0
  6
SLD-実線
 62
     7
100
AcDbLine
 10
853.4726082805
 20
675.0017556645
 30
0.0
 11
854.2477287945
 21
675.7460954006
 31
0.0
  0
LINE
  5
FE
330
1F
100
AcDbEntity
  8
0
  6
SLD-実線
 62
     7
100
AcDbLine
 10
854.2477287945
 20
675.7460954006
 30
0.0
 11
855.4238590636
 21
676.2905275841
 31
0.0
  0
ARC
  5
FF
330
1F
100
AcDbEntity
  8
0
  6
SLD-実線
 62
     7
100
AcDbCircle
 10
852.1667186469
 20
675.5072420004
 30
0.0
 40
3.350000000000049
100
AcDbArc
 50
13.5218752025
 51
34.1570802282
  0
LINE
  5
100
330
1F
100
AcDbEntity
  8
0
  6
SLD-実線
 62
     7
100
AcDbLine
 10
854.9388483167
 20
677.3881452659
 30
0.0
 11
853.7444341052
 21
676.8850910902
 31
0.0
  0
CIRCLE
  5
101
330
1F
100
AcDbEntity
  8
0
  6
SLD-実線
 62
     7
100
AcDbCircle
 10
852.1667186469
 20
675.5072420004
 30
0.0
 40
6.000000000000001
  0
LINE
  5
102
330
1F
100
AcDbEntity
  8
0
  6
SLD-実線
 62
     7
100
AcDbLine
 10
854.1034571108
 20
675.9572770681
 30
0.0
 11
854.2477287945
 21
675.7460954006
 31
0.0
  0
LINE
  5
103
330
1F
100
AcDbEntity
  8
0
  6
SLD-実線
 62
     7
100
AcDbLine
 10
854.1034571108
 20
675.9572770681
 30
0.0
 11
855.1239460812
 21
676.4296626984
 31
0.0
  0
LINE
  5
104
330
1F
100
AcDbEntity
  8
0
  6
SLD-実線
 62
     7
100
AcDbLine
 10
855.1239460812
 20
676.4296626984
 30
0.0
 11
855.4238590636
 21
676.2905275841
 31
0.0
  0
ARC
  5
105
330
1F
100
AcDbEntity
  8
0
  6
SLD-実線
 62
     7
100
AcDbCircle
 10
852.1667186469
 20
675.5072420004
 30
0.0
 40
3.097749835362446
100
AcDbArc
 50
17.3237855353
 51
30.3551698954
  0
LINE
  5
106
330
1F
100
AcDbEntity
  8
0
  6
SLD-実線
 62
     7
100
AcDbLine
 10
854.839795921
 20
677.0727169857
 30
0.0
 11
854.9388483167
 21
677.3881452659
 31
0.0
  0
LINE
  5
107
330
1F
100
AcDbEntity
  8
0
  6
SLD-実線
 62
     7
100
AcDbLine
 10
854.839795921
 20
677.0727169857
 30
0.0
 11
853.803442584
 21
676.6362336714
 31
0.0
  0
LINE
  5
108
330
1F
100
AcDbEntity
  8
0
  6
SLD-実線
 62
     7
100
AcDbLine
 10
853.803442584
 20
676.6362336714
 30
0.0
 11
853.7444341052
 21
676.8850910902
 31
0.0
  0
LINE
  5
109
330
1F
100
AcDbEntity
  8
0
  6
SLD-実線
 62
     7
100
AcDbLine
 10
853.213047862
 20
675.1022268234
 30
0.0
 11
853.4726082805
 21
675.0017556645
 31
0.0
  0
LINE
  5
10A
330
1F
100
AcDbEntity
  8
0
  6
SLD-実線
 62
     7
100
AcDbLine
 10
853.213047862
 20
675.1022268234
 30
0.0
 11
854.1034571108
 21
675.9572770681
 31
0.0
  0
LINE
  5
10B
330
1F
100
AcDbEntity
  8
0
  6
SLD-実線
 62
     7
100
AcDbLine
 10
853.2957103179
 20
673.8705180633
 30
0.0
 11
853.5445677366
 21
673.9295265422
 31
0.0
  0
LINE
  5
10C
330
1F
100
AcDbEntity
  8
0
  6
SLD-実線
 62
     7
100
AcDbLine
 10
853.2957103179
 20
673.8705180633
 30
0.0
 11
853.213047862
 21
675.1022268234
 31
0.0
  0
LINE
  5
10D
330
1F
100
AcDbEntity
  8
0
  6
SLD-実線
 62
     7
100
AcDbLine
 10
853.0891393448
 20
672.5500145661
 30
0.0
 11
852.9500042305
 21
672.2501015837
 31
0.0
  0
ARC
  5
10E
330
1F
100
AcDbEntity
  8
0
  6
SLD-実線
 62
     7
100
AcDbCircle
 10
852.1667186469
 20
675.5072420004
 30
0.0
 40
3.097749835362479
100
AcDbArc
 50
287.3237855353
 51
300.3551698954
  0
LINE
  5
10F
330
1F
100
AcDbEntity
  8
0
  6
SLD-実線
 62
     7
100
AcDbLine
 10
853.7321936321
 20
672.8341647264
 30
0.0
 11
854.0476219123
 21
672.7351123307
 31
0.0
  0
LINE
  5
110
330
1F
100
AcDbEntity
  8
0
  6
SLD-実線
 62
     7
100
AcDbLine
 10
853.7321936321
 20
672.8341647264
 30
0.0
 11
853.2957103179
 21
673.8705180633
 31
0.0
  0
LINE
  5
111
330
1F
100
AcDbEntity
  8
0
  6
SLD-実線
 62
     7
100
AcDbLine
 10
853.803442584
 20
676.6362336714
 30
0.0
 11
852.5717338239
 21
676.5535712155
 31
0.0
  0
LINE
  5
112
330
1F
100
AcDbEntity
  8
0
  6
SLD-実線
 62
     7
100
AcDbLine
 10
852.5717338239
 20
676.5535712155
 30
0.0
 11
852.6722049828
 21
676.813131634
 31
0.0
  0
LINE
  5
113
330
1F
100
AcDbEntity
  8
0
  6
SLD-実線
 62
     7
100
AcDbLine
 10
852.6167537146
 20
673.5705035366
 30
0.0
 11
852.405572047
 21
673.4262318528
 31
0.0
  0
LINE
  5
114
330
1F
100
AcDbEntity
  8
0
  6
SLD-実線
 62
     7
100
AcDbLine
 10
852.6167537146
 20
673.5705035366
 30
0.0
 11
853.0891393448
 21
672.5500145661
 31
0.0
  0
LINE
  5
115
330
1F
100
AcDbEntity
  8
0
  6
SLD-実線
 62
     7
100
AcDbLine
 10
851.7617034699
 20
674.4609127854
 30
0.0
 11
851.6612323109
 21
674.2013523669
 31
0.0
  0
LINE
  5
116
330
1F
100
AcDbEntity
  8
0
  6
SLD-実線
 62
     7
100
AcDbLine
 10
851.7617034699
 20
674.4609127854
 30
0.0
 11
852.6167537146
 21
673.5705035366
 31
0.0
  0
LINE
  5
117
330
1F
100
AcDbEntity
  8
0
  6
SLD-実線
 62
     7
100
AcDbLine
 10
852.5717338239
 20
676.5535712155
 30
0.0
 11
851.7166835792
 21
677.4439804643
 31
0.0
  0
LINE
  5
118
330
1F
100
AcDbEntity
  8
0
  6
SLD-実線
 62
     7
100
AcDbLine
 10
851.7166835792
 20
677.4439804643
 30
0.0
 11
851.9278652468
 21
677.5882521481
 31
0.0
  0
LINE
  5
119
330
1F
100
AcDbEntity
  8
0
  6
SLD-実線
 62
     7
100
AcDbLine
 10
851.7166835792
 20
677.4439804643
 30
0.0
 11
851.2442979489
 21
678.4644694348
 31
0.0
  0
LINE
  5
11A
330
1F
100
AcDbEntity
  8
0
  6
SLD-実線
 62
     7
100
AcDbLine
 10
851.2442979489
 20
678.4644694348
 30
0.0
 11
851.3834330632
 21
678.7643824172
 31
0.0
  0
LINE
  5
11B
330
1F
100
AcDbEntity
  8
0
  6
SLD-実線
 62
     7
100
AcDbLine
 10
850.5299947097
 20
674.3782503295
 30
0.0
 11
850.5890031886
 21
674.1293929107
 31
0.0
  0
LINE
  5
11C
330
1F
100
AcDbEntity
  8
0
  6
SLD-実線
 62
     7
100
AcDbLine
 10
850.5299947097
 20
674.3782503295
 30
0.0
 11
851.7617034699
 21
674.4609127854
 31
0.0
  0
LINE
  5
11D
330
1F
100
AcDbEntity
  8
0
  6
SLD-実線
 62
     7
100
AcDbLine
 10
851.0377269759
 20
677.1439659376
 30
0.0
 11
850.7888695572
 21
677.0849574587
 31
0.0
  0
LINE
  5
11E
330
1F
100
AcDbEntity
  8
0
  6
SLD-実線
 62
     7
100
AcDbLine
 10
851.0377269759
 20
677.1439659376
 30
0.0
 11
851.1203894318
 21
675.9122571775
 31
0.0
  0
LINE
  5
11F
330
1F
100
AcDbEntity
  8
0
  6
SLD-実線
 62
     7
100
AcDbLine
 10
851.1203894318
 20
675.9122571775
 30
0.0
 11
850.8608290133
 21
676.0127283364
 31
0.0
  0
LINE
  5
120
330
1F
100
AcDbEntity
  8
0
  6
SLD-実線
 62
     7
100
AcDbLine
 10
851.1203894318
 20
675.9122571775
 30
0.0
 11
850.229980183
 21
675.0572069328
 31
0.0
  0
LINE
  5
121
330
1F
100
AcDbEntity
  8
0
  6
SLD-実線
 62
     7
100
AcDbLine
 10
850.229980183
 20
675.0572069328
 30
0.0
 11
850.0857084993
 21
675.2683886003
 31
0.0
  0
ARC
  5
122
330
1F
100
AcDbEntity
  8
0
  6
SLD-実線
 62
     7
100
AcDbCircle
 10
852.1667186469
 20
675.5072420004
 30
0.0
 40
3.097749835362412
100
AcDbArc
 50
107.3237855353
 51
120.3551698954
  0
LINE
  5
123
330
1F
100
AcDbEntity
  8
0
  6
SLD-実線
 62
     7
100
AcDbLine
 10
850.6012436617
 20
678.1803192745
 30
0.0
 11
850.2858153815
 21
678.2793716702
 31
0.0
  0
LINE
  5
124
330
1F
100
AcDbEntity
  8
0
  6
SLD-実線
 62
     7
100
AcDbLine
 10
850.6012436617
 20
678.1803192745
 30
0.0
 11
851.0377269759
 21
677.1439659376
 31
0.0
  0
LINE
  5
125
330
1F
100
AcDbEntity
  8
0
  6
SLD-実線
 62
     7
100
AcDbLine
 10
849.4936413728
 20
673.9417670152
 30
0.0
 11
849.3945889771
 21
673.626338735
 31
0.0
  0
LINE
  5
126
330
1F
100
AcDbEntity
  8
0
  6
SLD-実線
 62
     7
100
AcDbLine
 10
849.4936413728
 20
673.9417670152
 30
0.0
 11
850.5299947097
 21
674.3782503295
 31
0.0
  0
LINE
  5
127
330
1F
100
AcDbEntity
  8
0
  6
SLD-実線
 62
     7
100
AcDbLine
 10
850.229980183
 20
675.0572069328
 30
0.0
 11
849.2094912125
 21
674.5848213025
 31
0.0
  0
LINE
  5
128
330
1F
100
AcDbEntity
  8
0
  6
SLD-実線
 62
     7
100
AcDbLine
 10
849.2094912125
 20
674.5848213025
 30
0.0
 11
848.9095782301
 21
674.7239564168
 31
0.0
  0
ARC
  5
129
330
1F
100
AcDbEntity
  8
0
  6
SLD-実線
 62
     7
100
AcDbCircle
 10
852.1667186469
 20
675.5072420004
 30
0.0
 40
3.097749835362346
100
AcDbArc
 50
197.3237855353
 51
210.3551698954
  0
LINE
  5
12A
330
1F
100
AcDbEntity
  8
0
  6
SLD-実線
 62
     7
100
AcDbLine
 10
853.7444341052
 20
232.8850910902
 30
0.0
 11
852.6722049828
 21
232.813131634
 31
0.0
  0
LINE
  5
12B
330
1F
100
AcDbEntity
  8
0
  6
SLD-実線
 62
     7
100
AcDbLine
 10
852.6722049828
 20
232.813131634
 30
0.0
 11
851.9278652468
 21
233.5882521481
 31
0.0
  0
LINE
  5
12C
330
1F
100
AcDbEntity
  8
0
  6
SLD-実線
 62
     7
100
AcDbLine
 10
851.9278652468
 20
233.5882521481
 30
0.0
 11
851.3834330632
 21
234.7643824172
 31
0.0
  0
ARC
  5
12D
330
1F
100
AcDbEntity
  8
0
  6
SLD-実線
 62
     7
100
AcDbCircle
 10
852.1667186469
 20
231.5072420004
 30
0.0
 40
3.35000000000001
100
AcDbArc
 50
103.5218752025
 51
124.1570802282
  0
LINE
  5
12E
330
1F
100
AcDbEntity
  8
0
  6
SLD-実線
 62
     7
100
AcDbLine
 10
850.2858153815
 20
234.2793716702
 30
0.0
 11
850.7888695572
 21
233.0849574587
 31
0.0
  0
LINE
  5
12F
330
1F
100
AcDbEntity
  8
0
  6
SLD-実線
 62
     7
100
AcDbLine
 10
850.7888695572
 20
233.0849574587
 30
0.0
 11
850.8608290133
 21
232.0127283364
 31
0.0
  0
LINE
  5
130
330
1F
100
AcDbEntity
  8
0
  6
SLD-実線
 62
     7
100
AcDbLine
 10
850.8608290133
 20
232.0127283364
 30
0.0
 11
850.0857084993
 21
231.2683886003
 31
0.0
  0
LINE
  5
131
330
1F
100
AcDbEntity
  8
0
  6
SLD-実線
 62
     7
100
AcDbLine
 10
850.0857084993
 20
231.2683886003
 30
0.0
 11
848.9095782301
 21
230.7239564168
 31
0.0
  0
ARC
  5
132
330
1F
100
AcDbEntity
  8
0
  6
SLD-実線
 62
     7
100
AcDbCircle
 10
852.1667186469
 20
231.5072420004
 30
0.0
 40
3.349999999999934
100
AcDbArc
 50
193.5218752025
 51
214.1570802282
  0
LINE
  5
133
330
1F
100
AcDbEntity
  8
0
  6
SLD-実線
 62
     7
100
AcDbLine
 10
849.3945889771
 20
229.626338735
 30
0.0
 11
850.5890031886
 21
230.1293929107
 31
0.0
  0
LINE
  5
134
330
1F
100
AcDbEntity
  8
0
  6
SLD-実線
 62
     7
100
AcDbLine
 10
850.5890031886
 20
230.1293929107
 30
0.0
 11
851.6612323109
 21
230.2013523669
 31
0.0
  0
LINE
  5
135
330
1F
100
AcDbEntity
  8
0
  6
SLD-実線
 62
     7
100
AcDbLine
 10
851.6612323109
 20
230.2013523669
 30
0.0
 11
852.405572047
 21
229.4262318528
 31
0.0
  0
LINE
  5
136
330
1F
100
AcDbEntity
  8
0
  6
SLD-実線
 62
     7
100
AcDbLine
 10
852.405572047
 20
229.4262318528
 30
0.0
 11
852.9500042305
 21
228.2501015837
 31
0.0
  0
ARC
  5
137
330
1F
100
AcDbEntity
  8
0
  6
SLD-実線
 62
     7
100
AcDbCircle
 10
852.1667186469
 20
231.5072420004
 30
0.0
 40
3.350000000000019
100
AcDbArc
 50
283.5218752025
 51
304.1570802282
  0
LINE
  5
138
330
1F
100
AcDbEntity
  8
0
  6
SLD-実線
 62
     7
100
AcDbLine
 10
854.0476219123
 20
228.7351123307
 30
0.0
 11
853.5445677366
 21
229.9295265422
 31
0.0
  0
LINE
  5
139
330
1F
100
AcDbEntity
  8
0
  6
SLD-実線
 62
     7
100
AcDbLine
 10
853.5445677366
 20
229.9295265422
 30
0.0
 11
853.4726082805
 21
231.0017556645
 31
0.0
  0
LINE
  5
13A
330
1F
100
AcDbEntity
  8
0
  6
SLD-実線
 62
     7
100
AcDbLine
 10
853.4726082805
 20
231.0017556645
 30
0.0
 11
854.2477287945
 21
231.7460954006
 31
0.0
  0
LINE
  5
13B
330
1F
100
AcDbEntity
  8
0
  6
SLD-実線
 62
     7
100
AcDbLine
 10
854.2477287945
 20
231.7460954006
 30
0.0
 11
855.4238590636
 21
232.2905275841
 31
0.0
  0
ARC
  5
13C
330
1F
100
AcDbEntity
  8
0
  6
SLD-実線
 62
     7
100
AcDbCircle
 10
852.1667186469
 20
231.5072420004
 30
0.0
 40
3.350000000000081
100
AcDbArc
 50
13.5218752025
 51
34.1570802282
  0
LINE
  5
13D
330
1F
100
AcDbEntity
  8
0
  6
SLD-実線
 62
     7
100
AcDbLine
 10
854.9388483167
 20
233.3881452659
 30
0.0
 11
853.7444341052
 21
232.8850910902
 31
0.0
  0
CIRCLE
  5
13E
330
1F
100
AcDbEntity
  8
0
  6
SLD-実線
 62
     7
100
AcDbCircle
 10
852.1667186469
 20
231.5072420004
 30
0.0
 40
6.000000000000052
  0
LINE
  5
13F
330
1F
100
AcDbEntity
  8
0
  6
SLD-実線
 62
     7
100
AcDbLine
 10
854.1034571108
 20
231.9572770681
 30
0.0
 11
854.2477287945
 21
231.7460954006
 31
0.0
  0
LINE
  5
140
330
1F
100
AcDbEntity
  8
0
  6
SLD-実線
 62
     7
100
AcDbLine
 10
854.1034571108
 20
231.9572770681
 30
0.0
 11
855.1239460812
 21
232.4296626984
 31
0.0
  0
LINE
  5
141
330
1F
100
AcDbEntity
  8
0
  6
SLD-実線
 62
     7
100
AcDbLine
 10
855.1239460812
 20
232.4296626984
 30
0.0
 11
855.4238590636
 21
232.2905275841
 31
0.0
  0
ARC
  5
142
330
1F
100
AcDbEntity
  8
0
  6
SLD-実線
 62
     7
100
AcDbCircle
 10
852.1667186469
 20
231.5072420004
 30
0.0
 40
3.097749835362454
100
AcDbArc
 50
17.3237855353
 51
30.3551698954
  0
LINE
  5
143
330
1F
100
AcDbEntity
  8
0
  6
SLD-実線
 62
     7
100
AcDbLine
 10
854.839795921
 20
233.0727169857
 30
0.0
 11
854.9388483167
 21
233.3881452659
 31
0.0
  0
LINE
  5
144
330
1F
100
AcDbEntity
  8
0
  6
SLD-実線
 62
     7
100
AcDbLine
 10
854.839795921
 20
233.0727169857
 30
0.0
 11
853.803442584
 21
232.6362336714
 31
0.0
  0
LINE
  5
145
330
1F
100
AcDbEntity
  8
0
  6
SLD-実線
 62
     7
100
AcDbLine
 10
853.803442584
 20
232.6362336714
 30
0.0
 11
853.7444341052
 21
232.8850910902
 31
0.0
  0
LINE
  5
146
330
1F
100
AcDbEntity
  8
0
  6
SLD-実線
 62
     7
100
AcDbLine
 10
853.213047862
 20
231.1022268234
 30
0.0
 11
853.4726082805
 21
231.0017556645
 31
0.0
  0
LINE
  5
147
330
1F
100
AcDbEntity
  8
0
  6
SLD-実線
 62
     7
100
AcDbLine
 10
853.213047862
 20
231.1022268234
 30
0.0
 11
854.1034571108
 21
231.9572770681
 31
0.0
  0
LINE
  5
148
330
1F
100
AcDbEntity
  8
0
  6
SLD-実線
 62
     7
100
AcDbLine
 10
853.7321936321
 20
228.8341647264
 30
0.0
 11
854.0476219123
 21
228.7351123307
 31
0.0
  0
LINE
  5
149
330
1F
100
AcDbEntity
  8
0
  6
SLD-実線
 62
     7
100
AcDbLine
 10
853.7321936321
 20
228.8341647264
 30
0.0
 11
853.2957103179
 21
229.8705180633
 31
0.0
  0
LINE
  5
14A
330
1F
100
AcDbEntity
  8
0
  6
SLD-実線
 62
     7
100
AcDbLine
 10
853.2957103179
 20
229.8705180633
 30
0.0
 11
853.5445677366
 21
229.9295265422
 31
0.0
  0
LINE
  5
14B
330
1F
100
AcDbEntity
  8
0
  6
SLD-実線
 62
     7
100
AcDbLine
 10
853.2957103179
 20
229.8705180633
 30
0.0
 11
853.213047862
 21
231.1022268234
 31
0.0
  0
LINE
  5
14C
330
1F
100
AcDbEntity
  8
0
  6
SLD-実線
 62
     7
100
AcDbLine
 10
853.0891393448
 20
228.5500145661
 30
0.0
 11
852.9500042305
 21
228.2501015837
 31
0.0
  0
ARC
  5
14D
330
1F
100
AcDbEntity
  8
0
  6
SLD-実線
 62
     7
100
AcDbCircle
 10
852.1667186469
 20
231.5072420004
 30
0.0
 40
3.097749835362398
100
AcDbArc
 50
287.3237855353
 51
300.3551698954
  0
LINE
  5
14E
330
1F
100
AcDbEntity
  8
0
  6
SLD-実線
 62
     7
100
AcDbLine
 10
853.803442584
 20
232.6362336714
 30
0.0
 11
852.5717338239
 21
232.5535712155
 31
0.0
  0
LINE
  5
14F
330
1F
100
AcDbEntity
  8
0
  6
SLD-実線
 62
     7
100
AcDbLine
 10
852.5717338239
 20
232.5535712155
 30
0.0
 11
852.6722049828
 21
232.813131634
 31
0.0
  0
LINE
  5
150
330
1F
100
AcDbEntity
  8
0
  6
SLD-実線
 62
     7
100
AcDbLine
 10
852.6167537146
 20
229.5705035366
 30
0.0
 11
852.405572047
 21
229.4262318528
 31
0.0
  0
LINE
  5
151
330
1F
100
AcDbEntity
  8
0
  6
SLD-実線
 62
     7
100
AcDbLine
 10
852.6167537146
 20
229.5705035366
 30
0.0
 11
853.0891393448
 21
228.5500145661
 31
0.0
  0
LINE
  5
152
330
1F
100
AcDbEntity
  8
0
  6
SLD-実線
 62
     7
100
AcDbLine
 10
851.7617034699
 20
230.4609127854
 30
0.0
 11
851.6612323109
 21
230.2013523669
 31
0.0
  0
LINE
  5
153
330
1F
100
AcDbEntity
  8
0
  6
SLD-実線
 62
     7
100
AcDbLine
 10
851.7617034699
 20
230.4609127854
 30
0.0
 11
852.6167537146
 21
229.5705035366
 31
0.0
  0
LINE
  5
154
330
1F
100
AcDbEntity
  8
0
  6
SLD-実線
 62
     7
100
AcDbLine
 10
852.5717338239
 20
232.5535712155
 30
0.0
 11
851.7166835792
 21
233.4439804643
 31
0.0
  0
LINE
  5
155
330
1F
100
AcDbEntity
  8
0
  6
SLD-実線
 62
     7
100
AcDbLine
 10
851.7166835792
 20
233.4439804643
 30
0.0
 11
851.9278652468
 21
233.5882521481
 31
0.0
  0
LINE
  5
156
330
1F
100
AcDbEntity
  8
0
  6
SLD-実線
 62
     7
100
AcDbLine
 10
851.7166835792
 20
233.4439804643
 30
0.0
 11
851.2442979489
 21
234.4644694348
 31
0.0
  0
LINE
  5
157
330
1F
100
AcDbEntity
  8
0
  6
SLD-実線
 62
     7
100
AcDbLine
 10
851.2442979489
 20
234.4644694348
 30
0.0
 11
851.3834330632
 21
234.7643824172
 31
0.0
  0
LINE
  5
158
330
1F
100
AcDbEntity
  8
0
  6
SLD-実線
 62
     7
100
AcDbLine
 10
850.5299947097
 20
230.3782503295
 30
0.0
 11
850.5890031886
 21
230.1293929107
 31
0.0
  0
LINE
  5
159
330
1F
100
AcDbEntity
  8
0
  6
SLD-実線
 62
     7
100
AcDbLine
 10
850.5299947097
 20
230.3782503295
 30
0.0
 11
851.7617034699
 21
230.4609127854
 31
0.0
  0
LINE
  5
15A
330
1F
100
AcDbEntity
  8
0
  6
SLD-実線
 62
     7
100
AcDbLine
 10
851.0377269759
 20
233.1439659376
 30
0.0
 11
850.7888695572
 21
233.0849574587
 31
0.0
  0
LINE
  5
15B
330
1F
100
AcDbEntity
  8
0
  6
SLD-実線
 62
     7
100
AcDbLine
 10
851.0377269759
 20
233.1439659376
 30
0.0
 11
851.1203894318
 21
231.9122571775
 31
0.0
  0
LINE
  5
15C
330
1F
100
AcDbEntity
  8
0
  6
SLD-実線
 62
     7
100
AcDbLine
 10
851.1203894318
 20
231.9122571775
 30
0.0
 11
850.8608290133
 21
232.0127283364
 31
0.0
  0
LINE
  5
15D
330
1F
100
AcDbEntity
  8
0
  6
SLD-実線
 62
     7
100
AcDbLine
 10
851.1203894318
 20
231.9122571775
 30
0.0
 11
850.229980183
 21
231.0572069328
 31
0.0
  0
LINE
  5
15E
330
1F
100
AcDbEntity
  8
0
  6
SLD-実線
 62
     7
100
AcDbLine
 10
850.229980183
 20
231.0572069328
 30
0.0
 11
850.0857084993
 21
231.2683886003
 31
0.0
  0
ARC
  5
15F
330
1F
100
AcDbEntity
  8
0
  6
SLD-実線
 62
     7
100
AcDbCircle
 10
852.1667186469
 20
231.5072420004
 30
0.0
 40
3.097749835362371
100
AcDbArc
 50
107.3237855353
 51
120.3551698954
  0
LINE
  5
160
330
1F
100
AcDbEntity
  8
0
  6
SLD-実線
 62
     7
100
AcDbLine
 10
850.6012436617
 20
234.1803192745
 30
0.0
 11
850.2858153815
 21
234.2793716702
 31
0.0
  0
LINE
  5
161
330
1F
100
AcDbEntity
  8
0
  6
SLD-実線
 62
     7
100
AcDbLine
 10
850.6012436617
 20
234.1803192745
 30
0.0
 11
851.0377269759
 21
233.1439659376
 31
0.0
  0
LINE
  5
162
330
1F
100
AcDbEntity
  8
0
  6
SLD-実線
 62
     7
100
AcDbLine
 10
849.4936413728
 20
229.9417670152
 30
0.0
 11
849.3945889771
 21
229.626338735
 31
0.0
  0
LINE
  5
163
330
1F
100
AcDbEntity
  8
0
  6
SLD-実線
 62
     7
100
AcDbLine
 10
849.4936413728
 20
229.9417670152
 30
0.0
 11
850.5299947097
 21
230.3782503295
 31
0.0
  0
LINE
  5
164
330
1F
100
AcDbEntity
  8
0
  6
SLD-実線
 62
     7
100
AcDbLine
 10
850.229980183
 20
231.0572069328
 30
0.0
 11
849.2094912125
 21
230.5848213025
 31
0.0
  0
LINE
  5
165
330
1F
100
AcDbEntity
  8
0
  6
SLD-実線
 62
     7
100
AcDbLine
 10
849.2094912125
 20
230.5848213025
 30
0.0
 11
848.9095782301
 21
230.7239564168
 31
0.0
  0
ARC
  5
166
330
1F
100
AcDbEntity
  8
0
  6
SLD-実線
 62
     7
100
AcDbCircle
 10
852.1667186469
 20
231.5072420004
 30
0.0
 40
3.09774983536236
100
AcDbArc
 50
197.3237855353
 51
210.3551698955
  0
CIRCLE
  5
167
330
1F
100
AcDbEntity
  8
0
  6
SLD-実線
 62
     7
100
AcDbCircle
 10
192.1667186469
 20
675.5072420004
 30
0.0
 40
5.999999999999932
  0
LINE
  5
168
330
1F
100
AcDbEntity
  8
0
  6
SLD-実線
 62
     7
100
AcDbLine
 10
193.7444341052
 20
676.8850910902
 30
0.0
 11
192.6722049828
 21
676.813131634
 31
0.0
  0
LINE
  5
169
330
1F
100
AcDbEntity
  8
0
  6
SLD-実線
 62
     7
100
AcDbLine
 10
192.6722049828
 20
676.813131634
 30
0.0
 11
191.9278652468
 21
677.5882521481
 31
0.0
  0
LINE
  5
16A
330
1F
100
AcDbEntity
  8
0
  6
SLD-実線
 62
     7
100
AcDbLine
 10
191.9278652468
 20
677.5882521481
 30
0.0
 11
191.3834330632
 21
678.7643824172
 31
0.0
  0
ARC
  5
16B
330
1F
100
AcDbEntity
  8
0
  6
SLD-実線
 62
     7
100
AcDbCircle
 10
192.1667186469
 20
675.5072420004
 30
0.0
 40
3.349999999999987
100
AcDbArc
 50
103.5218752025
 51
124.1570802282
  0
LINE
  5
16C
330
1F
100
AcDbEntity
  8
0
  6
SLD-実線
 62
     7
100
AcDbLine
 10
190.2858153815
 20
678.2793716702
 30
0.0
 11
190.7888695572
 21
677.0849574587
 31
0.0
  0
LINE
  5
16D
330
1F
100
AcDbEntity
  8
0
  6
SLD-実線
 62
     7
100
AcDbLine
 10
190.7888695572
 20
677.0849574587
 30
0.0
 11
190.8608290133
 21
676.0127283364
 31
0.0
  0
LINE
  5
16E
330
1F
100
AcDbEntity
  8
0
  6
SLD-実線
 62
     7
100
AcDbLine
 10
190.8608290133
 20
676.0127283364
 30
0.0
 11
190.0857084993
 21
675.2683886003
 31
0.0
  0
LINE
  5
16F
330
1F
100
AcDbEntity
  8
0
  6
SLD-実線
 62
     7
100
AcDbLine
 10
190.0857084993
 20
675.2683886003
 30
0.0
 11
188.9095782301
 21
674.7239564168
 31
0.0
  0
ARC
  5
170
330
1F
100
AcDbEntity
  8
0
  6
SLD-実線
 62
     7
100
AcDbCircle
 10
192.1667186469
 20
675.5072420004
 30
0.0
 40
3.349999999999982
100
AcDbArc
 50
193.5218752025
 51
214.1570802282
  0
LINE
  5
171
330
1F
100
AcDbEntity
  8
0
  6
SLD-実線
 62
     7
100
AcDbLine
 10
189.3945889771
 20
673.626338735
 30
0.0
 11
190.5890031886
 21
674.1293929107
 31
0.0
  0
LINE
  5
172
330
1F
100
AcDbEntity
  8
0
  6
SLD-実線
 62
     7
100
AcDbLine
 10
190.5890031886
 20
674.1293929107
 30
0.0
 11
191.6612323109
 21
674.2013523669
 31
0.0
  0
LINE
  5
173
330
1F
100
AcDbEntity
  8
0
  6
SLD-実線
 62
     7
100
AcDbLine
 10
191.6612323109
 20
674.2013523669
 30
0.0
 11
192.405572047
 21
673.4262318528
 31
0.0
  0
LINE
  5
174
330
1F
100
AcDbEntity
  8
0
  6
SLD-実線
 62
     7
100
AcDbLine
 10
192.405572047
 20
673.4262318528
 30
0.0
 11
192.9500042305
 21
672.2501015837
 31
0.0
  0
ARC
  5
175
330
1F
100
AcDbEntity
  8
0
  6
SLD-実線
 62
     7
100
AcDbCircle
 10
192.1667186469
 20
675.5072420004
 30
0.0
 40
3.349999999999987
100
AcDbArc
 50
283.5218752025
 51
304.1570802282
  0
LINE
  5
176
330
1F
100
AcDbEntity
  8
0
  6
SLD-実線
 62
     7
100
AcDbLine
 10
194.0476219123
 20
672.7351123307
 30
0.0
 11
193.5445677366
 21
673.9295265422
 31
0.0
  0
LINE
  5
177
330
1F
100
AcDbEntity
  8
0
  6
SLD-実線
 62
     7
100
AcDbLine
 10
193.5445677366
 20
673.9295265422
 30
0.0
 11
193.4726082805
 21
675.0017556645
 31
0.0
  0
LINE
  5
178
330
1F
100
AcDbEntity
  8
0
  6
SLD-実線
 62
     7
100
AcDbLine
 10
193.4726082805
 20
675.0017556645
 30
0.0
 11
194.2477287945
 21
675.7460954006
 31
0.0
  0
LINE
  5
179
330
1F
100
AcDbEntity
  8
0
  6
SLD-実線
 62
     7
100
AcDbLine
 10
194.2477287945
 20
675.7460954006
 30
0.0
 11
195.4238590636
 21
676.2905275841
 31
0.0
  0
ARC
  5
17A
330
1F
100
AcDbEntity
  8
0
  6
SLD-実線
 62
     7
100
AcDbCircle
 10
192.1667186469
 20
675.5072420004
 30
0.0
 40
3.35000000000001
100
AcDbArc
 50
13.5218752025
 51
34.1570802282
  0
LINE
  5
17B
330
1F
100
AcDbEntity
  8
0
  6
SLD-実線
 62
     7
100
AcDbLine
 10
194.9388483167
 20
677.3881452659
 30
0.0
 11
193.7444341052
 21
676.8850910902
 31
0.0
  0
LINE
  5
17C
330
1F
100
AcDbEntity
  8
0
  6
SLD-実線
 62
     7
100
AcDbLine
 10
194.1034571108
 20
675.9572770681
 30
0.0
 11
194.2477287945
 21
675.7460954006
 31
0.0
  0
LINE
  5
17D
330
1F
100
AcDbEntity
  8
0
  6
SLD-実線
 62
     7
100
AcDbLine
 10
194.1034571108
 20
675.9572770681
 30
0.0
 11
195.1239460812
 21
676.4296626984
 31
0.0
  0
LINE
  5
17E
330
1F
100
AcDbEntity
  8
0
  6
SLD-実線
 62
     7
100
AcDbLine
 10
195.1239460812
 20
676.4296626984
 30
0.0
 11
195.4238590636
 21
676.2905275841
 31
0.0
  0
ARC
  5
17F
330
1F
100
AcDbEntity
  8
0
  6
SLD-実線
 62
     7
100
AcDbCircle
 10
192.1667186469
 20
675.5072420004
 30
0.0
 40
3.097749835362391
100
AcDbArc
 50
17.3237855353
 51
30.3551698954
  0
LINE
  5
180
330
1F
100
AcDbEntity
  8
0
  6
SLD-実線
 62
     7
100
AcDbLine
 10
194.839795921
 20
677.0727169857
 30
0.0
 11
194.9388483167
 21
677.3881452659
 31
0.0
  0
LINE
  5
181
330
1F
100
AcDbEntity
  8
0
  6
SLD-実線
 62
     7
100
AcDbLine
 10
194.839795921
 20
677.0727169857
 30
0.0
 11
193.803442584
 21
676.6362336714
 31
0.0
  0
LINE
  5
182
330
1F
100
AcDbEntity
  8
0
  6
SLD-実線
 62
     7
100
AcDbLine
 10
193.803442584
 20
676.6362336714
 30
0.0
 11
193.7444341052
 21
676.8850910902
 31
0.0
  0
LINE
  5
183
330
1F
100
AcDbEntity
  8
0
  6
SLD-実線
 62
     7
100
AcDbLine
 10
193.213047862
 20
675.1022268234
 30
0.0
 11
193.4726082805
 21
675.0017556645
 31
0.0
  0
LINE
  5
184
330
1F
100
AcDbEntity
  8
0
  6
SLD-実線
 62
     7
100
AcDbLine
 10
193.213047862
 20
675.1022268234
 30
0.0
 11
194.1034571108
 21
675.9572770681
 31
0.0
  0
LINE
  5
185
330
1F
100
AcDbEntity
  8
0
  6
SLD-実線
 62
     7
100
AcDbLine
 10
193.7321936321
 20
672.8341647264
 30
0.0
 11
194.0476219123
 21
672.7351123307
 31
0.0
  0
LINE
  5
186
330
1F
100
AcDbEntity
  8
0
  6
SLD-実線
 62
     7
100
AcDbLine
 10
193.7321936321
 20
672.8341647264
 30
0.0
 11
193.2957103179
 21
673.8705180633
 31
0.0
  0
LINE
  5
187
330
1F
100
AcDbEntity
  8
0
  6
SLD-実線
 62
     7
100
AcDbLine
 10
193.2957103179
 20
673.8705180633
 30
0.0
 11
193.5445677366
 21
673.9295265422
 31
0.0
  0
LINE
  5
188
330
1F
100
AcDbEntity
  8
0
  6
SLD-実線
 62
     7
100
AcDbLine
 10
193.0891393448
 20
672.5500145661
 30
0.0
 11
192.9500042305
 21
672.2501015837
 31
0.0
  0
ARC
  5
189
330
1F
100
AcDbEntity
  8
0
  6
SLD-実線
 62
     7
100
AcDbCircle
 10
192.1667186469
 20
675.5072420004
 30
0.0
 40
3.097749835362454
100
AcDbArc
 50
287.3237855353
 51
300.3551698955
  0
LINE
  5
18A
330
1F
100
AcDbEntity
  8
0
  6
SLD-実線
 62
     7
100
AcDbLine
 10
193.2957103179
 20
673.8705180633
 30
0.0
 11
193.213047862
 21
675.1022268234
 31
0.0
  0
LINE
  5
18B
330
1F
100
AcDbEntity
  8
0
  6
SLD-実線
 62
     7
100
AcDbLine
 10
193.803442584
 20
676.6362336714
 30
0.0
 11
192.5717338239
 21
676.5535712155
 31
0.0
  0
LINE
  5
18C
330
1F
100
AcDbEntity
  8
0
  6
SLD-実線
 62
     7
100
AcDbLine
 10
192.5717338239
 20
676.5535712155
 30
0.0
 11
192.6722049828
 21
676.813131634
 31
0.0
  0
LINE
  5
18D
330
1F
100
AcDbEntity
  8
0
  6
SLD-実線
 62
     7
100
AcDbLine
 10
192.6167537146
 20
673.5705035366
 30
0.0
 11
192.405572047
 21
673.4262318528
 31
0.0
  0
LINE
  5
18E
330
1F
100
AcDbEntity
  8
0
  6
SLD-実線
 62
     7
100
AcDbLine
 10
192.6167537146
 20
673.5705035366
 30
0.0
 11
193.0891393448
 21
672.5500145661
 31
0.0
  0
LINE
  5
18F
330
1F
100
AcDbEntity
  8
0
  6
SLD-実線
 62
     7
100
AcDbLine
 10
191.7617034699
 20
674.4609127854
 30
0.0
 11
191.6612323109
 21
674.2013523669
 31
0.0
  0
LINE
  5
190
330
1F
100
AcDbEntity
  8
0
  6
SLD-実線
 62
     7
100
AcDbLine
 10
191.7617034699
 20
674.4609127854
 30
0.0
 11
192.6167537146
 21
673.5705035366
 31
0.0
  0
LINE
  5
191
330
1F
100
AcDbEntity
  8
0
  6
SLD-実線
 62
     7
100
AcDbLine
 10
192.5717338239
 20
676.5535712155
 30
0.0
 11
191.7166835792
 21
677.4439804643
 31
0.0
  0
LINE
  5
192
330
1F
100
AcDbEntity
  8
0
  6
SLD-実線
 62
     7
100
AcDbLine
 10
191.7166835792
 20
677.4439804643
 30
0.0
 11
191.9278652468
 21
677.5882521481
 31
0.0
  0
LINE
  5
193
330
1F
100
AcDbEntity
  8
0
  6
SLD-実線
 62
     7
100
AcDbLine
 10
190.5299947097
 20
674.3782503295
 30
0.0
 11
190.5890031886
 21
674.1293929107
 31
0.0
  0
LINE
  5
194
330
1F
100
AcDbEntity
  8
0
  6
SLD-実線
 62
     7
100
AcDbLine
 10
190.5299947097
 20
674.3782503295
 30
0.0
 11
191.7617034699
 21
674.4609127854
 31
0.0
  0
LINE
  5
195
330
1F
100
AcDbEntity
  8
0
  6
SLD-実線
 62
     7
100
AcDbLine
 10
191.7166835792
 20
677.4439804643
 30
0.0
 11
191.2442979489
 21
678.4644694348
 31
0.0
  0
LINE
  5
196
330
1F
100
AcDbEntity
  8
0
  6
SLD-実線
 62
     7
100
AcDbLine
 10
191.2442979489
 20
678.4644694348
 30
0.0
 11
191.3834330632
 21
678.7643824172
 31
0.0
  0
LINE
  5
197
330
1F
100
AcDbEntity
  8
0
  6
SLD-実線
 62
     7
100
AcDbLine
 10
191.0377269759
 20
677.1439659376
 30
0.0
 11
190.7888695572
 21
677.0849574587
 31
0.0
  0
LINE
  5
198
330
1F
100
AcDbEntity
  8
0
  6
SLD-実線
 62
     7
100
AcDbLine
 10
191.0377269759
 20
677.1439659376
 30
0.0
 11
191.1203894318
 21
675.9122571775
 31
0.0
  0
LINE
  5
199
330
1F
100
AcDbEntity
  8
0
  6
SLD-実線
 62
     7
100
AcDbLine
 10
191.1203894318
 20
675.9122571775
 30
0.0
 11
190.8608290133
 21
676.0127283364
 31
0.0
  0
ARC
  5
19A
330
1F
100
AcDbEntity
  8
0
  6
SLD-実線
 62
     7
100
AcDbCircle
 10
192.1667186469
 20
675.5072420004
 30
0.0
 40
3.097749835362446
100
AcDbArc
 50
107.3237855353
 51
120.3551698954
  0
LINE
  5
19B
330
1F
100
AcDbEntity
  8
0
  6
SLD-実線
 62
     7
100
AcDbLine
 10
190.6012436617
 20
678.1803192745
 30
0.0
 11
190.2858153815
 21
678.2793716702
 31
0.0
  0
LINE
  5
19C
330
1F
100
AcDbEntity
  8
0
  6
SLD-実線
 62
     7
100
AcDbLine
 10
191.1203894318
 20
675.9122571775
 30
0.0
 11
190.229980183
 21
675.0572069328
 31
0.0
  0
LINE
  5
19D
330
1F
100
AcDbEntity
  8
0
  6
SLD-実線
 62
     7
100
AcDbLine
 10
190.229980183
 20
675.0572069328
 30
0.0
 11
190.0857084993
 21
675.2683886003
 31
0.0
  0
LINE
  5
19E
330
1F
100
AcDbEntity
  8
0
  6
SLD-実線
 62
     7
100
AcDbLine
 10
190.6012436617
 20
678.1803192745
 30
0.0
 11
191.0377269759
 21
677.1439659376
 31
0.0
  0
LINE
  5
19F
330
1F
100
AcDbEntity
  8
0
  6
SLD-実線
 62
     7
100
AcDbLine
 10
189.4936413728
 20
673.9417670152
 30
0.0
 11
189.3945889771
 21
673.626338735
 31
0.0
  0
LINE
  5
1A0
330
1F
100
AcDbEntity
  8
0
  6
SLD-実線
 62
     7
100
AcDbLine
 10
189.4936413728
 20
673.9417670152
 30
0.0
 11
190.5299947097
 21
674.3782503295
 31
0.0
  0
LINE
  5
1A1
330
1F
100
AcDbEntity
  8
0
  6
SLD-実線
 62
     7
100
AcDbLine
 10
190.229980183
 20
675.0572069328
 30
0.0
 11
189.2094912125
 21
674.5848213025
 31
0.0
  0
LINE
  5
1A2
330
1F
100
AcDbEntity
  8
0
  6
SLD-実線
 62
     7
100
AcDbLine
 10
189.2094912125
 20
674.5848213025
 30
0.0
 11
188.9095782301
 21
674.7239564168
 31
0.0
  0
ARC
  5
1A3
330
1F
100
AcDbEntity
  8
0
  6
SLD-実線
 62
     7
100
AcDbCircle
 10
192.1667186469
 20
675.5072420004
 30
0.0
 40
3.097749835362364
100
AcDbArc
 50
197.3237855353
 51
210.3551698954
  0
LINE
  5
1A4
330
1F
100
AcDbEntity
  8
0
  6
SLD-実線
 62
     7
100
AcDbLine
 10
853.7444341052
 20
742.8850910902
 30
0.0
 11
852.6722049828
 21
742.813131634
 31
0.0
  0
LINE
  5
1A5
330
1F
100
AcDbEntity
  8
0
  6
SLD-実線
 62
     7
100
AcDbLine
 10
852.6722049828
 20
742.813131634
 30
0.0
 11
851.9278652468
 21
743.5882521481
 31
0.0
  0
LINE
  5
1A6
330
1F
100
AcDbEntity
  8
0
  6
SLD-実線
 62
     7
100
AcDbLine
 10
851.9278652468
 20
743.5882521481
 30
0.0
 11
851.3834330632
 21
744.7643824172
 31
0.0
  0
ARC
  5
1A7
330
1F
100
AcDbEntity
  8
0
  6
SLD-実線
 62
     7
100
AcDbCircle
 10
852.1667186469
 20
741.5072420004
 30
0.0
 40
3.350000000000049
100
AcDbArc
 50
103.5218752025
 51
124.1570802282
  0
LINE
  5
1A8
330
1F
100
AcDbEntity
  8
0
  6
SLD-実線
 62
     7
100
AcDbLine
 10
850.2858153815
 20
744.2793716702
 30
0.0
 11
850.7888695572
 21
743.0849574587
 31
0.0
  0
LINE
  5
1A9
330
1F
100
AcDbEntity
  8
0
  6
SLD-実線
 62
     7
100
AcDbLine
 10
850.7888695572
 20
743.0849574587
 30
0.0
 11
850.8608290133
 21
742.0127283364
 31
0.0
  0
LINE
  5
1AA
330
1F
100
AcDbEntity
  8
0
  6
SLD-実線
 62
     7
100
AcDbLine
 10
850.8608290133
 20
742.0127283364
 30
0.0
 11
850.0857084993
 21
741.2683886003
 31
0.0
  0
LINE
  5
1AB
330
1F
100
AcDbEntity
  8
0
  6
SLD-実線
 62
     7
100
AcDbLine
 10
850.0857084993
 20
741.2683886003
 30
0.0
 11
848.9095782301
 21
740.7239564168
 31
0.0
  0
ARC
  5
1AC
330
1F
100
AcDbEntity
  8
0
  6
SLD-実線
 62
     7
100
AcDbCircle
 10
852.1667186469
 20
741.5072420004
 30
0.0
 40
3.349999999999927
100
AcDbArc
 50
193.5218752025
 51
214.1570802282
  0
LINE
  5
1AD
330
1F
100
AcDbEntity
  8
0
  6
SLD-実線
 62
     7
100
AcDbLine
 10
849.3945889771
 20
739.626338735
 30
0.0
 11
850.5890031886
 21
740.1293929107
 31
0.0
  0
LINE
  5
1AE
330
1F
100
AcDbEntity
  8
0
  6
SLD-実線
 62
     7
100
AcDbLine
 10
850.5890031886
 20
740.1293929107
 30
0.0
 11
851.6612323109
 21
740.2013523669
 31
0.0
  0
LINE
  5
1AF
330
1F
100
AcDbEntity
  8
0
  6
SLD-実線
 62
     7
100
AcDbLine
 10
851.6612323109
 20
740.2013523669
 30
0.0
 11
852.405572047
 21
739.4262318528
 31
0.0
  0
LINE
  5
1B0
330
1F
100
AcDbEntity
  8
0
  6
SLD-実線
 62
     7
100
AcDbLine
 10
852.405572047
 20
739.4262318528
 30
0.0
 11
852.9500042305
 21
738.2501015837
 31
0.0
  0
ARC
  5
1B1
330
1F
100
AcDbEntity
  8
0
  6
SLD-実線
 62
     7
100
AcDbCircle
 10
852.1667186469
 20
741.5072420004
 30
0.0
 40
3.350000000000064
100
AcDbArc
 50
283.5218752025
 51
304.1570802282
  0
LINE
  5
1B2
330
1F
100
AcDbEntity
  8
0
  6
SLD-実線
 62
     7
100
AcDbLine
 10
854.0476219123
 20
738.7351123307
 30
0.0
 11
853.5445677366
 21
739.9295265422
 31
0.0
  0
LINE
  5
1B3
330
1F
100
AcDbEntity
  8
0
  6
SLD-実線
 62
     7
100
AcDbLine
 10
853.5445677366
 20
739.9295265422
 30
0.0
 11
853.4726082805
 21
741.0017556645
 31
0.0
  0
LINE
  5
1B4
330
1F
100
AcDbEntity
  8
0
  6
SLD-実線
 62
     7
100
AcDbLine
 10
853.4726082805
 20
741.0017556645
 30
0.0
 11
854.2477287945
 21
741.7460954006
 31
0.0
  0
LINE
  5
1B5
330
1F
100
AcDbEntity
  8
0
  6
SLD-実線
 62
     7
100
AcDbLine
 10
854.2477287945
 20
741.7460954006
 30
0.0
 11
855.4238590636
 21
742.2905275841
 31
0.0
  0
ARC
  5
1B6
330
1F
100
AcDbEntity
  8
0
  6
SLD-実線
 62
     7
100
AcDbCircle
 10
852.1667186469
 20
741.5072420004
 30
0.0
 40
3.350000000000113
100
AcDbArc
 50
13.5218752025
 51
34.1570802282
  0
LINE
  5
1B7
330
1F
100
AcDbEntity
  8
0
  6
SLD-実線
 62
     7
100
AcDbLine
 10
854.9388483167
 20
743.3881452659
 30
0.0
 11
853.7444341052
 21
742.8850910902
 31
0.0
  0
CIRCLE
  5
1B8
330
1F
100
AcDbEntity
  8
0
  6
SLD-実線
 62
     7
100
AcDbCircle
 10
852.1667186469
 20
741.5072420004
 30
0.0
 40
6.000000000000105
  0
LINE
  5
1B9
330
1F
100
AcDbEntity
  8
0
  6
SLD-実線
 62
     7
100
AcDbLine
 10
855.1239460812
 20
742.4296626984
 30
0.0
 11
855.4238590636
 21
742.2905275841
 31
0.0
  0
ARC
  5
1BA
330
1F
100
AcDbEntity
  8
0
  6
SLD-実線
 62
     7
100
AcDbCircle
 10
852.1667186469
 20
741.5072420004
 30
0.0
 40
3.097749835362479
100
AcDbArc
 50
17.3237855353
 51
30.3551698954
  0
LINE
  5
1BB
330
1F
100
AcDbEntity
  8
0
  6
SLD-実線
 62
     7
100
AcDbLine
 10
854.839795921
 20
743.0727169857
 30
0.0
 11
854.9388483167
 21
743.3881452659
 31
0.0
  0
LINE
  5
1BC
330
1F
100
AcDbEntity
  8
0
  6
SLD-実線
 62
     7
100
AcDbLine
 10
854.1034571108
 20
741.9572770681
 30
0.0
 11
854.2477287945
 21
741.7460954006
 31
0.0
  0
LINE
  5
1BD
330
1F
100
AcDbEntity
  8
0
  6
SLD-実線
 62
     7
100
AcDbLine
 10
854.1034571108
 20
741.9572770681
 30
0.0
 11
855.1239460812
 21
742.4296626984
 31
0.0
  0
LINE
  5
1BE
330
1F
100
AcDbEntity
  8
0
  6
SLD-実線
 62
     7
100
AcDbLine
 10
854.839795921
 20
743.0727169857
 30
0.0
 11
853.803442584
 21
742.6362336714
 31
0.0
  0
LINE
  5
1BF
330
1F
100
AcDbEntity
  8
0
  6
SLD-実線
 62
     7
100
AcDbLine
 10
853.803442584
 20
742.6362336714
 30
0.0
 11
853.7444341052
 21
742.8850910902
 31
0.0
  0
LINE
  5
1C0
330
1F
100
AcDbEntity
  8
0
  6
SLD-実線
 62
     7
100
AcDbLine
 10
853.213047862
 20
741.1022268234
 30
0.0
 11
853.4726082805
 21
741.0017556645
 31
0.0
  0
LINE
  5
1C1
330
1F
100
AcDbEntity
  8
0
  6
SLD-実線
 62
     7
100
AcDbLine
 10
853.213047862
 20
741.1022268234
 30
0.0
 11
854.1034571108
 21
741.9572770681
 31
0.0
  0
LINE
  5
1C2
330
1F
100
AcDbEntity
  8
0
  6
SLD-実線
 62
     7
100
AcDbLine
 10
853.0891393448
 20
738.5500145661
 30
0.0
 11
852.9500042305
 21
738.2501015837
 31
0.0
  0
ARC
  5
1C3
330
1F
100
AcDbEntity
  8
0
  6
SLD-実線
 62
     7
100
AcDbCircle
 10
852.1667186469
 20
741.5072420004
 30
0.0
 40
3.097749835362371
100
AcDbArc
 50
287.3237855353
 51
300.3551698954
  0
LINE
  5
1C4
330
1F
100
AcDbEntity
  8
0
  6
SLD-実線
 62
     7
100
AcDbLine
 10
853.7321936321
 20
738.8341647264
 30
0.0
 11
854.0476219123
 21
738.7351123307
 31
0.0
  0
LINE
  5
1C5
330
1F
100
AcDbEntity
  8
0
  6
SLD-実線
 62
     7
100
AcDbLine
 10
853.7321936321
 20
738.8341647264
 30
0.0
 11
853.2957103179
 21
739.8705180633
 31
0.0
  0
LINE
  5
1C6
330
1F
100
AcDbEntity
  8
0
  6
SLD-実線
 62
     7
100
AcDbLine
 10
853.2957103179
 20
739.8705180633
 30
0.0
 11
853.5445677366
 21
739.9295265422
 31
0.0
  0
LINE
  5
1C7
330
1F
100
AcDbEntity
  8
0
  6
SLD-実線
 62
     7
100
AcDbLine
 10
853.2957103179
 20
739.8705180633
 30
0.0
 11
853.213047862
 21
741.1022268234
 31
0.0
  0
LINE
  5
1C8
330
1F
100
AcDbEntity
  8
0
  6
SLD-実線
 62
     7
100
AcDbLine
 10
853.803442584
 20
742.6362336714
 30
0.0
 11
852.5717338239
 21
742.5535712155
 31
0.0
  0
LINE
  5
1C9
330
1F
100
AcDbEntity
  8
0
  6
SLD-実線
 62
     7
100
AcDbLine
 10
852.5717338239
 20
742.5535712155
 30
0.0
 11
852.6722049828
 21
742.813131634
 31
0.0
  0
LINE
  5
1CA
330
1F
100
AcDbEntity
  8
0
  6
SLD-実線
 62
     7
100
AcDbLine
 10
852.6167537146
 20
739.5705035366
 30
0.0
 11
852.405572047
 21
739.4262318528
 31
0.0
  0
LINE
  5
1CB
330
1F
100
AcDbEntity
  8
0
  6
SLD-実線
 62
     7
100
AcDbLine
 10
852.6167537146
 20
739.5705035366
 30
0.0
 11
853.0891393448
 21
738.5500145661
 31
0.0
  0
LINE
  5
1CC
330
1F
100
AcDbEntity
  8
0
  6
SLD-実線
 62
     7
100
AcDbLine
 10
852.5717338239
 20
742.5535712155
 30
0.0
 11
851.7166835792
 21
743.4439804643
 31
0.0
  0
LINE
  5
1CD
330
1F
100
AcDbEntity
  8
0
  6
SLD-実線
 62
     7
100
AcDbLine
 10
851.7166835792
 20
743.4439804643
 30
0.0
 11
851.9278652468
 21
743.5882521481
 31
0.0
  0
LINE
  5
1CE
330
1F
100
AcDbEntity
  8
0
  6
SLD-実線
 62
     7
100
AcDbLine
 10
851.7617034699
 20
740.4609127854
 30
0.0
 11
851.6612323109
 21
740.2013523669
 31
0.0
  0
LINE
  5
1CF
330
1F
100
AcDbEntity
  8
0
  6
SLD-実線
 62
     7
100
AcDbLine
 10
851.7617034699
 20
740.4609127854
 30
0.0
 11
852.6167537146
 21
739.5705035366
 31
0.0
  0
LINE
  5
1D0
330
1F
100
AcDbEntity
  8
0
  6
SLD-実線
 62
     7
100
AcDbLine
 10
850.5299947097
 20
740.3782503295
 30
0.0
 11
850.5890031886
 21
740.1293929107
 31
0.0
  0
LINE
  5
1D1
330
1F
100
AcDbEntity
  8
0
  6
SLD-実線
 62
     7
100
AcDbLine
 10
850.5299947097
 20
740.3782503295
 30
0.0
 11
851.7617034699
 21
740.4609127854
 31
0.0
  0
LINE
  5
1D2
330
1F
100
AcDbEntity
  8
0
  6
SLD-実線
 62
     7
100
AcDbLine
 10
851.7166835792
 20
743.4439804643
 30
0.0
 11
851.2442979489
 21
744.4644694348
 31
0.0
  0
LINE
  5
1D3
330
1F
100
AcDbEntity
  8
0
  6
SLD-実線
 62
     7
100
AcDbLine
 10
851.2442979489
 20
744.4644694348
 30
0.0
 11
851.3834330632
 21
744.7643824172
 31
0.0
  0
LINE
  5
1D4
330
1F
100
AcDbEntity
  8
0
  6
SLD-実線
 62
     7
100
AcDbLine
 10
851.0377269759
 20
743.1439659376
 30
0.0
 11
850.7888695572
 21
743.0849574587
 31
0.0
  0
LINE
  5
1D5
330
1F
100
AcDbEntity
  8
0
  6
SLD-実線
 62
     7
100
AcDbLine
 10
851.0377269759
 20
743.1439659376
 30
0.0
 11
851.1203894318
 21
741.9122571775
 31
0.0
  0
LINE
  5
1D6
330
1F
100
AcDbEntity
  8
0
  6
SLD-実線
 62
     7
100
AcDbLine
 10
851.1203894318
 20
741.9122571775
 30
0.0
 11
850.8608290133
 21
742.0127283364
 31
0.0
  0
LINE
  5
1D7
330
1F
100
AcDbEntity
  8
0
  6
SLD-実線
 62
     7
100
AcDbLine
 10
851.1203894318
 20
741.9122571775
 30
0.0
 11
850.229980183
 21
741.0572069328
 31
0.0
  0
LINE
  5
1D8
330
1F
100
AcDbEntity
  8
0
  6
SLD-実線
 62
     7
100
AcDbLine
 10
850.229980183
 20
741.0572069328
 30
0.0
 11
850.0857084993
 21
741.2683886003
 31
0.0
  0
ARC
  5
1D9
330
1F
100
AcDbEntity
  8
0
  6
SLD-実線
 62
     7
100
AcDbCircle
 10
852.1667186469
 20
741.5072420004
 30
0.0
 40
3.097749835362412
100
AcDbArc
 50
107.3237855353
 51
120.3551698954
  0
LINE
  5
1DA
330
1F
100
AcDbEntity
  8
0
  6
SLD-実線
 62
     7
100
AcDbLine
 10
850.6012436617
 20
744.1803192745
 30
0.0
 11
850.2858153815
 21
744.2793716702
 31
0.0
  0
LINE
  5
1DB
330
1F
100
AcDbEntity
  8
0
  6
SLD-実線
 62
     7
100
AcDbLine
 10
850.6012436617
 20
744.1803192745
 30
0.0
 11
851.0377269759
 21
743.1439659376
 31
0.0
  0
LINE
  5
1DC
330
1F
100
AcDbEntity
  8
0
  6
SLD-実線
 62
     7
100
AcDbLine
 10
849.4936413728
 20
739.9417670152
 30
0.0
 11
849.3945889771
 21
739.626338735
 31
0.0
  0
LINE
  5
1DD
330
1F
100
AcDbEntity
  8
0
  6
SLD-実線
 62
     7
100
AcDbLine
 10
849.4936413728
 20
739.9417670152
 30
0.0
 11
850.5299947097
 21
740.3782503295
 31
0.0
  0
LINE
  5
1DE
330
1F
100
AcDbEntity
  8
0
  6
SLD-実線
 62
     7
100
AcDbLine
 10
850.229980183
 20
741.0572069328
 30
0.0
 11
849.2094912125
 21
740.5848213025
 31
0.0
  0
LINE
  5
1DF
330
1F
100
AcDbEntity
  8
0
  6
SLD-実線
 62
     7
100
AcDbLine
 10
849.2094912125
 20
740.5848213025
 30
0.0
 11
848.9095782301
 21
740.7239564168
 31
0.0
  0
ARC
  5
1E0
330
1F
100
AcDbEntity
  8
0
  6
SLD-実線
 62
     7
100
AcDbCircle
 10
852.1667186469
 20
741.5072420004
 30
0.0
 40
3.097749835362404
100
AcDbArc
 50
197.3237855353
 51
210.3551698955
  0
LINE
  5
1E1
330
1F
100
AcDbEntity
  8
0
  6
SLD-実線
 62
     7
100
AcDbLine
 10
853.7444341052
 20
298.8850910902
 30
0.0
 11
852.6722049828
 21
298.813131634
 31
0.0
  0
LINE
  5
1E2
330
1F
100
AcDbEntity
  8
0
  6
SLD-実線
 62
     7
100
AcDbLine
 10
852.6722049828
 20
298.813131634
 30
0.0
 11
851.9278652468
 21
299.5882521481
 31
0.0
  0
LINE
  5
1E3
330
1F
100
AcDbEntity
  8
0
  6
SLD-実線
 62
     7
100
AcDbLine
 10
851.9278652468
 20
299.5882521481
 30
0.0
 11
851.3834330632
 21
300.7643824172
 31
0.0
  0
ARC
  5
1E4
330
1F
100
AcDbEntity
  8
0
  6
SLD-実線
 62
     7
100
AcDbCircle
 10
852.1667186469
 20
297.5072420004
 30
0.0
 40
3.349999999999982
100
AcDbArc
 50
103.5218752025
 51
124.1570802282
  0
LINE
  5
1E5
330
1F
100
AcDbEntity
  8
0
  6
SLD-実線
 62
     7
100
AcDbLine
 10
850.2858153815
 20
300.2793716702
 30
0.0
 11
850.7888695572
 21
299.0849574587
 31
0.0
  0
LINE
  5
1E6
330
1F
100
AcDbEntity
  8
0
  6
SLD-実線
 62
     7
100
AcDbLine
 10
850.7888695572
 20
299.0849574587
 30
0.0
 11
850.8608290133
 21
298.0127283364
 31
0.0
  0
LINE
  5
1E7
330
1F
100
AcDbEntity
  8
0
  6
SLD-実線
 62
     7
100
AcDbLine
 10
850.8608290133
 20
298.0127283364
 30
0.0
 11
850.0857084993
 21
297.2683886003
 31
0.0
  0
LINE
  5
1E8
330
1F
100
AcDbEntity
  8
0
  6
SLD-実線
 62
     7
100
AcDbLine
 10
850.0857084993
 20
297.2683886003
 30
0.0
 11
848.9095782301
 21
296.7239564168
 31
0.0
  0
ARC
  5
1E9
330
1F
100
AcDbEntity
  8
0
  6
SLD-実線
 62
     7
100
AcDbCircle
 10
852.1667186469
 20
297.5072420004
 30
0.0
 40
3.349999999999941
100
AcDbArc
 50
193.5218752025
 51
214.1570802282
  0
LINE
  5
1EA
330
1F
100
AcDbEntity
  8
0
  6
SLD-実線
 62
     7
100
AcDbLine
 10
849.3945889771
 20
295.626338735
 30
0.0
 11
850.5890031886
 21
296.1293929107
 31
0.0
  0
LINE
  5
1EB
330
1F
100
AcDbEntity
  8
0
  6
SLD-実線
 62
     7
100
AcDbLine
 10
850.5890031886
 20
296.1293929107
 30
0.0
 11
851.6612323109
 21
296.2013523669
 31
0.0
  0
LINE
  5
1EC
330
1F
100
AcDbEntity
  8
0
  6
SLD-実線
 62
     7
100
AcDbLine
 10
851.6612323109
 20
296.2013523669
 30
0.0
 11
852.405572047
 21
295.4262318528
 31
0.0
  0
LINE
  5
1ED
330
1F
100
AcDbEntity
  8
0
  6
SLD-実線
 62
     7
100
AcDbLine
 10
852.405572047
 20
295.4262318528
 30
0.0
 11
852.9500042305
 21
294.2501015837
 31
0.0
  0
ARC
  5
1EE
330
1F
100
AcDbEntity
  8
0
  6
SLD-実線
 62
     7
100
AcDbCircle
 10
852.1667186469
 20
297.5072420004
 30
0.0
 40
3.350000000000019
100
AcDbArc
 50
283.5218752025
 51
304.1570802282
  0
LINE
  5
1EF
330
1F
100
AcDbEntity
  8
0
  6
SLD-実線
 62
     7
100
AcDbLine
 10
854.0476219123
 20
294.7351123307
 30
0.0
 11
853.5445677366
 21
295.9295265422
 31
0.0
  0
LINE
  5
1F0
330
1F
100
AcDbEntity
  8
0
  6
SLD-実線
 62
     7
100
AcDbLine
 10
853.5445677366
 20
295.9295265422
 30
0.0
 11
853.4726082805
 21
297.0017556645
 31
0.0
  0
LINE
  5
1F1
330
1F
100
AcDbEntity
  8
0
  6
SLD-実線
 62
     7
100
AcDbLine
 10
853.4726082805
 20
297.0017556645
 30
0.0
 11
854.2477287945
 21
297.7460954006
 31
0.0
  0
LINE
  5
1F2
330
1F
100
AcDbEntity
  8
0
  6
SLD-実線
 62
     7
100
AcDbLine
 10
854.2477287945
 20
297.7460954006
 30
0.0
 11
855.4238590636
 21
298.2905275841
 31
0.0
  0
ARC
  5
1F3
330
1F
100
AcDbEntity
  8
0
  6
SLD-実線
 62
     7
100
AcDbCircle
 10
852.1667186469
 20
297.5072420004
 30
0.0
 40
3.350000000000051
100
AcDbArc
 50
13.5218752025
 51
34.1570802282
  0
LINE
  5
1F4
330
1F
100
AcDbEntity
  8
0
  6
SLD-実線
 62
     7
100
AcDbLine
 10
854.9388483167
 20
299.3881452659
 30
0.0
 11
853.7444341052
 21
298.8850910902
 31
0.0
  0
CIRCLE
  5
1F5
330
1F
100
AcDbEntity
  8
0
  6
SLD-実線
 62
     7
100
AcDbCircle
 10
852.1667186469
 20
297.5072420004
 30
0.0
 40
6.000000000000052
  0
LINE
  5
1F6
330
1F
100
AcDbEntity
  8
0
  6
SLD-実線
 62
     7
100
AcDbLine
 10
855.1239460812
 20
298.4296626984
 30
0.0
 11
855.4238590636
 21
298.2905275841
 31
0.0
  0
ARC
  5
1F7
330
1F
100
AcDbEntity
  8
0
  6
SLD-実線
 62
     7
100
AcDbCircle
 10
852.1667186469
 20
297.5072420004
 30
0.0
 40
3.097749835362463
100
AcDbArc
 50
17.3237855353
 51
30.3551698954
  0
LINE
  5
1F8
330
1F
100
AcDbEntity
  8
0
  6
SLD-実線
 62
     7
100
AcDbLine
 10
854.839795921
 20
299.0727169857
 30
0.0
 11
854.9388483167
 21
299.3881452659
 31
0.0
  0
LINE
  5
1F9
330
1F
100
AcDbEntity
  8
0
  6
SLD-実線
 62
     7
100
AcDbLine
 10
854.1034571108
 20
297.9572770681
 30
0.0
 11
854.2477287945
 21
297.7460954006
 31
0.0
  0
LINE
  5
1FA
330
1F
100
AcDbEntity
  8
0
  6
SLD-実線
 62
     7
100
AcDbLine
 10
854.1034571108
 20
297.9572770681
 30
0.0
 11
855.1239460812
 21
298.4296626984
 31
0.0
  0
LINE
  5
1FB
330
1F
100
AcDbEntity
  8
0
  6
SLD-実線
 62
     7
100
AcDbLine
 10
854.839795921
 20
299.0727169857
 30
0.0
 11
853.803442584
 21
298.6362336714
 31
0.0
  0
LINE
  5
1FC
330
1F
100
AcDbEntity
  8
0
  6
SLD-実線
 62
     7
100
AcDbLine
 10
853.803442584
 20
298.6362336714
 30
0.0
 11
853.7444341052
 21
298.8850910902
 31
0.0
  0
LINE
  5
1FD
330
1F
100
AcDbEntity
  8
0
  6
SLD-実線
 62
     7
100
AcDbLine
 10
853.213047862
 20
297.1022268234
 30
0.0
 11
853.4726082805
 21
297.0017556645
 31
0.0
  0
LINE
  5
1FE
330
1F
100
AcDbEntity
  8
0
  6
SLD-実線
 62
     7
100
AcDbLine
 10
853.213047862
 20
297.1022268234
 30
0.0
 11
854.1034571108
 21
297.9572770681
 31
0.0
  0
LINE
  5
1FF
330
1F
100
AcDbEntity
  8
0
  6
SLD-実線
 62
     7
100
AcDbLine
 10
853.0891393448
 20
294.5500145661
 30
0.0
 11
852.9500042305
 21
294.2501015837
 31
0.0
  0
ARC
  5
200
330
1F
100
AcDbEntity
  8
0
  6
SLD-実線
 62
     7
100
AcDbCircle
 10
852.1667186469
 20
297.5072420004
 30
0.0
 40
3.097749835362425
100
AcDbArc
 50
287.3237855353
 51
300.3551698954
  0
LINE
  5
201
330
1F
100
AcDbEntity
  8
0
  6
SLD-実線
 62
     7
100
AcDbLine
 10
853.7321936321
 20
294.8341647264
 30
0.0
 11
854.0476219123
 21
294.7351123307
 31
0.0
  0
LINE
  5
202
330
1F
100
AcDbEntity
  8
0
  6
SLD-実線
 62
     7
100
AcDbLine
 10
853.2957103179
 20
295.8705180633
 30
0.0
 11
853.5445677366
 21
295.9295265422
 31
0.0
  0
LINE
  5
203
330
1F
100
AcDbEntity
  8
0
  6
SLD-実線
 62
     7
100
AcDbLine
 10
853.2957103179
 20
295.8705180633
 30
0.0
 11
853.213047862
 21
297.1022268234
 31
0.0
  0
LINE
  5
204
330
1F
100
AcDbEntity
  8
0
  6
SLD-実線
 62
     7
100
AcDbLine
 10
853.7321936321
 20
294.8341647264
 30
0.0
 11
853.2957103179
 21
295.8705180633
 31
0.0
  0
LINE
  5
205
330
1F
100
AcDbEntity
  8
0
  6
SLD-実線
 62
     7
100
AcDbLine
 10
853.803442584
 20
298.6362336714
 30
0.0
 11
852.5717338239
 21
298.5535712155
 31
0.0
  0
LINE
  5
206
330
1F
100
AcDbEntity
  8
0
  6
SLD-実線
 62
     7
100
AcDbLine
 10
852.5717338239
 20
298.5535712155
 30
0.0
 11
852.6722049828
 21
298.813131634
 31
0.0
  0
LINE
  5
207
330
1F
100
AcDbEntity
  8
0
  6
SLD-実線
 62
     7
100
AcDbLine
 10
852.6167537146
 20
295.5705035366
 30
0.0
 11
852.405572047
 21
295.4262318528
 31
0.0
  0
LINE
  5
208
330
1F
100
AcDbEntity
  8
0
  6
SLD-実線
 62
     7
100
AcDbLine
 10
852.6167537146
 20
295.5705035366
 30
0.0
 11
853.0891393448
 21
294.5500145661
 31
0.0
  0
LINE
  5
209
330
1F
100
AcDbEntity
  8
0
  6
SLD-実線
 62
     7
100
AcDbLine
 10
851.7617034699
 20
296.4609127854
 30
0.0
 11
851.6612323109
 21
296.2013523669
 31
0.0
  0
LINE
  5
20A
330
1F
100
AcDbEntity
  8
0
  6
SLD-実線
 62
     7
100
AcDbLine
 10
851.7617034699
 20
296.4609127854
 30
0.0
 11
852.6167537146
 21
295.5705035366
 31
0.0
  0
LINE
  5
20B
330
1F
100
AcDbEntity
  8
0
  6
SLD-実線
 62
     7
100
AcDbLine
 10
852.5717338239
 20
298.5535712155
 30
0.0
 11
851.7166835792
 21
299.4439804643
 31
0.0
  0
LINE
  5
20C
330
1F
100
AcDbEntity
  8
0
  6
SLD-実線
 62
     7
100
AcDbLine
 10
851.7166835792
 20
299.4439804643
 30
0.0
 11
851.9278652468
 21
299.5882521481
 31
0.0
  0
LINE
  5
20D
330
1F
100
AcDbEntity
  8
0
  6
SLD-実線
 62
     7
100
AcDbLine
 10
851.7166835792
 20
299.4439804643
 30
0.0
 11
851.2442979489
 21
300.4644694348
 31
0.0
  0
LINE
  5
20E
330
1F
100
AcDbEntity
  8
0
  6
SLD-実線
 62
     7
100
AcDbLine
 10
851.2442979489
 20
300.4644694348
 30
0.0
 11
851.3834330632
 21
300.7643824172
 31
0.0
  0
LINE
  5
20F
330
1F
100
AcDbEntity
  8
0
  6
SLD-実線
 62
     7
100
AcDbLine
 10
850.5299947097
 20
296.3782503295
 30
0.0
 11
850.5890031886
 21
296.1293929107
 31
0.0
  0
LINE
  5
210
330
1F
100
AcDbEntity
  8
0
  6
SLD-実線
 62
     7
100
AcDbLine
 10
850.5299947097
 20
296.3782503295
 30
0.0
 11
851.7617034699
 21
296.4609127854
 31
0.0
  0
LINE
  5
211
330
1F
100
AcDbEntity
  8
0
  6
SLD-実線
 62
     7
100
AcDbLine
 10
851.0377269759
 20
299.1439659376
 30
0.0
 11
850.7888695572
 21
299.0849574587
 31
0.0
  0
LINE
  5
212
330
1F
100
AcDbEntity
  8
0
  6
SLD-実線
 62
     7
100
AcDbLine
 10
851.0377269759
 20
299.1439659376
 30
0.0
 11
851.1203894318
 21
297.9122571775
 31
0.0
  0
LINE
  5
213
330
1F
100
AcDbEntity
  8
0
  6
SLD-実線
 62
     7
100
AcDbLine
 10
851.1203894318
 20
297.9122571775
 30
0.0
 11
850.8608290133
 21
298.0127283364
 31
0.0
  0
ARC
  5
214
330
1F
100
AcDbEntity
  8
0
  6
SLD-実線
 62
     7
100
AcDbCircle
 10
852.1667186469
 20
297.5072420004
 30
0.0
 40
3.097749835362357
100
AcDbArc
 50
107.3237855353
 51
120.3551698954
  0
LINE
  5
215
330
1F
100
AcDbEntity
  8
0
  6
SLD-実線
 62
     7
100
AcDbLine
 10
850.6012436617
 20
300.1803192745
 30
0.0
 11
850.2858153815
 21
300.2793716702
 31
0.0
  0
LINE
  5
216
330
1F
100
AcDbEntity
  8
0
  6
SLD-実線
 62
     7
100
AcDbLine
 10
851.1203894318
 20
297.9122571775
 30
0.0
 11
850.229980183
 21
297.0572069328
 31
0.0
  0
LINE
  5
217
330
1F
100
AcDbEntity
  8
0
  6
SLD-実線
 62
     7
100
AcDbLine
 10
850.229980183
 20
297.0572069328
 30
0.0
 11
850.0857084993
 21
297.2683886003
 31
0.0
  0
LINE
  5
218
330
1F
100
AcDbEntity
  8
0
  6
SLD-実線
 62
     7
100
AcDbLine
 10
850.6012436617
 20
300.1803192745
 30
0.0
 11
851.0377269759
 21
299.1439659376
 31
0.0
  0
LINE
  5
219
330
1F
100
AcDbEntity
  8
0
  6
SLD-実線
 62
     7
100
AcDbLine
 10
849.4936413728
 20
295.9417670152
 30
0.0
 11
849.3945889771
 21
295.626338735
 31
0.0
  0
LINE
  5
21A
330
1F
100
AcDbEntity
  8
0
  6
SLD-実線
 62
     7
100
AcDbLine
 10
849.4936413728
 20
295.9417670152
 30
0.0
 11
850.5299947097
 21
296.3782503295
 31
0.0
  0
LINE
  5
21B
330
1F
100
AcDbEntity
  8
0
  6
SLD-実線
 62
     7
100
AcDbLine
 10
850.229980183
 20
297.0572069328
 30
0.0
 11
849.2094912125
 21
296.5848213025
 31
0.0
  0
LINE
  5
21C
330
1F
100
AcDbEntity
  8
0
  6
SLD-実線
 62
     7
100
AcDbLine
 10
849.2094912125
 20
296.5848213025
 30
0.0
 11
848.9095782301
 21
296.7239564168
 31
0.0
  0
ARC
  5
21D
330
1F
100
AcDbEntity
  8
0
  6
SLD-実線
 62
     7
100
AcDbCircle
 10
852.1667186469
 20
297.5072420004
 30
0.0
 40
3.097749835362375
100
AcDbArc
 50
197.3237855353
 51
210.3551698955
  0
CIRCLE
  5
21E
330
1F
100
AcDbEntity
  8
0
  6
SLD-実線
 62
     7
100
AcDbCircle
 10
192.1667186469
 20
741.5072420004
 30
0.0
 40
6.000000000000036
  0
LINE
  5
21F
330
1F
100
AcDbEntity
  8
0
  6
SLD-実線
 62
     7
100
AcDbLine
 10
193.7444341052
 20
742.8850910902
 30
0.0
 11
192.6722049828
 21
742.813131634
 31
0.0
  0
LINE
  5
220
330
1F
100
AcDbEntity
  8
0
  6
SLD-実線
 62
     7
100
AcDbLine
 10
192.6722049828
 20
742.813131634
 30
0.0
 11
191.9278652468
 21
743.5882521481
 31
0.0
  0
LINE
  5
221
330
1F
100
AcDbEntity
  8
0
  6
SLD-実線
 62
     7
100
AcDbLine
 10
191.9278652468
 20
743.5882521481
 30
0.0
 11
191.3834330632
 21
744.7643824172
 31
0.0
  0
ARC
  5
222
330
1F
100
AcDbEntity
  8
0
  6
SLD-実線
 62
     7
100
AcDbCircle
 10
192.1667186469
 20
741.5072420004
 30
0.0
 40
3.350000000000081
100
AcDbArc
 50
103.5218752025
 51
124.1570802282
  0
LINE
  5
223
330
1F
100
AcDbEntity
  8
0
  6
SLD-実線
 62
     7
100
AcDbLine
 10
190.2858153815
 20
744.2793716702
 30
0.0
 11
190.7888695572
 21
743.0849574587
 31
0.0
  0
LINE
  5
224
330
1F
100
AcDbEntity
  8
0
  6
SLD-実線
 62
     7
100
AcDbLine
 10
190.7888695572
 20
743.0849574587
 30
0.0
 11
190.8608290133
 21
742.0127283364
 31
0.0
  0
LINE
  5
225
330
1F
100
AcDbEntity
  8
0
  6
SLD-実線
 62
     7
100
AcDbLine
 10
190.8608290133
 20
742.0127283364
 30
0.0
 11
190.0857084993
 21
741.2683886003
 31
0.0
  0
LINE
  5
226
330
1F
100
AcDbEntity
  8
0
  6
SLD-実線
 62
     7
100
AcDbLine
 10
190.0857084993
 20
741.2683886003
 30
0.0
 11
188.9095782301
 21
740.7239564168
 31
0.0
  0
ARC
  5
227
330
1F
100
AcDbEntity
  8
0
  6
SLD-実線
 62
     7
100
AcDbCircle
 10
192.1667186469
 20
741.5072420004
 30
0.0
 40
3.349999999999982
100
AcDbArc
 50
193.5218752025
 51
214.1570802282
  0
LINE
  5
228
330
1F
100
AcDbEntity
  8
0
  6
SLD-実線
 62
     7
100
AcDbLine
 10
189.3945889771
 20
739.626338735
 30
0.0
 11
190.5890031886
 21
740.1293929107
 31
0.0
  0
LINE
  5
229
330
1F
100
AcDbEntity
  8
0
  6
SLD-実線
 62
     7
100
AcDbLine
 10
190.5890031886
 20
740.1293929107
 30
0.0
 11
191.6612323109
 21
740.2013523669
 31
0.0
  0
LINE
  5
22A
330
1F
100
AcDbEntity
  8
0
  6
SLD-実線
 62
     7
100
AcDbLine
 10
191.6612323109
 20
740.2013523669
 30
0.0
 11
192.405572047
 21
739.4262318528
 31
0.0
  0
LINE
  5
22B
330
1F
100
AcDbEntity
  8
0
  6
SLD-実線
 62
     7
100
AcDbLine
 10
192.405572047
 20
739.4262318528
 30
0.0
 11
192.9500042305
 21
738.2501015837
 31
0.0
  0
ARC
  5
22C
330
1F
100
AcDbEntity
  8
0
  6
SLD-実線
 62
     7
100
AcDbCircle
 10
192.1667186469
 20
741.5072420004
 30
0.0
 40
3.350000000000051
100
AcDbArc
 50
283.5218752025
 51
304.1570802282
  0
LINE
  5
22D
330
1F
100
AcDbEntity
  8
0
  6
SLD-実線
 62
     7
100
AcDbLine
 10
194.0476219123
 20
738.7351123307
 30
0.0
 11
193.5445677366
 21
739.9295265422
 31
0.0
  0
LINE
  5
22E
330
1F
100
AcDbEntity
  8
0
  6
SLD-実線
 62
     7
100
AcDbLine
 10
193.5445677366
 20
739.9295265422
 30
0.0
 11
193.4726082805
 21
741.0017556645
 31
0.0
  0
LINE
  5
22F
330
1F
100
AcDbEntity
  8
0
  6
SLD-実線
 62
     7
100
AcDbLine
 10
193.4726082805
 20
741.0017556645
 30
0.0
 11
194.2477287945
 21
741.7460954006
 31
0.0
  0
LINE
  5
230
330
1F
100
AcDbEntity
  8
0
  6
SLD-実線
 62
     7
100
AcDbLine
 10
194.2477287945
 20
741.7460954006
 30
0.0
 11
195.4238590636
 21
742.2905275841
 31
0.0
  0
ARC
  5
231
330
1F
100
AcDbEntity
  8
0
  6
SLD-実線
 62
     7
100
AcDbCircle
 10
192.1667186469
 20
741.5072420004
 30
0.0
 40
3.350000000000042
100
AcDbArc
 50
13.5218752025
 51
34.1570802282
  0
LINE
  5
232
330
1F
100
AcDbEntity
  8
0
  6
SLD-実線
 62
     7
100
AcDbLine
 10
194.9388483167
 20
743.3881452659
 30
0.0
 11
193.7444341052
 21
742.8850910902
 31
0.0
  0
LINE
  5
233
330
1F
100
AcDbEntity
  8
0
  6
SLD-実線
 62
     7
100
AcDbLine
 10
194.1034571108
 20
741.9572770681
 30
0.0
 11
194.2477287945
 21
741.7460954006
 31
0.0
  0
LINE
  5
234
330
1F
100
AcDbEntity
  8
0
  6
SLD-実線
 62
     7
100
AcDbLine
 10
194.1034571108
 20
741.9572770681
 30
0.0
 11
195.1239460812
 21
742.4296626984
 31
0.0
  0
LINE
  5
235
330
1F
100
AcDbEntity
  8
0
  6
SLD-実線
 62
     7
100
AcDbLine
 10
195.1239460812
 20
742.4296626984
 30
0.0
 11
195.4238590636
 21
742.2905275841
 31
0.0
  0
ARC
  5
236
330
1F
100
AcDbEntity
  8
0
  6
SLD-実線
 62
     7
100
AcDbCircle
 10
192.1667186469
 20
741.5072420004
 30
0.0
 40
3.097749835362425
100
AcDbArc
 50
17.3237855353
 51
30.3551698954
  0
LINE
  5
237
330
1F
100
AcDbEntity
  8
0
  6
SLD-実線
 62
     7
100
AcDbLine
 10
194.839795921
 20
743.0727169857
 30
0.0
 11
194.9388483167
 21
743.3881452659
 31
0.0
  0
LINE
  5
238
330
1F
100
AcDbEntity
  8
0
  6
SLD-実線
 62
     7
100
AcDbLine
 10
194.839795921
 20
743.0727169857
 30
0.0
 11
193.803442584
 21
742.6362336714
 31
0.0
  0
LINE
  5
239
330
1F
100
AcDbEntity
  8
0
  6
SLD-実線
 62
     7
100
AcDbLine
 10
193.803442584
 20
742.6362336714
 30
0.0
 11
193.7444341052
 21
742.8850910902
 31
0.0
  0
LINE
  5
23A
330
1F
100
AcDbEntity
  8
0
  6
SLD-実線
 62
     7
100
AcDbLine
 10
193.213047862
 20
741.1022268234
 30
0.0
 11
193.4726082805
 21
741.0017556645
 31
0.0
  0
LINE
  5
23B
330
1F
100
AcDbEntity
  8
0
  6
SLD-実線
 62
     7
100
AcDbLine
 10
193.213047862
 20
741.1022268234
 30
0.0
 11
194.1034571108
 21
741.9572770681
 31
0.0
  0
LINE
  5
23C
330
1F
100
AcDbEntity
  8
0
  6
SLD-実線
 62
     7
100
AcDbLine
 10
193.0891393448
 20
738.5500145661
 30
0.0
 11
192.9500042305
 21
738.2501015837
 31
0.0
  0
ARC
  5
23D
330
1F
100
AcDbEntity
  8
0
  6
SLD-実線
 62
     7
100
AcDbCircle
 10
192.1667186469
 20
741.5072420004
 30
0.0
 40
3.097749835362375
100
AcDbArc
 50
287.3237855353
 51
300.3551698955
  0
LINE
  5
23E
330
1F
100
AcDbEntity
  8
0
  6
SLD-実線
 62
     7
100
AcDbLine
 10
193.7321936321
 20
738.8341647264
 30
0.0
 11
194.0476219123
 21
738.7351123307
 31
0.0
  0
LINE
  5
23F
330
1F
100
AcDbEntity
  8
0
  6
SLD-実線
 62
     7
100
AcDbLine
 10
193.2957103179
 20
739.8705180633
 30
0.0
 11
193.5445677366
 21
739.9295265422
 31
0.0
  0
LINE
  5
240
330
1F
100
AcDbEntity
  8
0
  6
SLD-実線
 62
     7
100
AcDbLine
 10
193.2957103179
 20
739.8705180633
 30
0.0
 11
193.213047862
 21
741.1022268234
 31
0.0
  0
LINE
  5
241
330
1F
100
AcDbEntity
  8
0
  6
SLD-実線
 62
     7
100
AcDbLine
 10
193.7321936321
 20
738.8341647264
 30
0.0
 11
193.2957103179
 21
739.8705180633
 31
0.0
  0
LINE
  5
242
330
1F
100
AcDbEntity
  8
0
  6
SLD-実線
 62
     7
100
AcDbLine
 10
193.803442584
 20
742.6362336714
 30
0.0
 11
192.5717338239
 21
742.5535712155
 31
0.0
  0
LINE
  5
243
330
1F
100
AcDbEntity
  8
0
  6
SLD-実線
 62
     7
100
AcDbLine
 10
192.5717338239
 20
742.5535712155
 30
0.0
 11
192.6722049828
 21
742.813131634
 31
0.0
  0
LINE
  5
244
330
1F
100
AcDbEntity
  8
0
  6
SLD-実線
 62
     7
100
AcDbLine
 10
192.6167537146
 20
739.5705035366
 30
0.0
 11
192.405572047
 21
739.4262318528
 31
0.0
  0
LINE
  5
245
330
1F
100
AcDbEntity
  8
0
  6
SLD-実線
 62
     7
100
AcDbLine
 10
192.6167537146
 20
739.5705035366
 30
0.0
 11
193.0891393448
 21
738.5500145661
 31
0.0
  0
LINE
  5
246
330
1F
100
AcDbEntity
  8
0
  6
SLD-実線
 62
     7
100
AcDbLine
 10
192.5717338239
 20
742.5535712155
 30
0.0
 11
191.7166835792
 21
743.4439804643
 31
0.0
  0
LINE
  5
247
330
1F
100
AcDbEntity
  8
0
  6
SLD-実線
 62
     7
100
AcDbLine
 10
191.7166835792
 20
743.4439804643
 30
0.0
 11
191.9278652468
 21
743.5882521481
 31
0.0
  0
LINE
  5
248
330
1F
100
AcDbEntity
  8
0
  6
SLD-実線
 62
     7
100
AcDbLine
 10
191.7617034699
 20
740.4609127854
 30
0.0
 11
191.6612323109
 21
740.2013523669
 31
0.0
  0
LINE
  5
249
330
1F
100
AcDbEntity
  8
0
  6
SLD-実線
 62
     7
100
AcDbLine
 10
191.7617034699
 20
740.4609127854
 30
0.0
 11
192.6167537146
 21
739.5705035366
 31
0.0
  0
LINE
  5
24A
330
1F
100
AcDbEntity
  8
0
  6
SLD-実線
 62
     7
100
AcDbLine
 10
190.5299947097
 20
740.3782503295
 30
0.0
 11
190.5890031886
 21
740.1293929107
 31
0.0
  0
LINE
  5
24B
330
1F
100
AcDbEntity
  8
0
  6
SLD-実線
 62
     7
100
AcDbLine
 10
190.5299947097
 20
740.3782503295
 30
0.0
 11
191.7617034699
 21
740.4609127854
 31
0.0
  0
LINE
  5
24C
330
1F
100
AcDbEntity
  8
0
  6
SLD-実線
 62
     7
100
AcDbLine
 10
191.7166835792
 20
743.4439804643
 30
0.0
 11
191.2442979489
 21
744.4644694348
 31
0.0
  0
LINE
  5
24D
330
1F
100
AcDbEntity
  8
0
  6
SLD-実線
 62
     7
100
AcDbLine
 10
191.2442979489
 20
744.4644694348
 30
0.0
 11
191.3834330632
 21
744.7643824172
 31
0.0
  0
LINE
  5
24E
330
1F
100
AcDbEntity
  8
0
  6
SLD-実線
 62
     7
100
AcDbLine
 10
191.0377269759
 20
743.1439659376
 30
0.0
 11
190.7888695572
 21
743.0849574587
 31
0.0
  0
LINE
  5
24F
330
1F
100
AcDbEntity
  8
0
  6
SLD-実線
 62
     7
100
AcDbLine
 10
191.0377269759
 20
743.1439659376
 30
0.0
 11
191.1203894318
 21
741.9122571775
 31
0.0
  0
LINE
  5
250
330
1F
100
AcDbEntity
  8
0
  6
SLD-実線
 62
     7
100
AcDbLine
 10
191.1203894318
 20
741.9122571775
 30
0.0
 11
190.8608290133
 21
742.0127283364
 31
0.0
  0
ARC
  5
251
330
1F
100
AcDbEntity
  8
0
  6
SLD-実線
 62
     7
100
AcDbCircle
 10
192.1667186469
 20
741.5072420004
 30
0.0
 40
3.097749835362446
100
AcDbArc
 50
107.3237855353
 51
120.3551698954
  0
LINE
  5
252
330
1F
100
AcDbEntity
  8
0
  6
SLD-実線
 62
     7
100
AcDbLine
 10
190.6012436617
 20
744.1803192745
 30
0.0
 11
190.2858153815
 21
744.2793716702
 31
0.0
  0
LINE
  5
253
330
1F
100
AcDbEntity
  8
0
  6
SLD-実線
 62
     7
100
AcDbLine
 10
191.1203894318
 20
741.9122571775
 30
0.0
 11
190.229980183
 21
741.0572069328
 31
0.0
  0
LINE
  5
254
330
1F
100
AcDbEntity
  8
0
  6
SLD-実線
 62
     7
100
AcDbLine
 10
190.229980183
 20
741.0572069328
 30
0.0
 11
190.0857084993
 21
741.2683886003
 31
0.0
  0
LINE
  5
255
330
1F
100
AcDbEntity
  8
0
  6
SLD-実線
 62
     7
100
AcDbLine
 10
190.6012436617
 20
744.1803192745
 30
0.0
 11
191.0377269759
 21
743.1439659376
 31
0.0
  0
LINE
  5
256
330
1F
100
AcDbEntity
  8
0
  6
SLD-実線
 62
     7
100
AcDbLine
 10
189.4936413728
 20
739.9417670152
 30
0.0
 11
189.3945889771
 21
739.626338735
 31
0.0
  0
LINE
  5
257
330
1F
100
AcDbEntity
  8
0
  6
SLD-実線
 62
     7
100
AcDbLine
 10
189.4936413728
 20
739.9417670152
 30
0.0
 11
190.5299947097
 21
740.3782503295
 31
0.0
  0
LINE
  5
258
330
1F
100
AcDbEntity
  8
0
  6
SLD-実線
 62
     7
100
AcDbLine
 10
190.229980183
 20
741.0572069328
 30
0.0
 11
189.2094912125
 21
740.5848213025
 31
0.0
  0
LINE
  5
259
330
1F
100
AcDbEntity
  8
0
  6
SLD-実線
 62
     7
100
AcDbLine
 10
189.2094912125
 20
740.5848213025
 30
0.0
 11
188.9095782301
 21
740.7239564168
 31
0.0
  0
ARC
  5
25A
330
1F
100
AcDbEntity
  8
0
  6
SLD-実線
 62
     7
100
AcDbCircle
 10
192.1667186469
 20
741.5072420004
 30
0.0
 40
3.097749835362404
100
AcDbArc
 50
197.3237855353
 51
210.3551698955
  0
LINE
  5
25B
330
1F
100
AcDbEntity
  8
0
  6
SLD-実線
 62
     7
100
AcDbLine
 10
817.7444341052
 20
742.8850910902
 30
0.0
 11
816.6722049828
 21
742.813131634
 31
0.0
  0
LINE
  5
25C
330
1F
100
AcDbEntity
  8
0
  6
SLD-実線
 62
     7
100
AcDbLine
 10
816.6722049828
 20
742.813131634
 30
0.0
 11
815.9278652468
 21
743.5882521481
 31
0.0
  0
LINE
  5
25D
330
1F
100
AcDbEntity
  8
0
  6
SLD-実線
 62
     7
100
AcDbLine
 10
815.9278652468
 20
743.5882521481
 30
0.0
 11
815.3834330632
 21
744.7643824172
 31
0.0
  0
ARC
  5
25E
330
1F
100
AcDbEntity
  8
0
  6
SLD-実線
 62
     7
100
AcDbCircle
 10
816.1667186469
 20
741.5072420004
 30
0.0
 40
3.350000000000113
100
AcDbArc
 50
103.5218752025
 51
124.1570802282
  0
LINE
  5
25F
330
1F
100
AcDbEntity
  8
0
  6
SLD-実線
 62
     7
100
AcDbLine
 10
814.2858153815
 20
744.2793716702
 30
0.0
 11
814.7888695572
 21
743.0849574587
 31
0.0
  0
LINE
  5
260
330
1F
100
AcDbEntity
  8
0
  6
SLD-実線
 62
     7
100
AcDbLine
 10
814.7888695572
 20
743.0849574587
 30
0.0
 11
814.8608290133
 21
742.0127283364
 31
0.0
  0
LINE
  5
261
330
1F
100
AcDbEntity
  8
0
  6
SLD-実線
 62
     7
100
AcDbLine
 10
814.8608290133
 20
742.0127283364
 30
0.0
 11
814.0857084993
 21
741.2683886003
 31
0.0
  0
LINE
  5
262
330
1F
100
AcDbEntity
  8
0
  6
SLD-実線
 62
     7
100
AcDbLine
 10
814.0857084993
 20
741.2683886003
 30
0.0
 11
812.9095782301
 21
740.7239564168
 31
0.0
  0
ARC
  5
263
330
1F
100
AcDbEntity
  8
0
  6
SLD-実線
 62
     7
100
AcDbCircle
 10
816.1667186469
 20
741.5072420004
 30
0.0
 40
3.349999999999955
100
AcDbArc
 50
193.5218752025
 51
214.1570802282
  0
LINE
  5
264
330
1F
100
AcDbEntity
  8
0
  6
SLD-実線
 62
     7
100
AcDbLine
 10
813.3945889771
 20
739.626338735
 30
0.0
 11
814.5890031886
 21
740.1293929107
 31
0.0
  0
LINE
  5
265
330
1F
100
AcDbEntity
  8
0
  6
SLD-実線
 62
     7
100
AcDbLine
 10
814.5890031886
 20
740.1293929107
 30
0.0
 11
815.6612323109
 21
740.2013523669
 31
0.0
  0
LINE
  5
266
330
1F
100
AcDbEntity
  8
0
  6
SLD-実線
 62
     7
100
AcDbLine
 10
815.6612323109
 20
740.2013523669
 30
0.0
 11
816.405572047
 21
739.4262318528
 31
0.0
  0
LINE
  5
267
330
1F
100
AcDbEntity
  8
0
  6
SLD-実線
 62
     7
100
AcDbLine
 10
816.405572047
 20
739.4262318528
 30
0.0
 11
816.9500042305
 21
738.2501015837
 31
0.0
  0
ARC
  5
268
330
1F
100
AcDbEntity
  8
0
  6
SLD-実線
 62
     7
100
AcDbCircle
 10
816.1667186469
 20
741.5072420004
 30
0.0
 40
3.350000000000038
100
AcDbArc
 50
283.5218752025
 51
304.1570802282
  0
LINE
  5
269
330
1F
100
AcDbEntity
  8
0
  6
SLD-実線
 62
     7
100
AcDbLine
 10
818.0476219123
 20
738.7351123307
 30
0.0
 11
817.5445677366
 21
739.9295265422
 31
0.0
  0
LINE
  5
26A
330
1F
100
AcDbEntity
  8
0
  6
SLD-実線
 62
     7
100
AcDbLine
 10
817.5445677366
 20
739.9295265422
 30
0.0
 11
817.4726082805
 21
741.0017556645
 31
0.0
  0
LINE
  5
26B
330
1F
100
AcDbEntity
  8
0
  6
SLD-実線
 62
     7
100
AcDbLine
 10
817.4726082805
 20
741.0017556645
 30
0.0
 11
818.2477287945
 21
741.7460954006
 31
0.0
  0
LINE
  5
26C
330
1F
100
AcDbEntity
  8
0
  6
SLD-実線
 62
     7
100
AcDbLine
 10
818.2477287945
 20
741.7460954006
 30
0.0
 11
819.4238590636
 21
742.2905275841
 31
0.0
  0
ARC
  5
26D
330
1F
100
AcDbEntity
  8
0
  6
SLD-実線
 62
     7
100
AcDbCircle
 10
816.1667186469
 20
741.5072420004
 30
0.0
 40
3.350000000000019
100
AcDbArc
 50
13.5218752025
 51
34.1570802282
  0
LINE
  5
26E
330
1F
100
AcDbEntity
  8
0
  6
SLD-実線
 62
     7
100
AcDbLine
 10
818.9388483167
 20
743.3881452659
 30
0.0
 11
817.7444341052
 21
742.8850910902
 31
0.0
  0
CIRCLE
  5
26F
330
1F
100
AcDbEntity
  8
0
  6
SLD-実線
 62
     7
100
AcDbCircle
 10
816.1667186469
 20
741.5072420004
 30
0.0
 40
6.000000000000012
  0
LINE
  5
270
330
1F
100
AcDbEntity
  8
0
  6
SLD-実線
 62
     7
100
AcDbLine
 10
819.1239460812
 20
742.4296626984
 30
0.0
 11
819.4238590636
 21
742.2905275841
 31
0.0
  0
ARC
  5
271
330
1F
100
AcDbEntity
  8
0
  6
SLD-実線
 62
     7
100
AcDbCircle
 10
816.1667186469
 20
741.5072420004
 30
0.0
 40
3.097749835362479
100
AcDbArc
 50
17.3237855353
 51
30.3551698954
  0
LINE
  5
272
330
1F
100
AcDbEntity
  8
0
  6
SLD-実線
 62
     7
100
AcDbLine
 10
818.839795921
 20
743.0727169857
 30
0.0
 11
818.9388483167
 21
743.3881452659
 31
0.0
  0
LINE
  5
273
330
1F
100
AcDbEntity
  8
0
  6
SLD-実線
 62
     7
100
AcDbLine
 10
818.1034571108
 20
741.9572770681
 30
0.0
 11
818.2477287945
 21
741.7460954006
 31
0.0
  0
LINE
  5
274
330
1F
100
AcDbEntity
  8
0
  6
SLD-実線
 62
     7
100
AcDbLine
 10
818.1034571108
 20
741.9572770681
 30
0.0
 11
819.1239460812
 21
742.4296626984
 31
0.0
  0
LINE
  5
275
330
1F
100
AcDbEntity
  8
0
  6
SLD-実線
 62
     7
100
AcDbLine
 10
818.839795921
 20
743.0727169857
 30
0.0
 11
817.803442584
 21
742.6362336714
 31
0.0
  0
LINE
  5
276
330
1F
100
AcDbEntity
  8
0
  6
SLD-実線
 62
     7
100
AcDbLine
 10
817.803442584
 20
742.6362336714
 30
0.0
 11
817.7444341052
 21
742.8850910902
 31
0.0
  0
LINE
  5
277
330
1F
100
AcDbEntity
  8
0
  6
SLD-実線
 62
     7
100
AcDbLine
 10
817.213047862
 20
741.1022268234
 30
0.0
 11
817.4726082805
 21
741.0017556645
 31
0.0
  0
LINE
  5
278
330
1F
100
AcDbEntity
  8
0
  6
SLD-実線
 62
     7
100
AcDbLine
 10
817.213047862
 20
741.1022268234
 30
0.0
 11
818.1034571108
 21
741.9572770681
 31
0.0
  0
LINE
  5
279
330
1F
100
AcDbEntity
  8
0
  6
SLD-実線
 62
     7
100
AcDbLine
 10
817.0891393448
 20
738.5500145661
 30
0.0
 11
816.9500042305
 21
738.2501015837
 31
0.0
  0
ARC
  5
27A
330
1F
100
AcDbEntity
  8
0
  6
SLD-実線
 62
     7
100
AcDbCircle
 10
816.1667186469
 20
741.5072420004
 30
0.0
 40
3.097749835362346
100
AcDbArc
 50
287.3237855353
 51
300.3551698954
  0
LINE
  5
27B
330
1F
100
AcDbEntity
  8
0
  6
SLD-実線
 62
     7
100
AcDbLine
 10
817.7321936321
 20
738.8341647264
 30
0.0
 11
818.0476219123
 21
738.7351123307
 31
0.0
  0
LINE
  5
27C
330
1F
100
AcDbEntity
  8
0
  6
SLD-実線
 62
     7
100
AcDbLine
 10
817.2957103179
 20
739.8705180633
 30
0.0
 11
817.5445677366
 21
739.9295265422
 31
0.0
  0
LINE
  5
27D
330
1F
100
AcDbEntity
  8
0
  6
SLD-実線
 62
     7
100
AcDbLine
 10
817.2957103179
 20
739.8705180633
 30
0.0
 11
817.213047862
 21
741.1022268234
 31
0.0
  0
LINE
  5
27E
330
1F
100
AcDbEntity
  8
0
  6
SLD-実線
 62
     7
100
AcDbLine
 10
817.7321936321
 20
738.8341647264
 30
0.0
 11
817.2957103179
 21
739.8705180633
 31
0.0
  0
LINE
  5
27F
330
1F
100
AcDbEntity
  8
0
  6
SLD-実線
 62
     7
100
AcDbLine
 10
817.803442584
 20
742.6362336714
 30
0.0
 11
816.5717338239
 21
742.5535712155
 31
0.0
  0
LINE
  5
280
330
1F
100
AcDbEntity
  8
0
  6
SLD-実線
 62
     7
100
AcDbLine
 10
816.5717338239
 20
742.5535712155
 30
0.0
 11
816.6722049828
 21
742.813131634
 31
0.0
  0
LINE
  5
281
330
1F
100
AcDbEntity
  8
0
  6
SLD-実線
 62
     7
100
AcDbLine
 10
816.6167537146
 20
739.5705035366
 30
0.0
 11
816.405572047
 21
739.4262318528
 31
0.0
  0
LINE
  5
282
330
1F
100
AcDbEntity
  8
0
  6
SLD-実線
 62
     7
100
AcDbLine
 10
816.6167537146
 20
739.5705035366
 30
0.0
 11
817.0891393448
 21
738.5500145661
 31
0.0
  0
LINE
  5
283
330
1F
100
AcDbEntity
  8
0
  6
SLD-実線
 62
     7
100
AcDbLine
 10
816.5717338239
 20
742.5535712155
 30
0.0
 11
815.7166835792
 21
743.4439804643
 31
0.0
  0
LINE
  5
284
330
1F
100
AcDbEntity
  8
0
  6
SLD-実線
 62
     7
100
AcDbLine
 10
815.7166835792
 20
743.4439804643
 30
0.0
 11
815.9278652468
 21
743.5882521481
 31
0.0
  0
LINE
  5
285
330
1F
100
AcDbEntity
  8
0
  6
SLD-実線
 62
     7
100
AcDbLine
 10
815.7617034699
 20
740.4609127854
 30
0.0
 11
815.6612323109
 21
740.2013523669
 31
0.0
  0
LINE
  5
286
330
1F
100
AcDbEntity
  8
0
  6
SLD-実線
 62
     7
100
AcDbLine
 10
815.7617034699
 20
740.4609127854
 30
0.0
 11
816.6167537146
 21
739.5705035366
 31
0.0
  0
LINE
  5
287
330
1F
100
AcDbEntity
  8
0
  6
SLD-実線
 62
     7
100
AcDbLine
 10
814.5299947097
 20
740.3782503295
 30
0.0
 11
814.5890031886
 21
740.1293929107
 31
0.0
  0
LINE
  5
288
330
1F
100
AcDbEntity
  8
0
  6
SLD-実線
 62
     7
100
AcDbLine
 10
814.5299947097
 20
740.3782503295
 30
0.0
 11
815.7617034699
 21
740.4609127854
 31
0.0
  0
LINE
  5
289
330
1F
100
AcDbEntity
  8
0
  6
SLD-実線
 62
     7
100
AcDbLine
 10
815.7166835792
 20
743.4439804643
 30
0.0
 11
815.2442979489
 21
744.4644694348
 31
0.0
  0
LINE
  5
28A
330
1F
100
AcDbEntity
  8
0
  6
SLD-実線
 62
     7
100
AcDbLine
 10
815.2442979489
 20
744.4644694348
 30
0.0
 11
815.3834330632
 21
744.7643824172
 31
0.0
  0
LINE
  5
28B
330
1F
100
AcDbEntity
  8
0
  6
SLD-実線
 62
     7
100
AcDbLine
 10
815.0377269759
 20
743.1439659376
 30
0.0
 11
814.7888695572
 21
743.0849574587
 31
0.0
  0
LINE
  5
28C
330
1F
100
AcDbEntity
  8
0
  6
SLD-実線
 62
     7
100
AcDbLine
 10
815.0377269759
 20
743.1439659376
 30
0.0
 11
815.1203894318
 21
741.9122571775
 31
0.0
  0
LINE
  5
28D
330
1F
100
AcDbEntity
  8
0
  6
SLD-実線
 62
     7
100
AcDbLine
 10
815.1203894318
 20
741.9122571775
 30
0.0
 11
814.8608290133
 21
742.0127283364
 31
0.0
  0
LINE
  5
28E
330
1F
100
AcDbEntity
  8
0
  6
SLD-実線
 62
     7
100
AcDbLine
 10
815.1203894318
 20
741.9122571775
 30
0.0
 11
814.229980183
 21
741.0572069328
 31
0.0
  0
LINE
  5
28F
330
1F
100
AcDbEntity
  8
0
  6
SLD-実線
 62
     7
100
AcDbLine
 10
814.229980183
 20
741.0572069328
 30
0.0
 11
814.0857084993
 21
741.2683886003
 31
0.0
  0
ARC
  5
290
330
1F
100
AcDbEntity
  8
0
  6
SLD-実線
 62
     7
100
AcDbCircle
 10
816.1667186469
 20
741.5072420004
 30
0.0
 40
3.097749835362446
100
AcDbArc
 50
107.3237855353
 51
120.3551698955
  0
LINE
  5
291
330
1F
100
AcDbEntity
  8
0
  6
SLD-実線
 62
     7
100
AcDbLine
 10
814.6012436617
 20
744.1803192745
 30
0.0
 11
814.2858153815
 21
744.2793716702
 31
0.0
  0
LINE
  5
292
330
1F
100
AcDbEntity
  8
0
  6
SLD-実線
 62
     7
100
AcDbLine
 10
814.6012436617
 20
744.1803192745
 30
0.0
 11
815.0377269759
 21
743.1439659376
 31
0.0
  0
LINE
  5
293
330
1F
100
AcDbEntity
  8
0
  6
SLD-実線
 62
     7
100
AcDbLine
 10
813.4936413728
 20
739.9417670152
 30
0.0
 11
813.3945889771
 21
739.626338735
 31
0.0
  0
LINE
  5
294
330
1F
100
AcDbEntity
  8
0
  6
SLD-実線
 62
     7
100
AcDbLine
 10
813.4936413728
 20
739.9417670152
 30
0.0
 11
814.5299947097
 21
740.3782503295
 31
0.0
  0
LINE
  5
295
330
1F
100
AcDbEntity
  8
0
  6
SLD-実線
 62
     7
100
AcDbLine
 10
814.229980183
 20
741.0572069328
 30
0.0
 11
813.2094912125
 21
740.5848213025
 31
0.0
  0
LINE
  5
296
330
1F
100
AcDbEntity
  8
0
  6
SLD-実線
 62
     7
100
AcDbLine
 10
813.2094912125
 20
740.5848213025
 30
0.0
 11
812.9095782301
 21
740.7239564168
 31
0.0
  0
ARC
  5
297
330
1F
100
AcDbEntity
  8
0
  6
SLD-実線
 62
     7
100
AcDbCircle
 10
816.1667186469
 20
741.5072420004
 30
0.0
 40
3.097749835362446
100
AcDbArc
 50
197.3237855353
 51
210.3551698955
  0
LINE
  5
298
330
1F
100
AcDbEntity
  8
0
  6
SLD-実線
 62
     7
100
AcDbLine
 10
817.7444341052
 20
298.8850910902
 30
0.0
 11
816.6722049828
 21
298.813131634
 31
0.0
  0
LINE
  5
299
330
1F
100
AcDbEntity
  8
0
  6
SLD-実線
 62
     7
100
AcDbLine
 10
816.6722049828
 20
298.813131634
 30
0.0
 11
815.9278652468
 21
299.5882521481
 31
0.0
  0
LINE
  5
29A
330
1F
100
AcDbEntity
  8
0
  6
SLD-実線
 62
     7
100
AcDbLine
 10
815.9278652468
 20
299.5882521481
 30
0.0
 11
815.3834330632
 21
300.7643824172
 31
0.0
  0
ARC
  5
29B
330
1F
100
AcDbEntity
  8
0
  6
SLD-実線
 62
     7
100
AcDbCircle
 10
816.1667186469
 20
297.5072420004
 30
0.0
 40
3.350000000000019
100
AcDbArc
 50
103.5218752025
 51
124.1570802282
  0
LINE
  5
29C
330
1F
100
AcDbEntity
  8
0
  6
SLD-実線
 62
     7
100
AcDbLine
 10
814.2858153815
 20
300.2793716702
 30
0.0
 11
814.7888695572
 21
299.0849574587
 31
0.0
  0
LINE
  5
29D
330
1F
100
AcDbEntity
  8
0
  6
SLD-実線
 62
     7
100
AcDbLine
 10
814.7888695572
 20
299.0849574587
 30
0.0
 11
814.8608290133
 21
298.0127283364
 31
0.0
  0
LINE
  5
29E
330
1F
100
AcDbEntity
  8
0
  6
SLD-実線
 62
     7
100
AcDbLine
 10
814.8608290133
 20
298.0127283364
 30
0.0
 11
814.0857084993
 21
297.2683886003
 31
0.0
  0
LINE
  5
29F
330
1F
100
AcDbEntity
  8
0
  6
SLD-実線
 62
     7
100
AcDbLine
 10
814.0857084993
 20
297.2683886003
 30
0.0
 11
812.9095782301
 21
296.7239564168
 31
0.0
  0
ARC
  5
2A0
330
1F
100
AcDbEntity
  8
0
  6
SLD-実線
 62
     7
100
AcDbCircle
 10
816.1667186469
 20
297.5072420004
 30
0.0
 40
3.349999999999955
100
AcDbArc
 50
193.5218752025
 51
214.1570802282
  0
LINE
  5
2A1
330
1F
100
AcDbEntity
  8
0
  6
SLD-実線
 62
     7
100
AcDbLine
 10
813.3945889771
 20
295.626338735
 30
0.0
 11
814.5890031886
 21
296.1293929107
 31
0.0
  0
LINE
  5
2A2
330
1F
100
AcDbEntity
  8
0
  6
SLD-実線
 62
     7
100
AcDbLine
 10
814.5890031886
 20
296.1293929107
 30
0.0
 11
815.6612323109
 21
296.2013523669
 31
0.0
  0
LINE
  5
2A3
330
1F
100
AcDbEntity
  8
0
  6
SLD-実線
 62
     7
100
AcDbLine
 10
815.6612323109
 20
296.2013523669
 30
0.0
 11
816.405572047
 21
295.4262318528
 31
0.0
  0
LINE
  5
2A4
330
1F
100
AcDbEntity
  8
0
  6
SLD-実線
 62
     7
100
AcDbLine
 10
816.405572047
 20
295.4262318528
 30
0.0
 11
816.9500042305
 21
294.2501015837
 31
0.0
  0
ARC
  5
2A5
330
1F
100
AcDbEntity
  8
0
  6
SLD-実線
 62
     7
100
AcDbCircle
 10
816.1667186469
 20
297.5072420004
 30
0.0
 40
3.350000000000019
100
AcDbArc
 50
283.5218752025
 51
304.1570802282
  0
LINE
  5
2A6
330
1F
100
AcDbEntity
  8
0
  6
SLD-実線
 62
     7
100
AcDbLine
 10
818.0476219123
 20
294.7351123307
 30
0.0
 11
817.5445677366
 21
295.9295265422
 31
0.0
  0
LINE
  5
2A7
330
1F
100
AcDbEntity
  8
0
  6
SLD-実線
 62
     7
100
AcDbLine
 10
817.5445677366
 20
295.9295265422
 30
0.0
 11
817.4726082805
 21
297.0017556645
 31
0.0
  0
LINE
  5
2A8
330
1F
100
AcDbEntity
  8
0
  6
SLD-実線
 62
     7
100
AcDbLine
 10
817.4726082805
 20
297.0017556645
 30
0.0
 11
818.2477287945
 21
297.7460954006
 31
0.0
  0
LINE
  5
2A9
330
1F
100
AcDbEntity
  8
0
  6
SLD-実線
 62
     7
100
AcDbLine
 10
818.2477287945
 20
297.7460954006
 30
0.0
 11
819.4238590636
 21
298.2905275841
 31
0.0
  0
ARC
  5
2AA
330
1F
100
AcDbEntity
  8
0
  6
SLD-実線
 62
     7
100
AcDbCircle
 10
816.1667186469
 20
297.5072420004
 30
0.0
 40
3.349999999999955
100
AcDbArc
 50
13.5218752025
 51
34.1570802282
  0
LINE
  5
2AB
330
1F
100
AcDbEntity
  8
0
  6
SLD-実線
 62
     7
100
AcDbLine
 10
818.9388483167
 20
299.3881452659
 30
0.0
 11
817.7444341052
 21
298.8850910902
 31
0.0
  0
CIRCLE
  5
2AC
330
1F
100
AcDbEntity
  8
0
  6
SLD-実線
 62
     7
100
AcDbCircle
 10
816.1667186469
 20
297.5072420004
 30
0.0
 40
5.99999999999996
  0
LINE
  5
2AD
330
1F
100
AcDbEntity
  8
0
  6
SLD-実線
 62
     7
100
AcDbLine
 10
819.1239460812
 20
298.4296626984
 30
0.0
 11
819.4238590636
 21
298.2905275841
 31
0.0
  0
ARC
  5
2AE
330
1F
100
AcDbEntity
  8
0
  6
SLD-実線
 62
     7
100
AcDbCircle
 10
816.1667186469
 20
297.5072420004
 30
0.0
 40
3.097749835362463
100
AcDbArc
 50
17.3237855353
 51
30.3551698954
  0
LINE
  5
2AF
330
1F
100
AcDbEntity
  8
0
  6
SLD-実線
 62
     7
100
AcDbLine
 10
818.839795921
 20
299.0727169857
 30
0.0
 11
818.9388483167
 21
299.3881452659
 31
0.0
  0
LINE
  5
2B0
330
1F
100
AcDbEntity
  8
0
  6
SLD-実線
 62
     7
100
AcDbLine
 10
818.1034571108
 20
297.9572770681
 30
0.0
 11
818.2477287945
 21
297.7460954006
 31
0.0
  0
LINE
  5
2B1
330
1F
100
AcDbEntity
  8
0
  6
SLD-実線
 62
     7
100
AcDbLine
 10
818.1034571108
 20
297.9572770681
 30
0.0
 11
819.1239460812
 21
298.4296626984
 31
0.0
  0
LINE
  5
2B2
330
1F
100
AcDbEntity
  8
0
  6
SLD-実線
 62
     7
100
AcDbLine
 10
818.839795921
 20
299.0727169857
 30
0.0
 11
817.803442584
 21
298.6362336714
 31
0.0
  0
LINE
  5
2B3
330
1F
100
AcDbEntity
  8
0
  6
SLD-実線
 62
     7
100
AcDbLine
 10
817.803442584
 20
298.6362336714
 30
0.0
 11
817.7444341052
 21
298.8850910902
 31
0.0
  0
LINE
  5
2B4
330
1F
100
AcDbEntity
  8
0
  6
SLD-実線
 62
     7
100
AcDbLine
 10
817.213047862
 20
297.1022268234
 30
0.0
 11
817.4726082805
 21
297.0017556645
 31
0.0
  0
LINE
  5
2B5
330
1F
100
AcDbEntity
  8
0
  6
SLD-実線
 62
     7
100
AcDbLine
 10
817.213047862
 20
297.1022268234
 30
0.0
 11
818.1034571108
 21
297.9572770681
 31
0.0
  0
LINE
  5
2B6
330
1F
100
AcDbEntity
  8
0
  6
SLD-実線
 62
     7
100
AcDbLine
 10
817.0891393448
 20
294.5500145661
 30
0.0
 11
816.9500042305
 21
294.2501015837
 31
0.0
  0
ARC
  5
2B7
330
1F
100
AcDbEntity
  8
0
  6
SLD-実線
 62
     7
100
AcDbCircle
 10
816.1667186469
 20
297.5072420004
 30
0.0
 40
3.097749835362391
100
AcDbArc
 50
287.3237855353
 51
300.3551698954
  0
LINE
  5
2B8
330
1F
100
AcDbEntity
  8
0
  6
SLD-実線
 62
     7
100
AcDbLine
 10
817.7321936321
 20
294.8341647264
 30
0.0
 11
818.0476219123
 21
294.7351123307
 31
0.0
  0
LINE
  5
2B9
330
1F
100
AcDbEntity
  8
0
  6
SLD-実線
 62
     7
100
AcDbLine
 10
817.2957103179
 20
295.8705180633
 30
0.0
 11
817.5445677366
 21
295.9295265422
 31
0.0
  0
LINE
  5
2BA
330
1F
100
AcDbEntity
  8
0
  6
SLD-実線
 62
     7
100
AcDbLine
 10
817.2957103179
 20
295.8705180633
 30
0.0
 11
817.213047862
 21
297.1022268234
 31
0.0
  0
LINE
  5
2BB
330
1F
100
AcDbEntity
  8
0
  6
SLD-実線
 62
     7
100
AcDbLine
 10
817.7321936321
 20
294.8341647264
 30
0.0
 11
817.2957103179
 21
295.8705180633
 31
0.0
  0
LINE
  5
2BC
330
1F
100
AcDbEntity
  8
0
  6
SLD-実線
 62
     7
100
AcDbLine
 10
817.803442584
 20
298.6362336714
 30
0.0
 11
816.5717338239
 21
298.5535712155
 31
0.0
  0
LINE
  5
2BD
330
1F
100
AcDbEntity
  8
0
  6
SLD-実線
 62
     7
100
AcDbLine
 10
816.5717338239
 20
298.5535712155
 30
0.0
 11
816.6722049828
 21
298.813131634
 31
0.0
  0
LINE
  5
2BE
330
1F
100
AcDbEntity
  8
0
  6
SLD-実線
 62
     7
100
AcDbLine
 10
816.6167537146
 20
295.5705035366
 30
0.0
 11
816.405572047
 21
295.4262318528
 31
0.0
  0
LINE
  5
2BF
330
1F
100
AcDbEntity
  8
0
  6
SLD-実線
 62
     7
100
AcDbLine
 10
816.6167537146
 20
295.5705035366
 30
0.0
 11
817.0891393448
 21
294.5500145661
 31
0.0
  0
LINE
  5
2C0
330
1F
100
AcDbEntity
  8
0
  6
SLD-実線
 62
     7
100
AcDbLine
 10
815.7617034699
 20
296.4609127854
 30
0.0
 11
815.6612323109
 21
296.2013523669
 31
0.0
  0
LINE
  5
2C1
330
1F
100
AcDbEntity
  8
0
  6
SLD-実線
 62
     7
100
AcDbLine
 10
815.7617034699
 20
296.4609127854
 30
0.0
 11
816.6167537146
 21
295.5705035366
 31
0.0
  0
LINE
  5
2C2
330
1F
100
AcDbEntity
  8
0
  6
SLD-実線
 62
     7
100
AcDbLine
 10
816.5717338239
 20
298.5535712155
 30
0.0
 11
815.7166835792
 21
299.4439804643
 31
0.0
  0
LINE
  5
2C3
330
1F
100
AcDbEntity
  8
0
  6
SLD-実線
 62
     7
100
AcDbLine
 10
815.7166835792
 20
299.4439804643
 30
0.0
 11
815.9278652468
 21
299.5882521481
 31
0.0
  0
LINE
  5
2C4
330
1F
100
AcDbEntity
  8
0
  6
SLD-実線
 62
     7
100
AcDbLine
 10
815.7166835792
 20
299.4439804643
 30
0.0
 11
815.2442979489
 21
300.4644694348
 31
0.0
  0
LINE
  5
2C5
330
1F
100
AcDbEntity
  8
0
  6
SLD-実線
 62
     7
100
AcDbLine
 10
815.2442979489
 20
300.4644694348
 30
0.0
 11
815.3834330632
 21
300.7643824172
 31
0.0
  0
LINE
  5
2C6
330
1F
100
AcDbEntity
  8
0
  6
SLD-実線
 62
     7
100
AcDbLine
 10
814.5299947097
 20
296.3782503295
 30
0.0
 11
814.5890031886
 21
296.1293929107
 31
0.0
  0
LINE
  5
2C7
330
1F
100
AcDbEntity
  8
0
  6
SLD-実線
 62
     7
100
AcDbLine
 10
814.5299947097
 20
296.3782503295
 30
0.0
 11
815.7617034699
 21
296.4609127854
 31
0.0
  0
LINE
  5
2C8
330
1F
100
AcDbEntity
  8
0
  6
SLD-実線
 62
     7
100
AcDbLine
 10
815.0377269759
 20
299.1439659376
 30
0.0
 11
814.7888695572
 21
299.0849574587
 31
0.0
  0
LINE
  5
2C9
330
1F
100
AcDbEntity
  8
0
  6
SLD-実線
 62
     7
100
AcDbLine
 10
815.0377269759
 20
299.1439659376
 30
0.0
 11
815.1203894318
 21
297.9122571775
 31
0.0
  0
LINE
  5
2CA
330
1F
100
AcDbEntity
  8
0
  6
SLD-実線
 62
     7
100
AcDbLine
 10
815.1203894318
 20
297.9122571775
 30
0.0
 11
814.8608290133
 21
298.0127283364
 31
0.0
  0
ARC
  5
2CB
330
1F
100
AcDbEntity
  8
0
  6
SLD-実線
 62
     7
100
AcDbCircle
 10
816.1667186469
 20
297.5072420004
 30
0.0
 40
3.097749835362404
100
AcDbArc
 50
107.3237855353
 51
120.3551698955
  0
LINE
  5
2CC
330
1F
100
AcDbEntity
  8
0
  6
SLD-実線
 62
     7
100
AcDbLine
 10
814.6012436617
 20
300.1803192745
 30
0.0
 11
814.2858153815
 21
300.2793716702
 31
0.0
  0
LINE
  5
2CD
330
1F
100
AcDbEntity
  8
0
  6
SLD-実線
 62
     7
100
AcDbLine
 10
815.1203894318
 20
297.9122571775
 30
0.0
 11
814.229980183
 21
297.0572069328
 31
0.0
  0
LINE
  5
2CE
330
1F
100
AcDbEntity
  8
0
  6
SLD-実線
 62
     7
100
AcDbLine
 10
814.229980183
 20
297.0572069328
 30
0.0
 11
814.0857084993
 21
297.2683886003
 31
0.0
  0
LINE
  5
2CF
330
1F
100
AcDbEntity
  8
0
  6
SLD-実線
 62
     7
100
AcDbLine
 10
814.6012436617
 20
300.1803192745
 30
0.0
 11
815.0377269759
 21
299.1439659376
 31
0.0
  0
LINE
  5
2D0
330
1F
100
AcDbEntity
  8
0
  6
SLD-実線
 62
     7
100
AcDbLine
 10
813.4936413728
 20
295.9417670152
 30
0.0
 11
813.3945889771
 21
295.626338735
 31
0.0
  0
LINE
  5
2D1
330
1F
100
AcDbEntity
  8
0
  6
SLD-実線
 62
     7
100
AcDbLine
 10
813.4936413728
 20
295.9417670152
 30
0.0
 11
814.5299947097
 21
296.3782503295
 31
0.0
  0
LINE
  5
2D2
330
1F
100
AcDbEntity
  8
0
  6
SLD-実線
 62
     7
100
AcDbLine
 10
814.229980183
 20
297.0572069328
 30
0.0
 11
813.2094912125
 21
296.5848213025
 31
0.0
  0
LINE
  5
2D3
330
1F
100
AcDbEntity
  8
0
  6
SLD-実線
 62
     7
100
AcDbLine
 10
813.2094912125
 20
296.5848213025
 30
0.0
 11
812.9095782301
 21
296.7239564168
 31
0.0
  0
ARC
  5
2D4
330
1F
100
AcDbEntity
  8
0
  6
SLD-実線
 62
     7
100
AcDbCircle
 10
816.1667186469
 20
297.5072420004
 30
0.0
 40
3.097749835362446
100
AcDbArc
 50
197.3237855353
 51
210.3551698955
  0
LINE
  5
2D5
330
1F
100
AcDbEntity
  8
0
  6
SLD-実線
 62
     7
100
AcDbLine
 10
157.7444341052
 20
742.8850910902
 30
0.0
 11
156.6722049828
 21
742.813131634
 31
0.0
  0
LINE
  5
2D6
330
1F
100
AcDbEntity
  8
0
  6
SLD-実線
 62
     7
100
AcDbLine
 10
156.6722049828
 20
742.813131634
 30
0.0
 11
155.9278652468
 21
743.5882521481
 31
0.0
  0
LINE
  5
2D7
330
1F
100
AcDbEntity
  8
0
  6
SLD-実線
 62
     7
100
AcDbLine
 10
155.9278652468
 20
743.5882521481
 30
0.0
 11
155.3834330632
 21
744.7643824172
 31
0.0
  0
ARC
  5
2D8
330
1F
100
AcDbEntity
  8
0
  6
SLD-実線
 62
     7
100
AcDbCircle
 10
156.1667186469
 20
741.5072420004
 30
0.0
 40
3.350000000000081
100
AcDbArc
 50
103.5218752025
 51
124.1570802282
  0
LINE
  5
2D9
330
1F
100
AcDbEntity
  8
0
  6
SLD-実線
 62
     7
100
AcDbLine
 10
154.2858153815
 20
744.2793716702
 30
0.0
 11
154.7888695572
 21
743.0849574587
 31
0.0
  0
LINE
  5
2DA
330
1F
100
AcDbEntity
  8
0
  6
SLD-実線
 62
     7
100
AcDbLine
 10
154.7888695572
 20
743.0849574587
 30
0.0
 11
154.8608290133
 21
742.0127283364
 31
0.0
  0
LINE
  5
2DB
330
1F
100
AcDbEntity
  8
0
  6
SLD-実線
 62
     7
100
AcDbLine
 10
154.8608290133
 20
742.0127283364
 30
0.0
 11
154.0857084993
 21
741.2683886003
 31
0.0
  0
LINE
  5
2DC
330
1F
100
AcDbEntity
  8
0
  6
SLD-実線
 62
     7
100
AcDbLine
 10
154.0857084993
 20
741.2683886003
 30
0.0
 11
152.9095782301
 21
740.7239564168
 31
0.0
  0
ARC
  5
2DD
330
1F
100
AcDbEntity
  8
0
  6
SLD-実線
 62
     7
100
AcDbCircle
 10
156.1667186469
 20
741.5072420004
 30
0.0
 40
3.349999999999982
100
AcDbArc
 50
193.5218752025
 51
214.1570802282
  0
LINE
  5
2DE
330
1F
100
AcDbEntity
  8
0
  6
SLD-実線
 62
     7
100
AcDbLine
 10
153.3945889771
 20
739.626338735
 30
0.0
 11
154.5890031886
 21
740.1293929107
 31
0.0
  0
LINE
  5
2DF
330
1F
100
AcDbEntity
  8
0
  6
SLD-実線
 62
     7
100
AcDbLine
 10
154.5890031886
 20
740.1293929107
 30
0.0
 11
155.6612323109
 21
740.2013523669
 31
0.0
  0
LINE
  5
2E0
330
1F
100
AcDbEntity
  8
0
  6
SLD-実線
 62
     7
100
AcDbLine
 10
155.6612323109
 20
740.2013523669
 30
0.0
 11
156.405572047
 21
739.4262318528
 31
0.0
  0
LINE
  5
2E1
330
1F
100
AcDbEntity
  8
0
  6
SLD-実線
 62
     7
100
AcDbLine
 10
156.405572047
 20
739.4262318528
 30
0.0
 11
156.9500042305
 21
738.2501015837
 31
0.0
  0
ARC
  5
2E2
330
1F
100
AcDbEntity
  8
0
  6
SLD-実線
 62
     7
100
AcDbCircle
 10
156.1667186469
 20
741.5072420004
 30
0.0
 40
3.350000000000051
100
AcDbArc
 50
283.5218752025
 51
304.1570802282
  0
LINE
  5
2E3
330
1F
100
AcDbEntity
  8
0
  6
SLD-実線
 62
     7
100
AcDbLine
 10
158.0476219123
 20
738.7351123307
 30
0.0
 11
157.5445677366
 21
739.9295265422
 31
0.0
  0
LINE
  5
2E4
330
1F
100
AcDbEntity
  8
0
  6
SLD-実線
 62
     7
100
AcDbLine
 10
157.5445677366
 20
739.9295265422
 30
0.0
 11
157.4726082805
 21
741.0017556645
 31
0.0
  0
LINE
  5
2E5
330
1F
100
AcDbEntity
  8
0
  6
SLD-実線
 62
     7
100
AcDbLine
 10
157.4726082805
 20
741.0017556645
 30
0.0
 11
158.2477287945
 21
741.7460954006
 31
0.0
  0
LINE
  5
2E6
330
1F
100
AcDbEntity
  8
0
  6
SLD-実線
 62
     7
100
AcDbLine
 10
158.2477287945
 20
741.7460954006
 30
0.0
 11
159.4238590636
 21
742.2905275841
 31
0.0
  0
ARC
  5
2E7
330
1F
100
AcDbEntity
  8
0
  6
SLD-実線
 62
     7
100
AcDbCircle
 10
156.1667186469
 20
741.5072420004
 30
0.0
 40
3.350000000000037
100
AcDbArc
 50
13.5218752025
 51
34.1570802282
  0
LINE
  5
2E8
330
1F
100
AcDbEntity
  8
0
  6
SLD-実線
 62
     7
100
AcDbLine
 10
158.9388483167
 20
743.3881452659
 30
0.0
 11
157.7444341052
 21
742.8850910902
 31
0.0
  0
CIRCLE
  5
2E9
330
1F
100
AcDbEntity
  8
0
  6
SLD-実線
 62
     7
100
AcDbCircle
 10
156.1667186469
 20
741.5072420004
 30
0.0
 40
6.000000000000036
  0
LINE
  5
2EA
330
1F
100
AcDbEntity
  8
0
  6
SLD-実線
 62
     7
100
AcDbLine
 10
159.1239460812
 20
742.4296626984
 30
0.0
 11
159.4238590636
 21
742.2905275841
 31
0.0
  0
ARC
  5
2EB
330
1F
100
AcDbEntity
  8
0
  6
SLD-実線
 62
     7
100
AcDbCircle
 10
156.1667186469
 20
741.5072420004
 30
0.0
 40
3.097749835362425
100
AcDbArc
 50
17.3237855353
 51
30.3551698954
  0
LINE
  5
2EC
330
1F
100
AcDbEntity
  8
0
  6
SLD-実線
 62
     7
100
AcDbLine
 10
158.839795921
 20
743.0727169857
 30
0.0
 11
158.9388483167
 21
743.3881452659
 31
0.0
  0
LINE
  5
2ED
330
1F
100
AcDbEntity
  8
0
  6
SLD-実線
 62
     7
100
AcDbLine
 10
158.1034571108
 20
741.9572770681
 30
0.0
 11
158.2477287945
 21
741.7460954006
 31
0.0
  0
LINE
  5
2EE
330
1F
100
AcDbEntity
  8
0
  6
SLD-実線
 62
     7
100
AcDbLine
 10
158.1034571108
 20
741.9572770681
 30
0.0
 11
159.1239460812
 21
742.4296626984
 31
0.0
  0
LINE
  5
2EF
330
1F
100
AcDbEntity
  8
0
  6
SLD-実線
 62
     7
100
AcDbLine
 10
158.839795921
 20
743.0727169857
 30
0.0
 11
157.803442584
 21
742.6362336714
 31
0.0
  0
LINE
  5
2F0
330
1F
100
AcDbEntity
  8
0
  6
SLD-実線
 62
     7
100
AcDbLine
 10
157.803442584
 20
742.6362336714
 30
0.0
 11
157.7444341052
 21
742.8850910902
 31
0.0
  0
LINE
  5
2F1
330
1F
100
AcDbEntity
  8
0
  6
SLD-実線
 62
     7
100
AcDbLine
 10
157.213047862
 20
741.1022268234
 30
0.0
 11
157.4726082805
 21
741.0017556645
 31
0.0
  0
LINE
  5
2F2
330
1F
100
AcDbEntity
  8
0
  6
SLD-実線
 62
     7
100
AcDbLine
 10
157.213047862
 20
741.1022268234
 30
0.0
 11
158.1034571108
 21
741.9572770681
 31
0.0
  0
LINE
  5
2F3
330
1F
100
AcDbEntity
  8
0
  6
SLD-実線
 62
     7
100
AcDbLine
 10
157.7321936321
 20
738.8341647264
 30
0.0
 11
158.0476219123
 21
738.7351123307
 31
0.0
  0
LINE
  5
2F4
330
1F
100
AcDbEntity
  8
0
  6
SLD-実線
 62
     7
100
AcDbLine
 10
157.7321936321
 20
738.8341647264
 30
0.0
 11
157.2957103179
 21
739.8705180633
 31
0.0
  0
LINE
  5
2F5
330
1F
100
AcDbEntity
  8
0
  6
SLD-実線
 62
     7
100
AcDbLine
 10
157.2957103179
 20
739.8705180633
 30
0.0
 11
157.5445677366
 21
739.9295265422
 31
0.0
  0
LINE
  5
2F6
330
1F
100
AcDbEntity
  8
0
  6
SLD-実線
 62
     7
100
AcDbLine
 10
157.0891393448
 20
738.5500145661
 30
0.0
 11
156.9500042305
 21
738.2501015837
 31
0.0
  0
ARC
  5
2F7
330
1F
100
AcDbEntity
  8
0
  6
SLD-実線
 62
     7
100
AcDbCircle
 10
156.1667186469
 20
741.5072420004
 30
0.0
 40
3.097749835362375
100
AcDbArc
 50
287.3237855353
 51
300.3551698955
  0
LINE
  5
2F8
330
1F
100
AcDbEntity
  8
0
  6
SLD-実線
 62
     7
100
AcDbLine
 10
157.2957103179
 20
739.8705180633
 30
0.0
 11
157.213047862
 21
741.1022268234
 31
0.0
  0
LINE
  5
2F9
330
1F
100
AcDbEntity
  8
0
  6
SLD-実線
 62
     7
100
AcDbLine
 10
157.803442584
 20
742.6362336714
 30
0.0
 11
156.5717338239
 21
742.5535712155
 31
0.0
  0
LINE
  5
2FA
330
1F
100
AcDbEntity
  8
0
  6
SLD-実線
 62
     7
100
AcDbLine
 10
156.5717338239
 20
742.5535712155
 30
0.0
 11
156.6722049828
 21
742.813131634
 31
0.0
  0
LINE
  5
2FB
330
1F
100
AcDbEntity
  8
0
  6
SLD-実線
 62
     7
100
AcDbLine
 10
156.6167537146
 20
739.5705035366
 30
0.0
 11
156.405572047
 21
739.4262318528
 31
0.0
  0
LINE
  5
2FC
330
1F
100
AcDbEntity
  8
0
  6
SLD-実線
 62
     7
100
AcDbLine
 10
156.6167537146
 20
739.5705035366
 30
0.0
 11
157.0891393448
 21
738.5500145661
 31
0.0
  0
LINE
  5
2FD
330
1F
100
AcDbEntity
  8
0
  6
SLD-実線
 62
     7
100
AcDbLine
 10
155.7617034699
 20
740.4609127854
 30
0.0
 11
155.6612323109
 21
740.2013523669
 31
0.0
  0
LINE
  5
2FE
330
1F
100
AcDbEntity
  8
0
  6
SLD-実線
 62
     7
100
AcDbLine
 10
155.7617034699
 20
740.4609127854
 30
0.0
 11
156.6167537146
 21
739.5705035366
 31
0.0
  0
LINE
  5
2FF
330
1F
100
AcDbEntity
  8
0
  6
SLD-実線
 62
     7
100
AcDbLine
 10
156.5717338239
 20
742.5535712155
 30
0.0
 11
155.7166835792
 21
743.4439804643
 31
0.0
  0
LINE
  5
300
330
1F
100
AcDbEntity
  8
0
  6
SLD-実線
 62
     7
100
AcDbLine
 10
155.7166835792
 20
743.4439804643
 30
0.0
 11
155.9278652468
 21
743.5882521481
 31
0.0
  0
LINE
  5
301
330
1F
100
AcDbEntity
  8
0
  6
SLD-実線
 62
     7
100
AcDbLine
 10
154.5299947097
 20
740.3782503295
 30
0.0
 11
154.5890031886
 21
740.1293929107
 31
0.0
  0
LINE
  5
302
330
1F
100
AcDbEntity
  8
0
  6
SLD-実線
 62
     7
100
AcDbLine
 10
154.5299947097
 20
740.3782503295
 30
0.0
 11
155.7617034699
 21
740.4609127854
 31
0.0
  0
LINE
  5
303
330
1F
100
AcDbEntity
  8
0
  6
SLD-実線
 62
     7
100
AcDbLine
 10
155.7166835792
 20
743.4439804643
 30
0.0
 11
155.2442979489
 21
744.4644694348
 31
0.0
  0
LINE
  5
304
330
1F
100
AcDbEntity
  8
0
  6
SLD-実線
 62
     7
100
AcDbLine
 10
155.2442979489
 20
744.4644694348
 30
0.0
 11
155.3834330632
 21
744.7643824172
 31
0.0
  0
LINE
  5
305
330
1F
100
AcDbEntity
  8
0
  6
SLD-実線
 62
     7
100
AcDbLine
 10
155.0377269759
 20
743.1439659376
 30
0.0
 11
154.7888695572
 21
743.0849574587
 31
0.0
  0
LINE
  5
306
330
1F
100
AcDbEntity
  8
0
  6
SLD-実線
 62
     7
100
AcDbLine
 10
155.0377269759
 20
743.1439659376
 30
0.0
 11
155.1203894318
 21
741.9122571775
 31
0.0
  0
LINE
  5
307
330
1F
100
AcDbEntity
  8
0
  6
SLD-実線
 62
     7
100
AcDbLine
 10
155.1203894318
 20
741.9122571775
 30
0.0
 11
154.8608290133
 21
742.0127283364
 31
0.0
  0
ARC
  5
308
330
1F
100
AcDbEntity
  8
0
  6
SLD-実線
 62
     7
100
AcDbCircle
 10
156.1667186469
 20
741.5072420004
 30
0.0
 40
3.097749835362454
100
AcDbArc
 50
107.3237855353
 51
120.3551698954
  0
LINE
  5
309
330
1F
100
AcDbEntity
  8
0
  6
SLD-実線
 62
     7
100
AcDbLine
 10
154.6012436617
 20
744.1803192745
 30
0.0
 11
154.2858153815
 21
744.2793716702
 31
0.0
  0
LINE
  5
30A
330
1F
100
AcDbEntity
  8
0
  6
SLD-実線
 62
     7
100
AcDbLine
 10
155.1203894318
 20
741.9122571775
 30
0.0
 11
154.229980183
 21
741.0572069328
 31
0.0
  0
LINE
  5
30B
330
1F
100
AcDbEntity
  8
0
  6
SLD-実線
 62
     7
100
AcDbLine
 10
154.229980183
 20
741.0572069328
 30
0.0
 11
154.0857084993
 21
741.2683886003
 31
0.0
  0
LINE
  5
30C
330
1F
100
AcDbEntity
  8
0
  6
SLD-実線
 62
     7
100
AcDbLine
 10
154.6012436617
 20
744.1803192745
 30
0.0
 11
155.0377269759
 21
743.1439659376
 31
0.0
  0
LINE
  5
30D
330
1F
100
AcDbEntity
  8
0
  6
SLD-実線
 62
     7
100
AcDbLine
 10
153.4936413728
 20
739.9417670152
 30
0.0
 11
153.3945889771
 21
739.626338735
 31
0.0
  0
LINE
  5
30E
330
1F
100
AcDbEntity
  8
0
  6
SLD-実線
 62
     7
100
AcDbLine
 10
153.4936413728
 20
739.9417670152
 30
0.0
 11
154.5299947097
 21
740.3782503295
 31
0.0
  0
LINE
  5
30F
330
1F
100
AcDbEntity
  8
0
  6
SLD-実線
 62
     7
100
AcDbLine
 10
154.229980183
 20
741.0572069328
 30
0.0
 11
153.2094912125
 21
740.5848213025
 31
0.0
  0
LINE
  5
310
330
1F
100
AcDbEntity
  8
0
  6
SLD-実線
 62
     7
100
AcDbLine
 10
153.2094912125
 20
740.5848213025
 30
0.0
 11
152.9095782301
 21
740.7239564168
 31
0.0
  0
ARC
  5
311
330
1F
100
AcDbEntity
  8
0
  6
SLD-実線
 62
     7
100
AcDbCircle
 10
156.1667186469
 20
741.5072420004
 30
0.0
 40
3.097749835362404
100
AcDbArc
 50
197.3237855353
 51
210.3551698955
  0
LINE
  5
312
330
1F
100
AcDbEntity
  8
0
  6
SLD-実線
 62
     7
100
AcDbLine
 10
817.7444341052
 20
232.8850910902
 30
0.0
 11
816.6722049828
 21
232.813131634
 31
0.0
  0
LINE
  5
313
330
1F
100
AcDbEntity
  8
0
  6
SLD-実線
 62
     7
100
AcDbLine
 10
816.6722049828
 20
232.813131634
 30
0.0
 11
815.9278652468
 21
233.5882521481
 31
0.0
  0
LINE
  5
314
330
1F
100
AcDbEntity
  8
0
  6
SLD-実線
 62
     7
100
AcDbLine
 10
815.9278652468
 20
233.5882521481
 30
0.0
 11
815.3834330632
 21
234.7643824172
 31
0.0
  0
ARC
  5
315
330
1F
100
AcDbEntity
  8
0
  6
SLD-実線
 62
     7
100
AcDbCircle
 10
816.1667186469
 20
231.5072420004
 30
0.0
 40
3.350000000000019
100
AcDbArc
 50
103.5218752025
 51
124.1570802282
  0
LINE
  5
316
330
1F
100
AcDbEntity
  8
0
  6
SLD-実線
 62
     7
100
AcDbLine
 10
814.2858153815
 20
234.2793716702
 30
0.0
 11
814.7888695572
 21
233.0849574587
 31
0.0
  0
LINE
  5
317
330
1F
100
AcDbEntity
  8
0
  6
SLD-実線
 62
     7
100
AcDbLine
 10
814.7888695572
 20
233.0849574587
 30
0.0
 11
814.8608290133
 21
232.0127283364
 31
0.0
  0
LINE
  5
318
330
1F
100
AcDbEntity
  8
0
  6
SLD-実線
 62
     7
100
AcDbLine
 10
814.8608290133
 20
232.0127283364
 30
0.0
 11
814.0857084993
 21
231.2683886003
 31
0.0
  0
LINE
  5
319
330
1F
100
AcDbEntity
  8
0
  6
SLD-実線
 62
     7
100
AcDbLine
 10
814.0857084993
 20
231.2683886003
 30
0.0
 11
812.9095782301
 21
230.7239564168
 31
0.0
  0
ARC
  5
31A
330
1F
100
AcDbEntity
  8
0
  6
SLD-実線
 62
     7
100
AcDbCircle
 10
816.1667186469
 20
231.5072420004
 30
0.0
 40
3.349999999999987
100
AcDbArc
 50
193.5218752025
 51
214.1570802282
  0
LINE
  5
31B
330
1F
100
AcDbEntity
  8
0
  6
SLD-実線
 62
     7
100
AcDbLine
 10
813.3945889771
 20
229.626338735
 30
0.0
 11
814.5890031886
 21
230.1293929107
 31
0.0
  0
LINE
  5
31C
330
1F
100
AcDbEntity
  8
0
  6
SLD-実線
 62
     7
100
AcDbLine
 10
814.5890031886
 20
230.1293929107
 30
0.0
 11
815.6612323109
 21
230.2013523669
 31
0.0
  0
LINE
  5
31D
330
1F
100
AcDbEntity
  8
0
  6
SLD-実線
 62
     7
100
AcDbLine
 10
815.6612323109
 20
230.2013523669
 30
0.0
 11
816.405572047
 21
229.4262318528
 31
0.0
  0
LINE
  5
31E
330
1F
100
AcDbEntity
  8
0
  6
SLD-実線
 62
     7
100
AcDbLine
 10
816.405572047
 20
229.4262318528
 30
0.0
 11
816.9500042305
 21
228.2501015837
 31
0.0
  0
ARC
  5
31F
330
1F
100
AcDbEntity
  8
0
  6
SLD-実線
 62
     7
100
AcDbCircle
 10
816.1667186469
 20
231.5072420004
 30
0.0
 40
3.350000000000019
100
AcDbArc
 50
283.5218752025
 51
304.1570802282
  0
LINE
  5
320
330
1F
100
AcDbEntity
  8
0
  6
SLD-実線
 62
     7
100
AcDbLine
 10
818.0476219123
 20
228.7351123307
 30
0.0
 11
817.5445677366
 21
229.9295265422
 31
0.0
  0
LINE
  5
321
330
1F
100
AcDbEntity
  8
0
  6
SLD-実線
 62
     7
100
AcDbLine
 10
817.5445677366
 20
229.9295265422
 30
0.0
 11
817.4726082805
 21
231.0017556645
 31
0.0
  0
LINE
  5
322
330
1F
100
AcDbEntity
  8
0
  6
SLD-実線
 62
     7
100
AcDbLine
 10
817.4726082805
 20
231.0017556645
 30
0.0
 11
818.2477287945
 21
231.7460954006
 31
0.0
  0
LINE
  5
323
330
1F
100
AcDbEntity
  8
0
  6
SLD-実線
 62
     7
100
AcDbLine
 10
818.2477287945
 20
231.7460954006
 30
0.0
 11
819.4238590636
 21
232.2905275841
 31
0.0
  0
ARC
  5
324
330
1F
100
AcDbEntity
  8
0
  6
SLD-実線
 62
     7
100
AcDbCircle
 10
816.1667186469
 20
231.5072420004
 30
0.0
 40
3.349999999999987
100
AcDbArc
 50
13.5218752025
 51
34.1570802282
  0
LINE
  5
325
330
1F
100
AcDbEntity
  8
0
  6
SLD-実線
 62
     7
100
AcDbLine
 10
818.9388483167
 20
233.3881452659
 30
0.0
 11
817.7444341052
 21
232.8850910902
 31
0.0
  0
CIRCLE
  5
326
330
1F
100
AcDbEntity
  8
0
  6
SLD-実線
 62
     7
100
AcDbCircle
 10
816.1667186469
 20
231.5072420004
 30
0.0
 40
5.99999999999996
  0
LINE
  5
327
330
1F
100
AcDbEntity
  8
0
  6
SLD-実線
 62
     7
100
AcDbLine
 10
818.1034571108
 20
231.9572770681
 30
0.0
 11
818.2477287945
 21
231.7460954006
 31
0.0
  0
LINE
  5
328
330
1F
100
AcDbEntity
  8
0
  6
SLD-実線
 62
     7
100
AcDbLine
 10
818.1034571108
 20
231.9572770681
 30
0.0
 11
819.1239460812
 21
232.4296626984
 31
0.0
  0
LINE
  5
329
330
1F
100
AcDbEntity
  8
0
  6
SLD-実線
 62
     7
100
AcDbLine
 10
819.1239460812
 20
232.4296626984
 30
0.0
 11
819.4238590636
 21
232.2905275841
 31
0.0
  0
ARC
  5
32A
330
1F
100
AcDbEntity
  8
0
  6
SLD-実線
 62
     7
100
AcDbCircle
 10
816.1667186469
 20
231.5072420004
 30
0.0
 40
3.097749835362454
100
AcDbArc
 50
17.3237855353
 51
30.3551698954
  0
LINE
  5
32B
330
1F
100
AcDbEntity
  8
0
  6
SLD-実線
 62
     7
100
AcDbLine
 10
818.839795921
 20
233.0727169857
 30
0.0
 11
818.9388483167
 21
233.3881452659
 31
0.0
  0
LINE
  5
32C
330
1F
100
AcDbEntity
  8
0
  6
SLD-実線
 62
     7
100
AcDbLine
 10
818.839795921
 20
233.0727169857
 30
0.0
 11
817.803442584
 21
232.6362336714
 31
0.0
  0
LINE
  5
32D
330
1F
100
AcDbEntity
  8
0
  6
SLD-実線
 62
     7
100
AcDbLine
 10
817.803442584
 20
232.6362336714
 30
0.0
 11
817.7444341052
 21
232.8850910902
 31
0.0
  0
LINE
  5
32E
330
1F
100
AcDbEntity
  8
0
  6
SLD-実線
 62
     7
100
AcDbLine
 10
817.213047862
 20
231.1022268234
 30
0.0
 11
817.4726082805
 21
231.0017556645
 31
0.0
  0
LINE
  5
32F
330
1F
100
AcDbEntity
  8
0
  6
SLD-実線
 62
     7
100
AcDbLine
 10
817.213047862
 20
231.1022268234
 30
0.0
 11
818.1034571108
 21
231.9572770681
 31
0.0
  0
LINE
  5
330
330
1F
100
AcDbEntity
  8
0
  6
SLD-実線
 62
     7
100
AcDbLine
 10
817.0891393448
 20
228.5500145661
 30
0.0
 11
816.9500042305
 21
228.2501015837
 31
0.0
  0
ARC
  5
331
330
1F
100
AcDbEntity
  8
0
  6
SLD-実線
 62
     7
100
AcDbCircle
 10
816.1667186469
 20
231.5072420004
 30
0.0
 40
3.097749835362364
100
AcDbArc
 50
287.3237855353
 51
300.3551698954
  0
LINE
  5
332
330
1F
100
AcDbEntity
  8
0
  6
SLD-実線
 62
     7
100
AcDbLine
 10
817.7321936321
 20
228.8341647264
 30
0.0
 11
818.0476219123
 21
228.7351123307
 31
0.0
  0
LINE
  5
333
330
1F
100
AcDbEntity
  8
0
  6
SLD-実線
 62
     7
100
AcDbLine
 10
817.2957103179
 20
229.8705180633
 30
0.0
 11
817.5445677366
 21
229.9295265422
 31
0.0
  0
LINE
  5
334
330
1F
100
AcDbEntity
  8
0
  6
SLD-実線
 62
     7
100
AcDbLine
 10
817.2957103179
 20
229.8705180633
 30
0.0
 11
817.213047862
 21
231.1022268234
 31
0.0
  0
LINE
  5
335
330
1F
100
AcDbEntity
  8
0
  6
SLD-実線
 62
     7
100
AcDbLine
 10
817.7321936321
 20
228.8341647264
 30
0.0
 11
817.2957103179
 21
229.8705180633
 31
0.0
  0
LINE
  5
336
330
1F
100
AcDbEntity
  8
0
  6
SLD-実線
 62
     7
100
AcDbLine
 10
817.803442584
 20
232.6362336714
 30
0.0
 11
816.5717338239
 21
232.5535712155
 31
0.0
  0
LINE
  5
337
330
1F
100
AcDbEntity
  8
0
  6
SLD-実線
 62
     7
100
AcDbLine
 10
816.5717338239
 20
232.5535712155
 30
0.0
 11
816.6722049828
 21
232.813131634
 31
0.0
  0
LINE
  5
338
330
1F
100
AcDbEntity
  8
0
  6
SLD-実線
 62
     7
100
AcDbLine
 10
816.6167537146
 20
229.5705035366
 30
0.0
 11
816.405572047
 21
229.4262318528
 31
0.0
  0
LINE
  5
339
330
1F
100
AcDbEntity
  8
0
  6
SLD-実線
 62
     7
100
AcDbLine
 10
816.6167537146
 20
229.5705035366
 30
0.0
 11
817.0891393448
 21
228.5500145661
 31
0.0
  0
LINE
  5
33A
330
1F
100
AcDbEntity
  8
0
  6
SLD-実線
 62
     7
100
AcDbLine
 10
815.7617034699
 20
230.4609127854
 30
0.0
 11
815.6612323109
 21
230.2013523669
 31
0.0
  0
LINE
  5
33B
330
1F
100
AcDbEntity
  8
0
  6
SLD-実線
 62
     7
100
AcDbLine
 10
815.7617034699
 20
230.4609127854
 30
0.0
 11
816.6167537146
 21
229.5705035366
 31
0.0
  0
LINE
  5
33C
330
1F
100
AcDbEntity
  8
0
  6
SLD-実線
 62
     7
100
AcDbLine
 10
816.5717338239
 20
232.5535712155
 30
0.0
 11
815.7166835792
 21
233.4439804643
 31
0.0
  0
LINE
  5
33D
330
1F
100
AcDbEntity
  8
0
  6
SLD-実線
 62
     7
100
AcDbLine
 10
815.7166835792
 20
233.4439804643
 30
0.0
 11
815.9278652468
 21
233.5882521481
 31
0.0
  0
LINE
  5
33E
330
1F
100
AcDbEntity
  8
0
  6
SLD-実線
 62
     7
100
AcDbLine
 10
814.5299947097
 20
230.3782503295
 30
0.0
 11
814.5890031886
 21
230.1293929107
 31
0.0
  0
LINE
  5
33F
330
1F
100
AcDbEntity
  8
0
  6
SLD-実線
 62
     7
100
AcDbLine
 10
814.5299947097
 20
230.3782503295
 30
0.0
 11
815.7617034699
 21
230.4609127854
 31
0.0
  0
LINE
  5
340
330
1F
100
AcDbEntity
  8
0
  6
SLD-実線
 62
     7
100
AcDbLine
 10
815.7166835792
 20
233.4439804643
 30
0.0
 11
815.2442979489
 21
234.4644694348
 31
0.0
  0
LINE
  5
341
330
1F
100
AcDbEntity
  8
0
  6
SLD-実線
 62
     7
100
AcDbLine
 10
815.2442979489
 20
234.4644694348
 30
0.0
 11
815.3834330632
 21
234.7643824172
 31
0.0
  0
LINE
  5
342
330
1F
100
AcDbEntity
  8
0
  6
SLD-実線
 62
     7
100
AcDbLine
 10
815.0377269759
 20
233.1439659376
 30
0.0
 11
814.7888695572
 21
233.0849574587
 31
0.0
  0
LINE
  5
343
330
1F
100
AcDbEntity
  8
0
  6
SLD-実線
 62
     7
100
AcDbLine
 10
815.0377269759
 20
233.1439659376
 30
0.0
 11
815.1203894318
 21
231.9122571775
 31
0.0
  0
LINE
  5
344
330
1F
100
AcDbEntity
  8
0
  6
SLD-実線
 62
     7
100
AcDbLine
 10
815.1203894318
 20
231.9122571775
 30
0.0
 11
814.8608290133
 21
232.0127283364
 31
0.0
  0
ARC
  5
345
330
1F
100
AcDbEntity
  8
0
  6
SLD-実線
 62
     7
100
AcDbCircle
 10
816.1667186469
 20
231.5072420004
 30
0.0
 40
3.097749835362428
100
AcDbArc
 50
107.3237855353
 51
120.3551698955
  0
LINE
  5
346
330
1F
100
AcDbEntity
  8
0
  6
SLD-実線
 62
     7
100
AcDbLine
 10
814.6012436617
 20
234.1803192745
 30
0.0
 11
814.2858153815
 21
234.2793716702
 31
0.0
  0
LINE
  5
347
330
1F
100
AcDbEntity
  8
0
  6
SLD-実線
 62
     7
100
AcDbLine
 10
815.1203894318
 20
231.9122571775
 30
0.0
 11
814.229980183
 21
231.0572069328
 31
0.0
  0
LINE
  5
348
330
1F
100
AcDbEntity
  8
0
  6
SLD-実線
 62
     7
100
AcDbLine
 10
814.229980183
 20
231.0572069328
 30
0.0
 11
814.0857084993
 21
231.2683886003
 31
0.0
  0
LINE
  5
349
330
1F
100
AcDbEntity
  8
0
  6
SLD-実線
 62
     7
100
AcDbLine
 10
814.6012436617
 20
234.1803192745
 30
0.0
 11
815.0377269759
 21
233.1439659376
 31
0.0
  0
LINE
  5
34A
330
1F
100
AcDbEntity
  8
0
  6
SLD-実線
 62
     7
100
AcDbLine
 10
813.4936413728
 20
229.9417670152
 30
0.0
 11
813.3945889771
 21
229.626338735
 31
0.0
  0
LINE
  5
34B
330
1F
100
AcDbEntity
  8
0
  6
SLD-実線
 62
     7
100
AcDbLine
 10
813.4936413728
 20
229.9417670152
 30
0.0
 11
814.5299947097
 21
230.3782503295
 31
0.0
  0
LINE
  5
34C
330
1F
100
AcDbEntity
  8
0
  6
SLD-実線
 62
     7
100
AcDbLine
 10
814.229980183
 20
231.0572069328
 30
0.0
 11
813.2094912125
 21
230.5848213025
 31
0.0
  0
LINE
  5
34D
330
1F
100
AcDbEntity
  8
0
  6
SLD-実線
 62
     7
100
AcDbLine
 10
813.2094912125
 20
230.5848213025
 30
0.0
 11
812.9095782301
 21
230.7239564168
 31
0.0
  0
ARC
  5
34E
330
1F
100
AcDbEntity
  8
0
  6
SLD-実線
 62
     7
100
AcDbCircle
 10
816.1667186469
 20
231.5072420004
 30
0.0
 40
3.097749835362454
100
AcDbArc
 50
197.3237855353
 51
210.3551698955
  0
LINE
  5
34F
330
1F
100
AcDbEntity
  8
0
  6
SLD-実線
 62
     7
100
AcDbLine
 10
817.7444341052
 20
676.8850910902
 30
0.0
 11
816.6722049828
 21
676.813131634
 31
0.0
  0
LINE
  5
350
330
1F
100
AcDbEntity
  8
0
  6
SLD-実線
 62
     7
100
AcDbLine
 10
816.6722049828
 20
676.813131634
 30
0.0
 11
815.9278652468
 21
677.5882521481
 31
0.0
  0
LINE
  5
351
330
1F
100
AcDbEntity
  8
0
  6
SLD-実線
 62
     7
100
AcDbLine
 10
815.9278652468
 20
677.5882521481
 30
0.0
 11
815.3834330632
 21
678.7643824172
 31
0.0
  0
ARC
  5
352
330
1F
100
AcDbEntity
  8
0
  6
SLD-実線
 62
     7
100
AcDbCircle
 10
816.1667186469
 20
675.5072420004
 30
0.0
 40
3.350000000000019
100
AcDbArc
 50
103.5218752025
 51
124.1570802282
  0
LINE
  5
353
330
1F
100
AcDbEntity
  8
0
  6
SLD-実線
 62
     7
100
AcDbLine
 10
814.2858153815
 20
678.2793716702
 30
0.0
 11
814.7888695572
 21
677.0849574587
 31
0.0
  0
LINE
  5
354
330
1F
100
AcDbEntity
  8
0
  6
SLD-実線
 62
     7
100
AcDbLine
 10
814.7888695572
 20
677.0849574587
 30
0.0
 11
814.8608290133
 21
676.0127283364
 31
0.0
  0
LINE
  5
355
330
1F
100
AcDbEntity
  8
0
  6
SLD-実線
 62
     7
100
AcDbLine
 10
814.8608290133
 20
676.0127283364
 30
0.0
 11
814.0857084993
 21
675.2683886003
 31
0.0
  0
LINE
  5
356
330
1F
100
AcDbEntity
  8
0
  6
SLD-実線
 62
     7
100
AcDbLine
 10
814.0857084993
 20
675.2683886003
 30
0.0
 11
812.9095782301
 21
674.7239564168
 31
0.0
  0
ARC
  5
357
330
1F
100
AcDbEntity
  8
0
  6
SLD-実線
 62
     7
100
AcDbCircle
 10
816.1667186469
 20
675.5072420004
 30
0.0
 40
3.349999999999955
100
AcDbArc
 50
193.5218752025
 51
214.1570802282
  0
LINE
  5
358
330
1F
100
AcDbEntity
  8
0
  6
SLD-実線
 62
     7
100
AcDbLine
 10
813.3945889771
 20
673.626338735
 30
0.0
 11
814.5890031886
 21
674.1293929107
 31
0.0
  0
LINE
  5
359
330
1F
100
AcDbEntity
  8
0
  6
SLD-実線
 62
     7
100
AcDbLine
 10
814.5890031886
 20
674.1293929107
 30
0.0
 11
815.6612323109
 21
674.2013523669
 31
0.0
  0
LINE
  5
35A
330
1F
100
AcDbEntity
  8
0
  6
SLD-実線
 62
     7
100
AcDbLine
 10
815.6612323109
 20
674.2013523669
 30
0.0
 11
816.405572047
 21
673.4262318528
 31
0.0
  0
LINE
  5
35B
330
1F
100
AcDbEntity
  8
0
  6
SLD-実線
 62
     7
100
AcDbLine
 10
816.405572047
 20
673.4262318528
 30
0.0
 11
816.9500042305
 21
672.2501015837
 31
0.0
  0
ARC
  5
35C
330
1F
100
AcDbEntity
  8
0
  6
SLD-実線
 62
     7
100
AcDbCircle
 10
816.1667186469
 20
675.5072420004
 30
0.0
 40
3.350000000000019
100
AcDbArc
 50
283.5218752025
 51
304.1570802282
  0
LINE
  5
35D
330
1F
100
AcDbEntity
  8
0
  6
SLD-実線
 62
     7
100
AcDbLine
 10
818.0476219123
 20
672.7351123307
 30
0.0
 11
817.5445677366
 21
673.9295265422
 31
0.0
  0
LINE
  5
35E
330
1F
100
AcDbEntity
  8
0
  6
SLD-実線
 62
     7
100
AcDbLine
 10
817.5445677366
 20
673.9295265422
 30
0.0
 11
817.4726082805
 21
675.0017556645
 31
0.0
  0
LINE
  5
35F
330
1F
100
AcDbEntity
  8
0
  6
SLD-実線
 62
     7
100
AcDbLine
 10
817.4726082805
 20
675.0017556645
 30
0.0
 11
818.2477287945
 21
675.7460954006
 31
0.0
  0
LINE
  5
360
330
1F
100
AcDbEntity
  8
0
  6
SLD-実線
 62
     7
100
AcDbLine
 10
818.2477287945
 20
675.7460954006
 30
0.0
 11
819.4238590636
 21
676.2905275841
 31
0.0
  0
ARC
  5
361
330
1F
100
AcDbEntity
  8
0
  6
SLD-実線
 62
     7
100
AcDbCircle
 10
816.1667186469
 20
675.5072420004
 30
0.0
 40
3.349999999999955
100
AcDbArc
 50
13.5218752025
 51
34.1570802282
  0
LINE
  5
362
330
1F
100
AcDbEntity
  8
0
  6
SLD-実線
 62
     7
100
AcDbLine
 10
818.9388483167
 20
677.3881452659
 30
0.0
 11
817.7444341052
 21
676.8850910902
 31
0.0
  0
CIRCLE
  5
363
330
1F
100
AcDbEntity
  8
0
  6
SLD-実線
 62
     7
100
AcDbCircle
 10
816.1667186469
 20
675.5072420004
 30
0.0
 40
5.999999999999909
  0
LINE
  5
364
330
1F
100
AcDbEntity
  8
0
  6
SLD-実線
 62
     7
100
AcDbLine
 10
819.1239460812
 20
676.4296626984
 30
0.0
 11
819.4238590636
 21
676.2905275841
 31
0.0
  0
ARC
  5
365
330
1F
100
AcDbEntity
  8
0
  6
SLD-実線
 62
     7
100
AcDbCircle
 10
816.1667186469
 20
675.5072420004
 30
0.0
 40
3.097749835362446
100
AcDbArc
 50
17.3237855353
 51
30.3551698954
  0
LINE
  5
366
330
1F
100
AcDbEntity
  8
0
  6
SLD-実線
 62
     7
100
AcDbLine
 10
818.839795921
 20
677.0727169857
 30
0.0
 11
818.9388483167
 21
677.3881452659
 31
0.0
  0
LINE
  5
367
330
1F
100
AcDbEntity
  8
0
  6
SLD-実線
 62
     7
100
AcDbLine
 10
818.1034571108
 20
675.9572770681
 30
0.0
 11
818.2477287945
 21
675.7460954006
 31
0.0
  0
LINE
  5
368
330
1F
100
AcDbEntity
  8
0
  6
SLD-実線
 62
     7
100
AcDbLine
 10
818.1034571108
 20
675.9572770681
 30
0.0
 11
819.1239460812
 21
676.4296626984
 31
0.0
  0
LINE
  5
369
330
1F
100
AcDbEntity
  8
0
  6
SLD-実線
 62
     7
100
AcDbLine
 10
818.839795921
 20
677.0727169857
 30
0.0
 11
817.803442584
 21
676.6362336714
 31
0.0
  0
LINE
  5
36A
330
1F
100
AcDbEntity
  8
0
  6
SLD-実線
 62
     7
100
AcDbLine
 10
817.803442584
 20
676.6362336714
 30
0.0
 11
817.7444341052
 21
676.8850910902
 31
0.0
  0
LINE
  5
36B
330
1F
100
AcDbEntity
  8
0
  6
SLD-実線
 62
     7
100
AcDbLine
 10
817.213047862
 20
675.1022268234
 30
0.0
 11
817.4726082805
 21
675.0017556645
 31
0.0
  0
LINE
  5
36C
330
1F
100
AcDbEntity
  8
0
  6
SLD-実線
 62
     7
100
AcDbLine
 10
817.213047862
 20
675.1022268234
 30
0.0
 11
818.1034571108
 21
675.9572770681
 31
0.0
  0
LINE
  5
36D
330
1F
100
AcDbEntity
  8
0
  6
SLD-実線
 62
     7
100
AcDbLine
 10
817.0891393448
 20
672.5500145661
 30
0.0
 11
816.9500042305
 21
672.2501015837
 31
0.0
  0
ARC
  5
36E
330
1F
100
AcDbEntity
  8
0
  6
SLD-実線
 62
     7
100
AcDbCircle
 10
816.1667186469
 20
675.5072420004
 30
0.0
 40
3.097749835362446
100
AcDbArc
 50
287.3237855353
 51
300.3551698954
  0
LINE
  5
36F
330
1F
100
AcDbEntity
  8
0
  6
SLD-実線
 62
     7
100
AcDbLine
 10
817.7321936321
 20
672.8341647264
 30
0.0
 11
818.0476219123
 21
672.7351123307
 31
0.0
  0
LINE
  5
370
330
1F
100
AcDbEntity
  8
0
  6
SLD-実線
 62
     7
100
AcDbLine
 10
817.7321936321
 20
672.8341647264
 30
0.0
 11
817.2957103179
 21
673.8705180633
 31
0.0
  0
LINE
  5
371
330
1F
100
AcDbEntity
  8
0
  6
SLD-実線
 62
     7
100
AcDbLine
 10
817.2957103179
 20
673.8705180633
 30
0.0
 11
817.5445677366
 21
673.9295265422
 31
0.0
  0
LINE
  5
372
330
1F
100
AcDbEntity
  8
0
  6
SLD-実線
 62
     7
100
AcDbLine
 10
817.2957103179
 20
673.8705180633
 30
0.0
 11
817.213047862
 21
675.1022268234
 31
0.0
  0
LINE
  5
373
330
1F
100
AcDbEntity
  8
0
  6
SLD-実線
 62
     7
100
AcDbLine
 10
817.803442584
 20
676.6362336714
 30
0.0
 11
816.5717338239
 21
676.5535712155
 31
0.0
  0
LINE
  5
374
330
1F
100
AcDbEntity
  8
0
  6
SLD-実線
 62
     7
100
AcDbLine
 10
816.5717338239
 20
676.5535712155
 30
0.0
 11
816.6722049828
 21
676.813131634
 31
0.0
  0
LINE
  5
375
330
1F
100
AcDbEntity
  8
0
  6
SLD-実線
 62
     7
100
AcDbLine
 10
816.6167537146
 20
673.5705035366
 30
0.0
 11
816.405572047
 21
673.4262318528
 31
0.0
  0
LINE
  5
376
330
1F
100
AcDbEntity
  8
0
  6
SLD-実線
 62
     7
100
AcDbLine
 10
816.6167537146
 20
673.5705035366
 30
0.0
 11
817.0891393448
 21
672.5500145661
 31
0.0
  0
LINE
  5
377
330
1F
100
AcDbEntity
  8
0
  6
SLD-実線
 62
     7
100
AcDbLine
 10
816.5717338239
 20
676.5535712155
 30
0.0
 11
815.7166835792
 21
677.4439804643
 31
0.0
  0
LINE
  5
378
330
1F
100
AcDbEntity
  8
0
  6
SLD-実線
 62
     7
100
AcDbLine
 10
815.7166835792
 20
677.4439804643
 30
0.0
 11
815.9278652468
 21
677.5882521481
 31
0.0
  0
LINE
  5
379
330
1F
100
AcDbEntity
  8
0
  6
SLD-実線
 62
     7
100
AcDbLine
 10
815.7617034699
 20
674.4609127854
 30
0.0
 11
815.6612323109
 21
674.2013523669
 31
0.0
  0
LINE
  5
37A
330
1F
100
AcDbEntity
  8
0
  6
SLD-実線
 62
     7
100
AcDbLine
 10
815.7617034699
 20
674.4609127854
 30
0.0
 11
816.6167537146
 21
673.5705035366
 31
0.0
  0
LINE
  5
37B
330
1F
100
AcDbEntity
  8
0
  6
SLD-実線
 62
     7
100
AcDbLine
 10
814.5299947097
 20
674.3782503295
 30
0.0
 11
814.5890031886
 21
674.1293929107
 31
0.0
  0
LINE
  5
37C
330
1F
100
AcDbEntity
  8
0
  6
SLD-実線
 62
     7
100
AcDbLine
 10
814.5299947097
 20
674.3782503295
 30
0.0
 11
815.7617034699
 21
674.4609127854
 31
0.0
  0
LINE
  5
37D
330
1F
100
AcDbEntity
  8
0
  6
SLD-実線
 62
     7
100
AcDbLine
 10
815.7166835792
 20
677.4439804643
 30
0.0
 11
815.2442979489
 21
678.4644694348
 31
0.0
  0
LINE
  5
37E
330
1F
100
AcDbEntity
  8
0
  6
SLD-実線
 62
     7
100
AcDbLine
 10
815.2442979489
 20
678.4644694348
 30
0.0
 11
815.3834330632
 21
678.7643824172
 31
0.0
  0
LINE
  5
37F
330
1F
100
AcDbEntity
  8
0
  6
SLD-実線
 62
     7
100
AcDbLine
 10
815.0377269759
 20
677.1439659376
 30
0.0
 11
814.7888695572
 21
677.0849574587
 31
0.0
  0
LINE
  5
380
330
1F
100
AcDbEntity
  8
0
  6
SLD-実線
 62
     7
100
AcDbLine
 10
815.0377269759
 20
677.1439659376
 30
0.0
 11
815.1203894318
 21
675.9122571775
 31
0.0
  0
LINE
  5
381
330
1F
100
AcDbEntity
  8
0
  6
SLD-実線
 62
     7
100
AcDbLine
 10
815.1203894318
 20
675.9122571775
 30
0.0
 11
814.8608290133
 21
676.0127283364
 31
0.0
  0
ARC
  5
382
330
1F
100
AcDbEntity
  8
0
  6
SLD-実線
 62
     7
100
AcDbCircle
 10
816.1667186469
 20
675.5072420004
 30
0.0
 40
3.097749835362446
100
AcDbArc
 50
107.3237855353
 51
120.3551698955
  0
LINE
  5
383
330
1F
100
AcDbEntity
  8
0
  6
SLD-実線
 62
     7
100
AcDbLine
 10
814.6012436617
 20
678.1803192745
 30
0.0
 11
814.2858153815
 21
678.2793716702
 31
0.0
  0
LINE
  5
384
330
1F
100
AcDbEntity
  8
0
  6
SLD-実線
 62
     7
100
AcDbLine
 10
815.1203894318
 20
675.9122571775
 30
0.0
 11
814.229980183
 21
675.0572069328
 31
0.0
  0
LINE
  5
385
330
1F
100
AcDbEntity
  8
0
  6
SLD-実線
 62
     7
100
AcDbLine
 10
814.229980183
 20
675.0572069328
 30
0.0
 11
814.0857084993
 21
675.2683886003
 31
0.0
  0
LINE
  5
386
330
1F
100
AcDbEntity
  8
0
  6
SLD-実線
 62
     7
100
AcDbLine
 10
814.6012436617
 20
678.1803192745
 30
0.0
 11
815.0377269759
 21
677.1439659376
 31
0.0
  0
LINE
  5
387
330
1F
100
AcDbEntity
  8
0
  6
SLD-実線
 62
     7
100
AcDbLine
 10
813.4936413728
 20
673.9417670152
 30
0.0
 11
813.3945889771
 21
673.626338735
 31
0.0
  0
LINE
  5
388
330
1F
100
AcDbEntity
  8
0
  6
SLD-実線
 62
     7
100
AcDbLine
 10
813.4936413728
 20
673.9417670152
 30
0.0
 11
814.5299947097
 21
674.3782503295
 31
0.0
  0
LINE
  5
389
330
1F
100
AcDbEntity
  8
0
  6
SLD-実線
 62
     7
100
AcDbLine
 10
814.229980183
 20
675.0572069328
 30
0.0
 11
813.2094912125
 21
674.5848213025
 31
0.0
  0
LINE
  5
38A
330
1F
100
AcDbEntity
  8
0
  6
SLD-実線
 62
     7
100
AcDbLine
 10
813.2094912125
 20
674.5848213025
 30
0.0
 11
812.9095782301
 21
674.7239564168
 31
0.0
  0
ARC
  5
38B
330
1F
100
AcDbEntity
  8
0
  6
SLD-実線
 62
     7
100
AcDbCircle
 10
816.1667186469
 20
675.5072420004
 30
0.0
 40
3.097749835362446
100
AcDbArc
 50
197.3237855353
 51
210.3551698954
  0
LINE
  5
38C
330
1F
100
AcDbEntity
  8
0
  6
SLD-実線
 62
     7
100
AcDbLine
 10
193.7444341052
 20
298.8850910902
 30
0.0
 11
192.6722049828
 21
298.813131634
 31
0.0
  0
LINE
  5
38D
330
1F
100
AcDbEntity
  8
0
  6
SLD-実線
 62
     7
100
AcDbLine
 10
192.6722049828
 20
298.813131634
 30
0.0
 11
191.9278652468
 21
299.5882521481
 31
0.0
  0
LINE
  5
38E
330
1F
100
AcDbEntity
  8
0
  6
SLD-実線
 62
     7
100
AcDbLine
 10
191.9278652468
 20
299.5882521481
 30
0.0
 11
191.3834330632
 21
300.7643824172
 31
0.0
  0
ARC
  5
38F
330
1F
100
AcDbEntity
  8
0
  6
SLD-実線
 62
     7
100
AcDbCircle
 10
192.1667186469
 20
297.5072420004
 30
0.0
 40
3.349999999999989
100
AcDbArc
 50
103.5218752025
 51
124.1570802282
  0
LINE
  5
390
330
1F
100
AcDbEntity
  8
0
  6
SLD-実線
 62
     7
100
AcDbLine
 10
190.2858153815
 20
300.2793716702
 30
0.0
 11
190.7888695572
 21
299.0849574587
 31
0.0
  0
LINE
  5
391
330
1F
100
AcDbEntity
  8
0
  6
SLD-実線
 62
     7
100
AcDbLine
 10
190.7888695572
 20
299.0849574587
 30
0.0
 11
190.8608290133
 21
298.0127283364
 31
0.0
  0
LINE
  5
392
330
1F
100
AcDbEntity
  8
0
  6
SLD-実線
 62
     7
100
AcDbLine
 10
190.8608290133
 20
298.0127283364
 30
0.0
 11
190.0857084993
 21
297.2683886003
 31
0.0
  0
LINE
  5
393
330
1F
100
AcDbEntity
  8
0
  6
SLD-実線
 62
     7
100
AcDbLine
 10
190.0857084993
 20
297.2683886003
 30
0.0
 11
188.9095782301
 21
296.7239564168
 31
0.0
  0
ARC
  5
394
330
1F
100
AcDbEntity
  8
0
  6
SLD-実線
 62
     7
100
AcDbCircle
 10
192.1667186469
 20
297.5072420004
 30
0.0
 40
3.349999999999996
100
AcDbArc
 50
193.5218752025
 51
214.1570802282
  0
LINE
  5
395
330
1F
100
AcDbEntity
  8
0
  6
SLD-実線
 62
     7
100
AcDbLine
 10
189.3945889771
 20
295.626338735
 30
0.0
 11
190.5890031886
 21
296.1293929107
 31
0.0
  0
LINE
  5
396
330
1F
100
AcDbEntity
  8
0
  6
SLD-実線
 62
     7
100
AcDbLine
 10
190.5890031886
 20
296.1293929107
 30
0.0
 11
191.6612323109
 21
296.2013523669
 31
0.0
  0
LINE
  5
397
330
1F
100
AcDbEntity
  8
0
  6
SLD-実線
 62
     7
100
AcDbLine
 10
191.6612323109
 20
296.2013523669
 30
0.0
 11
192.405572047
 21
295.4262318528
 31
0.0
  0
LINE
  5
398
330
1F
100
AcDbEntity
  8
0
  6
SLD-実線
 62
     7
100
AcDbLine
 10
192.405572047
 20
295.4262318528
 30
0.0
 11
192.9500042305
 21
294.2501015837
 31
0.0
  0
ARC
  5
399
330
1F
100
AcDbEntity
  8
0
  6
SLD-実線
 62
     7
100
AcDbCircle
 10
192.1667186469
 20
297.5072420004
 30
0.0
 40
3.349999999999996
100
AcDbArc
 50
283.5218752025
 51
304.1570802282
  0
LINE
  5
39A
330
1F
100
AcDbEntity
  8
0
  6
SLD-実線
 62
     7
100
AcDbLine
 10
194.0476219123
 20
294.7351123307
 30
0.0
 11
193.5445677366
 21
295.9295265422
 31
0.0
  0
LINE
  5
39B
330
1F
100
AcDbEntity
  8
0
  6
SLD-実線
 62
     7
100
AcDbLine
 10
193.5445677366
 20
295.9295265422
 30
0.0
 11
193.4726082805
 21
297.0017556645
 31
0.0
  0
LINE
  5
39C
330
1F
100
AcDbEntity
  8
0
  6
SLD-実線
 62
     7
100
AcDbLine
 10
193.4726082805
 20
297.0017556645
 30
0.0
 11
194.2477287945
 21
297.7460954006
 31
0.0
  0
LINE
  5
39D
330
1F
100
AcDbEntity
  8
0
  6
SLD-実線
 62
     7
100
AcDbLine
 10
194.2477287945
 20
297.7460954006
 30
0.0
 11
195.4238590636
 21
298.2905275841
 31
0.0
  0
ARC
  5
39E
330
1F
100
AcDbEntity
  8
0
  6
SLD-実線
 62
     7
100
AcDbCircle
 10
192.1667186469
 20
297.5072420004
 30
0.0
 40
3.350000000000023
100
AcDbArc
 50
13.5218752025
 51
34.1570802282
  0
LINE
  5
39F
330
1F
100
AcDbEntity
  8
0
  6
SLD-実線
 62
     7
100
AcDbLine
 10
194.9388483167
 20
299.3881452659
 30
0.0
 11
193.7444341052
 21
298.8850910902
 31
0.0
  0
CIRCLE
  5
3A0
330
1F
100
AcDbEntity
  8
0
  6
SLD-実線
 62
     7
100
AcDbCircle
 10
192.1667186469
 20
297.5072420004
 30
0.0
 40
5.999999999999983
  0
LINE
  5
3A1
330
1F
100
AcDbEntity
  8
0
  6
SLD-実線
 62
     7
100
AcDbLine
 10
194.1034571108
 20
297.9572770681
 30
0.0
 11
194.2477287945
 21
297.7460954006
 31
0.0
  0
LINE
  5
3A2
330
1F
100
AcDbEntity
  8
0
  6
SLD-実線
 62
     7
100
AcDbLine
 10
194.1034571108
 20
297.9572770681
 30
0.0
 11
195.1239460812
 21
298.4296626984
 31
0.0
  0
LINE
  5
3A3
330
1F
100
AcDbEntity
  8
0
  6
SLD-実線
 62
     7
100
AcDbLine
 10
195.1239460812
 20
298.4296626984
 30
0.0
 11
195.4238590636
 21
298.2905275841
 31
0.0
  0
ARC
  5
3A4
330
1F
100
AcDbEntity
  8
0
  6
SLD-実線
 62
     7
100
AcDbCircle
 10
192.1667186469
 20
297.5072420004
 30
0.0
 40
3.097749835362408
100
AcDbArc
 50
17.3237855353
 51
30.3551698954
  0
LINE
  5
3A5
330
1F
100
AcDbEntity
  8
0
  6
SLD-実線
 62
     7
100
AcDbLine
 10
194.839795921
 20
299.0727169857
 30
0.0
 11
194.9388483167
 21
299.3881452659
 31
0.0
  0
LINE
  5
3A6
330
1F
100
AcDbEntity
  8
0
  6
SLD-実線
 62
     7
100
AcDbLine
 10
194.839795921
 20
299.0727169857
 30
0.0
 11
193.803442584
 21
298.6362336714
 31
0.0
  0
LINE
  5
3A7
330
1F
100
AcDbEntity
  8
0
  6
SLD-実線
 62
     7
100
AcDbLine
 10
193.803442584
 20
298.6362336714
 30
0.0
 11
193.7444341052
 21
298.8850910902
 31
0.0
  0
LINE
  5
3A8
330
1F
100
AcDbEntity
  8
0
  6
SLD-実線
 62
     7
100
AcDbLine
 10
193.213047862
 20
297.1022268234
 30
0.0
 11
193.4726082805
 21
297.0017556645
 31
0.0
  0
LINE
  5
3A9
330
1F
100
AcDbEntity
  8
0
  6
SLD-実線
 62
     7
100
AcDbLine
 10
193.213047862
 20
297.1022268234
 30
0.0
 11
194.1034571108
 21
297.9572770681
 31
0.0
  0
LINE
  5
3AA
330
1F
100
AcDbEntity
  8
0
  6
SLD-実線
 62
     7
100
AcDbLine
 10
193.2957103179
 20
295.8705180633
 30
0.0
 11
193.5445677366
 21
295.9295265422
 31
0.0
  0
LINE
  5
3AB
330
1F
100
AcDbEntity
  8
0
  6
SLD-実線
 62
     7
100
AcDbLine
 10
193.2957103179
 20
295.8705180633
 30
0.0
 11
193.213047862
 21
297.1022268234
 31
0.0
  0
LINE
  5
3AC
330
1F
100
AcDbEntity
  8
0
  6
SLD-実線
 62
     7
100
AcDbLine
 10
193.7321936321
 20
294.8341647264
 30
0.0
 11
194.0476219123
 21
294.7351123307
 31
0.0
  0
LINE
  5
3AD
330
1F
100
AcDbEntity
  8
0
  6
SLD-実線
 62
     7
100
AcDbLine
 10
193.7321936321
 20
294.8341647264
 30
0.0
 11
193.2957103179
 21
295.8705180633
 31
0.0
  0
LINE
  5
3AE
330
1F
100
AcDbEntity
  8
0
  6
SLD-実線
 62
     7
100
AcDbLine
 10
193.0891393448
 20
294.5500145661
 30
0.0
 11
192.9500042305
 21
294.2501015837
 31
0.0
  0
ARC
  5
3AF
330
1F
100
AcDbEntity
  8
0
  6
SLD-実線
 62
     7
100
AcDbCircle
 10
192.1667186469
 20
297.5072420004
 30
0.0
 40
3.0977498353624
100
AcDbArc
 50
287.3237855353
 51
300.3551698955
  0
LINE
  5
3B0
330
1F
100
AcDbEntity
  8
0
  6
SLD-実線
 62
     7
100
AcDbLine
 10
193.803442584
 20
298.6362336714
 30
0.0
 11
192.5717338239
 21
298.5535712155
 31
0.0
  0
LINE
  5
3B1
330
1F
100
AcDbEntity
  8
0
  6
SLD-実線
 62
     7
100
AcDbLine
 10
192.5717338239
 20
298.5535712155
 30
0.0
 11
192.6722049828
 21
298.813131634
 31
0.0
  0
LINE
  5
3B2
330
1F
100
AcDbEntity
  8
0
  6
SLD-実線
 62
     7
100
AcDbLine
 10
192.6167537146
 20
295.5705035366
 30
0.0
 11
192.405572047
 21
295.4262318528
 31
0.0
  0
LINE
  5
3B3
330
1F
100
AcDbEntity
  8
0
  6
SLD-実線
 62
     7
100
AcDbLine
 10
192.6167537146
 20
295.5705035366
 30
0.0
 11
193.0891393448
 21
294.5500145661
 31
0.0
  0
LINE
  5
3B4
330
1F
100
AcDbEntity
  8
0
  6
SLD-実線
 62
     7
100
AcDbLine
 10
191.7617034699
 20
296.4609127854
 30
0.0
 11
191.6612323109
 21
296.2013523669
 31
0.0
  0
LINE
  5
3B5
330
1F
100
AcDbEntity
  8
0
  6
SLD-実線
 62
     7
100
AcDbLine
 10
191.7617034699
 20
296.4609127854
 30
0.0
 11
192.6167537146
 21
295.5705035366
 31
0.0
  0
LINE
  5
3B6
330
1F
100
AcDbEntity
  8
0
  6
SLD-実線
 62
     7
100
AcDbLine
 10
192.5717338239
 20
298.5535712155
 30
0.0
 11
191.7166835792
 21
299.4439804643
 31
0.0
  0
LINE
  5
3B7
330
1F
100
AcDbEntity
  8
0
  6
SLD-実線
 62
     7
100
AcDbLine
 10
191.7166835792
 20
299.4439804643
 30
0.0
 11
191.9278652468
 21
299.5882521481
 31
0.0
  0
LINE
  5
3B8
330
1F
100
AcDbEntity
  8
0
  6
SLD-実線
 62
     7
100
AcDbLine
 10
191.7166835792
 20
299.4439804643
 30
0.0
 11
191.2442979489
 21
300.4644694348
 31
0.0
  0
LINE
  5
3B9
330
1F
100
AcDbEntity
  8
0
  6
SLD-実線
 62
     7
100
AcDbLine
 10
191.2442979489
 20
300.4644694348
 30
0.0
 11
191.3834330632
 21
300.7643824172
 31
0.0
  0
LINE
  5
3BA
330
1F
100
AcDbEntity
  8
0
  6
SLD-実線
 62
     7
100
AcDbLine
 10
190.5299947097
 20
296.3782503295
 30
0.0
 11
190.5890031886
 21
296.1293929107
 31
0.0
  0
LINE
  5
3BB
330
1F
100
AcDbEntity
  8
0
  6
SLD-実線
 62
     7
100
AcDbLine
 10
190.5299947097
 20
296.3782503295
 30
0.0
 11
191.7617034699
 21
296.4609127854
 31
0.0
  0
LINE
  5
3BC
330
1F
100
AcDbEntity
  8
0
  6
SLD-実線
 62
     7
100
AcDbLine
 10
191.0377269759
 20
299.1439659376
 30
0.0
 11
190.7888695572
 21
299.0849574587
 31
0.0
  0
LINE
  5
3BD
330
1F
100
AcDbEntity
  8
0
  6
SLD-実線
 62
     7
100
AcDbLine
 10
191.0377269759
 20
299.1439659376
 30
0.0
 11
191.1203894318
 21
297.9122571775
 31
0.0
  0
LINE
  5
3BE
330
1F
100
AcDbEntity
  8
0
  6
SLD-実線
 62
     7
100
AcDbLine
 10
191.1203894318
 20
297.9122571775
 30
0.0
 11
190.8608290133
 21
298.0127283364
 31
0.0
  0
LINE
  5
3BF
330
1F
100
AcDbEntity
  8
0
  6
SLD-実線
 62
     7
100
AcDbLine
 10
191.1203894318
 20
297.9122571775
 30
0.0
 11
190.229980183
 21
297.0572069328
 31
0.0
  0
LINE
  5
3C0
330
1F
100
AcDbEntity
  8
0
  6
SLD-実線
 62
     7
100
AcDbLine
 10
190.229980183
 20
297.0572069328
 30
0.0
 11
190.0857084993
 21
297.2683886003
 31
0.0
  0
ARC
  5
3C1
330
1F
100
AcDbEntity
  8
0
  6
SLD-実線
 62
     7
100
AcDbCircle
 10
192.1667186469
 20
297.5072420004
 30
0.0
 40
3.097749835362391
100
AcDbArc
 50
107.3237855353
 51
120.3551698954
  0
LINE
  5
3C2
330
1F
100
AcDbEntity
  8
0
  6
SLD-実線
 62
     7
100
AcDbLine
 10
190.6012436617
 20
300.1803192745
 30
0.0
 11
190.2858153815
 21
300.2793716702
 31
0.0
  0
LINE
  5
3C3
330
1F
100
AcDbEntity
  8
0
  6
SLD-実線
 62
     7
100
AcDbLine
 10
190.6012436617
 20
300.1803192745
 30
0.0
 11
191.0377269759
 21
299.1439659376
 31
0.0
  0
LINE
  5
3C4
330
1F
100
AcDbEntity
  8
0
  6
SLD-実線
 62
     7
100
AcDbLine
 10
189.4936413728
 20
295.9417670152
 30
0.0
 11
189.3945889771
 21
295.626338735
 31
0.0
  0
LINE
  5
3C5
330
1F
100
AcDbEntity
  8
0
  6
SLD-実線
 62
     7
100
AcDbLine
 10
189.4936413728
 20
295.9417670152
 30
0.0
 11
190.5299947097
 21
296.3782503295
 31
0.0
  0
LINE
  5
3C6
330
1F
100
AcDbEntity
  8
0
  6
SLD-実線
 62
     7
100
AcDbLine
 10
190.229980183
 20
297.0572069328
 30
0.0
 11
189.2094912125
 21
296.5848213025
 31
0.0
  0
LINE
  5
3C7
330
1F
100
AcDbEntity
  8
0
  6
SLD-実線
 62
     7
100
AcDbLine
 10
189.2094912125
 20
296.5848213025
 30
0.0
 11
188.9095782301
 21
296.7239564168
 31
0.0
  0
ARC
  5
3C8
330
1F
100
AcDbEntity
  8
0
  6
SLD-実線
 62
     7
100
AcDbCircle
 10
192.1667186469
 20
297.5072420004
 30
0.0
 40
3.097749835362375
100
AcDbArc
 50
197.3237855353
 51
210.3551698955
  0
CIRCLE
  5
3C9
330
1F
100
AcDbEntity
  8
0
  6
SLD-実線
 62
     7
100
AcDbCircle
 10
156.1667186469
 20
297.5072420004
 30
0.0
 40
5.999999999999983
  0
LINE
  5
3CA
330
1F
100
AcDbEntity
  8
0
  6
SLD-実線
 62
     7
100
AcDbLine
 10
157.7444341052
 20
298.8850910902
 30
0.0
 11
156.6722049828
 21
298.813131634
 31
0.0
  0
LINE
  5
3CB
330
1F
100
AcDbEntity
  8
0
  6
SLD-実線
 62
     7
100
AcDbLine
 10
156.6722049828
 20
298.813131634
 30
0.0
 11
155.9278652468
 21
299.5882521481
 31
0.0
  0
LINE
  5
3CC
330
1F
100
AcDbEntity
  8
0
  6
SLD-実線
 62
     7
100
AcDbLine
 10
155.9278652468
 20
299.5882521481
 30
0.0
 11
155.3834330632
 21
300.7643824172
 31
0.0
  0
ARC
  5
3CD
330
1F
100
AcDbEntity
  8
0
  6
SLD-実線
 62
     7
100
AcDbCircle
 10
156.1667186469
 20
297.5072420004
 30
0.0
 40
3.349999999999989
100
AcDbArc
 50
103.5218752025
 51
124.1570802282
  0
LINE
  5
3CE
330
1F
100
AcDbEntity
  8
0
  6
SLD-実線
 62
     7
100
AcDbLine
 10
154.2858153815
 20
300.2793716702
 30
0.0
 11
154.7888695572
 21
299.0849574587
 31
0.0
  0
LINE
  5
3CF
330
1F
100
AcDbEntity
  8
0
  6
SLD-実線
 62
     7
100
AcDbLine
 10
154.7888695572
 20
299.0849574587
 30
0.0
 11
154.8608290133
 21
298.0127283364
 31
0.0
  0
LINE
  5
3D0
330
1F
100
AcDbEntity
  8
0
  6
SLD-実線
 62
     7
100
AcDbLine
 10
154.8608290133
 20
298.0127283364
 30
0.0
 11
154.0857084993
 21
297.2683886003
 31
0.0
  0
LINE
  5
3D1
330
1F
100
AcDbEntity
  8
0
  6
SLD-実線
 62
     7
100
AcDbLine
 10
154.0857084993
 20
297.2683886003
 30
0.0
 11
152.9095782301
 21
296.7239564168
 31
0.0
  0
ARC
  5
3D2
330
1F
100
AcDbEntity
  8
0
  6
SLD-実線
 62
     7
100
AcDbCircle
 10
156.1667186469
 20
297.5072420004
 30
0.0
 40
3.349999999999996
100
AcDbArc
 50
193.5218752025
 51
214.1570802282
  0
LINE
  5
3D3
330
1F
100
AcDbEntity
  8
0
  6
SLD-実線
 62
     7
100
AcDbLine
 10
153.3945889771
 20
295.626338735
 30
0.0
 11
154.5890031886
 21
296.1293929107
 31
0.0
  0
LINE
  5
3D4
330
1F
100
AcDbEntity
  8
0
  6
SLD-実線
 62
     7
100
AcDbLine
 10
154.5890031886
 20
296.1293929107
 30
0.0
 11
155.6612323109
 21
296.2013523669
 31
0.0
  0
LINE
  5
3D5
330
1F
100
AcDbEntity
  8
0
  6
SLD-実線
 62
     7
100
AcDbLine
 10
155.6612323109
 20
296.2013523669
 30
0.0
 11
156.405572047
 21
295.4262318528
 31
0.0
  0
LINE
  5
3D6
330
1F
100
AcDbEntity
  8
0
  6
SLD-実線
 62
     7
100
AcDbLine
 10
156.405572047
 20
295.4262318528
 30
0.0
 11
156.9500042305
 21
294.2501015837
 31
0.0
  0
ARC
  5
3D7
330
1F
100
AcDbEntity
  8
0
  6
SLD-実線
 62
     7
100
AcDbCircle
 10
156.1667186469
 20
297.5072420004
 30
0.0
 40
3.349999999999996
100
AcDbArc
 50
283.5218752025
 51
304.1570802282
  0
LINE
  5
3D8
330
1F
100
AcDbEntity
  8
0
  6
SLD-実線
 62
     7
100
AcDbLine
 10
158.0476219123
 20
294.7351123307
 30
0.0
 11
157.5445677366
 21
295.9295265422
 31
0.0
  0
LINE
  5
3D9
330
1F
100
AcDbEntity
  8
0
  6
SLD-実線
 62
     7
100
AcDbLine
 10
157.5445677366
 20
295.9295265422
 30
0.0
 11
157.4726082805
 21
297.0017556645
 31
0.0
  0
LINE
  5
3DA
330
1F
100
AcDbEntity
  8
0
  6
SLD-実線
 62
     7
100
AcDbLine
 10
157.4726082805
 20
297.0017556645
 30
0.0
 11
158.2477287945
 21
297.7460954006
 31
0.0
  0
LINE
  5
3DB
330
1F
100
AcDbEntity
  8
0
  6
SLD-実線
 62
     7
100
AcDbLine
 10
158.2477287945
 20
297.7460954006
 30
0.0
 11
159.4238590636
 21
298.2905275841
 31
0.0
  0
ARC
  5
3DC
330
1F
100
AcDbEntity
  8
0
  6
SLD-実線
 62
     7
100
AcDbCircle
 10
156.1667186469
 20
297.5072420004
 30
0.0
 40
3.350000000000023
100
AcDbArc
 50
13.5218752025
 51
34.1570802282
  0
LINE
  5
3DD
330
1F
100
AcDbEntity
  8
0
  6
SLD-実線
 62
     7
100
AcDbLine
 10
158.9388483167
 20
299.3881452659
 30
0.0
 11
157.7444341052
 21
298.8850910902
 31
0.0
  0
LINE
  5
3DE
330
1F
100
AcDbEntity
  8
0
  6
SLD-実線
 62
     7
100
AcDbLine
 10
159.1239460812
 20
298.4296626984
 30
0.0
 11
159.4238590636
 21
298.2905275841
 31
0.0
  0
ARC
  5
3DF
330
1F
100
AcDbEntity
  8
0
  6
SLD-実線
 62
     7
100
AcDbCircle
 10
156.1667186469
 20
297.5072420004
 30
0.0
 40
3.097749835362408
100
AcDbArc
 50
17.3237855353
 51
30.3551698954
  0
LINE
  5
3E0
330
1F
100
AcDbEntity
  8
0
  6
SLD-実線
 62
     7
100
AcDbLine
 10
158.839795921
 20
299.0727169857
 30
0.0
 11
158.9388483167
 21
299.3881452659
 31
0.0
  0
LINE
  5
3E1
330
1F
100
AcDbEntity
  8
0
  6
SLD-実線
 62
     7
100
AcDbLine
 10
158.1034571108
 20
297.9572770681
 30
0.0
 11
158.2477287945
 21
297.7460954006
 31
0.0
  0
LINE
  5
3E2
330
1F
100
AcDbEntity
  8
0
  6
SLD-実線
 62
     7
100
AcDbLine
 10
158.1034571108
 20
297.9572770681
 30
0.0
 11
159.1239460812
 21
298.4296626984
 31
0.0
  0
LINE
  5
3E3
330
1F
100
AcDbEntity
  8
0
  6
SLD-実線
 62
     7
100
AcDbLine
 10
158.839795921
 20
299.0727169857
 30
0.0
 11
157.803442584
 21
298.6362336714
 31
0.0
  0
LINE
  5
3E4
330
1F
100
AcDbEntity
  8
0
  6
SLD-実線
 62
     7
100
AcDbLine
 10
157.803442584
 20
298.6362336714
 30
0.0
 11
157.7444341052
 21
298.8850910902
 31
0.0
  0
LINE
  5
3E5
330
1F
100
AcDbEntity
  8
0
  6
SLD-実線
 62
     7
100
AcDbLine
 10
157.213047862
 20
297.1022268234
 30
0.0
 11
157.4726082805
 21
297.0017556645
 31
0.0
  0
LINE
  5
3E6
330
1F
100
AcDbEntity
  8
0
  6
SLD-実線
 62
     7
100
AcDbLine
 10
157.213047862
 20
297.1022268234
 30
0.0
 11
158.1034571108
 21
297.9572770681
 31
0.0
  0
LINE
  5
3E7
330
1F
100
AcDbEntity
  8
0
  6
SLD-実線
 62
     7
100
AcDbLine
 10
157.7321936321
 20
294.8341647264
 30
0.0
 11
158.0476219123
 21
294.7351123307
 31
0.0
  0
LINE
  5
3E8
330
1F
100
AcDbEntity
  8
0
  6
SLD-実線
 62
     7
100
AcDbLine
 10
157.7321936321
 20
294.8341647264
 30
0.0
 11
157.2957103179
 21
295.8705180633
 31
0.0
  0
LINE
  5
3E9
330
1F
100
AcDbEntity
  8
0
  6
SLD-実線
 62
     7
100
AcDbLine
 10
157.2957103179
 20
295.8705180633
 30
0.0
 11
157.5445677366
 21
295.9295265422
 31
0.0
  0
LINE
  5
3EA
330
1F
100
AcDbEntity
  8
0
  6
SLD-実線
 62
     7
100
AcDbLine
 10
157.0891393448
 20
294.5500145661
 30
0.0
 11
156.9500042305
 21
294.2501015837
 31
0.0
  0
ARC
  5
3EB
330
1F
100
AcDbEntity
  8
0
  6
SLD-実線
 62
     7
100
AcDbCircle
 10
156.1667186469
 20
297.5072420004
 30
0.0
 40
3.0977498353624
100
AcDbArc
 50
287.3237855353
 51
300.3551698955
  0
LINE
  5
3EC
330
1F
100
AcDbEntity
  8
0
  6
SLD-実線
 62
     7
100
AcDbLine
 10
157.2957103179
 20
295.8705180633
 30
0.0
 11
157.213047862
 21
297.1022268234
 31
0.0
  0
LINE
  5
3ED
330
1F
100
AcDbEntity
  8
0
  6
SLD-実線
 62
     7
100
AcDbLine
 10
157.803442584
 20
298.6362336714
 30
0.0
 11
156.5717338239
 21
298.5535712155
 31
0.0
  0
LINE
  5
3EE
330
1F
100
AcDbEntity
  8
0
  6
SLD-実線
 62
     7
100
AcDbLine
 10
156.5717338239
 20
298.5535712155
 30
0.0
 11
156.6722049828
 21
298.813131634
 31
0.0
  0
LINE
  5
3EF
330
1F
100
AcDbEntity
  8
0
  6
SLD-実線
 62
     7
100
AcDbLine
 10
156.6167537146
 20
295.5705035366
 30
0.0
 11
156.405572047
 21
295.4262318528
 31
0.0
  0
LINE
  5
3F0
330
1F
100
AcDbEntity
  8
0
  6
SLD-実線
 62
     7
100
AcDbLine
 10
156.6167537146
 20
295.5705035366
 30
0.0
 11
157.0891393448
 21
294.5500145661
 31
0.0
  0
LINE
  5
3F1
330
1F
100
AcDbEntity
  8
0
  6
SLD-実線
 62
     7
100
AcDbLine
 10
156.5717338239
 20
298.5535712155
 30
0.0
 11
155.7166835792
 21
299.4439804643
 31
0.0
  0
LINE
  5
3F2
330
1F
100
AcDbEntity
  8
0
  6
SLD-実線
 62
     7
100
AcDbLine
 10
155.7166835792
 20
299.4439804643
 30
0.0
 11
155.9278652468
 21
299.5882521481
 31
0.0
  0
LINE
  5
3F3
330
1F
100
AcDbEntity
  8
0
  6
SLD-実線
 62
     7
100
AcDbLine
 10
155.7617034699
 20
296.4609127854
 30
0.0
 11
155.6612323109
 21
296.2013523669
 31
0.0
  0
LINE
  5
3F4
330
1F
100
AcDbEntity
  8
0
  6
SLD-実線
 62
     7
100
AcDbLine
 10
155.7617034699
 20
296.4609127854
 30
0.0
 11
156.6167537146
 21
295.5705035366
 31
0.0
  0
LINE
  5
3F5
330
1F
100
AcDbEntity
  8
0
  6
SLD-実線
 62
     7
100
AcDbLine
 10
155.7166835792
 20
299.4439804643
 30
0.0
 11
155.2442979489
 21
300.4644694348
 31
0.0
  0
LINE
  5
3F6
330
1F
100
AcDbEntity
  8
0
  6
SLD-実線
 62
     7
100
AcDbLine
 10
155.2442979489
 20
300.4644694348
 30
0.0
 11
155.3834330632
 21
300.7643824172
 31
0.0
  0
LINE
  5
3F7
330
1F
100
AcDbEntity
  8
0
  6
SLD-実線
 62
     7
100
AcDbLine
 10
154.5299947097
 20
296.3782503295
 30
0.0
 11
154.5890031886
 21
296.1293929107
 31
0.0
  0
LINE
  5
3F8
330
1F
100
AcDbEntity
  8
0
  6
SLD-実線
 62
     7
100
AcDbLine
 10
154.5299947097
 20
296.3782503295
 30
0.0
 11
155.7617034699
 21
296.4609127854
 31
0.0
  0
LINE
  5
3F9
330
1F
100
AcDbEntity
  8
0
  6
SLD-実線
 62
     7
100
AcDbLine
 10
155.0377269759
 20
299.1439659376
 30
0.0
 11
154.7888695572
 21
299.0849574587
 31
0.0
  0
LINE
  5
3FA
330
1F
100
AcDbEntity
  8
0
  6
SLD-実線
 62
     7
100
AcDbLine
 10
155.0377269759
 20
299.1439659376
 30
0.0
 11
155.1203894318
 21
297.9122571775
 31
0.0
  0
LINE
  5
3FB
330
1F
100
AcDbEntity
  8
0
  6
SLD-実線
 62
     7
100
AcDbLine
 10
155.1203894318
 20
297.9122571775
 30
0.0
 11
154.8608290133
 21
298.0127283364
 31
0.0
  0
ARC
  5
3FC
330
1F
100
AcDbEntity
  8
0
  6
SLD-実線
 62
     7
100
AcDbCircle
 10
156.1667186469
 20
297.5072420004
 30
0.0
 40
3.0977498353624
100
AcDbArc
 50
107.3237855353
 51
120.3551698954
  0
LINE
  5
3FD
330
1F
100
AcDbEntity
  8
0
  6
SLD-実線
 62
     7
100
AcDbLine
 10
154.6012436617
 20
300.1803192745
 30
0.0
 11
154.2858153815
 21
300.2793716702
 31
0.0
  0
LINE
  5
3FE
330
1F
100
AcDbEntity
  8
0
  6
SLD-実線
 62
     7
100
AcDbLine
 10
155.1203894318
 20
297.9122571775
 30
0.0
 11
154.229980183
 21
297.0572069328
 31
0.0
  0
LINE
  5
3FF
330
1F
100
AcDbEntity
  8
0
  6
SLD-実線
 62
     7
100
AcDbLine
 10
154.229980183
 20
297.0572069328
 30
0.0
 11
154.0857084993
 21
297.2683886003
 31
0.0
  0
LINE
  5
400
330
1F
100
AcDbEntity
  8
0
  6
SLD-実線
 62
     7
100
AcDbLine
 10
154.6012436617
 20
300.1803192745
 30
0.0
 11
155.0377269759
 21
299.1439659376
 31
0.0
  0
LINE
  5
401
330
1F
100
AcDbEntity
  8
0
  6
SLD-実線
 62
     7
100
AcDbLine
 10
153.4936413728
 20
295.9417670152
 30
0.0
 11
153.3945889771
 21
295.626338735
 31
0.0
  0
LINE
  5
402
330
1F
100
AcDbEntity
  8
0
  6
SLD-実線
 62
     7
100
AcDbLine
 10
153.4936413728
 20
295.9417670152
 30
0.0
 11
154.5299947097
 21
296.3782503295
 31
0.0
  0
LINE
  5
403
330
1F
100
AcDbEntity
  8
0
  6
SLD-実線
 62
     7
100
AcDbLine
 10
154.229980183
 20
297.0572069328
 30
0.0
 11
153.2094912125
 21
296.5848213025
 31
0.0
  0
LINE
  5
404
330
1F
100
AcDbEntity
  8
0
  6
SLD-実線
 62
     7
100
AcDbLine
 10
153.2094912125
 20
296.5848213025
 30
0.0
 11
152.9095782301
 21
296.7239564168
 31
0.0
  0
ARC
  5
405
330
1F
100
AcDbEntity
  8
0
  6
SLD-実線
 62
     7
100
AcDbCircle
 10
156.1667186469
 20
297.5072420004
 30
0.0
 40
3.097749835362375
100
AcDbArc
 50
197.3237855353
 51
210.3551698955
  0
CIRCLE
  5
406
330
1F
100
AcDbEntity
  8
0
  6
SLD-実線
 62
     7
100
AcDbCircle
 10
192.1667186469
 20
231.5072420004
 30
0.0
 40
5.999999999999983
  0
LINE
  5
407
330
1F
100
AcDbEntity
  8
0
  6
SLD-実線
 62
     7
100
AcDbLine
 10
193.7444341052
 20
232.8850910902
 30
0.0
 11
192.6722049828
 21
232.813131634
 31
0.0
  0
LINE
  5
408
330
1F
100
AcDbEntity
  8
0
  6
SLD-実線
 62
     7
100
AcDbLine
 10
192.6722049828
 20
232.813131634
 30
0.0
 11
191.9278652468
 21
233.5882521481
 31
0.0
  0
LINE
  5
409
330
1F
100
AcDbEntity
  8
0
  6
SLD-実線
 62
     7
100
AcDbLine
 10
191.9278652468
 20
233.5882521481
 30
0.0
 11
191.3834330632
 21
234.7643824172
 31
0.0
  0
ARC
  5
40A
330
1F
100
AcDbEntity
  8
0
  6
SLD-実線
 62
     7
100
AcDbCircle
 10
192.1667186469
 20
231.5072420004
 30
0.0
 40
3.350000000000017
100
AcDbArc
 50
103.5218752025
 51
124.1570802282
  0
LINE
  5
40B
330
1F
100
AcDbEntity
  8
0
  6
SLD-実線
 62
     7
100
AcDbLine
 10
190.2858153815
 20
234.2793716702
 30
0.0
 11
190.7888695572
 21
233.0849574587
 31
0.0
  0
LINE
  5
40C
330
1F
100
AcDbEntity
  8
0
  6
SLD-実線
 62
     7
100
AcDbLine
 10
190.7888695572
 20
233.0849574587
 30
0.0
 11
190.8608290133
 21
232.0127283364
 31
0.0
  0
LINE
  5
40D
330
1F
100
AcDbEntity
  8
0
  6
SLD-実線
 62
     7
100
AcDbLine
 10
190.8608290133
 20
232.0127283364
 30
0.0
 11
190.0857084993
 21
231.2683886003
 31
0.0
  0
LINE
  5
40E
330
1F
100
AcDbEntity
  8
0
  6
SLD-実線
 62
     7
100
AcDbLine
 10
190.0857084993
 20
231.2683886003
 30
0.0
 11
188.9095782301
 21
230.7239564168
 31
0.0
  0
ARC
  5
40F
330
1F
100
AcDbEntity
  8
0
  6
SLD-実線
 62
     7
100
AcDbCircle
 10
192.1667186469
 20
231.5072420004
 30
0.0
 40
3.349999999999989
100
AcDbArc
 50
193.5218752025
 51
214.1570802282
  0
LINE
  5
410
330
1F
100
AcDbEntity
  8
0
  6
SLD-実線
 62
     7
100
AcDbLine
 10
189.3945889771
 20
229.626338735
 30
0.0
 11
190.5890031886
 21
230.1293929107
 31
0.0
  0
LINE
  5
411
330
1F
100
AcDbEntity
  8
0
  6
SLD-実線
 62
     7
100
AcDbLine
 10
190.5890031886
 20
230.1293929107
 30
0.0
 11
191.6612323109
 21
230.2013523669
 31
0.0
  0
LINE
  5
412
330
1F
100
AcDbEntity
  8
0
  6
SLD-実線
 62
     7
100
AcDbLine
 10
191.6612323109
 20
230.2013523669
 30
0.0
 11
192.405572047
 21
229.4262318528
 31
0.0
  0
LINE
  5
413
330
1F
100
AcDbEntity
  8
0
  6
SLD-実線
 62
     7
100
AcDbLine
 10
192.405572047
 20
229.4262318528
 30
0.0
 11
192.9500042305
 21
228.2501015837
 31
0.0
  0
ARC
  5
414
330
1F
100
AcDbEntity
  8
0
  6
SLD-実線
 62
     7
100
AcDbCircle
 10
192.1667186469
 20
231.5072420004
 30
0.0
 40
3.349999999999996
100
AcDbArc
 50
283.5218752025
 51
304.1570802282
  0
LINE
  5
415
330
1F
100
AcDbEntity
  8
0
  6
SLD-実線
 62
     7
100
AcDbLine
 10
194.0476219123
 20
228.7351123307
 30
0.0
 11
193.5445677366
 21
229.9295265422
 31
0.0
  0
LINE
  5
416
330
1F
100
AcDbEntity
  8
0
  6
SLD-実線
 62
     7
100
AcDbLine
 10
193.5445677366
 20
229.9295265422
 30
0.0
 11
193.4726082805
 21
231.0017556645
 31
0.0
  0
LINE
  5
417
330
1F
100
AcDbEntity
  8
0
  6
SLD-実線
 62
     7
100
AcDbLine
 10
193.4726082805
 20
231.0017556645
 30
0.0
 11
194.2477287945
 21
231.7460954006
 31
0.0
  0
LINE
  5
418
330
1F
100
AcDbEntity
  8
0
  6
SLD-実線
 62
     7
100
AcDbLine
 10
194.2477287945
 20
231.7460954006
 30
0.0
 11
195.4238590636
 21
232.2905275841
 31
0.0
  0
ARC
  5
419
330
1F
100
AcDbEntity
  8
0
  6
SLD-実線
 62
     7
100
AcDbCircle
 10
192.1667186469
 20
231.5072420004
 30
0.0
 40
3.350000000000023
100
AcDbArc
 50
13.5218752025
 51
34.1570802282
  0
LINE
  5
41A
330
1F
100
AcDbEntity
  8
0
  6
SLD-実線
 62
     7
100
AcDbLine
 10
194.9388483167
 20
233.3881452659
 30
0.0
 11
193.7444341052
 21
232.8850910902
 31
0.0
  0
LINE
  5
41B
330
1F
100
AcDbEntity
  8
0
  6
SLD-実線
 62
     7
100
AcDbLine
 10
194.1034571108
 20
231.9572770681
 30
0.0
 11
194.2477287945
 21
231.7460954006
 31
0.0
  0
LINE
  5
41C
330
1F
100
AcDbEntity
  8
0
  6
SLD-実線
 62
     7
100
AcDbLine
 10
194.1034571108
 20
231.9572770681
 30
0.0
 11
195.1239460812
 21
232.4296626984
 31
0.0
  0
LINE
  5
41D
330
1F
100
AcDbEntity
  8
0
  6
SLD-実線
 62
     7
100
AcDbLine
 10
195.1239460812
 20
232.4296626984
 30
0.0
 11
195.4238590636
 21
232.2905275841
 31
0.0
  0
ARC
  5
41E
330
1F
100
AcDbEntity
  8
0
  6
SLD-実線
 62
     7
100
AcDbCircle
 10
192.1667186469
 20
231.5072420004
 30
0.0
 40
3.0977498353624
100
AcDbArc
 50
17.3237855353
 51
30.3551698954
  0
LINE
  5
41F
330
1F
100
AcDbEntity
  8
0
  6
SLD-実線
 62
     7
100
AcDbLine
 10
194.839795921
 20
233.0727169857
 30
0.0
 11
194.9388483167
 21
233.3881452659
 31
0.0
  0
LINE
  5
420
330
1F
100
AcDbEntity
  8
0
  6
SLD-実線
 62
     7
100
AcDbLine
 10
194.839795921
 20
233.0727169857
 30
0.0
 11
193.803442584
 21
232.6362336714
 31
0.0
  0
LINE
  5
421
330
1F
100
AcDbEntity
  8
0
  6
SLD-実線
 62
     7
100
AcDbLine
 10
193.803442584
 20
232.6362336714
 30
0.0
 11
193.7444341052
 21
232.8850910902
 31
0.0
  0
LINE
  5
422
330
1F
100
AcDbEntity
  8
0
  6
SLD-実線
 62
     7
100
AcDbLine
 10
193.213047862
 20
231.1022268234
 30
0.0
 11
193.4726082805
 21
231.0017556645
 31
0.0
  0
LINE
  5
423
330
1F
100
AcDbEntity
  8
0
  6
SLD-実線
 62
     7
100
AcDbLine
 10
193.213047862
 20
231.1022268234
 30
0.0
 11
194.1034571108
 21
231.9572770681
 31
0.0
  0
LINE
  5
424
330
1F
100
AcDbEntity
  8
0
  6
SLD-実線
 62
     7
100
AcDbLine
 10
193.0891393448
 20
228.5500145661
 30
0.0
 11
192.9500042305
 21
228.2501015837
 31
0.0
  0
ARC
  5
425
330
1F
100
AcDbEntity
  8
0
  6
SLD-実線
 62
     7
100
AcDbCircle
 10
192.1667186469
 20
231.5072420004
 30
0.0
 40
3.097749835362375
100
AcDbArc
 50
287.3237855353
 51
300.3551698955
  0
LINE
  5
426
330
1F
100
AcDbEntity
  8
0
  6
SLD-実線
 62
     7
100
AcDbLine
 10
193.7321936321
 20
228.8341647264
 30
0.0
 11
194.0476219123
 21
228.7351123307
 31
0.0
  0
LINE
  5
427
330
1F
100
AcDbEntity
  8
0
  6
SLD-実線
 62
     7
100
AcDbLine
 10
193.2957103179
 20
229.8705180633
 30
0.0
 11
193.5445677366
 21
229.9295265422
 31
0.0
  0
LINE
  5
428
330
1F
100
AcDbEntity
  8
0
  6
SLD-実線
 62
     7
100
AcDbLine
 10
193.2957103179
 20
229.8705180633
 30
0.0
 11
193.213047862
 21
231.1022268234
 31
0.0
  0
LINE
  5
429
330
1F
100
AcDbEntity
  8
0
  6
SLD-実線
 62
     7
100
AcDbLine
 10
193.7321936321
 20
228.8341647264
 30
0.0
 11
193.2957103179
 21
229.8705180633
 31
0.0
  0
LINE
  5
42A
330
1F
100
AcDbEntity
  8
0
  6
SLD-実線
 62
     7
100
AcDbLine
 10
193.803442584
 20
232.6362336714
 30
0.0
 11
192.5717338239
 21
232.5535712155
 31
0.0
  0
LINE
  5
42B
330
1F
100
AcDbEntity
  8
0
  6
SLD-実線
 62
     7
100
AcDbLine
 10
192.5717338239
 20
232.5535712155
 30
0.0
 11
192.6722049828
 21
232.813131634
 31
0.0
  0
LINE
  5
42C
330
1F
100
AcDbEntity
  8
0
  6
SLD-実線
 62
     7
100
AcDbLine
 10
192.6167537146
 20
229.5705035366
 30
0.0
 11
192.405572047
 21
229.4262318528
 31
0.0
  0
LINE
  5
42D
330
1F
100
AcDbEntity
  8
0
  6
SLD-実線
 62
     7
100
AcDbLine
 10
192.6167537146
 20
229.5705035366
 30
0.0
 11
193.0891393448
 21
228.5500145661
 31
0.0
  0
LINE
  5
42E
330
1F
100
AcDbEntity
  8
0
  6
SLD-実線
 62
     7
100
AcDbLine
 10
192.5717338239
 20
232.5535712155
 30
0.0
 11
191.7166835792
 21
233.4439804643
 31
0.0
  0
LINE
  5
42F
330
1F
100
AcDbEntity
  8
0
  6
SLD-実線
 62
     7
100
AcDbLine
 10
191.7166835792
 20
233.4439804643
 30
0.0
 11
191.9278652468
 21
233.5882521481
 31
0.0
  0
LINE
  5
430
330
1F
100
AcDbEntity
  8
0
  6
SLD-実線
 62
     7
100
AcDbLine
 10
191.7617034699
 20
230.4609127854
 30
0.0
 11
191.6612323109
 21
230.2013523669
 31
0.0
  0
LINE
  5
431
330
1F
100
AcDbEntity
  8
0
  6
SLD-実線
 62
     7
100
AcDbLine
 10
191.7617034699
 20
230.4609127854
 30
0.0
 11
192.6167537146
 21
229.5705035366
 31
0.0
  0
LINE
  5
432
330
1F
100
AcDbEntity
  8
0
  6
SLD-実線
 62
     7
100
AcDbLine
 10
191.7166835792
 20
233.4439804643
 30
0.0
 11
191.2442979489
 21
234.4644694348
 31
0.0
  0
LINE
  5
433
330
1F
100
AcDbEntity
  8
0
  6
SLD-実線
 62
     7
100
AcDbLine
 10
191.2442979489
 20
234.4644694348
 30
0.0
 11
191.3834330632
 21
234.7643824172
 31
0.0
  0
LINE
  5
434
330
1F
100
AcDbEntity
  8
0
  6
SLD-実線
 62
     7
100
AcDbLine
 10
190.5299947097
 20
230.3782503295
 30
0.0
 11
190.5890031886
 21
230.1293929107
 31
0.0
  0
LINE
  5
435
330
1F
100
AcDbEntity
  8
0
  6
SLD-実線
 62
     7
100
AcDbLine
 10
190.5299947097
 20
230.3782503295
 30
0.0
 11
191.7617034699
 21
230.4609127854
 31
0.0
  0
LINE
  5
436
330
1F
100
AcDbEntity
  8
0
  6
SLD-実線
 62
     7
100
AcDbLine
 10
191.0377269759
 20
233.1439659376
 30
0.0
 11
190.7888695572
 21
233.0849574587
 31
0.0
  0
LINE
  5
437
330
1F
100
AcDbEntity
  8
0
  6
SLD-実線
 62
     7
100
AcDbLine
 10
191.0377269759
 20
233.1439659376
 30
0.0
 11
191.1203894318
 21
231.9122571775
 31
0.0
  0
LINE
  5
438
330
1F
100
AcDbEntity
  8
0
  6
SLD-実線
 62
     7
100
AcDbLine
 10
191.1203894318
 20
231.9122571775
 30
0.0
 11
190.8608290133
 21
232.0127283364
 31
0.0
  0
LINE
  5
439
330
1F
100
AcDbEntity
  8
0
  6
SLD-実線
 62
     7
100
AcDbLine
 10
191.1203894318
 20
231.9122571775
 30
0.0
 11
190.229980183
 21
231.0572069328
 31
0.0
  0
LINE
  5
43A
330
1F
100
AcDbEntity
  8
0
  6
SLD-実線
 62
     7
100
AcDbLine
 10
190.229980183
 20
231.0572069328
 30
0.0
 11
190.0857084993
 21
231.2683886003
 31
0.0
  0
ARC
  5
43B
330
1F
100
AcDbEntity
  8
0
  6
SLD-実線
 62
     7
100
AcDbCircle
 10
192.1667186469
 20
231.5072420004
 30
0.0
 40
3.097749835362391
100
AcDbArc
 50
107.3237855353
 51
120.3551698954
  0
LINE
  5
43C
330
1F
100
AcDbEntity
  8
0
  6
SLD-実線
 62
     7
100
AcDbLine
 10
190.6012436617
 20
234.1803192745
 30
0.0
 11
190.2858153815
 21
234.2793716702
 31
0.0
  0
LINE
  5
43D
330
1F
100
AcDbEntity
  8
0
  6
SLD-実線
 62
     7
100
AcDbLine
 10
190.6012436617
 20
234.1803192745
 30
0.0
 11
191.0377269759
 21
233.1439659376
 31
0.0
  0
LINE
  5
43E
330
1F
100
AcDbEntity
  8
0
  6
SLD-実線
 62
     7
100
AcDbLine
 10
189.4936413728
 20
229.9417670152
 30
0.0
 11
189.3945889771
 21
229.626338735
 31
0.0
  0
LINE
  5
43F
330
1F
100
AcDbEntity
  8
0
  6
SLD-実線
 62
     7
100
AcDbLine
 10
189.4936413728
 20
229.9417670152
 30
0.0
 11
190.5299947097
 21
230.3782503295
 31
0.0
  0
LINE
  5
440
330
1F
100
AcDbEntity
  8
0
  6
SLD-実線
 62
     7
100
AcDbLine
 10
190.229980183
 20
231.0572069328
 30
0.0
 11
189.2094912125
 21
230.5848213025
 31
0.0
  0
LINE
  5
441
330
1F
100
AcDbEntity
  8
0
  6
SLD-実線
 62
     7
100
AcDbLine
 10
189.2094912125
 20
230.5848213025
 30
0.0
 11
188.9095782301
 21
230.7239564168
 31
0.0
  0
ARC
  5
442
330
1F
100
AcDbEntity
  8
0
  6
SLD-実線
 62
     7
100
AcDbCircle
 10
192.1667186469
 20
231.5072420004
 30
0.0
 40
3.097749835362373
100
AcDbArc
 50
197.3237855353
 51
210.3551698955
  0
CIRCLE
  5
443
330
1F
100
AcDbEntity
  8
0
  6
SLD-実線
 62
     7
100
AcDbCircle
 10
192.1667186469
 20
675.5072420004
 30
0.0
 40
6.500000000000114
  0
CIRCLE
  5
444
330
1F
100
AcDbEntity
  8
0
  6
SLD-実線
 62
     7
100
AcDbCircle
 10
192.1667186469
 20
297.5072420004
 30
0.0
 40
6.5
  0
CIRCLE
  5
445
330
1F
100
AcDbEntity
  8
0
  6
SLD-実線
 62
     7
100
AcDbCircle
 10
852.1667186469
 20
675.5072420004
 30
0.0
 40
6.500000000000114
  0
CIRCLE
  5
446
330
1F
100
AcDbEntity
  8
0
  6
SLD-実線
 62
     7
100
AcDbCircle
 10
156.1667186469
 20
741.5072420004
 30
0.0
 40
6.499999999999886
  0
CIRCLE
  5
447
330
1F
100
AcDbEntity
  8
0
  6
SLD-実線
 62
     7
100
AcDbCircle
 10
156.1667186469
 20
675.5072420004
 30
0.0
 40
6.500000000000114
  0
CIRCLE
  5
448
330
1F
100
AcDbEntity
  8
0
  6
SLD-実線
 62
     7
100
AcDbCircle
 10
192.1667186469
 20
741.5072420004
 30
0.0
 40
6.499999999999886
  0
CIRCLE
  5
449
330
1F
100
AcDbEntity
  8
0
  6
SLD-実線
 62
     7
100
AcDbCircle
 10
852.1667186469
 20
741.5072420004
 30
0.0
 40
6.499999999999886
  0
CIRCLE
  5
44A
330
1F
100
AcDbEntity
  8
0
  6
SLD-実線
 62
     7
100
AcDbCircle
 10
816.1667186469
 20
741.5072420004
 30
0.0
 40
6.499999999999886
  0
CIRCLE
  5
44B
330
1F
100
AcDbEntity
  8
0
  6
SLD-実線
 62
     7
100
AcDbCircle
 10
816.1667186469
 20
675.5072420004
 30
0.0
 40
6.500000000000114
  0
CIRCLE
  5
44C
330
1F
100
AcDbEntity
  8
0
  6
SLD-実線
 62
     7
100
AcDbCircle
 10
156.1667186469
 20
231.5072420004
 30
0.0
 40
6.5
  0
CIRCLE
  5
44D
330
1F
100
AcDbEntity
  8
0
  6
SLD-実線
 62
     7
100
AcDbCircle
 10
156.1667186469
 20
297.5072420004
 30
0.0
 40
6.5
  0
CIRCLE
  5
44E
330
1F
100
AcDbEntity
  8
0
  6
SLD-実線
 62
     7
100
AcDbCircle
 10
192.1667186469
 20
231.5072420004
 30
0.0
 40
6.5
  0
LINE
  5
44F
330
1F
100
AcDbEntity
  8
0
  6
SLD-実線
 62
     7
100
AcDbLine
 10
78.1667186469
 20
215.5072420004
 30
0.0
 11
930.1667186469
 21
215.5072420004
 31
0.0
  0
LINE
  5
450
330
1F
100
AcDbEntity
  8
0
  6
SLD-実線
 62
     7
100
AcDbLine
 10
78.1667186469
 20
215.5072420004
 30
0.0
 11
78.1667186469
 21
757.5072420004
 31
0.0
  0
LINE
  5
451
330
1F
100
AcDbEntity
  8
0
  6
SLD-実線
 62
     7
100
AcDbLine
 10
78.1667186469
 20
757.5072420004
 30
0.0
 11
930.1667186469
 21
757.5072420004
 31
0.0
  0
LINE
  5
452
330
1F
100
AcDbEntity
  8
0
  6
SLD-実線
 62
     7
100
AcDbLine
 10
930.1667186469
 20
215.5072420004
 30
0.0
 11
930.1667186469
 21
757.5072420004
 31
0.0
  0
CIRCLE
  5
453
330
1F
100
AcDbEntity
  8
0
  6
SLD-実線
 62
     7
100
AcDbCircle
 10
852.1667186469
 20
231.5072420004
 30
0.0
 40
6.5
  0
CIRCLE
  5
454
330
1F
100
AcDbEntity
  8
0
  6
SLD-実線
 62
     7
100
AcDbCircle
 10
852.1667186469
 20
297.5072420004
 30
0.0
 40
6.5
  0
CIRCLE
  5
455
330
1F
100
AcDbEntity
  8
0
  6
SLD-実線
 62
     7
100
AcDbCircle
 10
816.1667186469
 20
231.5072420004
 30
0.0
 40
6.5
  0
CIRCLE
  5
456
330
1F
100
AcDbEntity
  8
0
  6
SLD-実線
 62
     7
100
AcDbCircle
 10
816.1667186469
 20
297.5072420004
 30
0.0
 40
6.5
  0
SPLINE
  5
457
330
1F
100
AcDbEntity
  8
0
  6
SLD-実線
 62
     7
100
AcDbSpline
210
0.0
220
0.0
230
1.0
 70
     8
 71
     3
 72
    20
 73
    16
 74
     0
 42
0.000000001
 43
0.00000001
 40
0.0
 40
0.0
 40
0.0
 40
0.0
 40
0.2499999999999792
 40
0.2499999999999792
 40
0.3749999999999826
 40
0.3749999999999826
 40
0.4999999999999861
 40
0.4999999999999861
 40
0.6249999999999896
 40
0.6249999999999896
 40
0.749999999999993
 40
0.749999999999993
 40
0.8749999999999966
 40
0.8749999999999966
 40
1.0
 40
1.0
 40
1.0
 40
1.0
 10
930.1667186468936
 20
215.5072420004445
 30
0.0
 10
930.2508372669225
 20
214.97870912302
 30
0.0
 10
930.3321408596493
 20
214.4676599180623
 30
0.0
 10
930.4581283612886
 20
213.7360369683911
 30
0.0
 10
930.499475300857
 20
213.5058370176287
 30
0.0
 10
930.5824441030994
 20
213.072018545599
 30
0.0
 10
930.6245235405877
 20
212.8664245201476
 30
0.0
 10
930.7079433184156
 20
212.4955183987819
 30
0.0
 10
930.7492158144727
 20
212.330046377735
 30
0.0
 10
930.832431840196
 20
212.0389347868095
 30
0.0
 10
930.8746208934909
 20
211.9131614552721
 30
0.0
 10
930.9576887717692
 20
211.7130005313761
 30
0.0
 10
930.9989865306354
 20
211.6368492132268
 30
0.0
 10
931.0826652089372
 20
211.5335488175382
 30
0.0
 10
931.1246593363483
 20
211.5072420004446
 30
0.0
 10
931.1667186468937
 20
211.5072420004444
 30
0.0
  0
SPLINE
  5
458
330
1F
100
AcDbEntity
  8
0
  6
SLD-実線
 62
     7
100
AcDbSpline
210
0.0
220
0.0
230
1.0
 70
     8
 71
     3
 72
    12
 73
     8
 74
     0
 42
0.000000001
 43
0.00000001
 40
0.0
 40
0.0
 40
0.0
 40
0.0
 40
0.2500000000000119
 40
0.2500000000000119
 40
0.5000000000000238
 40
0.5000000000000238
 40
1.0
 40
1.0
 40
1.0
 40
1.0
 10
930.1667186468936
 20
215.5072420004445
 30
0.0
 10
930.2508370972771
 20
215.3751090475667
 30
0.0
 10
930.3324353435836
 20
215.2469223017858
 30
0.0
 10
930.49974434998
 20
215.0040202685388
 30
0.0
 10
930.5824048791507
 20
214.8938861266973
 30
0.0
 10
930.8332550298803
 20
214.6149573594151
 30
0.0
 10
930.9984817618604
 20
214.5072420004444
 30
0.0
 10
931.1667186468937
 20
214.5072420004445
 30
0.0
  0
LINE
  5
459
330
1F
100
AcDbEntity
  8
0
  6
SLD-実線
 62
     7
100
AcDbLine
 10
931.1667186469
 20
211.5072420004
 30
0.0
 11
931.1667186469
 21
214.5072420004
 31
0.0
  0
SPLINE
  5
45A
330
1F
100
AcDbEntity
  8
0
  6
SLD-実線
 62
     7
100
AcDbSpline
210
0.0
220
0.0
230
1.0
 70
     8
 71
     3
 72
    20
 73
    16
 74
     0
 42
0.000000001
 43
0.00000001
 40
0.0
 40
0.0
 40
0.0
 40
0.0
 40
0.2499999999999792
 40
0.2499999999999792
 40
0.3749999999999826
 40
0.3749999999999826
 40
0.4999999999999861
 40
0.4999999999999861
 40
0.6249999999999896
 40
0.6249999999999896
 40
0.749999999999993
 40
0.749999999999993
 40
0.8749999999999966
 40
0.8749999999999966
 40
1.0
 40
1.0
 40
1.0
 40
1.0
 10
78.16671864689367
 20
757.5072420004445
 30
0.0
 10
78.0826000268649
 20
758.035774877869
 30
0.0
 10
78.00129643413806
 20
758.5468240828267
 30
0.0
 10
77.87530893249873
 20
759.2784470324978
 30
0.0
 10
77.83396199293036
 20
759.5086469832604
 30
0.0
 10
77.75099319068795
 20
759.94246545529
 30
0.0
 10
77.70891375319965
 20
760.1480594807413
 30
0.0
 10
77.62549397537177
 20
760.5189656021071
 30
0.0
 10
77.58422147931465
 20
760.6844376231539
 30
0.0
 10
77.50100545359129
 20
760.9755492140795
 30
0.0
 10
77.4588164002964
 20
761.1013225456169
 30
0.0
 10
77.37574852201806
 20
761.3014834695128
 30
0.0
 10
77.33445076315188
 20
761.3776347876621
 30
0.0
 10
77.2507720848501
 20
761.4809351833507
 30
0.0
 10
77.20877795743903
 20
761.5072420004444
 30
0.0
 10
77.16671864689367
 20
761.5072420004445
 30
0.0
  0
SPLINE
  5
45B
330
1F
100
AcDbEntity
  8
0
  6
SLD-実線
 62
     7
100
AcDbSpline
210
0.0
220
0.0
230
1.0
 70
     8
 71
     3
 72
    12
 73
     8
 74
     0
 42
0.000000001
 43
0.00000001
 40
0.0
 40
0.0
 40
0.0
 40
0.0
 40
0.2500000000000119
 40
0.2500000000000119
 40
0.5000000000000238
 40
0.5000000000000238
 40
1.0
 40
1.0
 40
1.0
 40
1.0
 10
78.16671864689367
 20
757.5072420004445
 30
0.0
 10
78.08260019651031
 20
757.6393749533223
 30
0.0
 10
78.00100195020376
 20
757.7675616991032
 30
0.0
 10
77.83369294380738
 20
758.0104637323501
 30
0.0
 10
77.75103241463665
 20
758.1205978741916
 30
0.0
 10
77.50018226390692
 20
758.3995266414738
 30
0.0
 10
77.33495553192688
 20
758.5072420004446
 30
0.0
 10
77.16671864689367
 20
758.5072420004445
 30
0.0
  0
LINE
  5
45C
330
1F
100
AcDbEntity
  8
0
  6
SLD-実線
 62
     7
100
AcDbLine
 10
77.1667186469
 20
761.5072420004
 30
0.0
 11
77.1667186469
 21
758.5072420004
 31
0.0
  0
SPLINE
  5
45D
330
1F
100
AcDbEntity
  8
0
  6
SLD-実線
 62
     7
100
AcDbSpline
210
0.0
220
0.0
230
1.0
 70
     8
 71
     3
 72
    12
 73
     8
 74
     0
 42
0.000000001
 43
0.00000001
 40
0.0
 40
0.0
 40
0.0
 40
0.0
 40
0.2500000000000119
 40
0.2500000000000119
 40
0.5000000000000238
 40
0.5000000000000238
 40
1.0
 40
1.0
 40
1.0
 40
1.0
 10
78.16671864689367
 20
215.5072420004445
 30
0.0
 10
78.08260019651031
 20
215.3751090475667
 30
0.0
 10
78.00100195020376
 20
215.2469223017858
 30
0.0
 10
77.83369294380738
 20
215.0040202685388
 30
0.0
 10
77.75103241463665
 20
214.8938861266973
 30
0.0
 10
77.50018226390692
 20
214.6149573594151
 30
0.0
 10
77.33495553192688
 20
214.5072420004444
 30
0.0
 10
77.16671864689367
 20
214.5072420004445
 30
0.0
  0
SPLINE
  5
45E
330
1F
100
AcDbEntity
  8
0
  6
SLD-実線
 62
     7
100
AcDbSpline
210
0.0
220
0.0
230
1.0
 70
     8
 71
     3
 72
    20
 73
    16
 74
     0
 42
0.000000001
 43
0.00000001
 40
0.0
 40
0.0
 40
0.0
 40
0.0
 40
0.2499999999999792
 40
0.2499999999999792
 40
0.3749999999999826
 40
0.3749999999999826
 40
0.4999999999999861
 40
0.4999999999999861
 40
0.6249999999999896
 40
0.6249999999999896
 40
0.749999999999993
 40
0.749999999999993
 40
0.8749999999999966
 40
0.8749999999999966
 40
1.0
 40
1.0
 40
1.0
 40
1.0
 10
78.16671864689367
 20
215.5072420004445
 30
0.0
 10
78.0826000268649
 20
214.97870912302
 30
0.0
 10
78.00129643413806
 20
214.4676599180623
 30
0.0
 10
77.87530893249873
 20
213.7360369683911
 30
0.0
 10
77.83396199293036
 20
213.5058370176287
 30
0.0
 10
77.75099319068795
 20
213.072018545599
 30
0.0
 10
77.70891375319965
 20
212.8664245201476
 30
0.0
 10
77.62549397537177
 20
212.4955183987819
 30
0.0
 10
77.58422147931465
 20
212.330046377735
 30
0.0
 10
77.50100545359129
 20
212.0389347868095
 30
0.0
 10
77.4588164002964
 20
211.9131614552721
 30
0.0
 10
77.37574852201806
 20
211.7130005313761
 30
0.0
 10
77.33445076315188
 20
211.6368492132268
 30
0.0
 10
77.2507720848501
 20
211.5335488175382
 30
0.0
 10
77.20877795743903
 20
211.5072420004446
 30
0.0
 10
77.16671864689367
 20
211.5072420004444
 30
0.0
  0
LINE
  5
45F
330
1F
100
AcDbEntity
  8
0
  6
SLD-実線
 62
     7
100
AcDbLine
 10
77.1667186469
 20
211.5072420004
 30
0.0
 11
77.1667186469
 21
214.5072420004
 31
0.0
  0
LINE
  5
460
330
1F
100
AcDbEntity
  8
0
  6
SLD-実線
 62
     7
100
AcDbLine
 10
77.1667186469
 20
761.5072420004
 30
0.0
 11
931.1667186469
 21
761.5072420004
 31
0.0
  0
SPLINE
  5
461
330
1F
100
AcDbEntity
  8
0
  6
SLD-実線
 62
     7
100
AcDbSpline
210
0.0
220
0.0
230
1.0
 70
     8
 71
     3
 72
    20
 73
    16
 74
     0
 42
0.000000001
 43
0.00000001
 40
0.0
 40
0.0
 40
0.0
 40
0.0
 40
0.2499999999999792
 40
0.2499999999999792
 40
0.3749999999999826
 40
0.3749999999999826
 40
0.4999999999999861
 40
0.4999999999999861
 40
0.6249999999999896
 40
0.6249999999999896
 40
0.749999999999993
 40
0.749999999999993
 40
0.8749999999999966
 40
0.8749999999999966
 40
1.0
 40
1.0
 40
1.0
 40
1.0
 10
930.1667186468936
 20
757.5072420004445
 30
0.0
 10
930.2508372669225
 20
758.035774877869
 30
0.0
 10
930.3321408596493
 20
758.5468240828267
 30
0.0
 10
930.4581283612886
 20
759.2784470324978
 30
0.0
 10
930.499475300857
 20
759.5086469832604
 30
0.0
 10
930.5824441030994
 20
759.94246545529
 30
0.0
 10
930.6245235405877
 20
760.1480594807413
 30
0.0
 10
930.7079433184156
 20
760.5189656021071
 30
0.0
 10
930.7492158144727
 20
760.6844376231539
 30
0.0
 10
930.832431840196
 20
760.9755492140795
 30
0.0
 10
930.8746208934909
 20
761.1013225456169
 30
0.0
 10
930.9576887717692
 20
761.3014834695128
 30
0.0
 10
930.9989865306354
 20
761.3776347876621
 30
0.0
 10
931.0826652089372
 20
761.4809351833507
 30
0.0
 10
931.1246593363483
 20
761.5072420004444
 30
0.0
 10
931.1667186468937
 20
761.5072420004445
 30
0.0
  0
SPLINE
  5
462
330
1F
100
AcDbEntity
  8
0
  6
SLD-実線
 62
     7
100
AcDbSpline
210
0.0
220
0.0
230
1.0
 70
     8
 71
     3
 72
    12
 73
     8
 74
     0
 42
0.000000001
 43
0.00000001
 40
0.0
 40
0.0
 40
0.0
 40
0.0
 40
0.2500000000000119
 40
0.2500000000000119
 40
0.5000000000000238
 40
0.5000000000000238
 40
1.0
 40
1.0
 40
1.0
 40
1.0
 10
930.1667186468936
 20
757.5072420004445
 30
0.0
 10
930.2508370972771
 20
757.6393749533223
 30
0.0
 10
930.3324353435836
 20
757.7675616991032
 30
0.0
 10
930.49974434998
 20
758.0104637323501
 30
0.0
 10
930.5824048791507
 20
758.1205978741916
 30
0.0
 10
930.8332550298803
 20
758.3995266414738
 30
0.0
 10
930.9984817618604
 20
758.5072420004446
 30
0.0
 10
931.1667186468937
 20
758.5072420004445
 30
0.0
  0
LINE
  5
463
330
1F
100
AcDbEntity
  8
0
  6
SLD-実線
 62
     7
100
AcDbLine
 10
931.1667186469
 20
761.5072420004
 30
0.0
 11
931.1667186469
 21
758.5072420004
 31
0.0
  0
LINE
  5
464
330
1F
100
AcDbEntity
  8
0
  6
SLD-実線
 62
     7
100
AcDbLine
 10
77.1667186469
 20
211.5072420004
 30
0.0
 11
931.1667186469
 21
211.5072420004
 31
0.0
  0
SPLINE
  5
465
330
1F
100
AcDbEntity
  8
0
  6
SLD-実線
 62
     7
100
AcDbSpline
210
0.0
220
0.0
230
1.0
 70
     8
 71
     3
 72
    20
 73
    16
 74
     0
 42
0.000000001
 43
0.00000001
 40
0.0
 40
0.0
 40
0.0
 40
0.0
 40
0.2500000000000043
 40
0.2500000000000043
 40
0.3750000000000036
 40
0.3750000000000036
 40
0.5000000000000029
 40
0.5000000000000029
 40
0.6250000000000021
 40
0.6250000000000021
 40
0.7500000000000014
 40
0.7500000000000014
 40
0.8750000000000007
 40
0.8750000000000007
 40
1.0
 40
1.0
 40
1.0
 40
1.0
 10
934.1667186468936
 20
758.5072420004445
 30
0.0
 10
934.1667186468936
 20
758.4231233804157
 30
0.0
 10
934.0651507124953
 20
758.3418197876891
 30
0.0
 10
933.7628914185299
 20
758.2158322860495
 30
0.0
 10
933.6398045094786
 20
758.1744853464811
 30
0.0
 10
933.3506837910335
 20
758.0915165442387
 30
0.0
 10
933.1824712921031
 20
758.0494371067505
 30
0.0
 10
932.812130132564
 20
757.9660173289229
 30
0.0
 10
932.6108505621725
 20
757.9247448328656
 30
0.0
 10
932.1764942353851
 20
757.8415288071419
 30
0.0
 10
931.9417363243263
 20
757.7993397538471
 30
0.0
 10
931.4597129990805
 20
757.716271875569
 30
0.0
 10
931.2103539059002
 20
757.6749741167029
 30
0.0
 10
930.6948070574001
 20
757.591295438401
 30
0.0
 10
930.4309850889415
 20
757.5493013109898
 30
0.0
 10
930.1667186468936
 20
757.5072420004445
 30
0.0
  0
LINE
  5
466
330
1F
100
AcDbEntity
  8
0
  6
SLD-実線
 62
     7
100
AcDbLine
 10
934.1667186469
 20
214.5072420004
 30
0.0
 11
934.1667186469
 21
758.5072420004
 31
0.0
  0
SPLINE
  5
467
330
1F
100
AcDbEntity
  8
0
  6
SLD-実線
 62
     7
100
AcDbSpline
210
0.0
220
0.0
230
1.0
 70
     8
 71
     3
 72
    20
 73
    16
 74
     0
 42
0.000000001
 43
0.00000001
 40
0.0
 40
0.0
 40
0.0
 40
0.0
 40
0.2500000000000043
 40
0.2500000000000043
 40
0.3750000000000036
 40
0.3750000000000036
 40
0.5000000000000029
 40
0.5000000000000029
 40
0.6250000000000021
 40
0.6250000000000021
 40
0.7500000000000014
 40
0.7500000000000014
 40
0.8750000000000007
 40
0.8750000000000007
 40
1.0
 40
1.0
 40
1.0
 40
1.0
 10
934.1667186468936
 20
214.5072420004445
 30
0.0
 10
934.1667186468936
 20
214.5913606204732
 30
0.0
 10
934.0651507124953
 20
214.6726642131999
 30
0.0
 10
933.7628914185299
 20
214.7986517148395
 30
0.0
 10
933.6398045094786
 20
214.8399986544079
 30
0.0
 10
933.3506837910335
 20
214.9229674566502
 30
0.0
 10
933.1824712921031
 20
214.9650468941385
 30
0.0
 10
932.812130132564
 20
215.0484666719661
 30
0.0
 10
932.6108505621725
 20
215.0897391680233
 30
0.0
 10
932.1764942353851
 20
215.172955193747
 30
0.0
 10
931.9417363243263
 20
215.2151442470419
 30
0.0
 10
931.4597129990805
 20
215.2982121253199
 30
0.0
 10
931.2103539059002
 20
215.3395098841862
 30
0.0
 10
930.6948070574001
 20
215.423188562488
 30
0.0
 10
930.4309850889415
 20
215.4651826898992
 30
0.0
 10
930.1667186468936
 20
215.5072420004445
 30
0.0
  0
SPLINE
  5
468
330
1F
100
AcDbEntity
  8
0
  6
SLD-実線
 62
     7
100
AcDbSpline
210
0.0
220
0.0
230
1.0
 70
     8
 71
     3
 72
    20
 73
    16
 74
     0
 42
0.000000001
 43
0.00000001
 40
0.0
 40
0.0
 40
0.0
 40
0.0
 40
0.2500000000000043
 40
0.2500000000000043
 40
0.3750000000000036
 40
0.3750000000000036
 40
0.5000000000000029
 40
0.5000000000000029
 40
0.6250000000000021
 40
0.6250000000000021
 40
0.7500000000000014
 40
0.7500000000000014
 40
0.8750000000000007
 40
0.8750000000000007
 40
1.0
 40
1.0
 40
1.0
 40
1.0
 10
74.16671864689367
 20
758.5072420004445
 30
0.0
 10
74.16671864689367
 20
758.4231233804157
 30
0.0
 10
74.26828658129197
 20
758.3418197876891
 30
0.0
 10
74.57054587525747
 20
758.2158322860495
 30
0.0
 10
74.69363278430873
 20
758.1744853464811
 30
0.0
 10
74.98275350275385
 20
758.0915165442387
 30
0.0
 10
75.1509660016842
 20
758.0494371067505
 30
0.0
 10
75.52130716122329
 20
757.9660173289229
 30
0.0
 10
75.72258673161485
 20
757.9247448328656
 30
0.0
 10
76.15694305840226
 20
757.8415288071419
 30
0.0
 10
76.39170096946096
 20
757.7993397538471
 30
0.0
 10
76.87372429470685
 20
757.716271875569
 30
0.0
 10
77.12308338788715
 20
757.6749741167029
 30
0.0
 10
77.63863023638717
 20
757.591295438401
 30
0.0
 10
77.90245220484582
 20
757.5493013109898
 30
0.0
 10
78.16671864689367
 20
757.5072420004445
 30
0.0
  0
LINE
  5
469
330
1F
100
AcDbEntity
  8
0
  6
SLD-実線
 62
     7
100
AcDbLine
 10
74.1667186469
 20
758.5072420004
 30
0.0
 11
77.1667186469
 21
758.5072420004
 31
0.0
  0
SPLINE
  5
46A
330
1F
100
AcDbEntity
  8
0
  6
SLD-実線
 62
     7
100
AcDbSpline
210
0.0
220
0.0
230
1.0
 70
     8
 71
     3
 72
    12
 73
     8
 74
     0
 42
0.000000001
 43
0.00000001
 40
0.0
 40
0.0
 40
0.0
 40
0.0
 40
0.2500000000000251
 40
0.2500000000000251
 40
0.5000000000000503
 40
0.5000000000000503
 40
1.0
 40
1.0
 40
1.0
 40
1.0
 10
77.16671864689367
 20
758.5072420004445
 30
0.0
 10
77.16671864689361
 20
758.4231235500612
 30
0.0
 10
77.19229540772731
 20
758.3415253037547
 30
0.0
 10
77.29262775741181
 20
758.1742162973582
 30
0.0
 10
77.36606518719452
 20
758.0915557681875
 30
0.0
 10
77.64438381085748
 20
757.8407056174574
 30
0.0
 10
77.90245276585178
 20
757.6754788854778
 30
0.0
 10
78.16671864689367
 20
757.5072420004445
 30
0.0
  0
LINE
  5
46B
330
1F
100
AcDbEntity
  8
0
  6
SLD-実線
 62
     7
100
AcDbLine
 10
934.1667186469
 20
758.5072420004
 30
0.0
 11
931.1667186469
 21
758.5072420004
 31
0.0
  0
SPLINE
  5
46C
330
1F
100
AcDbEntity
  8
0
  6
SLD-実線
 62
     7
100
AcDbSpline
210
0.0
220
0.0
230
1.0
 70
     8
 71
     3
 72
    12
 73
     8
 74
     0
 42
0.000000001
 43
0.00000001
 40
0.0
 40
0.0
 40
0.0
 40
0.0
 40
0.2500000000000251
 40
0.2500000000000251
 40
0.5000000000000503
 40
0.5000000000000503
 40
1.0
 40
1.0
 40
1.0
 40
1.0
 10
931.1667186468937
 20
758.5072420004445
 30
0.0
 10
931.1667186468937
 20
758.4231235500612
 30
0.0
 10
931.14114188606
 20
758.3415253037547
 30
0.0
 10
931.0408095363756
 20
758.1742162973582
 30
0.0
 10
930.9673721065927
 20
758.0915557681875
 30
0.0
 10
930.6890534829298
 20
757.8407056174574
 30
0.0
 10
930.4309845279355
 20
757.6754788854778
 30
0.0
 10
930.1667186468936
 20
757.5072420004445
 30
0.0
  0
LINE
  5
46D
330
1F
100
AcDbEntity
  8
0
  6
SLD-実線
 62
     7
100
AcDbLine
 10
74.1667186469
 20
214.5072420004
 30
0.0
 11
77.1667186469
 21
214.5072420004
 31
0.0
  0
SPLINE
  5
46E
330
1F
100
AcDbEntity
  8
0
  6
SLD-実線
 62
     7
100
AcDbSpline
210
0.0
220
0.0
230
1.0
 70
     8
 71
     3
 72
    20
 73
    16
 74
     0
 42
0.000000001
 43
0.00000001
 40
0.0
 40
0.0
 40
0.0
 40
0.0
 40
0.2500000000000043
 40
0.2500000000000043
 40
0.3750000000000036
 40
0.3750000000000036
 40
0.5000000000000029
 40
0.5000000000000029
 40
0.6250000000000021
 40
0.6250000000000021
 40
0.7500000000000014
 40
0.7500000000000014
 40
0.8750000000000007
 40
0.8750000000000007
 40
1.0
 40
1.0
 40
1.0
 40
1.0
 10
74.16671864689367
 20
214.5072420004445
 30
0.0
 10
74.16671864689367
 20
214.5913606204732
 30
0.0
 10
74.26828658129197
 20
214.6726642131999
 30
0.0
 10
74.57054587525747
 20
214.7986517148395
 30
0.0
 10
74.69363278430873
 20
214.8399986544079
 30
0.0
 10
74.98275350275385
 20
214.9229674566502
 30
0.0
 10
75.1509660016842
 20
214.9650468941385
 30
0.0
 10
75.52130716122329
 20
215.0484666719661
 30
0.0
 10
75.72258673161485
 20
215.0897391680233
 30
0.0
 10
76.15694305840226
 20
215.172955193747
 30
0.0
 10
76.39170096946096
 20
215.2151442470419
 30
0.0
 10
76.87372429470685
 20
215.2982121253199
 30
0.0
 10
77.12308338788715
 20
215.3395098841862
 30
0.0
 10
77.63863023638717
 20
215.423188562488
 30
0.0
 10
77.90245220484582
 20
215.4651826898992
 30
0.0
 10
78.16671864689367
 20
215.5072420004445
 30
0.0
  0
SPLINE
  5
46F
330
1F
100
AcDbEntity
  8
0
  6
SLD-実線
 62
     7
100
AcDbSpline
210
0.0
220
0.0
230
1.0
 70
     8
 71
     3
 72
    12
 73
     8
 74
     0
 42
0.000000001
 43
0.00000001
 40
0.0
 40
0.0
 40
0.0
 40
0.0
 40
0.2500000000000251
 40
0.2500000000000251
 40
0.5000000000000503
 40
0.5000000000000503
 40
1.0
 40
1.0
 40
1.0
 40
1.0
 10
77.16671864689367
 20
214.5072420004445
 30
0.0
 10
77.16671864689361
 20
214.5913604508278
 30
0.0
 10
77.19229540772731
 20
214.6729586971344
 30
0.0
 10
77.29262775741181
 20
214.8402677035309
 30
0.0
 10
77.36606518719452
 20
214.9229282327014
 30
0.0
 10
77.64438381085748
 20
215.1737783834315
 30
0.0
 10
77.90245276585178
 20
215.3390051154111
 30
0.0
 10
78.16671864689367
 20
215.5072420004445
 30
0.0
  0
LINE
  5
470
330
1F
100
AcDbEntity
  8
0
  6
SLD-実線
 62
     7
100
AcDbLine
 10
934.1667186469
 20
214.5072420004
 30
0.0
 11
931.1667186469
 21
214.5072420004
 31
0.0
  0
SPLINE
  5
471
330
1F
100
AcDbEntity
  8
0
  6
SLD-実線
 62
     7
100
AcDbSpline
210
0.0
220
0.0
230
1.0
 70
     8
 71
     3
 72
    12
 73
     8
 74
     0
 42
0.000000001
 43
0.00000001
 40
0.0
 40
0.0
 40
0.0
 40
0.0
 40
0.2500000000000251
 40
0.2500000000000251
 40
0.5000000000000503
 40
0.5000000000000503
 40
1.0
 40
1.0
 40
1.0
 40
1.0
 10
931.1667186468937
 20
214.5072420004445
 30
0.0
 10
931.1667186468937
 20
214.5913604508278
 30
0.0
 10
931.14114188606
 20
214.6729586971344
 30
0.0
 10
931.0408095363756
 20
214.8402677035309
 30
0.0
 10
930.9673721065927
 20
214.9229282327014
 30
0.0
 10
930.6890534829298
 20
215.1737783834315
 30
0.0
 10
930.4309845279355
 20
215.3390051154111
 30
0.0
 10
930.1667186468936
 20
215.5072420004445
 30
0.0
  0
LINE
  5
472
330
1F
100
AcDbEntity
  8
0
  6
SLD-実線
 62
     7
100
AcDbLine
 10
74.1667186469
 20
214.5072420004
 30
0.0
 11
74.1667186469
 21
758.5072420004
 31
0.0
  0
DIMENSION
  5
473
330
1F
100
AcDbEntity
  8
0
  6
SLD-実線
 62
     7
100
AcDbDimension
  2
_D
 10
934.1667186469
 20
201.5072420004
 30
0.0
 11
504.1667186469
 21
201.5072420004
 31
0.0
 70
   160
  1
<>
  3
SLDDIMSTYLE0
100
AcDbAlignedDimension
 13
74.1667186469
 23
214.5072420004
 33
0.0
 14
934.1667186469
 24
214.5072420004
 34
0.0
 50
0.0
100
AcDbRotatedDimension
  0
DIMENSION
  5
47E
330
1F
100
AcDbEntity
  8
0
  6
SLD-実線
 62
     7
100
AcDbDimension
  2
_D_1
 10
944.1667186469
 20
761.5072420004
 30
0.0
 11
944.1667186469
 21
486.5072420004
 31
0.0
 70
   160
  1
<>
  3
SLDDIMSTYLE0
100
AcDbAlignedDimension
 13
931.1667186469
 23
211.5072420004
 33
0.0
 14
931.1667186469
 24
761.5072420004
 34
0.0
 50
90.0
100
AcDbRotatedDimension
  0
LINE
  5
488
330
1F
100
AcDbEntity
  8
0
  6
SLD-実線
 62
     7
100
AcDbLine
 10
1093.5776457066
 20
672.5072420004
 30
0.0
 11
1101.1776457066
 21
672.5072420004
 31
0.0
  0
LINE
  5
489
330
1F
100
AcDbEntity
  8
0
  6
SLD-実線
 62
     7
100
AcDbLine
 10
1101.1776457066
 20
678.5072420004
 30
0.0
 11
1093.5776457066
 21
678.5072420004
 31
0.0
  0
LINE
  5
48A
330
1F
100
AcDbEntity
  8
0
  6
SLD-実線
 62
     7
100
AcDbLine
 10
1093.5776457066
 20
228.5072420004
 30
0.0
 11
1101.1776457066
 21
228.5072420004
 31
0.0
  0
LINE
  5
48B
330
1F
100
AcDbEntity
  8
0
  6
SLD-実線
 62
     7
100
AcDbLine
 10
1101.1776457066
 20
234.5072420004
 30
0.0
 11
1093.5776457066
 21
234.5072420004
 31
0.0
  0
LINE
  5
48C
330
1F
100
AcDbEntity
  8
0
  6
SLD-実線
 62
     7
100
AcDbLine
 10
1093.5776457066
 20
738.5072420004
 30
0.0
 11
1101.1776457066
 21
738.5072420004
 31
0.0
  0
LINE
  5
48D
330
1F
100
AcDbEntity
  8
0
  6
SLD-実線
 62
     7
100
AcDbLine
 10
1101.1776457066
 20
744.5072420004
 30
0.0
 11
1093.5776457066
 21
744.5072420004
 31
0.0
  0
LINE
  5
48E
330
1F
100
AcDbEntity
  8
0
  6
SLD-実線
 62
     7
100
AcDbLine
 10
1093.5776457066
 20
294.5072420004
 30
0.0
 11
1101.1776457066
 21
294.5072420004
 31
0.0
  0
LINE
  5
48F
330
1F
100
AcDbEntity
  8
0
  6
SLD-実線
 62
     7
100
AcDbLine
 10
1101.1776457066
 20
300.5072420004
 30
0.0
 11
1093.5776457066
 21
300.5072420004
 31
0.0
  0
ARC
  5
490
330
1F
100
AcDbEntity
  8
0
  6
SLD-実線
 62
     7
100
AcDbCircle
 10
1265.0776457066
 20
230.0072420004
 30
0.0
 40
5.0
100
AcDbArc
 50
180.0
 51
0.0
  0
LINE
  5
491
330
1F
100
AcDbEntity
  8
0
  6
SLD-実線
 62
     7
100
AcDbLine
 10
1270.0776457066
 20
234.5072420004
 30
0.0
 11
1270.2713720025
 21
234.6190899295
 31
0.0
  0
LINE
  5
492
330
1F
100
AcDbEntity
  8
0
  6
SLD-実線
 62
     7
100
AcDbLine
 10
1270.2633936906
 20
239.4000003519
 30
0.0
 11
1270.0776457066
 21
239.5072420004
 31
0.0
  0
LINE
  5
493
330
1F
100
AcDbEntity
  8
0
  6
SLD-実線
 62
     7
100
AcDbLine
 10
1260.0776457066
 20
239.5072420004
 30
0.0
 11
1259.8918977226
 21
239.4000003519
 31
0.0
  0
LINE
  5
494
330
1F
100
AcDbEntity
  8
0
  6
SLD-実線
 62
     7
100
AcDbLine
 10
1259.8839194107
 20
234.6190899295
 30
0.0
 11
1260.0776457066
 21
234.5072420004
 31
0.0
  0
LINE
  5
495
330
1F
100
AcDbEntity
  8
0
  6
SLD-実線
 62
     7
100
AcDbLine
 10
1260.0776457066
 20
244.5072420004
 30
0.0
 11
1259.3022399079
 21
244.0595612538
 31
0.0
  0
LINE
  5
496
330
1F
100
AcDbEntity
  8
0
  6
SLD-実線
 62
     7
100
AcDbLine
 10
1259.3022399079
 20
239.9549227471
 30
0.0
 11
1260.0776457066
 21
239.5072420004
 31
0.0
  0
LINE
  5
497
330
1F
100
AcDbEntity
  8
0
  6
SLD-実線
 62
     7
100
AcDbLine
 10
1270.0776457066
 20
239.5072420004
 30
0.0
 11
1270.8530515054
 21
239.9549227471
 31
0.0
  0
LINE
  5
498
330
1F
100
AcDbEntity
  8
0
  6
SLD-実線
 62
     7
100
AcDbLine
 10
1270.8530515054
 20
244.0595612538
 30
0.0
 11
1270.0776457066
 21
244.5072420004
 31
0.0
  0
LINE
  5
499
330
1F
100
AcDbEntity
  8
0
  6
SLD-実線
 62
     7
100
AcDbLine
 10
1337.0776457066
 20
244.5072420004
 30
0.0
 11
1338.0776457066
 21
245.5072420004
 31
0.0
  0
LINE
  5
49A
330
1F
100
AcDbEntity
  8
0
  6
SLD-実線
 62
     7
100
AcDbLine
 10
1338.0776457066
 20
283.5072420004
 30
0.0
 11
1337.0776457066
 21
284.5072420004
 31
0.0
  0
LINE
  5
49B
330
1F
100
AcDbEntity
  8
0
  6
SLD-実線
 62
     7
100
AcDbLine
 10
1337.0776457066
 20
284.5072420004
 30
0.0
 11
1128.5776457066
 21
284.5072420004
 31
0.0
  0
LINE
  5
49C
330
1F
100
AcDbEntity
  8
0
  6
SLD-実線
 62
     7
100
AcDbLine
 10
1270.0776457066
 20
244.5072420004
 30
0.0
 11
1337.0776457066
 21
244.5072420004
 31
0.0
  0
LINE
  5
49D
330
1F
100
AcDbEntity
  8
0
  6
SLD-実線
 62
     7
100
AcDbLine
 10
1128.5776457066
 20
244.5072420004
 30
0.0
 11
1260.0776457066
 21
244.5072420004
 31
0.0
  0
LINE
  5
49E
330
1F
100
AcDbEntity
  8
0
  6
SLD-実線
 62
     7
100
AcDbLine
 10
1128.5776457066
 20
284.5072420004
 30
0.0
 11
1128.0776457066
 21
284.0072420004
 31
0.0
  0
LINE
  5
49F
330
1F
100
AcDbEntity
  8
0
  6
SLD-実線
 62
     7
100
AcDbLine
 10
1128.0776457066
 20
245.0072420004
 30
0.0
 11
1128.5776457066
 21
244.5072420004
 31
0.0
  0
LINE
  5
4A0
330
1F
100
AcDbEntity
  8
0
  6
SLD-実線
 62
     7
100
AcDbLine
 10
1337.0776457066
 20
728.5072420004
 30
0.0
 11
1128.5776457066
 21
728.5072420004
 31
0.0
  0
LINE
  5
4A1
330
1F
100
AcDbEntity
  8
0
  6
SLD-実線
 62
     7
100
AcDbLine
 10
1128.5776457066
 20
688.5072420004
 30
0.0
 11
1337.0776457066
 21
688.5072420004
 31
0.0
  0
LINE
  5
4A2
330
1F
100
AcDbEntity
  8
0
  6
SLD-実線
 62
     7
100
AcDbLine
 10
1337.0776457066
 20
688.5072420004
 30
0.0
 11
1338.0776457066
 21
689.5072420004
 31
0.0
  0
LINE
  5
4A3
330
1F
100
AcDbEntity
  8
0
  6
SLD-実線
 62
     7
100
AcDbLine
 10
1338.0776457066
 20
727.5072420004
 30
0.0
 11
1337.0776457066
 21
728.5072420004
 31
0.0
  0
LINE
  5
4A4
330
1F
100
AcDbEntity
  8
0
  6
SLD-実線
 62
     7
100
AcDbLine
 10
1128.5776457066
 20
728.5072420004
 30
0.0
 11
1128.0776457066
 21
728.0072420004
 31
0.0
  0
LINE
  5
4A5
330
1F
100
AcDbEntity
  8
0
  6
SLD-実線
 62
     7
100
AcDbLine
 10
1128.0776457066
 20
689.0072420004
 30
0.0
 11
1128.5776457066
 21
688.5072420004
 31
0.0
  0
LINE
  5
4A6
330
1F
100
AcDbEntity
  8
0
  6
SLD-実線
 62
     7
100
AcDbLine
 10
1091.0776457066
 20
684.7023639517
 30
0.0
 11
1126.1750908141
 21
686.4144344447
 31
0.0
  0
ARC
  5
4A7
330
1F
100
AcDbEntity
  8
0
  6
SLD-実線
 62
     7
100
AcDbCircle
 10
1126.0776457066
 20
688.412059147
 30
0.0
 40
2.000000000000022
100
AcDbArc
 50
272.7927023657
 51
0.0
  0
LINE
  5
4A8
330
1F
100
AcDbEntity
  8
0
  6
SLD-実線
 62
     7
100
AcDbLine
 10
1091.0776457066
 20
240.7023639517
 30
0.0
 11
1126.1750908141
 21
242.4144344447
 31
0.0
  0
ARC
  5
4A9
330
1F
100
AcDbEntity
  8
0
  6
SLD-実線
 62
     7
100
AcDbCircle
 10
1126.0776457066
 20
244.412059147
 30
0.0
 40
2.000000000000022
100
AcDbArc
 50
272.7927023657
 51
0.0
  0
LINE
  5
4AA
330
1F
100
AcDbEntity
  8
0
  6
SLD-実線
 62
     7
100
AcDbLine
 10
1101.1776457066
 20
672.763197796
 30
0.0
 11
1101.1776457066
 21
672.5072420004
 31
0.0
  0
LINE
  5
4AB
330
1F
100
AcDbEntity
  8
0
  6
SLD-実線
 62
     7
100
AcDbLine
 10
1101.1776457066
 20
678.5072420004
 30
0.0
 11
1101.1776457066
 21
672.763197796
 31
0.0
  0
LINE
  5
4AC
330
1F
100
AcDbEntity
  8
0
  6
SLD-実線
 62
     7
100
AcDbLine
 10
1101.1776457066
 20
228.763197796
 30
0.0
 11
1101.1776457066
 21
228.5072420004
 31
0.0
  0
LINE
  5
4AD
330
1F
100
AcDbEntity
  8
0
  6
SLD-実線
 62
     7
100
AcDbLine
 10
1101.1776457066
 20
234.5072420004
 30
0.0
 11
1101.1776457066
 21
228.763197796
 31
0.0
  0
LINE
  5
4AE
330
1F
100
AcDbEntity
  8
0
  6
SLD-実線
 62
     7
100
AcDbLine
 10
1101.1776457066
 20
738.763197796
 30
0.0
 11
1101.1776457066
 21
738.5072420004
 31
0.0
  0
LINE
  5
4AF
330
1F
100
AcDbEntity
  8
0
  6
SLD-実線
 62
     7
100
AcDbLine
 10
1101.1776457066
 20
744.5072420004
 30
0.0
 11
1101.1776457066
 21
738.763197796
 31
0.0
  0
LINE
  5
4B0
330
1F
100
AcDbEntity
  8
0
  6
SLD-実線
 62
     7
100
AcDbLine
 10
1101.1776457066
 20
294.763197796
 30
0.0
 11
1101.1776457066
 21
294.5072420004
 31
0.0
  0
LINE
  5
4B1
330
1F
100
AcDbEntity
  8
0
  6
SLD-実線
 62
     7
100
AcDbLine
 10
1101.1776457066
 20
300.5072420004
 30
0.0
 11
1101.1776457066
 21
294.763197796
 31
0.0
  0
SPLINE
  5
4B2
330
1F
100
AcDbEntity
  8
0
  6
SLD-実線
 62
     7
100
AcDbSpline
210
0.0
220
0.0
230
1.0
 70
     8
 71
     3
 72
     9
 73
     5
 74
     0
 42
0.000000001
 43
0.00000001
 40
0.0
 40
0.0
 40
0.0
 40
0.0
 40
0.0702005767034218
 40
1.0
 40
1.0
 40
1.0
 40
1.0
 10
1268.23141540831
 20
230.0072420004444
 30
0.0
 10
1268.284518314352
 20
230.007688116712
 30
0.0
 10
1269.040963753071
 20
230.0140429970926
 30
0.0
 10
1269.782243561481
 20
230.2419324789879
 30
0.0
 10
1270.471485099842
 20
230.4538239878297
 30
0.0
  0
LINE
  5
4B3
330
1F
100
AcDbEntity
  8
0
  6
SLD-実線
 62
     7
100
AcDbLine
 10
1265.9913457168
 20
230.4538239878
 30
0.0
 11
1268.2314154083
 21
230.0072420004
 31
0.0
  0
LINE
  5
4B4
330
1F
100
AcDbEntity
  8
0
  6
SLD-実線
 62
     7
100
AcDbLine
 10
1265.9913457168
 20
230.4538239878
 30
0.0
 11
1265.9913457168
 21
234.0606600131
 31
0.0
  0
SPLINE
  5
4B5
330
1F
100
AcDbEntity
  8
0
  6
SLD-実線
 62
     7
100
AcDbSpline
210
0.0
220
0.0
230
1.0
 70
     8
 71
     3
 72
     9
 73
     5
 74
     0
 42
0.000000001
 43
0.00000001
 40
0.0
 40
0.0
 40
0.0
 40
0.0
 40
0.0702005767034263
 40
1.0
 40
1.0
 40
1.0
 40
1.0
 10
1268.23141540831
 20
234.5072420004444
 30
0.0
 10
1268.178312502267
 20
234.5067958841768
 30
0.0
 10
1267.421867063548
 20
234.5004410037966
 30
0.0
 10
1266.680587255139
 20
234.2725515219011
 30
0.0
 10
1265.991345716778
 20
234.0606600130592
 30
0.0
  0
LINE
  5
4B6
330
1F
100
AcDbEntity
  8
0
  6
SLD-実線
 62
     7
100
AcDbLine
 10
1270.4714850998
 20
234.0606600131
 30
0.0
 11
1268.2314154083
 21
234.5072420004
 31
0.0
  0
LINE
  5
4B7
330
1F
100
AcDbEntity
  8
0
  6
SLD-実線
 62
     7
100
AcDbLine
 10
1270.4714850998
 20
230.4538239878
 30
0.0
 11
1270.4714850998
 21
234.0606600131
 31
0.0
  0
LINE
  5
4B8
330
1F
100
AcDbEntity
  8
0
  6
SLD-実線
 62
     7
100
AcDbLine
 10
1260.1406563185
 20
230.0072420004
 30
0.0
 11
1263.2944260202
 21
230.0072420004
 31
0.0
  0
LINE
  5
4B9
330
1F
100
AcDbEntity
  8
0
  6
SLD-実線
 62
     7
100
AcDbLine
 10
1263.2944260202
 20
230.0072420004
 30
0.0
 11
1268.2314154083
 21
230.0072420004
 31
0.0
  0
LINE
  5
4BA
330
1F
100
AcDbEntity
  8
0
  6
SLD-実線
 62
     7
100
AcDbLine
 10
1268.2314154083
 20
230.0072420004
 30
0.0
 11
1270.0776457066
 21
230.0072420004
 31
0.0
  0
SPLINE
  5
4BB
330
1F
100
AcDbEntity
  8
0
  6
SLD-実線
 62
     7
100
AcDbSpline
210
0.0
220
0.0
230
1.0
 70
     8
 71
     3
 72
     9
 73
     5
 74
     0
 42
0.000000001
 43
0.00000001
 40
0.0
 40
0.0
 40
0.0
 40
0.0
 40
0.7481017225327811
 40
1.0
 40
1.0
 40
1.0
 40
1.0
 10
1265.991345716778
 20
234.0606600130592
 30
0.0
 10
1265.326191982741
 20
234.2393875619471
 30
0.0
 10
1264.437069936899
 20
234.4782956455735
 30
0.0
 10
1263.524340893898
 20
234.501417615938
 30
0.0
 10
1263.294426020172
 20
234.5072420004444
 30
0.0
  0
LINE
  5
4BC
330
1F
100
AcDbEntity
  8
0
  6
SLD-実線
 62
     7
100
AcDbLine
 10
1263.2944260202
 20
234.5072420004
 30
0.0
 11
1268.2314154083
 21
234.5072420004
 31
0.0
  0
SPLINE
  5
4BD
330
1F
100
AcDbEntity
  8
0
  6
SLD-実線
 62
     7
100
AcDbSpline
210
0.0
220
0.0
230
1.0
 70
     8
 71
     3
 72
     9
 73
     5
 74
     0
 42
0.000000001
 43
0.00000001
 40
0.0
 40
0.0
 40
0.0
 40
0.0
 40
0.2391536983582398
 40
1.0
 40
1.0
 40
1.0
 40
1.0
 10
1263.294426020172
 20
230.0072420004444
 30
0.0
 10
1263.512682893445
 20
230.012488635817
 30
0.0
 10
1264.425304670871
 20
230.034426976761
 30
0.0
 10
1265.314673064039
 20
230.2726062038052
 30
0.0
 10
1265.991345716778
 20
230.4538239878297
 30
0.0
  0
SPLINE
  5
4BE
330
1F
100
AcDbEntity
  8
0
  6
SLD-実線
 62
     7
100
AcDbSpline
210
0.0
220
0.0
230
1.0
 70
     8
 71
     3
 72
     9
 73
     5
 74
     0
 42
0.000000001
 43
0.00000001
 40
0.0
 40
0.0
 40
0.0
 40
0.0
 40
0.2202885602666549
 40
1.0
 40
1.0
 40
1.0
 40
1.0
 10
1260.597506323565
 20
230.4538239878296
 30
0.0
 10
1260.790992717011
 20
230.3958669572422
 30
0.0
 10
1261.669324270913
 20
230.132770995667
 30
0.0
 10
1262.582450810967
 20
230.0622376539015
 30
0.0
 10
1263.294426020172
 20
230.0072420004444
 30
0.0
  0
LINE
  5
4BF
330
1F
100
AcDbEntity
  8
0
  6
SLD-実線
 62
     7
100
AcDbLine
 10
1260.5975063236
 20
230.4538239878
 30
0.0
 11
1260.5975063236
 21
234.0606600131
 31
0.0
  0
SPLINE
  5
4C0
330
1F
100
AcDbEntity
  8
0
  6
SLD-実線
 62
     7
100
AcDbSpline
210
0.0
220
0.0
230
1.0
 70
     8
 71
     3
 72
     9
 73
     5
 74
     0
 42
0.000000001
 43
0.00000001
 40
0.0
 40
0.0
 40
0.0
 40
0.0
 40
0.7635585696811028
 40
1.0
 40
1.0
 40
1.0
 40
1.0
 10
1263.294426020172
 20
234.5072420004444
 30
0.0
 10
1262.597132992588
 20
234.4544244012035
 30
0.0
 10
1261.683918138783
 20
234.3852514505771
 30
0.0
 10
1260.80525798669
 20
234.122730776683
 30
0.0
 10
1260.597506323565
 20
234.0606600130592
 30
0.0
  0
SPLINE
  5
4C1
330
1F
100
AcDbEntity
  8
0
  6
SLD-実線
 62
     7
100
AcDbSpline
210
0.0
220
0.0
230
1.0
 70
     8
 71
     3
 72
     9
 73
     5
 74
     0
 42
0.000000001
 43
0.00000001
 40
0.0
 40
0.0
 40
0.0
 40
0.0
 40
0.0702005767033995
 40
1.0
 40
1.0
 40
1.0
 40
1.0
 10
1260.140656318491
 20
230.0072420004444
 30
0.0
 10
1260.151486366764
 20
230.007688116712
 30
0.0
 10
1260.305759291318
 20
230.0140429970926
 30
0.0
 10
1260.456939268224
 20
230.241932478988
 30
0.0
 10
1260.597506323565
 20
230.4538239878296
 30
0.0
  0
LINE
  5
4C2
330
1F
100
AcDbEntity
  8
0
  6
SLD-実線
 62
     7
100
AcDbLine
 10
1260.5975063236
 20
234.0606600131
 30
0.0
 11
1260.1406563185
 21
234.5072420004
 31
0.0
  0
LINE
  5
4C3
330
1F
100
AcDbEntity
  8
0
  6
SLD-実線
 62
     7
100
AcDbLine
 10
1260.1406563185
 20
234.5072420004
 30
0.0
 11
1263.2944260202
 21
234.5072420004
 31
0.0
  0
SPLINE
  5
4C4
330
1F
100
AcDbEntity
  8
0
  6
SLD-実線
 62
     7
100
AcDbSpline
210
0.0
220
0.0
230
1.0
 70
     8
 71
     3
 72
     9
 73
     5
 74
     0
 42
0.000000001
 43
0.00000001
 40
0.0
 40
0.0
 40
0.0
 40
0.0
 40
0.0702005767034198
 40
0.9999999999999999
 40
0.9999999999999999
 40
0.9999999999999999
 40
0.9999999999999999
 10
1270.014635094767
 20
234.5072420004444
 30
0.0
 10
1270.02546514304
 20
234.5067958841768
 30
0.0
 10
1270.179738067594
 20
234.5004410037964
 30
0.0
 10
1270.3309180445
 20
234.272551521901
 30
0.0
 10
1270.471485099842
 20
234.0606600130592
 30
0.0
  0
LINE
  5
4C5
330
1F
100
AcDbEntity
  8
0
  6
SLD-実線
 62
     7
100
AcDbLine
 10
1268.2314154083
 20
234.5072420004
 30
0.0
 11
1270.0776457066
 21
234.5072420004
 31
0.0
  0
LINE
  5
4C6
330
1F
100
AcDbEntity
  8
0
  6
SLD-実線
 62
     7
100
AcDbLine
 10
1270.4714850998
 20
230.4538239878
 30
0.0
 11
1270.0146350948
 21
230.0072420004
 31
0.0
  0
LINE
  5
4C7
330
1F
100
AcDbEntity
  8
0
  6
SLD-実線
 62
     7
100
AcDbLine
 10
1259.6838063134
 20
230.4538239878
 30
0.0
 11
1260.1406563185
 21
230.0072420004
 31
0.0
  0
LINE
  5
4C8
330
1F
100
AcDbEntity
  8
0
  6
SLD-実線
 62
     7
100
AcDbLine
 10
1259.6838063134
 20
230.4538239878
 30
0.0
 11
1259.6838063134
 21
234.0606600131
 31
0.0
  0
SPLINE
  5
4C9
330
1F
100
AcDbEntity
  8
0
  6
SLD-実線
 62
     7
100
AcDbSpline
210
0.0
220
0.0
230
1.0
 70
     8
 71
     3
 72
     9
 73
     5
 74
     0
 42
0.000000001
 43
0.00000001
 40
0.0
 40
0.0
 40
0.0
 40
0.0
 40
0.0702005767034369
 40
1.0
 40
1.0
 40
1.0
 40
1.0
 10
1260.140656318491
 20
234.5072420004444
 30
0.0
 10
1260.129826270217
 20
234.5067958841769
 30
0.0
 10
1259.975553345663
 20
234.5004410037962
 30
0.0
 10
1259.824373368757
 20
234.2725515219009
 30
0.0
 10
1259.683806313416
 20
234.0606600130592
 30
0.0
  0
SPLINE
  5
4CA
330
1F
100
AcDbEntity
  8
0
  6
SLD-実線
 62
     7
100
AcDbSpline
210
0.0
220
0.0
230
1.0
 70
     8
 71
     3
 72
     9
 73
     5
 74
     0
 42
0.000000001
 43
0.00000001
 40
0.0
 40
0.0
 40
0.0
 40
0.0
 40
0.0702005767033087
 40
1.0
 40
1.0
 40
1.0
 40
1.0
 10
1093.577645706629
 20
744.007242000444
 30
0.0
 10
1093.577199590361
 20
744.0665067927887
 30
0.0
 10
1093.57084470998
 20
744.9107276685711
 30
0.0
 10
1093.342955228085
 20
745.738023144257
 30
0.0
 10
1093.131063719244
 20
746.5072420004453
 30
0.0
  0
LINE
  5
4CB
330
1F
100
AcDbEntity
  8
0
  6
SLD-実線
 62
     7
100
AcDbLine
 10
1093.1310637192
 20
741.5072420004
 30
0.0
 11
1093.5776457066
 21
744.0072420004
 31
0.0
  0
LINE
  5
4CC
330
1F
100
AcDbEntity
  8
0
  6
SLD-実線
 62
     7
100
AcDbLine
 10
1093.1310637192
 20
741.5072420004
 30
0.0
 11
1091.0776457066
 21
741.5072420004
 31
0.0
  0
LINE
  5
4CD
330
1F
100
AcDbEntity
  8
0
  6
SLD-実線
 62
     7
100
AcDbLine
 10
1093.1310637192
 20
746.5072420004
 30
0.0
 11
1091.0776457066
 21
746.5072420004
 31
0.0
  0
SPLINE
  5
4CE
330
1F
100
AcDbEntity
  8
0
  6
SLD-実線
 62
     7
100
AcDbSpline
210
0.0
220
0.0
230
1.0
 70
     8
 71
     3
 72
     9
 73
     5
 74
     0
 42
0.000000001
 43
0.00000001
 40
0.0
 40
0.0
 40
0.0
 40
0.0
 40
0.0702005767035524
 40
1.0
 40
1.0
 40
1.0
 40
1.0
 10
1093.577645706629
 20
739.0072420004439
 30
0.0
 10
1093.577199590361
 20
739.0665067927891
 30
0.0
 10
1093.570844709981
 20
739.910727668573
 30
0.0
 10
1093.342955228086
 20
740.7380231442578
 30
0.0
 10
1093.131063719244
 20
741.5072420004449
 30
0.0
  0
LINE
  5
4CF
330
1F
100
AcDbEntity
  8
0
  6
SLD-実線
 62
     7
100
AcDbLine
 10
1093.1310637192
 20
736.5072420004
 30
0.0
 11
1093.5776457066
 21
739.0072420004
 31
0.0
  0
LINE
  5
4D0
330
1F
100
AcDbEntity
  8
0
  6
SLD-実線
 62
     7
100
AcDbLine
 10
1093.1310637192
 20
736.5072420004
 30
0.0
 11
1091.0776457066
 21
736.5072420004
 31
0.0
  0
LINE
  5
4D1
330
1F
100
AcDbEntity
  8
0
  6
SLD-実線
 62
     7
100
AcDbLine
 10
1093.5776457066
 20
739.0072420004
 30
0.0
 11
1093.5776457066
 21
744.0072420004
 31
0.0
  0
SPLINE
  5
4D2
330
1F
100
AcDbEntity
  8
0
  6
SLD-実線
 62
     7
100
AcDbSpline
210
0.0
220
0.0
230
1.0
 70
    24
 71
     3
 72
     9
 73
     5
 74
     0
 42
0.000000001
 43
0.00000001
 40
0.0
 40
0.0
 40
0.0
 40
0.0
 40
0.2443658278227919
 40
1.0
 40
1.0
 40
1.0
 40
1.0
 10
1093.577645706628
 20
736.5072420004445
 30
0.0
 10
1093.572166445956
 20
736.5072420004443
 30
0.0
 10
1093.549744077324
 20
736.5072420004436
 30
0.0
 10
1093.311265945196
 20
736.5072420004442
 30
0.0
 10
1093.131063719243
 20
736.5072420004446
 30
0.0
  0
LINE
  5
4D3
330
1F
100
AcDbEntity
  8
0
  6
SLD-実線
 62
     7
100
AcDbLine
 10
1093.5776457066
 20
736.5072420004
 30
0.0
 11
1093.5776457066
 21
739.0072420004
 31
0.0
  0
SPLINE
  5
4D4
330
1F
100
AcDbEntity
  8
0
  6
SLD-実線
 62
     7
100
AcDbSpline
210
0.0
220
0.0
230
1.0
 70
    24
 71
     3
 72
     9
 73
     5
 74
     0
 42
0.000000001
 43
0.00000001
 40
0.0
 40
0.0
 40
0.0
 40
0.0
 40
0.755634172177495
 40
0.9999999999999999
 40
0.9999999999999999
 40
0.9999999999999999
 40
0.9999999999999999
 10
1093.131063719244
 20
746.5072420004453
 30
0.0
 10
1093.311265945197
 20
746.5072420004449
 30
0.0
 10
1093.549744077325
 20
746.507242000444
 30
0.0
 10
1093.572166445957
 20
746.5072420004442
 30
0.0
 10
1093.577645706629
 20
746.5072420004443
 30
0.0
  0
LINE
  5
4D5
330
1F
100
AcDbEntity
  8
0
  6
SLD-実線
 62
     7
100
AcDbLine
 10
1093.5776457066
 20
744.0072420004
 30
0.0
 11
1093.5776457066
 21
746.5072420004
 31
0.0
  0
SPLINE
  5
4D6
330
1F
100
AcDbEntity
  8
0
  6
SLD-実線
 62
     7
100
AcDbSpline
210
0.0
220
0.0
230
1.0
 70
     8
 71
     3
 72
     9
 73
     5
 74
     0
 42
0.000000001
 43
0.00000001
 40
0.0
 40
0.0
 40
0.0
 40
0.0
 40
0.0702005767033087
 40
1.0
 40
1.0
 40
1.0
 40
1.0
 10
1093.577645706629
 20
234.0072420004439
 30
0.0
 10
1093.577199590361
 20
234.0665067927889
 30
0.0
 10
1093.57084470998
 20
234.9107276685713
 30
0.0
 10
1093.342955228085
 20
235.7380231442569
 30
0.0
 10
1093.131063719244
 20
236.5072420004454
 30
0.0
  0
LINE
  5
4D7
330
1F
100
AcDbEntity
  8
0
  6
SLD-実線
 62
     7
100
AcDbLine
 10
1093.1310637192
 20
231.5072420004
 30
0.0
 11
1093.5776457066
 21
234.0072420004
 31
0.0
  0
LINE
  5
4D8
330
1F
100
AcDbEntity
  8
0
  6
SLD-実線
 62
     7
100
AcDbLine
 10
1093.1310637192
 20
231.5072420004
 30
0.0
 11
1091.0776457066
 21
231.5072420004
 31
0.0
  0
LINE
  5
4D9
330
1F
100
AcDbEntity
  8
0
  6
SLD-実線
 62
     7
100
AcDbLine
 10
1093.1310637192
 20
236.5072420004
 30
0.0
 11
1091.0776457066
 21
236.5072420004
 31
0.0
  0
SPLINE
  5
4DA
330
1F
100
AcDbEntity
  8
0
  6
SLD-実線
 62
     7
100
AcDbSpline
210
0.0
220
0.0
230
1.0
 70
     8
 71
     3
 72
     9
 73
     5
 74
     0
 42
0.000000001
 43
0.00000001
 40
0.0
 40
0.0
 40
0.0
 40
0.0
 40
0.0702005767035524
 40
1.0
 40
1.0
 40
1.0
 40
1.0
 10
1093.577645706629
 20
229.0072420004439
 30
0.0
 10
1093.577199590361
 20
229.0665067927891
 30
0.0
 10
1093.570844709981
 20
229.9107276685733
 30
0.0
 10
1093.342955228086
 20
230.7380231442577
 30
0.0
 10
1093.131063719244
 20
231.5072420004448
 30
0.0
  0
LINE
  5
4DB
330
1F
100
AcDbEntity
  8
0
  6
SLD-実線
 62
     7
100
AcDbLine
 10
1093.1310637192
 20
226.5072420004
 30
0.0
 11
1093.5776457066
 21
229.0072420004
 31
0.0
  0
LINE
  5
4DC
330
1F
100
AcDbEntity
  8
0
  6
SLD-実線
 62
     7
100
AcDbLine
 10
1093.1310637192
 20
226.5072420004
 30
0.0
 11
1091.0776457066
 21
226.5072420004
 31
0.0
  0
LINE
  5
4DD
330
1F
100
AcDbEntity
  8
0
  6
SLD-実線
 62
     7
100
AcDbLine
 10
1093.5776457066
 20
229.0072420004
 30
0.0
 11
1093.5776457066
 21
234.0072420004
 31
0.0
  0
SPLINE
  5
4DE
330
1F
100
AcDbEntity
  8
0
  6
SLD-実線
 62
     7
100
AcDbSpline
210
0.0
220
0.0
230
1.0
 70
    24
 71
     3
 72
     9
 73
     5
 74
     0
 42
0.000000001
 43
0.00000001
 40
0.0
 40
0.0
 40
0.0
 40
0.0
 40
0.2443658278227919
 40
1.0
 40
1.0
 40
1.0
 40
1.0
 10
1093.577645706628
 20
226.5072420004445
 30
0.0
 10
1093.572166445956
 20
226.5072420004443
 30
0.0
 10
1093.549744077324
 20
226.5072420004437
 30
0.0
 10
1093.311265945196
 20
226.5072420004441
 30
0.0
 10
1093.131063719243
 20
226.5072420004445
 30
0.0
  0
LINE
  5
4DF
330
1F
100
AcDbEntity
  8
0
  6
SLD-実線
 62
     7
100
AcDbLine
 10
1093.5776457066
 20
226.5072420004
 30
0.0
 11
1093.5776457066
 21
229.0072420004
 31
0.0
  0
SPLINE
  5
4E0
330
1F
100
AcDbEntity
  8
0
  6
SLD-実線
 62
     7
100
AcDbSpline
210
0.0
220
0.0
230
1.0
 70
    24
 71
     3
 72
     9
 73
     5
 74
     0
 42
0.000000001
 43
0.00000001
 40
0.0
 40
0.0
 40
0.0
 40
0.0
 40
0.755634172177495
 40
0.9999999999999999
 40
0.9999999999999999
 40
0.9999999999999999
 40
0.9999999999999999
 10
1093.131063719244
 20
236.5072420004454
 30
0.0
 10
1093.311265945197
 20
236.5072420004449
 30
0.0
 10
1093.549744077325
 20
236.5072420004442
 30
0.0
 10
1093.572166445957
 20
236.5072420004442
 30
0.0
 10
1093.577645706629
 20
236.5072420004441
 30
0.0
  0
LINE
  5
4E1
330
1F
100
AcDbEntity
  8
0
  6
SLD-実線
 62
     7
100
AcDbLine
 10
1093.5776457066
 20
234.0072420004
 30
0.0
 11
1093.5776457066
 21
236.5072420004
 31
0.0
  0
SPLINE
  5
4E2
330
1F
100
AcDbEntity
  8
0
  6
SLD-実線
 62
     7
100
AcDbSpline
210
0.0
220
0.0
230
1.0
 70
     8
 71
     3
 72
     9
 73
     5
 74
     0
 42
0.000000001
 43
0.00000001
 40
0.0
 40
0.0
 40
0.0
 40
0.0
 40
0.0702005767035524
 40
1.0
 40
1.0
 40
1.0
 40
1.0
 10
1093.577645706629
 20
673.007242000444
 30
0.0
 10
1093.577199590361
 20
673.0665067927893
 30
0.0
 10
1093.570844709981
 20
673.9107276685731
 30
0.0
 10
1093.342955228086
 20
674.7380231442577
 30
0.0
 10
1093.131063719244
 20
675.5072420004449
 30
0.0
  0
LINE
  5
4E3
330
1F
100
AcDbEntity
  8
0
  6
SLD-実線
 62
     7
100
AcDbLine
 10
1093.1310637192
 20
670.5072420004
 30
0.0
 11
1093.5776457066
 21
673.0072420004
 31
0.0
  0
LINE
  5
4E4
330
1F
100
AcDbEntity
  8
0
  6
SLD-実線
 62
     7
100
AcDbLine
 10
1093.1310637192
 20
670.5072420004
 30
0.0
 11
1091.0776457066
 21
670.5072420004
 31
0.0
  0
LINE
  5
4E5
330
1F
100
AcDbEntity
  8
0
  6
SLD-実線
 62
     7
100
AcDbLine
 10
1093.1310637192
 20
675.5072420004
 30
0.0
 11
1091.0776457066
 21
675.5072420004
 31
0.0
  0
SPLINE
  5
4E6
330
1F
100
AcDbEntity
  8
0
  6
SLD-実線
 62
     7
100
AcDbSpline
210
0.0
220
0.0
230
1.0
 70
     8
 71
     3
 72
     9
 73
     5
 74
     0
 42
0.000000001
 43
0.00000001
 40
0.0
 40
0.0
 40
0.0
 40
0.0
 40
0.0702005767033087
 40
1.0
 40
1.0
 40
1.0
 40
1.0
 10
1093.577645706629
 20
678.007242000444
 30
0.0
 10
1093.577199590361
 20
678.0665067927888
 30
0.0
 10
1093.57084470998
 20
678.9107276685713
 30
0.0
 10
1093.342955228085
 20
679.7380231442569
 30
0.0
 10
1093.131063719244
 20
680.5072420004454
 30
0.0
  0
LINE
  5
4E7
330
1F
100
AcDbEntity
  8
0
  6
SLD-実線
 62
     7
100
AcDbLine
 10
1093.1310637192
 20
675.5072420004
 30
0.0
 11
1093.5776457066
 21
678.0072420004
 31
0.0
  0
LINE
  5
4E8
330
1F
100
AcDbEntity
  8
0
  6
SLD-実線
 62
     7
100
AcDbLine
 10
1093.1310637192
 20
680.5072420004
 30
0.0
 11
1091.0776457066
 21
680.5072420004
 31
0.0
  0
LINE
  5
4E9
330
1F
100
AcDbEntity
  8
0
  6
SLD-実線
 62
     7
100
AcDbLine
 10
1093.5776457066
 20
673.0072420004
 30
0.0
 11
1093.5776457066
 21
678.0072420004
 31
0.0
  0
SPLINE
  5
4EA
330
1F
100
AcDbEntity
  8
0
  6
SLD-実線
 62
     7
100
AcDbSpline
210
0.0
220
0.0
230
1.0
 70
    24
 71
     3
 72
     9
 73
     5
 74
     0
 42
0.000000001
 43
0.00000001
 40
0.0
 40
0.0
 40
0.0
 40
0.0
 40
0.2443658278227919
 40
1.0
 40
1.0
 40
1.0
 40
1.0
 10
1093.577645706628
 20
670.5072420004444
 30
0.0
 10
1093.572166445956
 20
670.5072420004443
 30
0.0
 10
1093.549744077324
 20
670.5072420004436
 30
0.0
 10
1093.311265945196
 20
670.5072420004441
 30
0.0
 10
1093.131063719243
 20
670.5072420004445
 30
0.0
  0
LINE
  5
4EB
330
1F
100
AcDbEntity
  8
0
  6
SLD-実線
 62
     7
100
AcDbLine
 10
1093.5776457066
 20
670.5072420004
 30
0.0
 11
1093.5776457066
 21
673.0072420004
 31
0.0
  0
SPLINE
  5
4EC
330
1F
100
AcDbEntity
  8
0
  6
SLD-実線
 62
     7
100
AcDbSpline
210
0.0
220
0.0
230
1.0
 70
    24
 71
     3
 72
     9
 73
     5
 74
     0
 42
0.000000001
 43
0.00000001
 40
0.0
 40
0.0
 40
0.0
 40
0.0
 40
0.755634172177495
 40
0.9999999999999999
 40
0.9999999999999999
 40
0.9999999999999999
 40
0.9999999999999999
 10
1093.131063719244
 20
680.5072420004454
 30
0.0
 10
1093.311265945197
 20
680.5072420004449
 30
0.0
 10
1093.549744077325
 20
680.5072420004441
 30
0.0
 10
1093.572166445957
 20
680.5072420004441
 30
0.0
 10
1093.577645706629
 20
680.5072420004442
 30
0.0
  0
LINE
  5
4ED
330
1F
100
AcDbEntity
  8
0
  6
SLD-実線
 62
     7
100
AcDbLine
 10
1093.5776457066
 20
678.0072420004
 30
0.0
 11
1093.5776457066
 21
680.5072420004
 31
0.0
  0
SPLINE
  5
4EE
330
1F
100
AcDbEntity
  8
0
  6
SLD-実線
 62
     7
100
AcDbSpline
210
0.0
220
0.0
230
1.0
 70
     8
 71
     3
 72
     9
 73
     5
 74
     0
 42
0.000000001
 43
0.00000001
 40
0.0
 40
0.0
 40
0.0
 40
0.0
 40
0.0702005767033087
 40
1.0
 40
1.0
 40
1.0
 40
1.0
 10
1093.577645706629
 20
300.0072420004439
 30
0.0
 10
1093.577199590361
 20
300.0665067927888
 30
0.0
 10
1093.57084470998
 20
300.9107276685713
 30
0.0
 10
1093.342955228085
 20
301.7380231442569
 30
0.0
 10
1093.131063719244
 20
302.5072420004454
 30
0.0
  0
LINE
  5
4EF
330
1F
100
AcDbEntity
  8
0
  6
SLD-実線
 62
     7
100
AcDbLine
 10
1093.1310637192
 20
297.5072420004
 30
0.0
 11
1093.5776457066
 21
300.0072420004
 31
0.0
  0
LINE
  5
4F0
330
1F
100
AcDbEntity
  8
0
  6
SLD-実線
 62
     7
100
AcDbLine
 10
1093.1310637192
 20
297.5072420004
 30
0.0
 11
1091.0776457066
 21
297.5072420004
 31
0.0
  0
LINE
  5
4F1
330
1F
100
AcDbEntity
  8
0
  6
SLD-実線
 62
     7
100
AcDbLine
 10
1093.1310637192
 20
302.5072420004
 30
0.0
 11
1091.0776457066
 21
302.5072420004
 31
0.0
  0
SPLINE
  5
4F2
330
1F
100
AcDbEntity
  8
0
  6
SLD-実線
 62
     7
100
AcDbSpline
210
0.0
220
0.0
230
1.0
 70
     8
 71
     3
 72
     9
 73
     5
 74
     0
 42
0.000000001
 43
0.00000001
 40
0.0
 40
0.0
 40
0.0
 40
0.0
 40
0.0702005767035524
 40
1.0
 40
1.0
 40
1.0
 40
1.0
 10
1093.577645706629
 20
295.0072420004439
 30
0.0
 10
1093.577199590361
 20
295.0665067927891
 30
0.0
 10
1093.570844709981
 20
295.9107276685732
 30
0.0
 10
1093.342955228086
 20
296.7380231442577
 30
0.0
 10
1093.131063719244
 20
297.5072420004449
 30
0.0
  0
LINE
  5
4F3
330
1F
100
AcDbEntity
  8
0
  6
SLD-実線
 62
     7
100
AcDbLine
 10
1093.1310637192
 20
292.5072420004
 30
0.0
 11
1093.5776457066
 21
295.0072420004
 31
0.0
  0
LINE
  5
4F4
330
1F
100
AcDbEntity
  8
0
  6
SLD-実線
 62
     7
100
AcDbLine
 10
1093.1310637192
 20
292.5072420004
 30
0.0
 11
1091.0776457066
 21
292.5072420004
 31
0.0
  0
LINE
  5
4F5
330
1F
100
AcDbEntity
  8
0
  6
SLD-実線
 62
     7
100
AcDbLine
 10
1093.5776457066
 20
295.0072420004
 30
0.0
 11
1093.5776457066
 21
300.0072420004
 31
0.0
  0
SPLINE
  5
4F6
330
1F
100
AcDbEntity
  8
0
  6
SLD-実線
 62
     7
100
AcDbSpline
210
0.0
220
0.0
230
1.0
 70
    24
 71
     3
 72
     9
 73
     5
 74
     0
 42
0.000000001
 43
0.00000001
 40
0.0
 40
0.0
 40
0.0
 40
0.0
 40
0.2443658278227919
 40
1.0
 40
1.0
 40
1.0
 40
1.0
 10
1093.577645706628
 20
292.5072420004444
 30
0.0
 10
1093.572166445956
 20
292.5072420004443
 30
0.0
 10
1093.549744077324
 20
292.5072420004436
 30
0.0
 10
1093.311265945196
 20
292.5072420004442
 30
0.0
 10
1093.131063719243
 20
292.5072420004445
 30
0.0
  0
LINE
  5
4F7
330
1F
100
AcDbEntity
  8
0
  6
SLD-実線
 62
     7
100
AcDbLine
 10
1093.5776457066
 20
292.5072420004
 30
0.0
 11
1093.5776457066
 21
295.0072420004
 31
0.0
  0
SPLINE
  5
4F8
330
1F
100
AcDbEntity
  8
0
  6
SLD-実線
 62
     7
100
AcDbSpline
210
0.0
220
0.0
230
1.0
 70
    24
 71
     3
 72
     9
 73
     5
 74
     0
 42
0.000000001
 43
0.00000001
 40
0.0
 40
0.0
 40
0.0
 40
0.0
 40
0.755634172177495
 40
0.9999999999999999
 40
0.9999999999999999
 40
0.9999999999999999
 40
0.9999999999999999
 10
1093.131063719244
 20
302.5072420004454
 30
0.0
 10
1093.311265945197
 20
302.5072420004449
 30
0.0
 10
1093.549744077325
 20
302.5072420004441
 30
0.0
 10
1093.572166445957
 20
302.5072420004442
 30
0.0
 10
1093.577645706629
 20
302.5072420004441
 30
0.0
  0
LINE
  5
4F9
330
1F
100
AcDbEntity
  8
0
  6
SLD-実線
 62
     7
100
AcDbLine
 10
1093.5776457066
 20
300.0072420004
 30
0.0
 11
1093.5776457066
 21
302.5072420004
 31
0.0
  0
SPLINE
  5
4FA
330
1F
100
AcDbEntity
  8
0
  6
SLD-実線
 62
     7
100
AcDbSpline
210
0.0
220
0.0
230
1.0
 70
     8
 71
     3
 72
     9
 73
     5
 74
     0
 42
0.000000001
 43
0.00000001
 40
0.0
 40
0.0
 40
0.0
 40
0.0
 40
0.0702005767034847
 40
1.0
 40
1.0
 40
1.0
 40
1.0
 10
1268.539295094152
 20
239.5072420004443
 30
0.0
 10
1268.48991506881
 20
239.5067958841767
 30
0.0
 10
1267.786501683041
 20
239.5004410037965
 30
0.0
 10
1267.097190712089
 20
239.2725515219011
 30
0.0
 10
1266.456269768825
 20
239.0606600130595
 30
0.0
  0
LINE
  5
4FB
330
1F
100
AcDbEntity
  8
0
  6
SLD-実線
 62
     7
100
AcDbLine
 10
1270.6223204195
 20
239.0606600131
 30
0.0
 11
1268.5392950942
 21
239.5072420004
 31
0.0
  0
LINE
  5
4FC
330
1F
100
AcDbEntity
  8
0
  6
SLD-実線
 62
     7
100
AcDbLine
 10
1270.6223204195
 20
239.0606600131
 30
0.0
 11
1270.6223204195
 21
234.9538239878
 31
0.0
  0
SPLINE
  5
4FD
330
1F
100
AcDbEntity
  8
0
  6
SLD-実線
 62
     7
100
AcDbSpline
210
0.0
220
0.0
230
1.0
 70
     8
 71
     3
 72
     9
 73
     5
 74
     0
 42
0.000000001
 43
0.00000001
 40
0.0
 40
0.0
 40
0.0
 40
0.0
 40
0.0702005767035028
 40
1.0
 40
1.0
 40
1.0
 40
1.0
 10
1268.539295094152
 20
234.5072420004443
 30
0.0
 10
1268.588675119494
 20
234.5076881167119
 30
0.0
 10
1269.292088505261
 20
234.5140429970934
 30
0.0
 10
1269.981399476214
 20
234.7419324789884
 30
0.0
 10
1270.622320419478
 20
234.9538239878297
 30
0.0
  0
LINE
  5
4FE
330
1F
100
AcDbEntity
  8
0
  6
SLD-実線
 62
     7
100
AcDbLine
 10
1266.4562697688
 20
234.9538239878
 30
0.0
 11
1268.5392950942
 21
234.5072420004
 31
0.0
  0
LINE
  5
4FF
330
1F
100
AcDbEntity
  8
0
  6
SLD-実線
 62
     7
100
AcDbLine
 10
1266.4562697688
 20
239.0606600131
 30
0.0
 11
1266.4562697688
 21
234.9538239878
 31
0.0
  0
SPLINE
  5
500
330
1F
100
AcDbEntity
  8
0
  6
SLD-実線
 62
     7
100
AcDbSpline
210
0.0
220
0.0
230
1.0
 70
     8
 71
     3
 72
     9
 73
     5
 74
     0
 42
0.000000001
 43
0.00000001
 40
0.0
 40
0.0
 40
0.0
 40
0.0
 40
0.7730973971641346
 40
1.0
 40
1.0
 40
1.0
 40
1.0
 10
1263.683932412399
 20
234.5072420004442
 30
0.0
 10
1264.409638440076
 20
234.5613412287799
 30
0.0
 10
1265.348337794568
 20
234.6313184768395
 30
0.0
 10
1266.251369519903
 20
234.8941800195932
 30
0.0
 10
1266.456269768824
 20
234.9538239878294
 30
0.0
  0
LINE
  5
501
330
1F
100
AcDbEntity
  8
0
  6
SLD-実線
 62
     7
100
AcDbLine
 10
1268.5392950942
 20
234.5072420004
 30
0.0
 11
1263.6839324124
 21
234.5072420004
 31
0.0
  0
SPLINE
  5
502
330
1F
100
AcDbEntity
  8
0
  6
SLD-実線
 62
     7
100
AcDbSpline
210
0.0
220
0.0
230
1.0
 70
     8
 71
     3
 72
     9
 73
     5
 74
     0
 42
0.000000001
 43
0.00000001
 40
0.0
 40
0.0
 40
0.0
 40
0.0
 40
0.2269026028360734
 40
1.0
 40
1.0
 40
1.0
 40
1.0
 10
1266.456269768825
 20
239.0606600130595
 30
0.0
 10
1266.251369519903
 20
239.1203039812955
 30
0.0
 10
1265.348337794569
 20
239.383165524048
 30
0.0
 10
1264.409638440077
 20
239.4531427721082
 30
0.0
 10
1263.6839324124
 20
239.5072420004441
 30
0.0
  0
LINE
  5
503
330
1F
100
AcDbEntity
  8
0
  6
SLD-実線
 62
     7
100
AcDbLine
 10
1268.5392950942
 20
239.5072420004
 30
0.0
 11
1263.6839324124
 21
239.5072420004
 31
0.0
  0
SPLINE
  5
504
330
1F
100
AcDbEntity
  8
0
  6
SLD-実線
 62
     7
100
AcDbSpline
210
0.0
220
0.0
230
1.0
 70
     8
 71
     3
 72
     9
 73
     5
 74
     0
 42
0.000000001
 43
0.00000001
 40
0.0
 40
0.0
 40
0.0
 40
0.0
 40
0.2443658278227938
 40
1.0
 40
1.0
 40
1.0
 40
1.0
 10
1263.6839324124
 20
239.5072420004441
 30
0.0
 10
1263.454671228454
 20
239.5017627397717
 30
0.0
 10
1262.516482832846
 20
239.4793403711403
 30
0.0
 10
1261.602347187559
 20
239.240862239012
 30
0.0
 10
1260.911595055975
 20
239.060660013059
 30
0.0
  0
SPLINE
  5
505
330
1F
100
AcDbEntity
  8
0
  6
SLD-実線
 62
     7
100
AcDbSpline
210
0.0
220
0.0
230
1.0
 70
     8
 71
     3
 72
     9
 73
     5
 74
     0
 42
0.000000001
 43
0.00000001
 40
0.0
 40
0.0
 40
0.0
 40
0.0
 40
0.7556341721774651
 40
0.9999999999999999
 40
0.9999999999999999
 40
0.9999999999999999
 40
0.9999999999999999
 10
1260.911595055975
 20
234.9538239878297
 30
0.0
 10
1261.602347187559
 20
234.7736217618764
 30
0.0
 10
1262.516482832846
 20
234.535143629748
 30
0.0
 10
1263.454671228453
 20
234.5127212611166
 30
0.0
 10
1263.683932412399
 20
234.5072420004442
 30
0.0
  0
LINE
  5
506
330
1F
100
AcDbEntity
  8
0
  6
SLD-実線
 62
     7
100
AcDbLine
 10
1260.911595056
 20
239.0606600131
 30
0.0
 11
1260.911595056
 21
234.9538239878
 31
0.0
  0
LINE
  5
507
330
1F
100
AcDbEntity
  8
0
  6
SLD-実線
 62
     7
100
AcDbLine
 10
1260.911595056
 20
239.0606600131
 30
0.0
 11
1260.2222830249
 21
239.5072420004
 31
0.0
  0
LINE
  5
508
330
1F
100
AcDbEntity
  8
0
  6
SLD-実線
 62
     7
100
AcDbLine
 10
1263.6839324124
 20
239.5072420004
 30
0.0
 11
1260.2222830249
 21
239.5072420004
 31
0.0
  0
SPLINE
  5
509
330
1F
100
AcDbEntity
  8
0
  6
SLD-実線
 62
     7
100
AcDbSpline
210
0.0
220
0.0
230
1.0
 70
     8
 71
     3
 72
     9
 73
     5
 74
     0
 42
0.000000001
 43
0.00000001
 40
0.0
 40
0.0
 40
0.0
 40
0.0
 40
0.0702005767035151
 40
1.0
 40
1.0
 40
1.0
 40
1.0
 10
1260.222283024876
 20
234.5072420004444
 30
0.0
 10
1260.23862379863
 20
234.507688116712
 30
0.0
 10
1260.471396441258
 20
234.5140429970933
 30
0.0
 10
1260.699502331126
 20
234.7419324789883
 30
0.0
 10
1260.911595055975
 20
234.9538239878297
 30
0.0
  0
LINE
  5
50A
330
1F
100
AcDbEntity
  8
0
  6
SLD-実線
 62
     7
100
AcDbLine
 10
1263.6839324124
 20
234.5072420004
 30
0.0
 11
1260.2222830249
 21
234.5072420004
 31
0.0
  0
LINE
  5
50B
330
1F
100
AcDbEntity
  8
0
  6
SLD-実線
 62
     7
100
AcDbLine
 10
1270.6223204195
 20
234.9538239878
 30
0.0
 11
1270.2262584845
 21
234.6972288349
 31
0.0
  0
LINE
  5
50C
330
1F
100
AcDbEntity
  8
0
  6
SLD-実線
 62
     7
100
AcDbLine
 10
1270.0776457066
 20
234.5072420004
 30
0.0
 11
1268.5392950942
 21
234.5072420004
 31
0.0
  0
LINE
  5
50D
330
1F
100
AcDbEntity
  8
0
  6
SLD-実線
 62
     7
100
AcDbLine
 10
1270.2261378821
 20
239.3354713986
 30
0.0
 11
1270.6223204195
 21
239.0606600131
 31
0.0
  0
LINE
  5
50E
330
1F
100
AcDbEntity
  8
0
  6
SLD-実線
 62
     7
100
AcDbLine
 10
1269.4705199321
 20
239.5072420004
 30
0.0
 11
1268.5392950942
 21
239.5072420004
 31
0.0
  0
SPLINE
  5
50F
330
1F
100
AcDbEntity
  8
0
  6
SLD-実線
 62
     7
100
AcDbSpline
210
0.0
220
0.0
230
1.0
 70
     8
 71
     3
 72
     9
 73
     5
 74
     0
 42
0.000000001
 43
0.00000001
 40
0.0
 40
0.0
 40
0.0
 40
0.0
 40
0.0702005767035563
 40
1.0
 40
1.0
 40
1.0
 40
1.0
 10
1260.222283024876
 20
239.5072420004444
 30
0.0
 10
1260.205942251123
 20
239.5067958841769
 30
0.0
 10
1259.973169608495
 20
239.5004410037967
 30
0.0
 10
1259.745063718628
 20
239.2725515219012
 30
0.0
 10
1259.532970993779
 20
239.0606600130596
 30
0.0
  0
LINE
  5
510
330
1F
100
AcDbEntity
  8
0
  6
SLD-実線
 62
     7
100
AcDbLine
 10
1259.5329709938
 20
234.9538239878
 30
0.0
 11
1260.2222830249
 21
234.5072420004
 31
0.0
  0
LINE
  5
511
330
1F
100
AcDbEntity
  8
0
  6
SLD-実線
 62
     7
100
AcDbLine
 10
1259.5329709938
 20
239.0606600131
 30
0.0
 11
1259.5329709938
 21
234.9538239878
 31
0.0
  0
LINE
  5
512
330
1F
100
AcDbEntity
  8
0
  6
SLD-実線
 62
     7
100
AcDbLine
 10
1260.2222830249
 20
239.5072420004
 30
0.0
 11
1260.0776457066
 21
239.5072420004
 31
0.0
  0
LINE
  5
513
330
1F
100
AcDbEntity
  8
0
  6
SLD-実線
 62
     7
100
AcDbLine
 10
1260.2222830249
 20
234.5072420004
 30
0.0
 11
1260.0776457066
 21
234.5072420004
 31
0.0
  0
SPLINE
  5
514
330
1F
100
AcDbEntity
  8
0
  6
SLD-実線
 62
     7
100
AcDbSpline
210
0.0
220
0.0
230
1.0
 70
     8
 71
     3
 72
     9
 73
     5
 74
     0
 42
0.000000001
 43
0.00000001
 40
0.0
 40
0.0
 40
0.0
 40
0.0
 40
0.0702005767035454
 40
1.0
 40
1.0
 40
1.0
 40
1.0
 10
1260.813119613834
 20
244.5072420004445
 30
0.0
 10
1260.777393039941
 20
244.506795884177
 30
0.0
 10
1260.268471666774
 20
244.5004410037968
 30
0.0
 10
1259.769753426579
 20
244.2725515219013
 30
0.0
 10
1259.306045494459
 20
244.0606600130596
 30
0.0
  0
LINE
  5
515
330
1F
100
AcDbEntity
  8
0
  6
SLD-実線
 62
     7
100
AcDbLine
 10
1262.3201937332
 20
244.0606600131
 30
0.0
 11
1260.8131196138
 21
244.5072420004
 31
0.0
  0
LINE
  5
516
330
1F
100
AcDbEntity
  8
0
  6
SLD-実線
 62
     7
100
AcDbLine
 10
1262.3201937332
 20
244.0606600131
 30
0.0
 11
1262.3201937332
 21
239.9538239878
 31
0.0
  0
SPLINE
  5
517
330
1F
100
AcDbEntity
  8
0
  6
SLD-実線
 62
     7
100
AcDbSpline
210
0.0
220
0.0
230
1.0
 70
     8
 71
     3
 72
     9
 73
     5
 74
     0
 42
0.000000001
 43
0.00000001
 40
0.0
 40
0.0
 40
0.0
 40
0.0
 40
0.0702005767035229
 40
0.9999999999999999
 40
0.9999999999999999
 40
0.9999999999999999
 40
0.9999999999999999
 10
1260.813119613834
 20
239.5072420004444
 30
0.0
 10
1260.848846187727
 20
239.5076881167121
 30
0.0
 10
1261.357767560895
 20
239.5140429970932
 30
0.0
 10
1261.85648580109
 20
239.7419324789884
 30
0.0
 10
1262.32019373321
 20
239.9538239878298
 30
0.0
  0
LINE
  5
518
330
1F
100
AcDbEntity
  8
0
  6
SLD-実線
 62
     7
100
AcDbLine
 10
1259.3060454945
 20
239.9538239878
 30
0.0
 11
1260.8131196138
 21
239.5072420004
 31
0.0
  0
LINE
  5
519
330
1F
100
AcDbEntity
  8
0
  6
SLD-実線
 62
     7
100
AcDbLine
 10
1259.3060454945
 20
244.0606600131
 30
0.0
 11
1259.3060454945
 21
239.9538239878
 31
0.0
  0
SPLINE
  5
51A
330
1F
100
AcDbEntity
  8
0
  6
SLD-実線
 62
     7
100
AcDbSpline
210
0.0
220
0.0
230
1.0
 70
     8
 71
     3
 72
     9
 73
     5
 74
     0
 42
0.000000001
 43
0.00000001
 40
0.0
 40
0.0
 40
0.0
 40
0.0
 40
0.7556341721774631
 40
1.0
 40
1.0
 40
1.0
 40
1.0
 10
1262.32019373321
 20
239.9538239878298
 30
0.0
 10
1263.039216102542
 20
239.7736217618765
 30
0.0
 10
1263.990764346132
 20
239.5351436297481
 30
0.0
 10
1264.96734974087
 20
239.5127212611166
 30
0.0
 10
1265.205993839294
 20
239.5072420004443
 30
0.0
  0
LINE
  5
51B
330
1F
100
AcDbEntity
  8
0
  6
SLD-実線
 62
     7
100
AcDbLine
 10
1265.2059938393
 20
239.5072420004
 30
0.0
 11
1260.8131196138
 21
239.5072420004
 31
0.0
  0
SPLINE
  5
51C
330
1F
100
AcDbEntity
  8
0
  6
SLD-実線
 62
     7
100
AcDbSpline
210
0.0
220
0.0
230
1.0
 70
     8
 71
     3
 72
     9
 73
     5
 74
     0
 42
0.000000001
 43
0.00000001
 40
0.0
 40
0.0
 40
0.0
 40
0.0
 40
0.2443658278227971
 40
1.0
 40
1.0
 40
1.0
 40
1.0
 10
1265.205993839295
 20
244.5072420004441
 30
0.0
 10
1264.96734974087
 20
244.5017627397717
 30
0.0
 10
1263.990764346132
 20
244.4793403711404
 30
0.0
 10
1263.039216102542
 20
244.2408622390122
 30
0.0
 10
1262.32019373321
 20
244.060660013059
 30
0.0
  0
LINE
  5
51D
330
1F
100
AcDbEntity
  8
0
  6
SLD-実線
 62
     7
100
AcDbLine
 10
1265.2059938393
 20
244.5072420004
 30
0.0
 11
1260.8131196138
 21
244.5072420004
 31
0.0
  0
SPLINE
  5
51E
330
1F
100
AcDbEntity
  8
0
  6
SLD-実線
 62
     7
100
AcDbSpline
210
0.0
220
0.0
230
1.0
 70
     8
 71
     3
 72
     9
 73
     5
 74
     0
 42
0.000000001
 43
0.00000001
 40
0.0
 40
0.0
 40
0.0
 40
0.0
 40
0.2269026028360653
 40
1.0
 40
1.0
 40
1.0
 40
1.0
 10
1268.09179394538
 20
244.0606600130595
 30
0.0
 10
1267.878507795805
 20
244.1203039812956
 30
0.0
 10
1266.93851791949
 20
244.3831655240481
 30
0.0
 10
1265.961400653983
 20
244.4531427721082
 30
0.0
 10
1265.205993839295
 20
244.5072420004441
 30
0.0
  0
LINE
  5
51F
330
1F
100
AcDbEntity
  8
0
  6
SLD-実線
 62
     7
100
AcDbLine
 10
1268.0917939454
 20
244.0606600131
 30
0.0
 11
1268.0917939454
 21
239.9538239878
 31
0.0
  0
SPLINE
  5
520
330
1F
100
AcDbEntity
  8
0
  6
SLD-実線
 62
     7
100
AcDbSpline
210
0.0
220
0.0
230
1.0
 70
     8
 71
     3
 72
     9
 73
     5
 74
     0
 42
0.000000001
 43
0.00000001
 40
0.0
 40
0.0
 40
0.0
 40
0.0
 40
0.773097397164139
 40
1.0
 40
1.0
 40
1.0
 40
1.0
 10
1265.205993839294
 20
239.5072420004443
 30
0.0
 10
1265.961400653982
 20
239.5613412287798
 30
0.0
 10
1266.93851791949
 20
239.6313184768394
 30
0.0
 10
1267.878507795804
 20
239.8941800195933
 30
0.0
 10
1268.09179394538
 20
239.9538239878295
 30
0.0
  0
LINE
  5
521
330
1F
100
AcDbEntity
  8
0
  6
SLD-実線
 62
     7
100
AcDbLine
 10
1268.0917939454
 20
239.9538239878
 30
0.0
 11
1269.4705199321
 21
239.5072420004
 31
0.0
  0
LINE
  5
522
330
1F
100
AcDbEntity
  8
0
  6
SLD-実線
 62
     7
100
AcDbLine
 10
1269.4705199321
 20
239.5072420004
 30
0.0
 11
1265.2059938393
 21
239.5072420004
 31
0.0
  0
SPLINE
  5
523
330
1F
100
AcDbEntity
  8
0
  6
SLD-実線
 62
     7
100
AcDbSpline
210
0.0
220
0.0
230
1.0
 70
     8
 71
     3
 72
     9
 73
     5
 74
     0
 42
0.000000001
 43
0.00000001
 40
0.0
 40
0.0
 40
0.0
 40
0.0
 40
0.0702005767034767
 40
1.0
 40
1.0
 40
1.0
 40
1.0
 10
1269.470519932089
 20
244.5072420004443
 30
0.0
 10
1269.437835968368
 20
244.5067958841768
 30
0.0
 10
1268.972256264384
 20
244.5004410037962
 30
0.0
 10
1268.516010755978
 20
244.272551521901
 30
0.0
 10
1268.09179394538
 20
244.0606600130595
 30
0.0
  0
LINE
  5
524
330
1F
100
AcDbEntity
  8
0
  6
SLD-実線
 62
     7
100
AcDbLine
 10
1269.4705199321
 20
244.5072420004
 30
0.0
 11
1265.2059938393
 21
244.5072420004
 31
0.0
  0
LINE
  5
525
330
1F
100
AcDbEntity
  8
0
  6
SLD-実線
 62
     7
100
AcDbLine
 10
1270.8492459188
 20
244.0606600131
 30
0.0
 11
1269.4705199321
 21
244.5072420004
 31
0.0
  0
LINE
  5
526
330
1F
100
AcDbEntity
  8
0
  6
SLD-実線
 62
     7
100
AcDbLine
 10
1270.8492459188
 20
244.0606600131
 30
0.0
 11
1270.8492459188
 21
239.9538239878
 31
0.0
  0
SPLINE
  5
527
330
1F
100
AcDbEntity
  8
0
  6
SLD-実線
 62
     7
100
AcDbSpline
210
0.0
220
0.0
230
1.0
 70
     8
 71
     3
 72
     9
 73
     5
 74
     0
 42
0.000000001
 43
0.00000001
 40
0.0
 40
0.0
 40
0.0
 40
0.0
 40
0.0702005767034987
 40
1.0
 40
1.0
 40
1.0
 40
1.0
 10
1269.47051993209
 20
239.5072420004443
 30
0.0
 10
1269.503203895811
 20
239.507688116712
 30
0.0
 10
1269.968783599793
 20
239.5140429970936
 30
0.0
 10
1270.4250291082
 20
239.7419324789885
 30
0.0
 10
1270.849245918798
 20
239.9538239878297
 30
0.0
  0
LINE
  5
528
330
1F
100
AcDbEntity
  8
0
  6
SLD-実線
 62
     7
100
AcDbLine
 10
1260.8131196138
 20
244.5072420004
 30
0.0
 11
1260.0776457066
 21
244.5072420004
 31
0.0
  0
LINE
  5
529
330
1F
100
AcDbEntity
  8
0
  6
SLD-実線
 62
     7
100
AcDbLine
 10
1260.8131196138
 20
239.5072420004
 30
0.0
 11
1260.0776457066
 21
239.5072420004
 31
0.0
  0
LINE
  5
52A
330
1F
100
AcDbEntity
  8
0
  6
SLD-実線
 62
     7
100
AcDbLine
 10
1270.0776457066
 20
239.5072420004
 30
0.0
 11
1269.4705199321
 21
239.5072420004
 31
0.0
  0
LINE
  5
52B
330
1F
100
AcDbEntity
  8
0
  6
SLD-実線
 62
     7
100
AcDbLine
 10
1270.0776457066
 20
244.5072420004
 30
0.0
 11
1269.4705199321
 21
244.5072420004
 31
0.0
  0
LINE
  5
52C
330
1F
100
AcDbEntity
  8
0
  6
SLD-実線
 62
     7
100
AcDbLine
 10
1337.0776457066
 20
264.5072420004
 30
0.0
 11
1337.0776457066
 21
284.5072420004
 31
0.0
  0
LINE
  5
52D
330
1F
100
AcDbEntity
  8
0
  6
SLD-実線
 62
     7
100
AcDbLine
 10
1337.0776457066
 20
244.5072420004
 30
0.0
 11
1337.0776457066
 21
264.5072420004
 31
0.0
  0
LINE
  5
52E
330
1F
100
AcDbEntity
  8
0
  6
SLD-実線
 62
     7
100
AcDbLine
 10
1338.0776457066
 20
264.5072420004
 30
0.0
 11
1338.0776457066
 21
245.5072420004
 31
0.0
  0
LINE
  5
52F
330
1F
100
AcDbEntity
  8
0
  6
SLD-実線
 62
     7
100
AcDbLine
 10
1338.0776457066
 20
283.5072420004
 30
0.0
 11
1338.0776457066
 21
264.5072420004
 31
0.0
  0
LINE
  5
530
330
1F
100
AcDbEntity
  8
0
  6
SLD-実線
 62
     7
100
AcDbLine
 10
1128.5776457066
 20
284.5072420004
 30
0.0
 11
1128.5776457066
 21
244.5072420004
 31
0.0
  0
LINE
  5
531
330
1F
100
AcDbEntity
  8
0
  6
SLD-実線
 62
     7
100
AcDbLine
 10
1128.0776457066
 20
283.0917821082
 30
0.0
 11
1128.0776457066
 21
284.0072420004
 31
0.0
  0
LINE
  5
532
330
1F
100
AcDbEntity
  8
0
  6
SLD-実線
 62
     7
100
AcDbLine
 10
1337.0776457066
 20
688.5072420004
 30
0.0
 11
1337.0776457066
 21
728.5072420004
 31
0.0
  0
LINE
  5
533
330
1F
100
AcDbEntity
  8
0
  6
SLD-実線
 62
     7
100
AcDbLine
 10
1128.5776457066
 20
707.0661580138
 30
0.0
 11
1128.5776457066
 21
688.5072420004
 31
0.0
  0
LINE
  5
534
330
1F
100
AcDbEntity
  8
0
  6
SLD-実線
 62
     7
100
AcDbLine
 10
1128.5776457066
 20
728.5072420004
 30
0.0
 11
1128.5776457066
 21
707.0661580138
 31
0.0
  0
LINE
  5
535
330
1F
100
AcDbEntity
  8
0
  6
SLD-実線
 62
     7
100
AcDbLine
 10
1338.0776457066
 20
727.5072420004
 30
0.0
 11
1338.0776457066
 21
689.5072420004
 31
0.0
  0
LINE
  5
536
330
1F
100
AcDbEntity
  8
0
  6
SLD-実線
 62
     7
100
AcDbLine
 10
1128.0776457066
 20
727.0917821082
 30
0.0
 11
1128.0776457066
 21
728.0072420004
 31
0.0
  0
ARC
  5
537
330
1F
100
AcDbEntity
  8
0
  6
SLD-実線
 62
     7
100
AcDbCircle
 10
1126.1583811966
 20
727.0186520689
 30
0.0
 40
1.920657247391569
100
AcDbArc
 50
2.182094536
 51
89.501523432
  0
LINE
  5
538
330
1F
100
AcDbEntity
  8
0
  6
SLD-実線
 62
     7
100
AcDbLine
 10
1128.0776457066
 20
727.0917821082
 30
0.0
 11
1128.0776457066
 21
688.412059147
 31
0.0
  0
SPLINE
  5
539
330
1F
100
AcDbEntity
  8
0
  6
SLD-実線
 62
     7
100
AcDbSpline
210
0.0
220
0.0
230
1.0
 70
     8
 71
     3
 72
    11
 73
     7
 74
     0
 42
0.000000001
 43
0.00000001
 40
0.0
 40
0.0
 40
0.0
 40
0.0
 40
0.2852288098477319
 40
0.5705366982667075
 40
0.8561263082259368
 40
1.0
 40
1.0
 40
1.0
 40
1.0
 10
1126.175090814055
 20
728.9392366284806
 30
0.0
 10
1126.175432564713
 20
729.0980905397953
 30
0.0
 10
1126.176116160776
 20
729.4158424040496
 30
0.0
 10
1126.163066229938
 20
730.2353333495264
 30
0.0
 10
1126.145005426315
 20
731.0407975042523
 30
0.0
 10
1126.131077619773
 20
731.5462768624627
 30
0.0
 10
1126.126411691538
 20
731.7156165501328
 30
0.0
  0
LINE
  5
53A
330
1F
100
AcDbEntity
  8
0
  6
SLD-実線
 62
     7
100
AcDbLine
 10
1126.1264116915
 20
731.7156165501
 30
0.0
 11
1128.0776457066
 21
731.7156165501
 31
0.0
  0
SPLINE
  5
53B
330
1F
100
AcDbEntity
  8
0
  6
SLD-実線
 62
     7
100
AcDbSpline
210
0.0
220
0.0
230
1.0
 70
    24
 71
     3
 72
    11
 73
     7
 74
     0
 42
0.000000001
 43
0.00000001
 40
0.0
 40
0.0
 40
0.0
 40
0.0
 40
0.1437447182188534
 40
0.429230234470233
 40
0.7146136002951198
 40
1.0
 40
1.0
 40
1.0
 40
1.0
 10
1128.077645706629
 20
731.7156165501328
 30
0.0
 10
1128.077645706629
 20
731.433696172531
 30
0.0
 10
1128.077645706629
 20
730.5918652428146
 30
0.0
 10
1128.077645706629
 20
729.2506048626385
 30
0.0
 10
1128.077645706629
 20
727.8860658432775
 30
0.0
 10
1128.077645706629
 20
727.3565442914152
 30
0.0
 10
1128.077645706629
 20
727.0917821081698
 30
0.0
  0
LINE
  5
53C
330
1F
100
AcDbEntity
  8
0
  6
SLD-実線
 62
     7
100
AcDbLine
 10
1091.0776457066
 20
736.3121200492
 30
0.0
 11
1126.1629210334
 21
734.600643204
 31
0.0
  0
ARC
  5
53D
330
1F
100
AcDbEntity
  8
0
  6
SLD-実線
 62
     7
100
AcDbCircle
 10
1110.762219897
 20
734.2263811256
 30
0.0
 40
15.40524805373312
100
AcDbArc
 50
355.816021248
 51
1.3921066006
  0
LINE
  5
53E
330
1F
100
AcDbEntity
  8
0
  6
SLD-実線
 62
     7
100
AcDbLine
 10
1126.1264116915
 20
731.7156165501
 30
0.0
 11
1126.1264116915
 21
733.1024246773
 31
0.0
  0
LINE
  5
53F
330
1F
100
AcDbEntity
  8
0
  6
SLD-実線
 62
     7
100
AcDbLine
 10
1126.1629210334
 20
734.600643204
 30
0.0
 11
1126.1750908141
 21
734.6000495562
 31
0.0
  0
ARC
  5
540
330
1F
100
AcDbEntity
  8
0
  6
SLD-実線
 62
     7
100
AcDbCircle
 10
1118.4664106184
 20
733.8509402928
 30
0.0
 40
7.744992901717509
100
AcDbArc
 50
354.4495747891
 51
5.5504252109
  0
LINE
  5
541
330
1F
100
AcDbEntity
  8
0
  6
SLD-実線
 62
     7
100
AcDbLine
 10
1126.1264116915
 20
733.1024246773
 30
0.0
 11
1126.1750908141
 21
733.1018310295
 31
0.0
  0
ELLIPSE
  5
542
330
1F
100
AcDbEntity
  8
0
  6
SLD-実線
 62
     7
100
AcDbEllipse
 10
1126.0776457066
 20
732.6024248539
 30
0.0
 11
2.0
 21
0.0
 31
0.0
210
0.0
220
0.0
230
1.0
 40
0.25
 41
0.0
 42
1.522054475485059
  0
LINE
  5
543
330
1F
100
AcDbEntity
  8
0
  6
SLD-実線
 62
     7
100
AcDbLine
 10
1128.0776457066
 20
732.6024248539
 30
0.0
 11
1128.0776457066
 21
731.7156165501
 31
0.0
  0
ARC
  5
544
330
1F
100
AcDbEntity
  8
0
  6
SLD-実線
 62
     7
100
AcDbCircle
 10
1126.0776457066
 20
732.6024248539
 30
0.0
 40
2.000000000000022
100
AcDbArc
 50
0.0
 51
87.2072976343
  0
ARC
  5
545
330
1F
100
AcDbEntity
  8
0
  6
SLD-実線
 62
     7
100
AcDbCircle
 10
1126.1583811966
 20
283.0186520689
 30
0.0
 40
1.920657247391524
100
AcDbArc
 50
2.182094536
 51
89.501523432
  0
LINE
  5
546
330
1F
100
AcDbEntity
  8
0
  6
SLD-実線
 62
     7
100
AcDbLine
 10
1128.0776457066
 20
283.0917821082
 30
0.0
 11
1128.0776457066
 21
244.412059147
 31
0.0
  0
SPLINE
  5
547
330
1F
100
AcDbEntity
  8
0
  6
SLD-実線
 62
     7
100
AcDbSpline
210
0.0
220
0.0
230
1.0
 70
     8
 71
     3
 72
    11
 73
     7
 74
     0
 42
0.000000001
 43
0.00000001
 40
0.0
 40
0.0
 40
0.0
 40
0.0
 40
0.2852288098477319
 40
0.5705366982667075
 40
0.8561263082259368
 40
1.0
 40
1.0
 40
1.0
 40
1.0
 10
1126.175090814055
 20
284.9392366284806
 30
0.0
 10
1126.175432564713
 20
285.0980905397952
 30
0.0
 10
1126.176116160776
 20
285.4158424040497
 30
0.0
 10
1126.163066229938
 20
286.2353333495263
 30
0.0
 10
1126.145005426315
 20
287.0407975042523
 30
0.0
 10
1126.131077619773
 20
287.5462768624626
 30
0.0
 10
1126.126411691538
 20
287.7156165501328
 30
0.0
  0
LINE
  5
548
330
1F
100
AcDbEntity
  8
0
  6
SLD-実線
 62
     7
100
AcDbLine
 10
1126.1264116915
 20
287.7156165501
 30
0.0
 11
1128.0776457066
 21
287.7156165501
 31
0.0
  0
SPLINE
  5
549
330
1F
100
AcDbEntity
  8
0
  6
SLD-実線
 62
     7
100
AcDbSpline
210
0.0
220
0.0
230
1.0
 70
    24
 71
     3
 72
    11
 73
     7
 74
     0
 42
0.000000001
 43
0.00000001
 40
0.0
 40
0.0
 40
0.0
 40
0.0
 40
0.1437447182188534
 40
0.429230234470233
 40
0.7146136002951198
 40
1.0
 40
1.0
 40
1.0
 40
1.0
 10
1128.077645706629
 20
287.7156165501328
 30
0.0
 10
1128.077645706629
 20
287.4336961725309
 30
0.0
 10
1128.077645706629
 20
286.5918652428145
 30
0.0
 10
1128.077645706629
 20
285.2506048626385
 30
0.0
 10
1128.077645706629
 20
283.8860658432775
 30
0.0
 10
1128.077645706629
 20
283.3565442914152
 30
0.0
 10
1128.077645706629
 20
283.0917821081698
 30
0.0
  0
LINE
  5
54A
330
1F
100
AcDbEntity
  8
0
  6
SLD-実線
 62
     7
100
AcDbLine
 10
1091.0776457066
 20
292.3121200492
 30
0.0
 11
1126.1629210334
 21
290.600643204
 31
0.0
  0
ARC
  5
54B
330
1F
100
AcDbEntity
  8
0
  6
SLD-実線
 62
     7
100
AcDbCircle
 10
1110.762219897
 20
290.2263811256
 30
0.0
 40
15.40524805373312
100
AcDbArc
 50
355.816021248
 51
1.3921066006
  0
LINE
  5
54C
330
1F
100
AcDbEntity
  8
0
  6
SLD-実線
 62
     7
100
AcDbLine
 10
1126.1264116915
 20
287.7156165501
 30
0.0
 11
1126.1264116915
 21
289.1024246773
 31
0.0
  0
ELLIPSE
  5
54D
330
1F
100
AcDbEntity
  8
0
  6
SLD-実線
 62
     7
100
AcDbEllipse
 10
1126.0776457066
 20
288.6024248539
 30
0.0
 11
2.0
 21
0.0
 31
0.0
210
0.0
220
0.0
230
1.0
 40
0.25
 41
0.0
 42
1.522054475485037
  0
LINE
  5
54E
330
1F
100
AcDbEntity
  8
0
  6
SLD-実線
 62
     7
100
AcDbLine
 10
1126.1264116915
 20
289.1024246773
 30
0.0
 11
1126.1750908141
 21
289.1018310295
 31
0.0
  0
LINE
  5
54F
330
1F
100
AcDbEntity
  8
0
  6
SLD-実線
 62
     7
100
AcDbLine
 10
1128.0776457066
 20
288.6024248539
 30
0.0
 11
1128.0776457066
 21
287.7156165501
 31
0.0
  0
LINE
  5
550
330
1F
100
AcDbEntity
  8
0
  6
SLD-実線
 62
     7
100
AcDbLine
 10
1126.1629210334
 20
290.600643204
 30
0.0
 11
1126.1750908141
 21
290.6000495562
 31
0.0
  0
ARC
  5
551
330
1F
100
AcDbEntity
  8
0
  6
SLD-実線
 62
     7
100
AcDbCircle
 10
1118.4664106184
 20
289.8509402928
 30
0.0
 40
7.744992901718188
100
AcDbArc
 50
354.4495747891
 51
5.5504252109
  0
ARC
  5
552
330
1F
100
AcDbEntity
  8
0
  6
SLD-実線
 62
     7
100
AcDbCircle
 10
1126.0776457066
 20
288.6024248539
 30
0.0
 40
2.0
100
AcDbArc
 50
0.0
 51
87.2072976343
  0
LINE
  5
553
330
1F
100
AcDbEntity
  8
0
  6
SLD-実線
 62
     7
100
AcDbLine
 10
1091.0776457066
 20
214.5072420004
 30
0.0
 11
1091.0776457066
 21
758.5072420004
 31
0.0
  0
LINE
  5
554
330
1F
100
AcDbEntity
  8
0
  6
SLD-実線
 62
     7
100
AcDbLine
 10
1080.0776457066
 20
214.5072420004
 30
0.0
 11
1091.0776457066
 21
214.5072420004
 31
0.0
  0
LINE
  5
555
330
1F
100
AcDbEntity
  8
0
  6
SLD-実線
 62
     7
100
AcDbLine
 10
1080.0776457066
 20
214.5072420004
 30
0.0
 11
1080.0776457066
 21
758.5072420004
 31
0.0
  0
LINE
  5
556
330
1F
100
AcDbEntity
  8
0
  6
SLD-実線
 62
     7
100
AcDbLine
 10
1080.0776457066
 20
758.5072420004
 30
0.0
 11
1091.0776457066
 21
758.5072420004
 31
0.0
  0
SPLINE
  5
557
330
1F
100
AcDbEntity
  8
0
  6
SLD-実線
 62
     7
100
AcDbSpline
210
0.0
220
0.0
230
1.0
 70
     8
 71
     3
 72
    20
 73
    16
 74
     0
 42
0.000000001
 43
0.00000001
 40
0.0
 40
0.0
 40
0.0
 40
0.0
 40
0.2500000000000043
 40
0.2500000000000043
 40
0.3750000000000036
 40
0.3750000000000036
 40
0.5000000000000029
 40
0.5000000000000029
 40
0.6250000000000021
 40
0.6250000000000021
 40
0.7500000000000014
 40
0.7500000000000014
 40
0.8750000000000007
 40
0.8750000000000007
 40
1.0
 40
1.0
 40
1.0
 40
1.0
 10
1080.077645706629
 20
758.5072420004445
 30
0.0
 10
1079.549112829204
 20
758.4231233804157
 30
0.0
 10
1079.038063624246
 20
758.3418197876891
 30
0.0
 10
1078.306440674575
 20
758.2158322860495
 30
0.0
 10
1078.076240723813
 20
758.1744853464811
 30
0.0
 10
1077.642422251783
 20
758.0915165442387
 30
0.0
 10
1077.436828226332
 20
758.0494371067505
 30
0.0
 10
1077.065922104966
 20
757.9660173289229
 30
0.0
 10
1076.900450083919
 20
757.9247448328656
 30
0.0
 10
1076.609338492994
 20
757.8415288071419
 30
0.0
 10
1076.483565161456
 20
757.7993397538471
 30
0.0
 10
1076.28340423756
 20
757.716271875569
 30
0.0
 10
1076.207252919411
 20
757.6749741167029
 30
0.0
 10
1076.103952523722
 20
757.591295438401
 30
0.0
 10
1076.077645706629
 20
757.5493013109898
 30
0.0
 10
1076.077645706629
 20
757.5072420004445
 30
0.0
  0
SPLINE
  5
558
330
1F
100
AcDbEntity
  8
0
  6
SLD-実線
 62
     7
100
AcDbSpline
210
0.0
220
0.0
230
1.0
 70
     8
 71
     3
 72
    20
 73
    16
 74
     0
 42
0.000000001
 43
0.00000001
 40
0.0
 40
0.0
 40
0.0
 40
0.0
 40
0.2500000000000043
 40
0.2500000000000043
 40
0.3750000000000036
 40
0.3750000000000036
 40
0.5000000000000029
 40
0.5000000000000029
 40
0.6250000000000021
 40
0.6250000000000021
 40
0.7500000000000014
 40
0.7500000000000014
 40
0.8750000000000007
 40
0.8750000000000007
 40
1.0
 40
1.0
 40
1.0
 40
1.0
 10
1080.077645706629
 20
214.5072420004445
 30
0.0
 10
1079.549112829204
 20
214.5913606204732
 30
0.0
 10
1079.038063624246
 20
214.6726642131999
 30
0.0
 10
1078.306440674575
 20
214.7986517148395
 30
0.0
 10
1078.076240723813
 20
214.8399986544079
 30
0.0
 10
1077.642422251783
 20
214.9229674566502
 30
0.0
 10
1077.436828226332
 20
214.9650468941385
 30
0.0
 10
1077.065922104966
 20
215.0484666719661
 30
0.0
 10
1076.900450083919
 20
215.0897391680233
 30
0.0
 10
1076.609338492994
 20
215.172955193747
 30
0.0
 10
1076.483565161456
 20
215.2151442470419
 30
0.0
 10
1076.28340423756
 20
215.2982121253199
 30
0.0
 10
1076.207252919411
 20
215.3395098841862
 30
0.0
 10
1076.103952523722
 20
215.423188562488
 30
0.0
 10
1076.077645706629
 20
215.4651826898992
 30
0.0
 10
1076.077645706629
 20
215.5072420004445
 30
0.0
  0
LINE
  5
559
330
1F
100
AcDbEntity
  8
0
  6
SLD-実線
 62
     7
100
AcDbLine
 10
1076.0776457066
 20
215.5072420004
 30
0.0
 11
1076.0776457066
 21
757.5072420004
 31
0.0
  0
LINE
  5
55A
330
1F
100
AcDbEntity
  8
0
  6
SLD-実線
 62
     7
100
AcDbLine
 10
1080.0776457066
 20
211.5072420004
 30
0.0
 11
1080.0776457066
 21
214.5072420004
 31
0.0
  0
SPLINE
  5
55B
330
1F
100
AcDbEntity
  8
0
  6
SLD-実線
 62
     7
100
AcDbSpline
210
0.0
220
0.0
230
1.0
 70
     8
 71
     3
 72
    20
 73
    16
 74
     0
 42
0.000000001
 43
0.00000001
 40
0.0
 40
0.0
 40
0.0
 40
0.0
 40
0.2499999999999792
 40
0.2499999999999792
 40
0.3749999999999826
 40
0.3749999999999826
 40
0.4999999999999861
 40
0.4999999999999861
 40
0.6249999999999896
 40
0.6249999999999896
 40
0.749999999999993
 40
0.749999999999993
 40
0.8749999999999966
 40
0.8749999999999966
 40
1.0
 40
1.0
 40
1.0
 40
1.0
 10
1076.077645706629
 20
215.5072420004445
 30
0.0
 10
1076.077645706629
 20
214.97870912302
 30
0.0
 10
1076.179213641027
 20
214.4676599180623
 30
0.0
 10
1076.481472934992
 20
213.7360369683911
 30
0.0
 10
1076.604559844044
 20
213.5058370176287
 30
0.0
 10
1076.893680562489
 20
213.072018545599
 30
0.0
 10
1077.061893061419
 20
212.8664245201476
 30
0.0
 10
1077.432234220958
 20
212.4955183987819
 30
0.0
 10
1077.63351379135
 20
212.330046377735
 30
0.0
 10
1078.067870118137
 20
212.0389347868095
 30
0.0
 10
1078.302628029196
 20
211.9131614552721
 30
0.0
 10
1078.784651354442
 20
211.7130005313761
 30
0.0
 10
1079.034010447622
 20
211.6368492132268
 30
0.0
 10
1079.549557296122
 20
211.5335488175382
 30
0.0
 10
1079.813379264581
 20
211.5072420004446
 30
0.0
 10
1080.077645706629
 20
211.5072420004444
 30
0.0
  0
LINE
  5
55C
330
1F
100
AcDbEntity
  8
0
  6
SLD-実線
 62
     7
100
AcDbLine
 10
1080.0776457066
 20
761.5072420004
 30
0.0
 11
1080.0776457066
 21
758.5072420004
 31
0.0
  0
SPLINE
  5
55D
330
1F
100
AcDbEntity
  8
0
  6
SLD-実線
 62
     7
100
AcDbSpline
210
0.0
220
0.0
230
1.0
 70
     8
 71
     3
 72
    20
 73
    16
 74
     0
 42
0.000000001
 43
0.00000001
 40
0.0
 40
0.0
 40
0.0
 40
0.0
 40
0.2499999999999792
 40
0.2499999999999792
 40
0.3749999999999826
 40
0.3749999999999826
 40
0.4999999999999861
 40
0.4999999999999861
 40
0.6249999999999896
 40
0.6249999999999896
 40
0.749999999999993
 40
0.749999999999993
 40
0.8749999999999966
 40
0.8749999999999966
 40
1.0
 40
1.0
 40
1.0
 40
1.0
 10
1076.077645706629
 20
757.5072420004445
 30
0.0
 10
1076.077645706629
 20
758.035774877869
 30
0.0
 10
1076.179213641027
 20
758.5468240828267
 30
0.0
 10
1076.481472934992
 20
759.2784470324978
 30
0.0
 10
1076.604559844044
 20
759.5086469832604
 30
0.0
 10
1076.893680562489
 20
759.94246545529
 30
0.0
 10
1077.061893061419
 20
760.1480594807413
 30
0.0
 10
1077.432234220958
 20
760.5189656021071
 30
0.0
 10
1077.63351379135
 20
760.6844376231539
 30
0.0
 10
1078.067870118137
 20
760.9755492140795
 30
0.0
 10
1078.302628029196
 20
761.1013225456169
 30
0.0
 10
1078.784651354442
 20
761.3014834695128
 30
0.0
 10
1079.034010447622
 20
761.3776347876621
 30
0.0
 10
1079.549557296122
 20
761.4809351833507
 30
0.0
 10
1079.813379264581
 20
761.5072420004444
 30
0.0
 10
1080.077645706629
 20
761.5072420004445
 30
0.0
  0
LINE
  5
55E
330
1F
100
AcDbEntity
  8
0
  6
SLD-実線
 62
     7
100
AcDbLine
 10
1091.0776457066
 20
761.5072420004
 30
0.0
 11
1091.0776457066
 21
758.5072420004
 31
0.0
  0
LINE
  5
55F
330
1F
100
AcDbEntity
  8
0
  6
SLD-実線
 62
     7
100
AcDbLine
 10
1080.0776457066
 20
761.5072420004
 30
0.0
 11
1091.0776457066
 21
761.5072420004
 31
0.0
  0
LINE
  5
560
330
1F
100
AcDbEntity
  8
0
  6
SLD-実線
 62
     7
100
AcDbLine
 10
1091.0776457066
 20
211.5072420004
 30
0.0
 11
1091.0776457066
 21
214.5072420004
 31
0.0
  0
LINE
  5
561
330
1F
100
AcDbEntity
  8
0
  6
SLD-実線
 62
     7
100
AcDbLine
 10
1080.0776457066
 20
211.5072420004
 30
0.0
 11
1091.0776457066
 21
211.5072420004
 31
0.0
  0
LWPOLYLINE
  5
562
330
1F
100
AcDbEntity
  8
0
  6
SLD-実線
 62
     8
100
AcDbPolyline
 90
        4
 70
   128
 43
0.0
 10
1126.1750908141
 20
728.9392366285
 10
1122.0848635384
 20
729.1150955554
 10
1098.1137181853
 20
730.1448966471
 10
1091.0776457066
 20
730.4469019817
  0
LINE
  5
563
330
1F
100
AcDbEntity
  8
0
  6
SLD-実線
 62
     8
100
AcDbLine
 10
1126.1750908141
 20
686.4144344447
 30
0.0
 11
1126.1750908141
 21
728.9392366285
 31
0.0
  0
LINE
  5
564
330
1F
100
AcDbEntity
  8
0
  6
SLD-実線
 62
     8
100
AcDbLine
 10
1091.0776457066
 20
733.2116514306
 30
0.0
 11
1126.1264116915
 21
731.7156165501
 31
0.0
  0
LINE
  5
565
330
1F
100
AcDbEntity
  8
0
  6
SLD-実線
 62
     8
100
AcDbLine
 10
1126.1264116915
 20
733.1024246773
 30
0.0
 11
1091.0776457066
 21
734.812120579
 31
0.0
  0
LWPOLYLINE
  5
566
330
1F
100
AcDbEntity
  8
0
  6
SLD-実線
 62
     8
100
AcDbPolyline
 90
        4
 70
   128
 43
0.0
 10
1126.1750908141
 20
284.9392366285
 10
1122.0848635384
 20
285.1150955554
 10
1098.1137181853
 20
286.1448966471
 10
1091.0776457066
 20
286.4469019817
  0
LINE
  5
567
330
1F
100
AcDbEntity
  8
0
  6
SLD-実線
 62
     8
100
AcDbLine
 10
1126.1750908141
 20
242.4144344447
 30
0.0
 11
1126.1750908141
 21
284.9392366285
 31
0.0
  0
LINE
  5
568
330
1F
100
AcDbEntity
  8
0
  6
SLD-実線
 62
     8
100
AcDbLine
 10
1091.0776457066
 20
289.2116514306
 30
0.0
 11
1126.1264116915
 21
287.7156165501
 31
0.0
  0
LINE
  5
569
330
1F
100
AcDbEntity
  8
0
  6
SLD-実線
 62
     8
100
AcDbLine
 10
1126.1264116915
 20
289.1024246773
 30
0.0
 11
1091.0776457066
 21
290.812120579
 31
0.0
  0
DIMENSION
  5
56A
330
1F
100
AcDbEntity
  8
0
  6
SLD-実線
 62
     7
100
AcDbDimension
  2
_D_2
 10
1338.0776457066
 20
141.5072420004
 30
0.0
 11
1207.0776457066
 21
141.5072420004
 31
0.0
 70
   160
  1
<>
  3
SLDDIMSTYLE0
100
AcDbAlignedDimension
 13
1076.0776457066
 23
215.5072420004
 33
0.0
 14
1338.0776457066
 24
245.5072420004
 34
0.0
 50
0.0
100
AcDbRotatedDimension
  0
INSERT
  5
57C
330
1F
100
AcDbEntity
  8
0
  6
CONTINUOUS
 62
     7
100
AcDbBlockReference
  2
SW_NOTE_3
 10
1310.7461344571
 20
257.5219242452
 30
0.0
  0
LEADER
  5
57E
330
1F
100
AcDbEntity
  8
0
  6
CONTINUOUS
 62
     7
100
AcDbLeader
  3
SLDDIMSTYLE1
 76
     2
 10
1266.4562697688
 20
234.9538239878
 30
0.0
 10
1310.7461344571
 20
257.5219242452
 30
0.0
1001
ACAD
1000
DSTYLE
1002
{
1070
     6
1000

1002
}
  0
ENDSEC
  0
SECTION
  2
OBJECTS
  0
DICTIONARY
  5
C
330
0
100
AcDbDictionary
  3
ACAD_GROUP
350
D
  3
ACAD_MLINESTYLE
350
17
  3
ACAD_SCALELIST
350
47
  0
DICTIONARY
  5
D
102
{ACAD_REACTORS
330
C
102
}
330
C
100
AcDbDictionary
  0
DICTIONARY
  5
17
102
{ACAD_REACTORS
330
C
102
}
330
C
100
AcDbDictionary
  3
STANDARD
350
18
  0
DICTIONARY
  5
47
102
{ACAD_REACTORS
330
C
102
}
330
C
100
AcDbDictionary
  0
MLINESTYLE
  5
18
102
{ACAD_REACTORS
330
17
102
}
330
17
100
AcDbMlineStyle
  2
Standard
 70
     0
  3

 62
   256
 51
90.0
 52
90.0
 71
     2
 49
0.5
 62
   256
  6
BYLAYER
 49
-0.5
 62
   256
  6
BYLAYER
  0
ENDSEC
  0
EOF
