  0
SECTION
  2
HEADER
  9
$ACADVER
  1
AC1014
  9
$ACADMAINTVER
 70
           0
  9
$DWGCODEPAGE
  3
DOS932
  9
$INSBASE
 10
0.0
 20
0.0
 30
0.0
  9
$EXTMIN
 10
1.000000000000E+20
 20
1.000000000000E+20
 30
1.000000000000E+20
  9
$EXTMAX
 10
-1.000000000000E+20
 20
-1.000000000000E+20
 30
-1.000000000000E+20
  9
$LIMMIN
 10
0.0
 20
0.0
  9
$LIMMAX
 10
0.0
 20
0.0
  9
$ORTHOMODE
 70
           0
  9
$REGENMODE
 70
           1
  9
$FILLMODE
 70
           1
  9
$QTEXTMODE
 70
           0
  9
$MIRRTEXT
 70
           1
  9
$DRAGMODE
 70
           2
  9
$LTSCALE
 40
1.0
  9
$OSMODE
 70
           0
  9
$ATTMODE
 70
           1
  9
$TEXTSIZE
 40
0.2
  9
$TRACEWID
 40
0.05
  9
$TEXTSTYLE
  7
STANDARD
  9
$CLAYER
  8
0
  9
$CELTYPE
  6
CONTINUOUS
  9
$CECOLOR
 62
         256
  9
$CELTSCALE
 40
1.0
  9
$DELOBJ
 70
           1
  9
$DISPSILH
 70
           0
  9
$DIMSCALE
 40
1.0
  9
$DIMASZ
 40
0.18
  9
$DIMEXO
 40
0.0625
  9
$DIMDLI
 40
0.38
  9
$DIMRND
 40
0.0
  9
$DIMDLE
 40
0.0
  9
$DIMEXE
 40
0.18
  9
$DIMTP
 40
0.0
  9
$DIMTM
 40
0.0
  9
$DIMTXT
 40
0.18
  9
$DIMCEN
 40
0.09
  9
$DIMTSZ
 40
0.0
  9
$DIMTOL
 70
           0
  9
$DIMLIM
 70
           0
  9
$DIMTIH
 70
           1
  9
$DIMTOH
 70
           1
  9
$DIMSE1
 70
           0
  9
$DIMSE2
 70
           0
  9
$DIMTAD
 70
           0
  9
$DIMZIN
 70
           0
  9
$DIMBLK
  1

  9
$DIMASO
 70
           1
  9
$DIMSHO
 70
           1
  9
$DIMPOST
  1

  9
$DIMAPOST
  1

  9
$DIMALT
 70
           0
  9
$DIMALTD
 70
           2
  9
$DIMALTF
 40
25.4
  9
$DIMLFAC
 40
1.0
  9
$DIMTOFL
 70
           0
  9
$DIMTVP
 40
0.0
  9
$DIMTIX
 70
           0
  9
$DIMSOXD
 70
           0
  9
$DIMSAH
 70
           0
  9
$DIMBLK1
  1

  9
$DIMBLK2
  1

  9
$DIMSTYLE
  2
STANDARD
  9
$DIMCLRD
 70
           0
  9
$DIMCLRE
 70
           0
  9
$DIMCLRT
 70
           0
  9
$DIMTFAC
 40
1.0
  9
$DIMGAP
 40
0.09
  9
$DIMJUST
 70
           0
  9
$DIMSD1
 70
           0
  9
$DIMSD2
 70
           0
  9
$DIMTOLJ
 70
           1
  9
$DIMTZIN
 70
           0
  9
$DIMALTZ
 70
           0
  9
$DIMALTTZ
 70
           0
  9
$DIMFIT
 70
           3
  9
$DIMUPT
 70
           0
  9
$DIMUNIT
 70
           2
  9
$DIMDEC
 70
           4
  9
$DIMTDEC
 70
           4
  9
$DIMALTU
 70
           2
  9
$DIMALTTD
 70
           2
  9
$DIMTXSTY
  7
STANDARD
  9
$DIMAUNIT
 70
           0
  9
$LUNITS
 70
           2
  9
$LUPREC
 70
           4
  9
$SKETCHINC
 40
0.1
  9
$FILLETRAD
 40
0.0
  9
$AUNITS
 70
           0
  9
$AUPREC
 70
           0
  9
$MENU
  1
acad
  9
$ELEVATION
 40
0.0
  9
$PELEVATION
 40
0.0
  9
$THICKNESS
 40
0.0
  9
$LIMCHECK
 70
           0
  9
$BLIPMODE
 70
           1
  9
$CHAMFERA
 40
0.0
  9
$CHAMFERB
 40
0.0
  9
$CHAMFERC
 40
0.0
  9
$CHAMFERD
 40
0.0
  9
$SKPOLY
 70
           0
  9
$TDCREATE
 40
0.000000000
  9
$TDUPDATE
 40
0.000000000
  9
$TDINDWG
 40
0.0000000000
  9
$TDUSRTIMER
 40
0.0000000000
  9
$USRTIMER
 70
           1
  9
$ANGBASE
 50
0.0
  9
$ANGDIR
 70
           0
  9
$PDMODE
 70
           0
  9
$PDSIZE
 40
0.0
  9
$PLINEWID
 40
0.0
  9
$COORDS
 70
           0
  9
$SPLFRAME
 70
           0
  9
$SPLINETYPE
 70
           6
  9
$SPLINESEGS
 70
           8
  9
$ATTDIA
 70
           0
  9
$ATTREQ
 70
           1
  9
$HANDLING
 70
           1
  9
$HANDSEED
  5
481
  9
$SURFTAB1
 70
           6
  9
$SURFTAB2
 70
           6
  9
$SURFTYPE
 70
           6
  9
$SURFU
 70
           6
  9
$SURFV
 70
           6
  9
$UCSNAME
  2

  9
$UCSORG
 10
0.0
 20
0.0
 30
0.0
  9
$UCSXDIR
 10
1.0
 20
0.0
 30
0.0
  9
$UCSYDIR
 10
0.0
 20
1.0
 30
0.0
  9
$PUCSNAME
  2

  9
$PUCSORG
 10
0.0
 20
0.0
 30
0.0
  9
$PUCSXDIR
 10
1.0
 20
0.0
 30
0.0
  9
$PUCSYDIR
 10
0.0
 20
1.0
 30
0.0
  9
$USERI1
 70
           0
  9
$USERI2
 70
           0
  9
$USERI3
 70
           0
  9
$USERI4
 70
           0
  9
$USERI5
 70
           0
  9
$USERR1
 40
0.0
  9
$USERR2
 40
0.0
  9
$USERR3
 40
0.0
  9
$USERR4
 40
0.0
  9
$USERR5
 40
0.0
  9
$WORLDVIEW
 70
           1
  9
$SHADEDGE
 70
           3
  9
$SHADEDIF
 70
          70
  9
$TILEMODE
 70
           1
  9
$MAXACTVP
 70
          16
  9
$PINSBASE
 10
0.0
 20
0.0
 30
0.0
  9
$PLIMCHECK
 70
           0
  9
$PEXTMIN
 10
1.000000000000E+20
 20
1.000000000000E+20
 30
1.000000000000E+20
  9
$PEXTMAX
 10
-1.000000000000E+20
 20
-1.000000000000E+20
 30
-1.000000000000E+20
  9
$PLIMMIN
 10
0.0
 20
0.0
  9
$PLIMMAX
 10
12.0
 20
9.0
  9
$UNITMODE
 70
           0
  9
$VISRETAIN
 70
           0
  9
$PLINEGEN
 70
           1
  9
$PSLTSCALE
 70
           0
  9
$TREEDEPTH
 70
        3020
  9
$PICKSTYLE
 70
           1
  9
$CMLSTYLE
  2
STANDARD
  9
$CMLJUST
 70
           0
  9
$CMLSCALE
 40
1.0
  9
$PROXYGRAPHICS
 70
           0
  9
$MEASUREMENT
 70
           0
  0
ENDSEC
  0
SECTION
  2
CLASSES
  0
CLASS
  1
LWPOLYLINE
  2
AcDbPolyline
  3
"AutoCAD"
 90
        0
280
           0
281
           1
  0
CLASS
  1
IMAGE
  2
AcDbRasterImage
  3
ISM
 90
      127
280
           0
281
           1
  0
CLASS
  1
OLE2FRAME
  2
AcDbOle2Frame
  3
""
 90
        0
280
           0
281
           1
  0
CLASS
  1
HATCH
  2
AcDbHatch
  3
"ACAD_SEDONA"
 90
        0
280
           0
281
           1
  0
CLASS
  1
DICTIONARYVAR
  2
AcDbDictionaryVar
  3
"AutoCAD"
 90
        0
280
           0
281
           0
  0
CLASS
  1
RASTERVARIABLES
  2
AcDbRasterVariables
  3
ISM
 90
        0
280
           0
281
           0
  0
CLASS
  1
IMAGEDEF
  2
AcDbRasterImageDef
  3
ISM
 90
        0
280
           0
281
           0
  0
CLASS
  1
IMAGEDEF_REACTOR
  2
AcDbRasterImageDefReactor
  3
ISM
 90
        1
280
           0
281
           0
  0
CLASS
  1
IDBUFFER
  2
AcDbIdBuffer
  3
"Acad"
 90
        0
280
           0
281
           0
  0
CLASS
  1
SPATIAL_FILTER
  2
AcDbSpatialFilter
  3
"Acad"
 90
        0
280
           0
281
           0
  0
CLASS
  1
XRECORD
  2
AcDbXrecord
  3
"<Built In>"
 90
        0
280
           0
281
           0
  0
CLASS
  1
SORTENTSTABLE
  2
AcDbSortentsTable
  3
"AutoCAD"
 90
        0
280
           0
281
           0
  0
CLASS
  1
LAYER_INDEX
  2
AcDbLayerIndex
  3
"Acad"
 90
        0
280
           0
281
           0
  0
CLASS
  1
SPATIAL_INDEX
  2
AcDbSpatialIndex
  3
"Acad"
 90
        0
280
           0
281
           0
  0
CLASS
  1
OBJECT_PTR
  2
CAseDLPNTableRecord
  3
"ASE-LPNTableRecord"
 90
        1
280
           0
281
           0
  0
CLASS
  1
LAYOUT
  2
AcDbLayout
  3
"AutoCAD 2000"
 90
        1
280
           0
281
           0
  0
CLASS
  1
PLOTSETTINGS
  2
AcDbPlotSettings
  3
"AutoCAD 2000"
 90
        1
280
           0
281
           0
  0
CLASS
  1
ACDBDICTIONARYWDFLT
  2
AcDbDictionaryWithDefault
  3
"AutoCAD 2000"
 90
        1
280
           0
281
           0
  0
CLASS
  1
ACDBPLACEHOLDER
  2
AcDbPlaceHolder
  3
"AutoCAD 2000"
 90
        1
280
           0
281
           0
  0
CLASS
  1
VBA_PROJECT
  2
AcDbVbaProject
  3
"acadvba"
 90
        1
280
           0
281
           0
  0
CLASS
  1
WIPEOUT
  2
AcDbWipeout
  3
WipeOut|AutoCAD Express Tool|expresstools@autodesk.com
 90
      127
280
           0
281
           1
  0
CLASS
  1
WIPEOUTVARIABLES
  2
AcDbWipeoutVariables
  3
WipeOut|AutoCAD Express Tool|expresstools@autodesk.com
 90
        0
280
           0
281
           0
  0
CLASS
  1
RTEXT
  2
RText
  3
RText|AutoCAD Express Tool|expresstools@autodesk.com
 90
        0
280
           0
281
           1
  0
CLASS
  1
ARCALIGNEDTEXT
  2
AcDbArcAlignedText
  3
ATEXT|AutoCAD Express Tool|expresstools@autodesk.com
 90
        0
280
           0
281
           1
  0
ENDSEC
  0
SECTION
  2
TABLES
  0
TABLE
  2
VPORT
  5
7
100
AcDbSymbolTable
 70
           1
  0
VPORT
  5
15
100
AcDbSymbolTableRecord
100
AcDbViewportTableRecord
  2
*ACTIVE
 70
           0
 10
0.0
 20
0.0
 11
1.0
 21
1.0
 12
6.591288
 22
4.579184
 13
0.0
 23
0.0
 14
1.0
 24
1.0
 15
0.0
 25
0.0
 16
0.0
 26
0.0
 36
1.0
 17
0.0
 27
0.0
 37
0.0
 40
9.158369
 41
0.688564
 42
50.0
 43
0.0
 44
0.0
 50
0.0
 51
0.0
 71
           0
 72
         100
 73
           1
 74
           1
 75
           0
 76
           0
 77
           0
 78
           0
  0
ENDTAB
  0
TABLE
  2
LTYPE
  5
4
100
AcDbSymbolTable
 70
          10
  0
LTYPE
  5
11
100
AcDbSymbolTableRecord
100
AcDbLinetypeTableRecord
  2
BYBLOCK
 70
          64
  3

 72
          65
 73
           0
 40
0.0
  0
LTYPE
  5
12
100
AcDbSymbolTableRecord
100
AcDbLinetypeTableRecord
  2
BYLAYER
 70
          64
  3

 72
          65
 73
           0
 40
0.0
  0
LTYPE
  5
13
100
AcDbSymbolTableRecord
100
AcDbLinetypeTableRecord
  2
CONTINUOUS
 70
          64
  3
Solid line
 72
          65
 73
           0
 40
0.0
  0
LTYPE
  5
1D
100
AcDbSymbolTableRecord
100
AcDbLinetypeTableRecord
  2
DASHED
 70
          64
  3
Dashed
 72
          65
 73
           2
 40
15.0
 49
12.0
 74
           0
 49
-3.0
 74
           0
  0
LTYPE
  5
1E
100
AcDbSymbolTableRecord
100
AcDbLinetypeTableRecord
  2
DOTTED
 70
          64
  3
Dotted
 72
          65
 73
           2
 40
3.5
 49
0.5
 74
           0
 49
-3.0
 74
           0
  0
LTYPE
  5
1F
100
AcDbSymbolTableRecord
100
AcDbLinetypeTableRecord
  2
DOT_CENTER
 70
          64
  3
Dot_Center
 72
          65
 73
           4
 40
2.0
 49
1.25
 74
           0
 49
-0.25
 74
           0
 49
0.25
 74
           0
 49
-0.25
 74
           0
  0
LTYPE
  5
20
100
AcDbSymbolTableRecord
100
AcDbLinetypeTableRecord
  2
LONG_DASHED
 70
          64
  3
Long_Dashed
 72
          65
 73
           2
 40
2.0
 49
1.5
 74
           0
 49
-0.5
 74
           0
  0
LTYPE
  5
21
100
AcDbSymbolTableRecord
100
AcDbLinetypeTableRecord
  2
DASH_CENTER
 70
          64
  3
Dash_Center
 72
          65
 73
           4
 40
36.0
 49
24.0
 74
           0
 49
-3.0
 74
           0
 49
6.0
 74
           0
 49
-3.0
 74
           0
  0
LTYPE
  5
22
100
AcDbSymbolTableRecord
100
AcDbLinetypeTableRecord
  2
PHANTOM
 70
          64
  3
Phantom
 72
          65
 73
           6
 40
2.5
 49
1.25
 74
           0
 49
-0.25
 74
           0
 49
0.25
 74
           0
 49
-0.25
 74
           0
 49
0.25
 74
           0
 49
-0.25
 74
           0
  0
LTYPE
  5
23
100
AcDbSymbolTableRecord
100
AcDbLinetypeTableRecord
  2
CENTER_DASH_DASH
 70
          64
  3
Center_Dash_Dash
 72
          65
 73
           6
 40
22.0
 49
12.0
 74
           0
 49
-3.0
 74
           0
 49
0.5
 74
           0
 49
-3.0
 74
           0
 49
0.5
 74
           0
 49
-3.0
 74
           0
  0
ENDTAB
  0
TABLE
  2
LAYER
  5
2
100
AcDbSymbolTable
 70
           2
  0
LAYER
  5
14
100
AcDbSymbolTableRecord
100
AcDbLayerTableRecord
  2
0
 70
           0
 62
           7
  6
CONTINUOUS
  0
LAYER
  5
24
100
AcDbSymbolTableRecord
100
AcDbLayerTableRecord
  2
1
 70
           0
 62
           7
  6
CONTINUOUS
  0
ENDTAB
  0
TABLE
  2
STYLE
  5
3
100
AcDbSymbolTable
 70
           2
  0
STYLE
  5
17
100
AcDbSymbolTableRecord
100
AcDbTextStyleTableRecord
  2
STANDARD
 70
           0
 40
0.0
 41
1.0
 50
0.0
 71
           0
 42
0.0
  3
txt
  4

  0
STYLE
  5
465
100
AcDbSymbolTableRecord
100
AcDbTextStyleTableRecord
  2
CONVERTER_1
 70
           0
 40
0.0
 41
0.9
 50
0.0
 71
           0
 42
0.0
  3
txt.shx
  4

  0
ENDTAB
  0
TABLE
  2
VIEW
  5
5
100
AcDbSymbolTable
 70
           0
  0
ENDTAB
  0
TABLE
  2
UCS
  5
6
100
AcDbSymbolTable
 70
           0
  0
ENDTAB
  0
TABLE
  2
APPID
  5
8
100
AcDbSymbolTable
 70
           1
  0
APPID
  5
16
100
AcDbSymbolTableRecord
100
AcDbRegAppTableRecord
  2
ACAD
 70
           0
  0
ENDTAB
  0
TABLE
  2
DIMSTYLE
  5
9
100
AcDbSymbolTable
 70
           4
  0
DIMSTYLE
105
18
100
AcDbSymbolTableRecord
100
AcDbDimStyleTableRecord
  2
STANDARD
 70
           0
  3

  4

  5

  6

  7

 40
1.0
 41
0.18
 42
0.0625
 43
0.38
 44
0.18
 45
0.0
 46
0.0
 47
0.0
 48
0.0
 71
           0
 72
           0
 73
           1
 74
           1
 75
           0
 76
           0
 77
           0
 78
           0
140
0.18
141
0.09
142
0.0
143
25.4
144
1.0
145
0.0
146
1.0
147
0.09
170
           0
171
           2
172
           0
173
           0
174
           0
175
           0
176
           0
177
           0
178
           0
270
           2
271
           4
272
           4
273
           2
274
           2
275
           0
280
           0
281
           0
282
           0
283
           1
284
           0
285
           0
286
           0
287
           0
288
           0
340
17
  0
DIMSTYLE
105
468
100
AcDbSymbolTableRecord
100
AcDbDimStyleTableRecord
  2
ME10_DIM_0
 70
           0
  3
(<>)
  4

  5

  6

  7

 40
1.0
 41
2.8
 42
0.8
 43
0.38
 44
1.0
 45
0.0
 46
0.0
 47
0.0
 48
0.0
 71
           0
 72
           0
 73
           0
 74
           0
 75
           0
 76
           0
 77
           1
 78
           8
140
2.8
141
0.09
142
0.0
143
25.4
144
1.0
145
0.0
146
1.0
147
0.09
170
           0
171
           2
172
           0
173
           1
174
           0
175
           0
176
           2
177
           2
178
           2
270
           2
271
           3
272
           4
273
           2
274
           2
275
           0
280
           0
281
           0
282
           0
283
           1
284
           0
285
           0
286
           0
287
           3
288
           0
340
17
  0
DIMSTYLE
105
473
100
AcDbSymbolTableRecord
100
AcDbDimStyleTableRecord
  2
ME10_DIM_1
 70
           0
  3
(<>)
  4

  5

  6

  7

 40
1.0
 41
2.8
 42
0.8
 43
0.38
 44
1.0
 45
0.0
 46
0.0
 47
0.0
 48
0.0
 71
           0
 72
           0
 73
           0
 74
           0
 75
           0
 76
           0
 77
           1
 78
           8
140
2.8
141
0.09
142
0.0
143
25.4
144
1.0
145
0.0
146
1.0
147
0.09
170
           0
171
           2
172
           0
173
           1
174
           0
175
           0
176
           2
177
           2
178
           2
270
           2
271
           3
272
           4
273
           2
274
           2
275
           0
280
           0
281
           0
282
           0
283
           1
284
           0
285
           0
286
           0
287
           3
288
           0
340
17
  0
DIMSTYLE
105
47E
100
AcDbSymbolTableRecord
100
AcDbDimStyleTableRecord
  2
ME10_DIM_2
 70
           0
  3
(<>)
  4

  5

  6

  7

 40
1.0
 41
2.8
 42
0.8
 43
0.38
 44
1.0
 45
0.0
 46
0.0
 47
0.0
 48
0.0
 71
           0
 72
           0
 73
           0
 74
           0
 75
           0
 76
           0
 77
           1
 78
           8
140
2.8
141
0.09
142
0.0
143
25.4
144
1.0
145
0.0
146
1.0
147
0.09
170
           0
171
           2
172
           0
173
           1
174
           0
175
           0
176
           2
177
           2
178
           2
270
           2
271
           3
272
           4
273
           2
274
           2
275
           0
280
           0
281
           0
282
           0
283
           1
284
           0
285
           0
286
           0
287
           3
288
           0
340
17
  0
ENDTAB
  0
TABLE
  2
BLOCK_RECORD
  5
1
100
AcDbSymbolTable
 70
           3
  0
BLOCK_RECORD
  5
A
100
AcDbSymbolTableRecord
100
AcDbBlockTableRecord
  2
*MODEL_SPACE
  0
BLOCK_RECORD
  5
B
100
AcDbSymbolTableRecord
100
AcDbBlockTableRecord
  2
*PAPER_SPACE
  0
BLOCK_RECORD
  5
45E
100
AcDbSymbolTableRecord
100
AcDbBlockTableRecord
  2
*D0
  0
BLOCK_RECORD
  5
46A
100
AcDbSymbolTableRecord
100
AcDbBlockTableRecord
  2
*D1
  0
BLOCK_RECORD
  5
475
100
AcDbSymbolTableRecord
100
AcDbBlockTableRecord
  2
*D2
  0
ENDTAB
  0
ENDSEC
  0
SECTION
  2
BLOCKS
  0
BLOCK
  5
D
100
AcDbEntity
  8
0
100
AcDbBlockBegin
  2
*MODEL_SPACE
 70
           0
 10
0.0
 20
0.0
 30
0.0
  3
*MODEL_SPACE
  1

  0
ENDBLK
  5
E
100
AcDbEntity
  8
0
100
AcDbBlockEnd
  0
BLOCK
  5
F
100
AcDbEntity
 67
           1
  8
0
100
AcDbBlockBegin
  2
*PAPER_SPACE
 70
           0
 10
0.0
 20
0.0
 30
0.0
  3
*PAPER_SPACE
  1

  0
ENDBLK
  5
10
100
AcDbEntity
 67
           1
  8
0
100
AcDbBlockEnd
  0
BLOCK
  5
45F
100
AcDbEntity
  8
0
100
AcDbBlockBegin
  2
*D0
 70
           1
 10
0.0
 20
0.0
 30
0.0
  3
*D0
  1

  0
LINE
  5
460
100
AcDbEntity
  8
0
  6
CONTINUOUS
 62
           2
100
AcDbLine
 10
-70.83075619745
 20
-76.126351035425
 11
-33.33075619745
 21
-76.126351035425
  0
LINE
  5
461
100
AcDbEntity
  8
0
  6
CONTINUOUS
 62
           2
100
AcDbLine
 10
-70.83075619745
 20
-0.8
 11
-70.83075619745
 21
-77.126351035425
  0
LINE
  5
462
100
AcDbEntity
  8
0
  6
CONTINUOUS
 62
           2
100
AcDbLine
 10
-33.33075619745
 20
-0.8
 11
-33.33075619745
 21
-77.126351035425
  0
SOLID
  5
463
100
AcDbEntity
  8
0
 62
           2
100
AcDbTrace
 10
-68.03075619745
 20
-75.75772404218
 11
-68.03075619745
 21
-76.49497802867
 12
-70.83075619745
 22
-76.126351035425
 13
-70.83075619745
 23
-76.126351035425
  0
SOLID
  5
464
100
AcDbEntity
  8
0
 62
           2
100
AcDbTrace
 10
-36.13075619745
 20
-76.49497802867
 11
-36.13075619745
 21
-75.75772404218
 12
-33.33075619745
 22
-76.126351035425
 13
-33.33075619745
 23
-76.126351035425
  0
MTEXT
  5
466
100
AcDbEntity
  8
0
 62
           2
100
AcDbMText
 10
-56.47675619745
 20
-75.126351035425
 30
0.0
 40
2.8
 41
0.0
 71
           7
 72
           1
  1
\C2;(\C2;38\C2;)
  7
CONVERTER_1
  0
ENDBLK
  5
467
100
AcDbEntity
  8
0
100
AcDbBlockEnd
  0
BLOCK
  5
46B
100
AcDbEntity
  8
0
100
AcDbBlockBegin
  2
*D1
 70
           1
 10
0.0
 20
0.0
 30
0.0
  3
*D1
  1

  0
LINE
  5
46C
100
AcDbEntity
  8
0
  6
CONTINUOUS
 62
           2
100
AcDbLine
 10
171.577302252772
 20
-124.047964159054
 11
171.577302252772
 21
50.506830003256
  0
LINE
  5
46D
100
AcDbEntity
  8
0
  6
CONTINUOUS
 62
           2
100
AcDbLine
 10
139.012083980323
 20
-124.047964159054
 11
172.577302252772
 21
-124.047964159054
  0
LINE
  5
46E
100
AcDbEntity
  8
0
  6
CONTINUOUS
 62
           2
100
AcDbLine
 10
61.971625834063
 20
50.506830003256
 11
172.577302252772
 21
50.506830003256
  0
SOLID
  5
46F
100
AcDbEntity
  8
0
 62
           2
100
AcDbTrace
 10
171.945929246017
 20
47.706830003256
 11
171.208675259527
 21
47.706830003256
 12
171.577302252772
 22
50.506830003256
 13
171.577302252772
 23
50.506830003256
  0
SOLID
  5
470
100
AcDbEntity
  8
0
 62
           2
100
AcDbTrace
 10
171.208675259527
 20
-121.247964159054
 11
171.945929246017
 21
-121.247964159054
 12
171.577302252772
 22
-124.047964159054
 13
171.577302252772
 23
-124.047964159054
  0
MTEXT
  5
471
100
AcDbEntity
  8
0
 62
           2
100
AcDbMText
 10
170.577302252772
 20
-43.693644577061
 30
0.0
 40
2.8
 41
0.0
 71
           7
 72
           1
  1
\C2;(\C2;175\C2;)
  7
CONVERTER_1
 11
0.0
 21
1.0
 31
0.0
  0
ENDBLK
  5
472
100
AcDbEntity
  8
0
100
AcDbBlockEnd
  0
BLOCK
  5
476
100
AcDbEntity
  8
0
100
AcDbBlockBegin
  2
*D2
 70
           1
 10
0.0
 20
0.0
 30
0.0
  3
*D2
  1

  0
LINE
  5
477
100
AcDbEntity
  8
0
  6
CONTINUOUS
 62
           2
100
AcDbLine
 10
-14.561196083722
 20
69.629948431757
 11
159.871625834059
 21
69.629948431757
  0
LINE
  5
478
100
AcDbEntity
  8
0
  6
CONTINUOUS
 62
           2
100
AcDbLine
 10
-14.561196083722
 20
4.3
 11
-14.561196083722
 21
70.629948431757
  0
LINE
  5
479
100
AcDbEntity
  8
0
  6
CONTINUOUS
 62
           2
100
AcDbLine
 10
159.871625834059
 20
7.806830003256
 11
159.871625834059
 21
70.629948431757
  0
SOLID
  5
47A
100
AcDbEntity
  8
0
 62
           2
100
AcDbTrace
 10
-11.761196083722
 20
69.998575425001
 11
-11.761196083722
 21
69.261321438512
 12
-14.561196083722
 22
69.629948431757
 13
-14.561196083722
 23
69.629948431757
  0
SOLID
  5
47B
100
AcDbEntity
  8
0
 62
           2
100
AcDbTrace
 10
157.071625834059
 20
69.261321438512
 11
157.071625834059
 21
69.998575425001
 12
159.871625834059
 22
69.629948431757
 13
159.871625834059
 23
69.629948431757
  0
MTEXT
  5
47C
100
AcDbEntity
  8
0
 62
           2
100
AcDbMText
 10
66.70830514865
 20
70.629948431757
 30
0.0
 40
2.8
 41
0.0
 71
           7
 72
           1
  1
\C2;(\C2;174\C2;)
  7
CONVERTER_1
  0
ENDBLK
  5
47D
100
AcDbEntity
  8
0
100
AcDbBlockEnd
  0
ENDSEC
  0
SECTION
  2
ENTITIES
  0
DIMENSION
  5
47F
100
AcDbEntity
  8
0
100
AcDbDimension
  2
*D2
 10
-14.561196083722
 20
69.629948431757
 11
71.94430514865
 21
72.029948431757
 31
0.0
  1
<>
  3
ME10_DIM_2
100
AcDbAlignedDimension
 13
159.871625834059
 23
7.006830003256
 14
-14.561196083722
 24
3.5
100
AcDbRotatedDimension
  0
DIMENSION
  5
474
100
AcDbEntity
  8
0
100
AcDbDimension
  2
*D1
 10
171.577302252772
 20
50.506830003256
 11
169.177302252772
 21
-38.457644577061
 31
0.0
 53
90.0
  1
<>
  3
ME10_DIM_1
100
AcDbAlignedDimension
 13
138.212083980323
 23
-124.047964159055
 14
61.171625834063
 24
50.506830003256
 50
90.0
100
AcDbRotatedDimension
  0
DIMENSION
  5
469
100
AcDbEntity
  8
0
100
AcDbDimension
  2
*D0
 10
-70.83075619745
 20
-76.126351035425
 11
-52.08075619745
 21
-73.726351035425
 31
0.0
  1
<>
  3
ME10_DIM_0
100
AcDbAlignedDimension
 13
-33.33075619745
 23
0.0
 14
-70.83075619745
 24
0.0
100
AcDbRotatedDimension
  0
ARC
  5
45D
100
AcDbEntity
  8
1
  6
CONTINUOUS
 62
           7
100
AcDbCircle
 10
158.871625834059
 20
7.006830003256
 40
1.0
100
AcDbArc
 50
-0.000000000013
 51
90.0
  0
ARC
  5
45C
100
AcDbEntity
  8
1
  6
CONTINUOUS
 62
           7
100
AcDbCircle
 10
158.871625834059
 20
-6.993169996744
 40
1.0
100
AcDbArc
 50
-90.0
 51
0.0
  0
ARC
  5
45B
100
AcDbEntity
  8
1
  6
CONTINUOUS
 62
           7
100
AcDbCircle
 10
129.660300968659
 20
-6.993169996744
 40
0.5
100
AcDbArc
 50
90.0
 51
149.999999999988
  0
ARC
  5
45A
100
AcDbEntity
  8
1
  6
CONTINUOUS
 62
           7
100
AcDbCircle
 10
129.660300968659
 20
7.006830003256
 40
0.5
100
AcDbArc
 50
-150.000000000004
 51
-89.999999999954
  0
ARC
  5
459
100
AcDbEntity
  8
1
  6
CONTINUOUS
 62
           7
100
AcDbCircle
 10
114.219744534639
 20
26.768177650279
 40
1.0
100
AcDbArc
 50
4.999999999989
 51
95.000000000021
  0
ARC
  5
458
100
AcDbEntity
  8
1
  6
CONTINUOUS
 62
           7
100
AcDbCircle
 10
115.178457704863
 20
15.810035971269
 40
1.0
100
AcDbArc
 50
-85.000000000004
 51
4.999999999999
  0
ARC
  5
457
100
AcDbEntity
  8
1
  6
CONTINUOUS
 62
           7
100
AcDbCircle
 10
107.390337838337
 20
14.526371870238
 40
1.0
100
AcDbArc
 50
-85.000000000004
 51
5.0
  0
ARC
  5
456
100
AcDbEntity
  8
1
  6
CONTINUOUS
 62
           7
100
AcDbCircle
 10
106.327037776816
 20
26.679947186957
 40
1.0
100
AcDbArc
 50
5.000000000026
 51
95.000000000001
  0
ARC
  5
455
100
AcDbEntity
  8
1
  6
CONTINUOUS
 62
           7
100
AcDbCircle
 10
3.438803916277
 20
-17.143169996741
 40
1.0
100
AcDbArc
 50
179.999999999986
 51
-90.0
  0
ARC
  5
454
100
AcDbEntity
  8
1
  6
CONTINUOUS
 62
           7
100
AcDbCircle
 10
13.938803916278
 20
-17.643169996741
 40
0.5
100
AcDbArc
 50
-89.999999999993
 51
0.0
  0
ARC
  5
453
100
AcDbEntity
  8
1
  6
CONTINUOUS
 62
           7
100
AcDbCircle
 10
4.538803916278
 20
-18.443169996741
 40
0.3
100
AcDbArc
 50
179.999999999958
 51
-90.000000000022
  0
ARC
  5
452
100
AcDbEntity
  8
1
  6
CONTINUOUS
 62
           7
100
AcDbCircle
 10
11.138803916277
 20
-18.443169996742
 40
0.299999999999
100
AcDbArc
 50
-89.999999999979
 51
0.000000000044
  0
ARC
  5
451
100
AcDbEntity
  8
1
  6
CONTINUOUS
 62
           7
100
AcDbCircle
 10
3.438803916278
 20
17.15683000326
 40
1.0
100
AcDbArc
 50
90.000000000013
 51
-179.999999999947
  0
ARC
  5
450
100
AcDbEntity
  8
1
  6
CONTINUOUS
 62
           7
100
AcDbCircle
 10
13.938803916278
 20
17.656830003259
 40
0.500000000001
100
AcDbArc
 50
-0.000000000026
 51
90.0
  0
ARC
  5
44F
100
AcDbEntity
  8
1
  6
CONTINUOUS
 62
           7
100
AcDbCircle
 10
4.538803916277
 20
18.456830003259
 40
0.3
100
AcDbArc
 50
89.999999999989
 51
179.999999999958
  0
ARC
  5
44E
100
AcDbEntity
  8
1
  6
CONTINUOUS
 62
           7
100
AcDbCircle
 10
11.138803916278
 20
18.45683000326
 40
0.299999999999
100
AcDbArc
 50
-0.000000000172
 51
90.000000000032
  0
ARC
  5
44D
100
AcDbEntity
  8
1
  6
CONTINUOUS
 62
           7
100
AcDbCircle
 10
111.925750454333
 20
-114.282004726026
 40
1.000000000001
100
AcDbArc
 50
-174.999999999967
 51
-84.999999999958
  0
ARC
  5
44C
100
AcDbEntity
  8
1
  6
CONTINUOUS
 62
           7
100
AcDbCircle
 10
122.883892133342
 20
-113.323291555802
 40
1.000000000001
100
AcDbArc
 50
-85.000000000035
 51
4.999999999921
  0
ARC
  5
44B
100
AcDbEntity
  8
1
  6
CONTINUOUS
 62
           7
100
AcDbCircle
 10
110.591167701048
 20
-105.911882001017
 40
1.000000000001
100
AcDbArc
 50
-174.999999999965
 51
-85.000000000086
  0
ARC
  5
44A
100
AcDbEntity
  8
1
  6
CONTINUOUS
 62
           7
100
AcDbCircle
 10
122.744743017766
 20
-104.848581939495
 40
1.000000000001
100
AcDbArc
 50
-85.000000000008
 51
4.999999999951
  0
ARC
  5
449
100
AcDbEntity
  8
1
  6
CONTINUOUS
 62
           7
100
AcDbCircle
 10
69.964354936522
 20
-7.439128815866
 40
4.999999999999
100
AcDbArc
 50
175.954699157137
 51
-132.20252743022
  0
ARC
  5
448
100
AcDbEntity
  8
1
  6
CONTINUOUS
 62
           7
100
AcDbCircle
 10
66.1139567567
 20
-51.172857694259
 40
6.5
100
AcDbArc
 50
-61.045300842852
 51
1.954699157149
  0
ARC
  5
447
100
AcDbEntity
  8
1
  6
CONTINUOUS
 62
           7
100
AcDbCircle
 10
70.099690097789
 20
-50.686599793375
 40
10.5
100
AcDbArc
 50
-4.045300842851
 51
1.954699157145
  0
ARC
  5
446
100
AcDbEntity
  8
1
  6
CONTINUOUS
 62
           7
100
AcDbCircle
 10
61.549988815995
 20
-20.0578355956
 40
10.0
100
AcDbArc
 50
1.954699157146
 51
47.797472569782
  0
ARC
  5
445
100
AcDbEntity
  8
1
  6
CONTINUOUS
 62
           7
100
AcDbCircle
 10
70.099690097789
 20
-50.686599793375
 40
10.499999999999
100
AcDbArc
 50
-94.04530084285
 51
-4.045300842851
  0
ARC
  5
444
100
AcDbEntity
  8
1
  6
CONTINUOUS
 62
           7
100
AcDbCircle
 10
49.494368603724
 20
-18.632854273288
 40
30.0
100
AcDbArc
 50
1.954699157151
 51
13.605144199439
  0
ARC
  5
443
100
AcDbEntity
  8
1
  6
CONTINUOUS
 62
           7
100
AcDbCircle
 10
107.499074903651
 20
-3.231238752028
 40
30.0
100
AcDbArc
 50
-179.646595487856
 51
-166.394855800563
  0
ARC
  5
442
100
AcDbEntity
  8
1
  6
CONTINUOUS
 62
           7
100
AcDbCircle
 10
71.344911564656
 20
12.08193828106
 40
5.0
100
AcDbArc
 50
85.954699157144
 51
175.954699157147
  0
ARC
  5
441
100
AcDbEntity
  8
1
  6
CONTINUOUS
 62
           7
100
AcDbCircle
 10
72.404417299864
 20
12.007008582903
 40
5.0
100
AcDbArc
 50
0.353404512151
 51
85.954699157149
  0
ARC
  5
440
100
AcDbEntity
  8
1
  6
CONTINUOUS
 62
           7
100
AcDbCircle
 10
28.971625834063
 20
-18.167325796419
 40
0.500000000001
100
AcDbArc
 50
-90.000000000026
 51
0.0
  0
ARC
  5
43F
100
AcDbEntity
  8
1
  6
CONTINUOUS
 62
           7
100
AcDbCircle
 10
40.771625834063
 20
-18.167325796419
 40
0.5
100
AcDbArc
 50
180.0
 51
-90.0
  0
ARC
  5
43E
100
AcDbEntity
  8
1
  6
CONTINUOUS
 62
           2
100
AcDbCircle
 10
102.80029123548
 20
1.707214618634
 40
0.8
100
AcDbArc
 50
90.000000000007
 51
180.0
  0
ARC
  5
43D
100
AcDbEntity
  8
1
  6
CONTINUOUS
 62
           2
100
AcDbCircle
 10
102.80029123548
 20
0.388334353887
 40
0.8
100
AcDbArc
 50
179.999999999983
 51
-123.076833364165
  0
ARC
  5
43C
100
AcDbEntity
  8
1
  6
CONTINUOUS
 62
           2
100
AcDbCircle
 10
103.607970317106
 20
-0.952799605677
 40
0.8
100
AcDbArc
 50
0.000000000016
 51
56.462884004694
  0
ARC
  5
43B
100
AcDbEntity
  8
1
  6
CONTINUOUS
 62
           2
100
AcDbCircle
 10
103.183867308011
 20
1.51947222581
 40
0.14
100
AcDbArc
 50
89.999999999918
 51
-179.999999999906
  0
ARC
  5
43A
100
AcDbEntity
  8
1
  6
CONTINUOUS
 62
           2
100
AcDbCircle
 10
103.209486014967
 20
1.51947222581
 40
0.14
100
AcDbArc
 50
0.0
 51
90.000000000041
  0
ARC
  5
439
100
AcDbEntity
  8
1
  6
CONTINUOUS
 62
           2
100
AcDbCircle
 10
103.183867308011
 20
-2.449738265804
 40
0.14
100
AcDbArc
 50
-179.999999999907
 51
-89.999999999918
  0
ARC
  5
438
100
AcDbEntity
  8
1
  6
CONTINUOUS
 62
           2
100
AcDbCircle
 10
103.209486014967
 20
-2.449738265804
 40
0.140000000001
100
AcDbArc
 50
-90.000000000081
 51
0.0
  0
ARC
  5
437
100
AcDbEntity
  8
1
  6
CONTINUOUS
 62
           2
100
AcDbCircle
 10
103.607970317106
 20
1.707214618634
 40
0.8
100
AcDbArc
 50
0.000000000016
 51
90.000000000007
  0
ARC
  5
436
100
AcDbEntity
  8
1
  6
CONTINUOUS
 62
           2
100
AcDbCircle
 10
103.607970317106
 20
-2.692785381366
 40
0.8
100
AcDbArc
 50
-89.999999999993
 51
0.0
  0
ARC
  5
435
100
AcDbEntity
  8
1
  6
CONTINUOUS
 62
           2
100
AcDbCircle
 10
102.80029123548
 20
-2.692785381366
 40
0.8
100
AcDbArc
 50
179.999999999983
 51
-90.000000000014
  0
ARC
  5
434
100
AcDbEntity
  8
1
  6
CONTINUOUS
 62
           2
100
AcDbCircle
 10
106.549995759761
 20
1.592264524248
 40
0.1
100
AcDbArc
 50
90.000000000114
 51
180.0
  0
ARC
  5
433
100
AcDbEntity
  8
1
  6
CONTINUOUS
 62
           2
100
AcDbCircle
 10
106.703070294226
 20
1.592264524248
 40
0.1
100
AcDbArc
 50
0.0
 51
90.0
  0
ARC
  5
432
100
AcDbEntity
  8
1
  6
CONTINUOUS
 62
           2
100
AcDbCircle
 10
106.549995759761
 20
-2.501232219913
 40
0.1
100
AcDbArc
 50
-179.999999999869
 51
-90.0
  0
ARC
  5
431
100
AcDbEntity
  8
1
  6
CONTINUOUS
 62
           2
100
AcDbCircle
 10
106.703070294226
 20
-2.501232219913
 40
0.1
100
AcDbArc
 50
-90.0
 51
0.0
  0
ARC
  5
430
100
AcDbEntity
  8
1
  6
CONTINUOUS
 62
           2
100
AcDbCircle
 10
106.207970317106
 20
-2.692785381366
 40
0.8
100
AcDbArc
 50
-179.999999999983
 51
-90.000000000007
  0
ARC
  5
42F
100
AcDbEntity
  8
1
  6
CONTINUOUS
 62
           2
100
AcDbCircle
 10
107.030414022453
 20
1.707214618634
 40
0.800000000001
100
AcDbArc
 50
0.000000000016
 51
90.0
  0
ARC
  5
42E
100
AcDbEntity
  8
1
  6
CONTINUOUS
 62
           2
100
AcDbCircle
 10
106.207970317106
 20
1.707214618634
 40
0.8
100
AcDbArc
 50
89.999999999986
 51
180.0
  0
ARC
  5
42D
100
AcDbEntity
  8
1
  6
CONTINUOUS
 62
           2
100
AcDbCircle
 10
112.940429796166
 20
0.404764984674
 40
1.4
100
AcDbArc
 50
-25.613381568903
 51
0.0
  0
ARC
  5
42C
100
AcDbEntity
  8
1
  6
CONTINUOUS
 62
           2
100
AcDbCircle
 10
112.690414022454
 20
1.747214618632
 40
0.760000000002
100
AcDbArc
 50
90.0
 51
180.0
  0
ARC
  5
42B
100
AcDbEntity
  8
1
  6
CONTINUOUS
 62
           2
100
AcDbCircle
 10
113.580429796166
 20
1.747214618632
 40
0.76
100
AcDbArc
 50
0.0
 51
90.0
  0
ARC
  5
42A
100
AcDbEntity
  8
1
  6
CONTINUOUS
 62
           2
100
AcDbCircle
 10
112.71548055907
 20
0.482048754281
 40
0.6
100
AcDbArc
 50
-25.154795982179
 51
0.0
  0
ARC
  5
429
100
AcDbEntity
  8
1
  6
CONTINUOUS
 62
           2
100
AcDbCircle
 10
113.110752887734
 20
1.561215642387
 40
0.140000000001
100
AcDbArc
 50
90.000000000041
 51
179.999999999906
  0
ARC
  5
428
100
AcDbEntity
  8
1
  6
CONTINUOUS
 62
           2
100
AcDbCircle
 10
113.17548055907
 20
1.561215642387
 40
0.14
100
AcDbArc
 50
0.0
 51
89.999999999918
  0
ARC
  5
427
100
AcDbEntity
  8
1
  6
CONTINUOUS
 62
           2
100
AcDbCircle
 10
116.100429796165
 20
-2.732785381366
 40
0.76
100
AcDbArc
 50
-179.999999999982
 51
-90.000000000007
  0
ARC
  5
426
100
AcDbEntity
  8
1
  6
CONTINUOUS
 62
           2
100
AcDbCircle
 10
117.002246833886
 20
-2.732785381366
 40
0.76
100
AcDbArc
 50
-90.000000000007
 51
-0.000000000017
  0
ARC
  5
425
100
AcDbEntity
  8
1
  6
CONTINUOUS
 62
           2
100
AcDbCircle
 10
116.517978968407
 20
-2.525395932311
 40
0.14
100
AcDbArc
 50
180.0
 51
-89.999999999959
  0
ARC
  5
424
100
AcDbEntity
  8
1
  6
CONTINUOUS
 62
           2
100
AcDbCircle
 10
116.580647476038
 20
-2.525395932311
 40
0.140000000001
100
AcDbArc
 50
-90.0
 51
0.0
  0
ARC
  5
423
100
AcDbEntity
  8
1
  6
CONTINUOUS
 62
           2
100
AcDbCircle
 10
116.580647476038
 20
1.557942694778
 40
0.14
100
AcDbArc
 50
0.0
 51
89.999999999918
  0
ARC
  5
422
100
AcDbEntity
  8
1
  6
CONTINUOUS
 62
           2
100
AcDbCircle
 10
116.517978968407
 20
1.557942694779
 40
0.14
100
AcDbArc
 50
90.0
 51
-179.999999999907
  0
ARC
  5
421
100
AcDbEntity
  8
1
  6
CONTINUOUS
 62
           2
100
AcDbCircle
 10
117.002246833886
 20
1.747214618632
 40
0.76
100
AcDbArc
 50
-0.000000000017
 51
90.000000000007
  0
ARC
  5
420
100
AcDbEntity
  8
1
  6
CONTINUOUS
 62
           2
100
AcDbCircle
 10
116.100429796165
 20
1.747214618632
 40
0.760000000002
100
AcDbArc
 50
90.0
 51
-179.999999999982
  0
ARC
  5
41F
100
AcDbEntity
  8
1
  6
CONTINUOUS
 62
           2
100
AcDbCircle
 10
119.522246833887
 20
-2.732785381366
 40
0.76
100
AcDbArc
 50
180.0
 51
-90.000000000007
  0
ARC
  5
41E
100
AcDbEntity
  8
1
  6
CONTINUOUS
 62
           2
100
AcDbCircle
 10
120.424063871607
 20
-2.732785381366
 40
0.76
100
AcDbArc
 50
-89.999999999985
 51
-0.000000000017
  0
ARC
  5
41D
100
AcDbEntity
  8
1
  6
CONTINUOUS
 62
           2
100
AcDbCircle
 10
119.939796006128
 20
-2.525395932311
 40
0.14
100
AcDbArc
 50
180.0
 51
-89.999999999796
  0
ARC
  5
41C
100
AcDbEntity
  8
1
  6
CONTINUOUS
 62
           2
100
AcDbCircle
 10
120.002464513759
 20
-2.525395932311
 40
0.140000000001
100
AcDbArc
 50
-90.0
 51
-0.000000000186
  0
ARC
  5
41B
100
AcDbEntity
  8
1
  6
CONTINUOUS
 62
           2
100
AcDbCircle
 10
120.002464513759
 20
1.557942694779
 40
0.14
100
AcDbArc
 50
-0.000000000093
 51
89.999999999959
  0
ARC
  5
41A
100
AcDbEntity
  8
1
  6
CONTINUOUS
 62
           2
100
AcDbCircle
 10
119.939796006129
 20
1.557942694778
 40
0.14
100
AcDbArc
 50
90.0
 51
180.0
  0
ARC
  5
419
100
AcDbEntity
  8
1
  6
CONTINUOUS
 62
           2
100
AcDbCircle
 10
120.424063871607
 20
1.747214618632
 40
0.760000000001
100
AcDbArc
 50
0.000000000017
 51
90.000000000007
  0
ARC
  5
418
100
AcDbEntity
  8
1
  6
CONTINUOUS
 62
           2
100
AcDbCircle
 10
119.522246833886
 20
1.747214618632
 40
0.760000000002
100
AcDbArc
 50
90.0
 51
-179.999999999965
  0
ARC
  5
417
100
AcDbEntity
  8
1
  6
CONTINUOUS
 62
           2
100
AcDbCircle
 10
103.409570889604
 20
-60.812099087361
 40
3.0
100
AcDbArc
 50
15.000000000007
 51
104.999999999999
  0
ARC
  5
416
100
AcDbEntity
  8
1
  6
CONTINUOUS
 62
           7
100
AcDbCircle
 10
48.111716017058
 20
-9.493169996745
 40
1.5
100
AcDbArc
 50
89.999999999989
 51
174.06258390055
  0
ARC
  5
415
100
AcDbEntity
  8
1
  6
CONTINUOUS
 62
           7
100
AcDbCircle
 10
19.501234186582
 20
-17.914409575474
 40
2.500000000001
100
AcDbArc
 50
60.000000000014
 51
135.756983042355
  0
ARC
  5
414
100
AcDbEntity
  8
1
  6
CONTINUOUS
 62
           7
100
AcDbCircle
 10
24.575473411357
 20
-14.493169996744
 40
3.0
100
AcDbArc
 50
-119.999999999999
 51
-89.999999999993
  0
ARC
  5
413
100
AcDbEntity
  8
1
  6
CONTINUOUS
 62
           7
100
AcDbCircle
 10
51.977199655346
 20
3.506830003255
 40
4.0
100
AcDbArc
 50
89.999999999992
 51
174.062583900565
  0
ARC
  5
412
100
AcDbEntity
  8
1
  6
CONTINUOUS
 62
           7
100
AcDbCircle
 10
42.616748740463
 20
-13.993169996744
 40
3.5
100
AcDbArc
 50
-90.000000000001
 51
-5.937416099437
  0
ARC
  5
411
100
AcDbEntity
  8
1
  6
CONTINUOUS
 62
           7
100
AcDbCircle
 10
9.621439785934
 20
0.006830003255
 40
15.0
100
AcDbArc
 50
-12.801724086149
 51
12.801724086112
  0
ARC
  5
410
100
AcDbEntity
  8
1
  6
CONTINUOUS
 62
           7
100
AcDbCircle
 10
105.298089914709
 20
10.545181392221
 40
2.0
100
AcDbArc
 50
-163.442928624355
 51
-90.000000000014
  0
ARC
  5
40F
100
AcDbEntity
  8
1
  6
CONTINUOUS
 62
           7
100
AcDbCircle
 10
100.457896067119
 20
-49.796298682426
 40
6.999999999998
100
AcDbArc
 50
-74.999999999997
 51
15.000000000009
  0
ARC
  5
40E
100
AcDbEntity
  8
1
  6
CONTINUOUS
 62
           7
100
AcDbCircle
 10
86.979213359031
 20
0.506830003256
 40
7.0
100
AcDbArc
 50
15.00000000001
 51
90.000000000002
  0
ARC
  5
40D
100
AcDbEntity
  8
1
  6
CONTINUOUS
 62
           7
100
AcDbCircle
 10
48.871625834063
 20
-6.493169996745
 40
1.5
100
AcDbArc
 50
-89.999999999978
 51
0.0
  0
ARC
  5
40C
100
AcDbEntity
  8
1
  6
CONTINUOUS
 62
           7
100
AcDbCircle
 10
16.021625834063
 20
18.506830003255
 40
1.499999999999
100
AcDbArc
 50
-89.999999999991
 51
-36.869897645806
  0
ARC
  5
40B
100
AcDbEntity
  8
1
  6
CONTINUOUS
 62
           7
100
AcDbCircle
 10
61.171625834064
 20
39.006830003256
 40
11.5
100
AcDbArc
 50
90.000000000001
 51
-179.999999999998
  0
ARC
  5
40A
100
AcDbEntity
  8
1
  6
CONTINUOUS
 62
           7
100
AcDbCircle
 10
53.671625834064
 20
36.506830003255
 40
1.5
100
AcDbArc
 50
-90.000000000002
 51
0.000000000009
  0
ARC
  5
409
100
AcDbEntity
  8
1
  6
CONTINUOUS
 62
           7
100
AcDbCircle
 10
52.671625834063
 20
38.006830003256
 40
3.0
100
AcDbArc
 50
180.0
 51
-89.999999999999
  0
ARC
  5
408
100
AcDbEntity
  8
1
  6
CONTINUOUS
 62
           7
100
AcDbCircle
 10
103.064896835673
 20
-15.093169996744
 40
3.0
100
AcDbArc
 50
90.0
 51
-165.000000000004
  0
ARC
  5
407
100
AcDbEntity
  8
1
  6
CONTINUOUS
 62
           7
100
AcDbCircle
 10
102.155483771891
 20
27.318803339784
 40
0.4
100
AcDbArc
 50
4.999999999914
 51
94.999999999971
  0
ARC
  5
406
100
AcDbEntity
  8
1
  6
CONTINUOUS
 62
           7
100
AcDbCircle
 10
82.094298237628
 20
-63.366113807578
 40
1.25
100
AcDbArc
 50
-165.000000000016
 51
-79.999999999997
  0
ARC
  5
405
100
AcDbEntity
  8
1
  6
CONTINUOUS
 62
           7
100
AcDbCircle
 10
82.067229380571
 20
-63.265091457737
 40
1.249999999999
100
AcDbArc
 50
105.000000000018
 51
-164.999999999979
  0
ARC
  5
404
100
AcDbEntity
  8
1
  6
CONTINUOUS
 62
           7
100
AcDbCircle
 10
141.371625834064
 20
-13.093169996744
 40
1.0
100
AcDbArc
 50
0.000000000013
 51
90.000000000011
  0
ARC
  5
403
100
AcDbEntity
  8
1
  6
CONTINUOUS
 62
           7
100
AcDbCircle
 10
99.49197024083
 20
-50.055117727526
 40
7.000000000002
100
AcDbArc
 50
-75.000000000007
 51
14.999999999994
  0
ARC
  5
402
100
AcDbEntity
  8
1
  6
CONTINUOUS
 62
           7
100
AcDbCircle
 10
77.2857243299
 20
-94.682488812725
 40
30.0
100
AcDbArc
 50
4.999999999999
 51
14.999999999997
  0
ARC
  5
401
100
AcDbEntity
  8
1
  6
CONTINUOUS
 62
           7
100
AcDbCircle
 10
92.533105221456
 20
-12.493169996744
 40
4.0
100
AcDbArc
 50
15.00000000001
 51
89.999999999995
  0
ARC
  5
400
100
AcDbEntity
  8
1
  6
CONTINUOUS
 62
           7
100
AcDbCircle
 10
125.771625834064
 20
-10.093169996744
 40
2.0
100
AcDbArc
 50
180.0
 51
-89.999999999997
  0
ARC
  5
3FF
100
AcDbEntity
  8
1
  6
CONTINUOUS
 62
           7
100
AcDbCircle
 10
122.971625834063
 20
9.206830003256
 40
0.8
100
AcDbArc
 50
0.0
 51
89.999999999964
  0
ARC
  5
3FE
100
AcDbEntity
  8
1
  6
CONTINUOUS
 62
           7
100
AcDbCircle
 10
52.871625834064
 20
5.006830003256
 40
2.5
100
AcDbArc
 50
90.000000000005
 51
180.0
  0
ARC
  5
3FD
100
AcDbEntity
  8
1
  6
CONTINUOUS
 62
           7
100
AcDbCircle
 10
94.370549671106
 20
-69.578749005953
 40
7.0
100
AcDbArc
 50
15.000000000012
 51
99.999999999997
  0
ARC
  5
3FC
100
AcDbEntity
  8
1
  6
CONTINUOUS
 62
           7
100
AcDbCircle
 10
130.604385711936
 20
-108.212683434549
 40
1.0
100
AcDbArc
 50
-165.000000000023
 51
-74.999999999963
  0
ARC
  5
3FB
100
AcDbEntity
  8
1
  6
CONTINUOUS
 62
           7
100
AcDbCircle
 10
145.093273106272
 20
-104.330397758011
 40
0.999999999999
100
AcDbArc
 50
-74.999999999958
 51
14.999999999999
  0
ARC
  5
3FA
100
AcDbEntity
  8
1
  6
CONTINUOUS
 62
           7
100
AcDbCircle
 10
108.868763692945
 20
-99.993169996745
 40
1.0
100
AcDbArc
 50
-175.000000000089
 51
-89.999999999988
  0
ARC
  5
3F9
100
AcDbEntity
  8
1
  6
CONTINUOUS
 62
           7
100
AcDbCircle
 10
123.974659515371
 20
-96.993169996745
 40
2.0
100
AcDbArc
 50
-164.999999999999
 51
-89.999999999988
  0
ARC
  5
3F8
100
AcDbEntity
  8
1
  6
CONTINUOUS
 62
           7
100
AcDbCircle
 10
135.965642374709
 20
-86.493169996745
 40
0.300000000001
100
AcDbArc
 50
90.0
 51
-164.999999999898
  0
ARC
  5
3F7
100
AcDbEntity
  8
1
  6
CONTINUOUS
 62
           7
100
AcDbCircle
 10
136.287181405626
 20
-87.693169996744
 40
0.300000000001
100
AcDbArc
 50
-164.999999999584
 51
-90.0
  0
ARC
  5
3F6
100
AcDbEntity
  8
1
  6
CONTINUOUS
 62
           7
100
AcDbCircle
 10
134.089998027691
 20
-79.493169996744
 40
0.3
100
AcDbArc
 50
90.0
 51
-164.999999999953
  0
ARC
  5
3F5
100
AcDbEntity
  8
1
  6
CONTINUOUS
 62
           7
100
AcDbCircle
 10
134.411537058608
 20
-80.693169996744
 40
0.3
100
AcDbArc
 50
-164.999999999747
 51
-89.999999999946
  0
ARC
  5
3F4
100
AcDbEntity
  8
1
  6
CONTINUOUS
 62
           7
100
AcDbCircle
 10
132.214353680673
 20
-72.493169996745
 40
0.300000000001
100
AcDbArc
 50
90.000000000043
 51
-164.999999999985
  0
ARC
  5
3F3
100
AcDbEntity
  8
1
  6
CONTINUOUS
 62
           7
100
AcDbCircle
 10
132.535892711591
 20
-73.693169996743
 40
0.300000000001
100
AcDbArc
 50
-164.999999999567
 51
-90.000000000076
  0
ARC
  5
3F2
100
AcDbEntity
  8
1
  6
CONTINUOUS
 62
           7
100
AcDbCircle
 10
130.338709333655
 20
-65.493169996745
 40
0.300000000002
100
AcDbArc
 50
90.0
 51
-164.999999999956
  0
ARC
  5
3F1
100
AcDbEntity
  8
1
  6
CONTINUOUS
 62
           7
100
AcDbCircle
 10
130.660248364572
 20
-66.693169996744
 40
0.3
100
AcDbArc
 50
-164.999999999676
 51
-89.999999999978
  0
ARC
  5
3F0
100
AcDbEntity
  8
1
  6
CONTINUOUS
 62
           7
100
AcDbCircle
 10
128.463064986638
 20
-58.493169996744
 40
0.300000000001
100
AcDbArc
 50
89.999999999946
 51
-164.999999999956
  0
ARC
  5
3EF
100
AcDbEntity
  8
1
  6
CONTINUOUS
 62
           7
100
AcDbCircle
 10
128.784604017555
 20
-59.693169996743
 40
0.300000000001
100
AcDbArc
 50
-164.999999999552
 51
-90.0
  0
ARC
  5
3EE
100
AcDbEntity
  8
1
  6
CONTINUOUS
 62
           7
100
AcDbCircle
 10
126.58742063962
 20
-51.493169996744
 40
0.300000000001
100
AcDbArc
 50
89.999999999921
 51
-164.999999999968
  0
ARC
  5
3ED
100
AcDbEntity
  8
1
  6
CONTINUOUS
 62
           7
100
AcDbCircle
 10
124.711776292602
 20
-44.493169996744
 40
0.300000000001
100
AcDbArc
 50
90.000000000038
 51
-165.000000000012
  0
ARC
  5
3EC
100
AcDbEntity
  8
1
  6
CONTINUOUS
 62
           7
100
AcDbCircle
 10
125.033315323519
 20
-45.693169996743
 40
0.300000000001
100
AcDbArc
 50
-164.999999999543
 51
-89.999999999943
  0
ARC
  5
3EB
100
AcDbEntity
  8
1
  6
CONTINUOUS
 62
           7
100
AcDbCircle
 10
122.836131945584
 20
-37.493169996744
 40
0.300000000001
100
AcDbArc
 50
90.000000000038
 51
-164.999999999941
  0
ARC
  5
3EA
100
AcDbEntity
  8
1
  6
CONTINUOUS
 62
           7
100
AcDbCircle
 10
123.157670976501
 20
-38.693169996744
 40
0.300000000001
100
AcDbArc
 50
-164.999999999629
 51
-89.999999999978
  0
ARC
  5
3E9
100
AcDbEntity
  8
1
  6
CONTINUOUS
 62
           7
100
AcDbCircle
 10
136.543422748474
 20
-27.989333816295
 40
10.5
100
AcDbArc
 50
104.999999999999
 51
-165.000000000002
  0
ARC
  5
3E8
100
AcDbEntity
  8
1
  6
CONTINUOUS
 62
           7
100
AcDbCircle
 10
14.887330127638
 20
-12.032977567765
 40
5.000000000001
100
AcDbArc
 50
-33.285048222206
 51
-20.997145113069
  0
ARC
  5
3E7
100
AcDbEntity
  8
1
  6
CONTINUOUS
 62
           7
100
AcDbCircle
 10
15.869154554811
 20
-14.493169996744
 40
2.5
100
AcDbArc
 50
-90.000000000011
 51
-49.623670061548
  0
ARC
  5
3E6
100
AcDbEntity
  8
1
  6
CONTINUOUS
 62
           7
100
AcDbCircle
 10
96.403807139299
 20
26.425762316335
 40
2.000000000001
100
AcDbArc
 50
28.214564638661
 51
93.126223835369
  0
ARC
  5
3E5
100
AcDbEntity
  8
1
  6
CONTINUOUS
 62
           7
100
AcDbCircle
 10
93.465277173193
 20
33.270273077818
 40
4.999999999999
100
AcDbArc
 50
-138.314575711689
 51
-86.631249904948
  0
ARC
  5
3E4
100
AcDbEntity
  8
1
  6
CONTINUOUS
 62
           7
100
AcDbCircle
 10
20.253736216633
 20
15.81631051335
 40
3.499999999998
100
AcDbArc
 50
100.50576431559
 51
143.130102354176
  0
ARC
  5
3E3
100
AcDbEntity
  8
1
  6
CONTINUOUS
 62
           7
100
AcDbCircle
 10
140.371625834064
 20
-14.022617635923
 40
2.000000000001
100
AcDbArc
 50
-75.00000000001
 51
0.000000000007
  0
ARC
  5
3E2
100
AcDbEntity
  8
1
  6
CONTINUOUS
 62
           7
100
AcDbCircle
 10
62.313132978229
 20
30.627344024985
 40
4.999999999999
100
AcDbArc
 50
-83.670096516629
 51
0.0
  0
ARC
  5
3E1
100
AcDbEntity
  8
1
  6
CONTINUOUS
 62
           7
100
AcDbCircle
 10
96.403807139299
 20
26.425762316335
 40
2.000000000001
100
AcDbArc
 50
16.557071375663
 51
28.214564638661
  0
ARC
  5
3E0
100
AcDbEntity
  8
1
  6
CONTINUOUS
 62
           7
100
AcDbCircle
 10
104.987944291136
 20
11.006830003256
 40
1.0
100
AcDbArc
 50
-175.000000000013
 51
-90.000000000006
  0
ARC
  5
3DF
100
AcDbEntity
  8
1
  6
CONTINUOUS
 62
           7
100
AcDbCircle
 10
-57.88075619745
 20
-59.222338668822
 40
2.2
100
AcDbArc
 50
-107.104635176655
 51
-90.0
  0
ARC
  5
3DE
100
AcDbEntity
  8
1
  6
CONTINUOUS
 62
           7
100
AcDbCircle
 10
-46.28075619745
 20
-59.222338668822
 40
2.2
100
AcDbArc
 50
-90.0
 51
-72.895364823357
  0
ARC
  5
3DD
100
AcDbEntity
  8
1
  6
CONTINUOUS
 62
           7
100
AcDbCircle
 10
5.91924380255
 20
-25.064189490744
 40
50.0
100
AcDbArc
 50
170.251341974189
 51
179.999999999999
  0
ARC
  5
3DC
100
AcDbEntity
  8
1
  6
CONTINUOUS
 62
           7
100
AcDbCircle
 10
-110.08075619745
 20
-25.064189490744
 40
50.0
100
AcDbArc
 50
0.0
 51
9.748658025811
  0
ARC
  5
3DB
100
AcDbEntity
  8
1
  6
CONTINUOUS
 62
           7
100
AcDbCircle
 10
-61.283861793644
 20
23.0
 40
0.75
100
AcDbArc
 50
-163.324464007453
 51
-89.999999999993
  0
ARC
  5
3DA
100
AcDbEntity
  8
1
  6
CONTINUOUS
 62
           7
100
AcDbCircle
 10
-61.283861793644
 20
29.0
 40
0.75
100
AcDbArc
 50
90.000000000008
 51
163.324464007453
  0
ARC
  5
3D9
100
AcDbEntity
  8
1
  6
CONTINUOUS
 62
           7
100
AcDbCircle
 10
-42.877650601257
 20
29.0
 40
0.75
100
AcDbArc
 50
16.675535992547
 51
89.999999999985
  0
ARC
  5
3D8
100
AcDbEntity
  8
1
  6
CONTINUOUS
 62
           7
100
AcDbCircle
 10
-42.877650601257
 20
23.0
 40
0.75
100
AcDbArc
 50
-90.0
 51
-16.675535992551
  0
ARC
  5
3D7
100
AcDbEntity
  8
1
  6
CONTINUOUS
 62
           7
100
AcDbCircle
 10
-55.895575937533
 20
43.1
 40
0.4
100
AcDbArc
 50
89.999999999984
 51
176.303960711723
  0
ARC
  5
3D6
100
AcDbEntity
  8
1
  6
CONTINUOUS
 62
           7
100
AcDbCircle
 10
-48.265936457367
 20
43.1
 40
0.4
100
AcDbArc
 50
3.433013470562
 51
3.696039288274
  0
ARC
  5
3D5
100
AcDbEntity
  8
1
  6
CONTINUOUS
 62
           7
100
AcDbCircle
 10
-50.21693264323
 20
48.482274732518
 40
2.0
100
AcDbArc
 50
3.958977415864
 51
88.91024834486
  0
ARC
  5
3D4
100
AcDbEntity
  8
1
  6
CONTINUOUS
 62
           7
100
AcDbCircle
 10
-46.30205236882
 20
32.0
 40
1.0
100
AcDbArc
 50
-177.634568904631
 51
-90.00000000001
  0
ARC
  5
3D3
100
AcDbEntity
  8
1
  6
CONTINUOUS
 62
           7
100
AcDbCircle
 10
-48.265936457367
 20
43.1
 40
0.4
100
AcDbArc
 50
3.696039288274
 51
90.0
  0
ARC
  5
3D2
100
AcDbEntity
  8
1
  6
CONTINUOUS
 62
           7
100
AcDbCircle
 10
-48.300924116506
 20
43.1
 40
0.4
100
AcDbArc
 50
90.0
 51
177.318299567681
  0
ARC
  5
3D1
100
AcDbEntity
  8
1
  6
CONTINUOUS
 62
           7
100
AcDbCircle
 10
-50.989271440877
 20
37.0
 40
2.0
100
AcDbArc
 50
-90.000000000003
 51
-2.681700432345
  0
ARC
  5
3D0
100
AcDbEntity
  8
1
  6
CONTINUOUS
 62
           7
100
AcDbCircle
 10
-47.252911148725
 20
23.849037666023
 40
2.0
100
AcDbArc
 50
9.767141287821
 51
74.44200592204
  0
ARC
  5
3CF
100
AcDbEntity
  8
1
  6
CONTINUOUS
 62
           7
100
AcDbCircle
 10
-53.944579751669
 20
48.482274732518
 40
2.000000000001
100
AcDbArc
 50
91.089751655154
 51
176.041022584136
  0
ARC
  5
3CE
100
AcDbEntity
  8
1
  6
CONTINUOUS
 62
           7
100
AcDbCircle
 10
-57.85946002608
 20
32.0
 40
1.0
100
AcDbArc
 50
-90.0
 51
-2.36543109537
  0
ARC
  5
3CD
100
AcDbEntity
  8
1
  6
CONTINUOUS
 62
           7
100
AcDbCircle
 10
-55.895575937533
 20
43.1
 40
0.4
100
AcDbArc
 50
176.303960711723
 51
176.566986529437
  0
ARC
  5
3CC
100
AcDbEntity
  8
1
  6
CONTINUOUS
 62
           7
100
AcDbCircle
 10
-55.860588278393
 20
43.1
 40
0.4
100
AcDbArc
 50
2.681700432319
 51
90.0
  0
ARC
  5
3CB
100
AcDbEntity
  8
1
  6
CONTINUOUS
 62
           7
100
AcDbCircle
 10
-53.172240954023
 20
37.0
 40
2.0
100
AcDbArc
 50
-177.318299567655
 51
-89.999999999991
  0
ARC
  5
3CA
100
AcDbEntity
  8
1
  6
CONTINUOUS
 62
           7
100
AcDbCircle
 10
-56.908601246175
 20
23.849037666023
 40
1.999999999999
100
AcDbArc
 50
105.557994077964
 51
170.232858712177
  0
ARC
  5
3C9
100
AcDbEntity
  8
1
  6
CONTINUOUS
 62
           7
100
AcDbCircle
 10
126.908959670537
 20
-52.693169996743
 40
0.300000000001
100
AcDbArc
 50
-164.999999999584
 51
-90.000000000095
  0
CIRCLE
  5
3C8
100
AcDbEntity
  8
1
  6
CONTINUOUS
 62
           7
100
AcDbCircle
 10
72.371625834064
 20
11.006830003259
 40
4.000000000001
  0
CIRCLE
  5
3C7
100
AcDbEntity
  8
1
  6
CONTINUOUS
 62
           7
100
AcDbCircle
 10
72.371625834064
 20
26.006830003259
 40
3.75
  0
CIRCLE
  5
3C6
100
AcDbEntity
  8
1
  6
CONTINUOUS
 62
           7
100
AcDbCircle
 10
-52.08075619745
 20
0.0
 40
18.2
  0
CIRCLE
  5
3C5
100
AcDbEntity
  8
1
  6
CONTINUOUS
 62
           7
100
AcDbCircle
 10
-52.08075619745
 20
0.0
 40
3.899999999993
  0
CIRCLE
  5
3C4
100
AcDbEntity
  8
1
  6
CONTINUOUS
 62
           7
100
AcDbCircle
 10
-52.08075619745
 20
0.0
 40
1.649999999993
  0
CIRCLE
  5
3C3
100
AcDbEntity
  8
1
  6
CONTINUOUS
 62
           7
100
AcDbCircle
 10
-52.08075619745
 20
0.0
 40
1.399999999993
  0
CIRCLE
  5
3C2
100
AcDbEntity
  8
1
  6
CONTINUOUS
 62
           7
100
AcDbCircle
 10
-52.08075619745
 20
0.0
 40
0.775581395342
  0
CIRCLE
  5
3C1
100
AcDbEntity
  8
1
  6
CONTINUOUS
 62
           7
100
AcDbCircle
 10
-52.08075619745
 20
0.0
 40
2.999999999999
  0
CIRCLE
  5
3C0
100
AcDbEntity
  8
1
  6
CONTINUOUS
 62
           7
100
AcDbCircle
 10
-52.08075619745
 20
0.0
 40
15.299999999998
  0
CIRCLE
  5
3BF
100
AcDbEntity
  8
1
  6
CONTINUOUS
 62
           7
100
AcDbCircle
 10
-52.08075619745
 20
0.0
 40
16.249999999997
  0
CIRCLE
  5
3BE
100
AcDbEntity
  8
1
  6
CONTINUOUS
 62
           7
100
AcDbCircle
 10
-52.08075619745
 20
0.0
 40
15.4
  0
ARC
  5
3BD
100
AcDbEntity
  8
1
  6
CONTINUOUS
 62
           2
100
AcDbCircle
 10
126.107524218926
 20
0.006830003256
 40
11.464101615138
100
AcDbArc
 50
-12.595819688458
 51
0.000000000001
  0
ARC
  5
3BC
100
AcDbEntity
  8
1
  6
CONTINUOUS
 62
           2
100
AcDbCircle
 10
134.477453253622
 20
-5.197733575077
 40
3.094184012805
100
AcDbArc
 50
-24.020677081027
 51
23.997833946241
  0
ARC
  5
3BB
100
AcDbEntity
  8
1
  6
CONTINUOUS
 62
           2
100
AcDbCircle
 10
134.477453253622
 20
5.211393581589
 40
3.094184012805
100
AcDbArc
 50
-23.99783394624
 51
24.020677081031
  0
ARC
  5
3BA
100
AcDbEntity
  8
1
  6
CONTINUOUS
 62
           2
100
AcDbCircle
 10
126.107524218926
 20
0.006830003256
 40
11.464101615138
100
AcDbArc
 50
0.000000000001
 51
12.595819688456
  0
ARC
  5
3B9
100
AcDbEntity
  8
1
  6
CONTINUOUS
 62
           2
100
AcDbCircle
 10
137.665798414506
 20
5.211393581589
 40
3.094184012805
100
AcDbArc
 50
155.97932291897
 51
-156.002166053763
  0
ARC
  5
3B8
100
AcDbEntity
  8
1
  6
CONTINUOUS
 62
           2
100
AcDbCircle
 10
146.035727449202
 20
0.006830003256
 40
11.464101615138
100
AcDbArc
 50
179.999999999998
 51
-167.404180311543
  0
ARC
  5
3B7
100
AcDbEntity
  8
1
  6
CONTINUOUS
 62
           2
100
AcDbCircle
 10
146.035727449202
 20
0.006830003256
 40
11.464101615138
100
AcDbArc
 50
167.404180311541
 51
179.999999999998
  0
ARC
  5
3B6
100
AcDbEntity
  8
1
  6
CONTINUOUS
 62
           2
100
AcDbCircle
 10
137.665798414506
 20
-5.197733575077
 40
3.094184012805
100
AcDbArc
 50
156.002166053753
 51
-155.97932291897
  0
ARC
  5
3B5
100
AcDbEntity
  8
1
  6
CONTINUOUS
 62
           2
100
AcDbCircle
 10
124.84387711114
 20
-7.366301732714
 40
4.383427351474
100
AcDbArc
 50
7.350027438024
 51
21.924777153269
  0
ARC
  5
3B4
100
AcDbEntity
  8
1
  6
CONTINUOUS
 62
           2
100
AcDbCircle
 10
112.986477645321
 20
0.006830003257
 40
16.240810621445
100
AcDbArc
 50
-11.542191662215
 51
11.542191662215
  0
ARC
  5
3B3
100
AcDbEntity
  8
1
  6
CONTINUOUS
 62
           2
100
AcDbCircle
 10
124.84387711114
 20
7.379961739229
 40
4.383427351474
100
AcDbArc
 50
-21.92477715327
 51
-7.350027438046
  0
ARC
  5
3B2
100
AcDbEntity
  8
1
  6
CONTINUOUS
 62
           2
100
AcDbCircle
 10
105.007025897459
 20
14.781345589953
 40
3.352032680539
100
AcDbArc
 50
-12.096770907368
 51
30.392302539273
  0
ARC
  5
3B1
100
AcDbEntity
  8
1
  6
CONTINUOUS
 62
           2
100
AcDbCircle
 10
95.482698821001
 20
19.607889455877
 40
12.419443416399
100
AcDbArc
 50
-8.266393349162
 51
18.297542883597
  0
ARC
  5
3B0
100
AcDbEntity
  8
1
  6
CONTINUOUS
 62
           2
100
AcDbCircle
 10
104.024209421374
 20
26.014989315623
 40
3.352032680539
100
AcDbArc
 50
-20.392302539278
 51
22.096770907332
  0
ARC
  5
3AF
100
AcDbEntity
  8
1
  6
CONTINUOUS
 62
           2
100
AcDbCircle
 10
52.992625532499
 20
4.777679950061
 40
2.836335345071
100
AcDbArc
 50
-25.178017100596
 51
24.020677081025
  0
ARC
  5
3AE
100
AcDbEntity
  8
1
  6
CONTINUOUS
 62
           2
100
AcDbCircle
 10
45.320190584028
 20
0.006830003255
 40
10.508759813876
100
AcDbArc
 50
-13.190095287936
 51
13.190095287942
  0
ARC
  5
3AD
100
AcDbEntity
  8
1
  6
CONTINUOUS
 62
           2
100
AcDbCircle
 10
52.992625532499
 20
-4.764019943549
 40
2.836335345071
100
AcDbArc
 50
-24.020677081042
 51
25.178017100599
  0
ARC
  5
3AC
100
AcDbEntity
  8
1
  6
CONTINUOUS
 62
           2
100
AcDbCircle
 10
132.670863883806
 20
-110.407481258776
 40
3.609881348273
100
AcDbArc
 50
-82.714421527905
 51
-52.802416985736
  0
ARC
  5
3AB
100
AcDbEntity
  8
1
  6
CONTINUOUS
 62
           2
100
AcDbCircle
 10
136.008610107435
 20
-99.40374866538
 40
13.374785217661
100
AcDbArc
 50
-86.681522858383
 51
-63.31847714162
  0
ARC
  5
3AA
100
AcDbEntity
  8
1
  6
CONTINUOUS
 62
           2
100
AcDbCircle
 10
144.401049425182
 20
-107.264387515897
 40
3.609881348273
100
AcDbArc
 50
-97.197583014259
 51
-67.285578472098
  0
ARC
  5
3A9
100
AcDbEntity
  8
1
  6
CONTINUOUS
 62
           2
100
AcDbCircle
 10
110.846141420761
 20
-103.528570060139
 40
3.352032680538
100
AcDbArc
 50
-102.096770907258
 51
-59.607697460701
  0
ARC
  5
3A8
100
AcDbEntity
  8
1
  6
CONTINUOUS
 62
           2
100
AcDbCircle
 10
115.672685286684
 20
-94.004242983682
 40
12.419443416399
100
AcDbArc
 50
-98.26639334917
 51
-71.702457116395
  0
ARC
  5
3A7
100
AcDbEntity
  8
1
  6
CONTINUOUS
 62
           2
100
AcDbCircle
 10
122.07978514643
 20
-102.545753584054
 40
3.352032680538
100
AcDbArc
 50
-110.392302539285
 51
-67.903229092645
  0
ARC
  5
3A6
100
AcDbEntity
  8
1
  6
CONTINUOUS
 62
           2
100
AcDbCircle
 10
34.871625834063
 20
-23.071515174976
 40
16.240810621445
100
AcDbArc
 50
-102.982774842315
 51
-77.017225157686
  0
ARC
  5
3A5
100
AcDbEntity
  8
1
  6
CONTINUOUS
 62
           2
100
AcDbCircle
 10
27.498494098091
 20
-34.928914640795
 40
4.383427351474
100
AcDbArc
 50
-114.020677081031
 51
-65.234653134604
  0
ARC
  5
3A4
100
AcDbEntity
  8
1
  6
CONTINUOUS
 62
           2
100
AcDbCircle
 10
42.244757570034
 20
-34.928914640796
 40
4.383427351473
100
AcDbArc
 50
-114.765346865393
 51
-65.979322918966
  0
ARC
  5
3A3
100
AcDbEntity
  8
1
  6
CONTINUOUS
 62
           2
100
AcDbCircle
 10
42.244757570034
 20
-38.195736952046
 40
4.383427351474
100
AcDbArc
 50
65.979322918975
 51
114.765346865387
  0
ARC
  5
3A2
100
AcDbEntity
  8
1
  6
CONTINUOUS
 62
           2
100
AcDbCircle
 10
34.871625834062
 20
-50.053136417865
 40
16.240810621446
100
AcDbArc
 50
77.017225157685
 51
102.982774842313
  0
ARC
  5
3A1
100
AcDbEntity
  8
1
  6
CONTINUOUS
 62
           2
100
AcDbCircle
 10
27.498494098091
 20
-38.195736952046
 40
4.383427351474
100
AcDbArc
 50
65.234653134607
 51
114.020677081029
  0
ARC
  5
3A0
100
AcDbEntity
  8
1
  6
CONTINUOUS
 62
           2
100
AcDbCircle
 10
27.498494098091
 20
-28.283914640794
 40
4.383427351474
100
AcDbArc
 50
-114.020677081026
 51
-65.2346531346
  0
ARC
  5
39F
100
AcDbEntity
  8
1
  6
CONTINUOUS
 62
           2
100
AcDbCircle
 10
34.871625834063
 20
-16.426515174975
 40
16.240810621444
100
AcDbArc
 50
-102.982774842314
 51
-77.017225157686
  0
ARC
  5
39E
100
AcDbEntity
  8
1
  6
CONTINUOUS
 62
           2
100
AcDbCircle
 10
42.244757570034
 20
-28.283914640794
 40
4.383427351473
100
AcDbArc
 50
-114.765346865396
 51
-65.979322918968
  0
ARC
  5
39D
100
AcDbEntity
  8
1
  6
CONTINUOUS
 62
           2
100
AcDbCircle
 10
27.498494098092
 20
-23.050736952045
 40
4.383427351474
100
AcDbArc
 50
65.234653134606
 51
114.020677081023
  0
ARC
  5
39C
100
AcDbEntity
  8
1
  6
CONTINUOUS
 62
           2
100
AcDbCircle
 10
34.871625834064
 20
-34.908136417864
 40
16.240810621445
100
AcDbArc
 50
77.017225157686
 51
102.982774842315
  0
ARC
  5
39B
100
AcDbEntity
  8
1
  6
CONTINUOUS
 62
           2
100
AcDbCircle
 10
42.244757570035
 20
-23.050736952045
 40
4.383427351474
100
AcDbArc
 50
65.979322918971
 51
114.765346865398
  0
ARC
  5
39A
100
AcDbEntity
  8
1
  6
CONTINUOUS
 62
           2
100
AcDbCircle
 10
106.550422217055
 20
-2.711959379942
 40
0.780826001424
100
AcDbArc
 50
-89.999999999993
 51
-27.513296949052
  0
ARC
  5
399
100
AcDbEntity
  8
1
  6
CONTINUOUS
 62
           7
100
AcDbCircle
 10
72.371625834064
 20
19.006830003256
 40
3.0
100
AcDbArc
 50
0.0
 51
-136.634598177457
  0
ARC
  5
398
100
AcDbEntity
  8
1
  6
CONTINUOUS
 62
           7
100
AcDbCircle
 10
72.371625834064
 20
19.006830003256
 40
3.0
100
AcDbArc
 50
-51.516298568035
 51
0.0
  0
ARC
  5
397
100
AcDbEntity
  8
1
  6
CONTINUOUS
 62
           7
100
AcDbCircle
 10
72.371625834064
 20
19.006830003256
 40
4.000000000001
100
AcDbArc
 50
-171.786789298258
 51
-142.84163660908
  0
ARC
  5
396
100
AcDbEntity
  8
1
  6
CONTINUOUS
 62
           7
100
AcDbCircle
 10
-0.129987086593
 20
-2.208948403928
 40
24.999999999999
100
AcDbArc
 50
12.801724086116
 51
36.326352497992
  0
ARC
  5
395
100
AcDbEntity
  8
1
  6
CONTINUOUS
 62
           7
100
AcDbCircle
 10
-0.129987086594
 20
2.222608410441
 40
25.0
100
AcDbArc
 50
-33.273153793878
 51
-12.801724086145
  0
ARC
  5
394
100
AcDbEntity
  8
1
  6
CONTINUOUS
 62
           7
100
AcDbCircle
 10
63.571625834064
 20
33.006830003256
 40
17.499999999999
100
AcDbArc
 50
41.687775861721
 51
90.000000000002
  0
ARC
  5
393
100
AcDbEntity
  8
1
  6
CONTINUOUS
 62
           7
100
AcDbCircle
 10
61.871625834064
 20
38.006830003256
 40
5.5
100
AcDbArc
 50
8.363601789035
 51
89.999999999999
  0
ARC
  5
392
100
AcDbEntity
  8
1
  6
CONTINUOUS
 62
           7
100
AcDbCircle
 10
60.671625834064
 20
38.006830003256
 40
5.5
100
AcDbArc
 50
90.0
 51
180.0
  0
ARC
  5
391
100
AcDbEntity
  8
1
  6
CONTINUOUS
 62
           7
100
AcDbCircle
 10
72.371625834063
 20
26.006830003255
 40
5.000000000001
100
AcDbArc
 50
-8.213210701748
 51
-171.786789298273
  0
ARC
  5
390
100
AcDbEntity
  8
1
  6
CONTINUOUS
 62
           7
100
AcDbCircle
 10
72.371625834064
 20
19.006830003256
 40
3.999999999999
100
AcDbArc
 50
-45.315051946578
 51
-8.213210701744
  0
ARC
  5
38F
100
AcDbEntity
  8
1
  6
CONTINUOUS
 62
           7
100
AcDbCircle
 10
30.309719010475
 20
-17.952196324042
 40
11.519298699948
100
AcDbArc
 50
145.894844391726
 51
159.002854886944
  0
ARC
  5
38E
100
AcDbEntity
  8
1
  6
CONTINUOUS
 62
           7
100
AcDbCircle
 10
129.01623337146
 20
-570.684302625877
 40
600.000000000034
100
AcDbArc
 50
96.329903483367
 51
100.50576431558
  0
ARC
  5
38D
100
AcDbEntity
  8
1
  6
CONTINUOUS
 62
           7
100
AcDbCircle
 10
129.01623337146
 20
-570.684302625877
 40
600.000000000035
100
AcDbArc
 50
93.599627128555
 51
94.948952080189
  0
ARC
  5
38C
100
AcDbEntity
  8
1
  6
CONTINUOUS
 62
           7
100
AcDbCircle
 10
129.01623337146
 20
-570.684302625877
 40
600.000000000036
100
AcDbArc
 50
93.126223835375
 51
93.368750095048
  0
ARC
  5
38B
100
AcDbEntity
  8
1
  6
CONTINUOUS
 62
           7
100
AcDbCircle
 10
129.01623337146
 20
-570.684302625877
 40
600.000000000034
100
AcDbArc
 50
93.368750095048
 51
93.599627128555
  0
ARC
  5
38A
100
AcDbEntity
  8
1
  6
CONTINUOUS
 62
           7
100
AcDbCircle
 10
129.01623337146
 20
-570.684302625877
 40
600.000000000034
100
AcDbArc
 50
95.896859918271
 51
95.902647566587
  0
ARC
  5
389
100
AcDbEntity
  8
1
  6
CONTINUOUS
 62
           7
100
AcDbCircle
 10
129.01623337146
 20
-570.684302625877
 40
600.000000000034
100
AcDbArc
 50
95.902647566587
 51
96.329903483367
  0
ARC
  5
388
100
AcDbEntity
  8
1
  6
CONTINUOUS
 62
           7
100
AcDbCircle
 10
16.466345777395
 20
34.717087014121
 40
51.010996523927
100
AcDbArc
 50
-4.598553077663
 51
4.598553077663
  0
ARC
  5
387
100
AcDbEntity
  8
1
  6
CONTINUOUS
 62
           2
100
AcDbCircle
 10
-52.08075619745
 20
0.0
 40
16.499999999996
100
AcDbArc
 50
-90.0
 51
90.0
  0
ARC
  5
386
100
AcDbEntity
  8
1
  6
CONTINUOUS
 62
           7
100
AcDbCircle
 10
-52.08075619745
 20
0.0
 40
14.299999999998
100
AcDbArc
 50
-14.167369920825
 51
0.000000000001
  0
ARC
  5
385
100
AcDbEntity
  8
1
  6
CONTINUOUS
 62
           7
100
AcDbCircle
 10
-52.08075619745
 20
0.0
 40
14.299999999998
100
AcDbArc
 50
0.000000000001
 51
14.167369920827
  0
ARC
  5
384
100
AcDbEntity
  8
1
  6
CONTINUOUS
 62
           7
100
AcDbCircle
 10
-52.08075619745
 20
0.0
 40
14.299999999998
100
AcDbArc
 50
179.999999999999
 51
-165.832630079174
  0
ARC
  5
383
100
AcDbEntity
  8
1
  6
CONTINUOUS
 62
           7
100
AcDbCircle
 10
-52.08075619745
 20
0.0
 40
14.299999999998
100
AcDbArc
 50
165.832630079173
 51
179.999999999999
  0
ARC
  5
382
100
AcDbEntity
  8
1
  6
CONTINUOUS
 62
           7
100
AcDbCircle
 10
-52.08075619745
 20
0.0
 40
18.750000000001
100
AcDbArc
 50
-87.045139123973
 51
-74.954860876027
  0
ARC
  5
381
100
AcDbEntity
  8
1
  6
CONTINUOUS
 62
           7
100
AcDbCircle
 10
-52.08075619745
 20
0.0
 40
18.75
100
AcDbArc
 50
-69.045139123975
 51
-56.954860876027
  0
ARC
  5
380
100
AcDbEntity
  8
1
  6
CONTINUOUS
 62
           7
100
AcDbCircle
 10
-52.08075619745
 20
0.0
 40
18.75
100
AcDbArc
 50
-51.045139123975
 51
-38.954860876028
  0
ARC
  5
37F
100
AcDbEntity
  8
1
  6
CONTINUOUS
 62
           7
100
AcDbCircle
 10
-52.08075619745
 20
0.0
 40
18.75
100
AcDbArc
 50
-33.045139123975
 51
-20.954860876028
  0
ARC
  5
37E
100
AcDbEntity
  8
1
  6
CONTINUOUS
 62
           7
100
AcDbCircle
 10
-52.08075619745
 20
0.0
 40
18.75
100
AcDbArc
 50
-15.045139123976
 51
-2.954860876029
  0
ARC
  5
37D
100
AcDbEntity
  8
1
  6
CONTINUOUS
 62
           7
100
AcDbCircle
 10
-52.08075619745
 20
0.0
 40
18.75
100
AcDbArc
 50
2.954860876025
 51
15.045139123973
  0
ARC
  5
37C
100
AcDbEntity
  8
1
  6
CONTINUOUS
 62
           7
100
AcDbCircle
 10
-52.08075619745
 20
0.0
 40
18.75
100
AcDbArc
 50
20.954860876026
 51
33.045139123973
  0
ARC
  5
37B
100
AcDbEntity
  8
1
  6
CONTINUOUS
 62
           7
100
AcDbCircle
 10
-52.08075619745
 20
0.0
 40
18.75
100
AcDbArc
 50
38.954860876023
 51
51.045139123973
  0
ARC
  5
37A
100
AcDbEntity
  8
1
  6
CONTINUOUS
 62
           7
100
AcDbCircle
 10
-52.08075619745
 20
0.0
 40
18.75
100
AcDbArc
 50
56.954860876024
 51
69.045139123973
  0
ARC
  5
379
100
AcDbEntity
  8
1
  6
CONTINUOUS
 62
           7
100
AcDbCircle
 10
-52.08075619745
 20
0.0
 40
18.749999999999
100
AcDbArc
 50
74.954860876023
 51
87.045139123973
  0
ARC
  5
378
100
AcDbEntity
  8
1
  6
CONTINUOUS
 62
           7
100
AcDbCircle
 10
-52.08075619745
 20
0.0
 40
18.75
100
AcDbArc
 50
-105.045139123973
 51
-92.954860876026
  0
ARC
  5
377
100
AcDbEntity
  8
1
  6
CONTINUOUS
 62
           7
100
AcDbCircle
 10
-52.08075619745
 20
0.0
 40
18.75
100
AcDbArc
 50
-123.045139123973
 51
-110.954860876025
  0
ARC
  5
376
100
AcDbEntity
  8
1
  6
CONTINUOUS
 62
           7
100
AcDbCircle
 10
-52.08075619745
 20
0.0
 40
18.750000000001
100
AcDbArc
 50
-141.045139123971
 51
-128.954860876025
  0
ARC
  5
375
100
AcDbEntity
  8
1
  6
CONTINUOUS
 62
           7
100
AcDbCircle
 10
-52.08075619745
 20
0.0
 40
18.750000000001
100
AcDbArc
 50
-159.045139123972
 51
-146.954860876024
  0
ARC
  5
374
100
AcDbEntity
  8
1
  6
CONTINUOUS
 62
           7
100
AcDbCircle
 10
-52.08075619745
 20
0.0
 40
18.750000000001
100
AcDbArc
 50
-177.045139123971
 51
-164.954860876024
  0
ARC
  5
373
100
AcDbEntity
  8
1
  6
CONTINUOUS
 62
           7
100
AcDbCircle
 10
-52.08075619745
 20
0.0
 40
18.75
100
AcDbArc
 50
164.954860876027
 51
177.045139123975
  0
ARC
  5
372
100
AcDbEntity
  8
1
  6
CONTINUOUS
 62
           7
100
AcDbCircle
 10
-52.08075619745
 20
0.0
 40
18.75
100
AcDbArc
 50
146.954860876026
 51
159.045139123974
  0
ARC
  5
371
100
AcDbEntity
  8
1
  6
CONTINUOUS
 62
           7
100
AcDbCircle
 10
-52.08075619745
 20
0.0
 40
18.75
100
AcDbArc
 50
128.954860876026
 51
141.045139123976
  0
ARC
  5
370
100
AcDbEntity
  8
1
  6
CONTINUOUS
 62
           7
100
AcDbCircle
 10
-52.08075619745
 20
0.0
 40
18.75
100
AcDbArc
 50
110.954860876026
 51
123.045139123975
  0
ARC
  5
36F
100
AcDbEntity
  8
1
  6
CONTINUOUS
 62
           7
100
AcDbCircle
 10
-52.08075619745
 20
0.0
 40
18.75
100
AcDbArc
 50
92.954860876026
 51
105.045139123975
  0
ARC
  5
36E
100
AcDbEntity
  8
1
  6
CONTINUOUS
 62
           7
100
AcDbCircle
 10
-57.88075619745
 20
-59.222338668822
 40
2.2
100
AcDbArc
 50
180.0
 51
-107.104635176655
  0
ARC
  5
36D
100
AcDbEntity
  8
1
  6
CONTINUOUS
 62
           7
100
AcDbCircle
 10
-46.28075619745
 20
-59.222338668822
 40
2.199999999999
100
AcDbArc
 50
-72.895364823357
 51
0.0
  0
ARC
  5
36C
100
AcDbEntity
  8
1
  6
CONTINUOUS
 62
           7
100
AcDbCircle
 10
-52.08075619745
 20
-103.157729775419
 40
42.136479098527
100
AcDbArc
 50
82.088233935659
 51
97.911766064341
  0
ARC
  5
36B
100
AcDbEntity
  8
1
  6
CONTINUOUS
 62
           7
100
AcDbCircle
 10
-52.08075619745
 20
-74.116560790977
 40
14.746099746341
100
AcDbArc
 50
61.931240074587
 51
118.068759925412
  0
ARC
  5
36A
100
AcDbEntity
  8
1
  6
CONTINUOUS
 62
           7
100
AcDbCircle
 10
-52.08075619745
 20
-66.009187923192
 40
14.746099746342
100
AcDbArc
 50
61.931240074587
 51
118.068759925412
  0
ARC
  5
369
100
AcDbEntity
  8
1
  6
CONTINUOUS
 62
           7
100
AcDbCircle
 10
-48.130756197451
 20
26.94
 40
14.480542116924
100
AcDbArc
 50
-176.278044718974
 51
-163.32446400745
  0
ARC
  5
368
100
AcDbEntity
  8
1
  6
CONTINUOUS
 62
           7
100
AcDbCircle
 10
-48.130756197451
 20
25.06
 40
14.480542116924
100
AcDbArc
 50
163.32446400745
 51
176.278044718974
  0
ARC
  5
367
100
AcDbEntity
  8
1
  6
CONTINUOUS
 62
           7
100
AcDbCircle
 10
-56.03075619745
 20
25.06
 40
14.480542116924
100
AcDbArc
 50
3.721955281026
 51
16.67553599255
  0
ARC
  5
366
100
AcDbEntity
  8
1
  6
CONTINUOUS
 62
           7
100
AcDbCircle
 10
-56.03075619745
 20
26.94
 40
14.480542116924
100
AcDbArc
 50
-16.67553599255
 51
-3.721955281026
  0
ARC
  5
365
100
AcDbEntity
  8
1
  6
CONTINUOUS
 62
           7
100
AcDbCircle
 10
-40.703342035367
 20
14.473793238074
 40
1.972609646004
100
AcDbArc
 50
-28.004034099754
 51
28.004034099754
  0
ARC
  5
364
100
AcDbEntity
  8
1
  6
CONTINUOUS
 62
           7
100
AcDbCircle
 10
-63.458170359533
 20
14.473793238074
 40
1.972609646004
100
AcDbArc
 50
151.995965900244
 51
-151.995965900244
  0
ARC
  5
363
100
AcDbEntity
  8
1
  6
CONTINUOUS
 62
           7
100
AcDbCircle
 10
-52.08075619745
 20
0.0
 40
16.999999999996
100
AcDbArc
 50
-90.0
 51
58.034281249195
  0
ARC
  5
362
100
AcDbEntity
  8
1
  6
CONTINUOUS
 62
           2
100
AcDbCircle
 10
-52.08075619745
 20
0.0
 40
16.999999999996
100
AcDbArc
 50
58.034281249195
 51
61.605354917603
  0
ARC
  5
361
100
AcDbEntity
  8
1
  6
CONTINUOUS
 62
           7
100
AcDbCircle
 10
-52.08075619745
 20
0.0
 40
16.999999999996
100
AcDbArc
 50
61.605354917603
 51
90.0
  0
ARC
  5
360
100
AcDbEntity
  8
1
  6
CONTINUOUS
 62
           7
100
AcDbCircle
 10
-188.180176247309
 20
-0.41010394857
 40
145.000000000152
100
AcDbArc
 50
6.907463695726
 51
9.767141287821
  0
ARC
  5
35F
100
AcDbEntity
  8
1
  6
CONTINUOUS
 62
           7
100
AcDbCircle
 10
-0.062360979939
 20
33.306916192083
 40
47.258073937601
100
AcDbArc
 50
-178.365231241327
 51
-170.830111009025
  0
ARC
  5
35E
100
AcDbEntity
  8
1
  6
CONTINUOUS
 62
           7
100
AcDbCircle
 10
-646.789948414896
 20
7.195026661858
 40
600.000000000124
100
AcDbArc
 50
2.365431095436
 51
3.433013470626
  0
ARC
  5
35D
100
AcDbEntity
  8
1
  6
CONTINUOUS
 62
           7
100
AcDbCircle
 10
-52.080756197436
 20
-49.499999999385
 40
99.999999999385
100
AcDbArc
 50
88.910248344851
 51
90.000000000008
  0
ARC
  5
35C
100
AcDbEntity
  8
1
  6
CONTINUOUS
 62
           7
100
AcDbCircle
 10
-52.08075619745
 20
6.508567309498
 40
20.0
100
AcDbArc
 50
74.442005922048
 51
90.0
  0
ARC
  5
35B
100
AcDbEntity
  8
1
  6
CONTINUOUS
 62
           7
100
AcDbCircle
 10
-52.08075619745
 20
0.0
 40
16.999999999996
100
AcDbArc
 50
121.965718750804
 51
-90.0
  0
ARC
  5
35A
100
AcDbEntity
  8
1
  6
CONTINUOUS
 62
           2
100
AcDbCircle
 10
-52.08075619745
 20
0.0
 40
16.499999999996
100
AcDbArc
 50
90.0
 51
-90.0
  0
ARC
  5
359
100
AcDbEntity
  8
1
  6
CONTINUOUS
 62
           7
100
AcDbCircle
 10
-52.08075619745
 20
0.0
 40
16.999999999996
100
AcDbArc
 50
118.394645082397
 51
121.965718750804
  0
ARC
  5
358
100
AcDbEntity
  8
1
  6
CONTINUOUS
 62
           7
100
AcDbCircle
 10
-52.08075619745
 20
0.0
 40
16.999999999996
100
AcDbArc
 50
90.0
 51
118.394645082397
  0
ARC
  5
357
100
AcDbEntity
  8
1
  6
CONTINUOUS
 62
           7
100
AcDbCircle
 10
84.018663852409
 20
-0.41010394857
 40
145.000000000152
100
AcDbArc
 50
170.232858712179
 51
173.092536304274
  0
ARC
  5
356
100
AcDbEntity
  8
1
  6
CONTINUOUS
 62
           7
100
AcDbCircle
 10
-104.09915141496
 20
33.306916192083
 40
47.258073937601
100
AcDbArc
 50
-9.169888990975
 51
-1.634768758673
  0
ARC
  5
355
100
AcDbEntity
  8
1
  6
CONTINUOUS
 62
           7
100
AcDbCircle
 10
542.628436019997
 20
7.195026661858
 40
600.000000000124
100
AcDbArc
 50
176.566986529374
 51
177.634568904563
  0
ARC
  5
354
100
AcDbEntity
  8
1
  6
CONTINUOUS
 62
           7
100
AcDbCircle
 10
-52.080756197464
 20
-49.499999999385
 40
99.999999999385
100
AcDbArc
 50
89.999999999992
 51
91.089751655148
  0
ARC
  5
353
100
AcDbEntity
  8
1
  6
CONTINUOUS
 62
           7
100
AcDbCircle
 10
-52.08075619745
 20
6.508567309498
 40
20.0
100
AcDbArc
 50
90.0
 51
105.557994077952
  0
LINE
  5
352
100
AcDbEntity
  8
1
  6
CONTINUOUS
 62
           7
100
AcDbLine
 10
72.371625834064
 20
10.506830003258
 11
68.402998867466
 21
10.506830003258
  0
LINE
  5
351
100
AcDbEntity
  8
1
  6
CONTINUOUS
 62
           7
100
AcDbLine
 10
76.340252800661
 20
10.506830003258
 11
72.371625834064
 21
10.506830003258
  0
LINE
  5
350
100
AcDbEntity
  8
1
  6
CONTINUOUS
 62
           7
100
AcDbLine
 10
72.371625834064
 20
11.506830003261
 11
76.340252800662
 21
11.506830003261
  0
LINE
  5
34F
100
AcDbEntity
  8
1
  6
CONTINUOUS
 62
           7
100
AcDbLine
 10
68.402998867466
 20
11.506830003261
 11
72.371625834064
 21
11.506830003261
  0
LINE
  5
34E
100
AcDbEntity
  8
1
  6
CONTINUOUS
 62
           2
100
AcDbLine
 10
142.371625834062
 20
-5.043169996747
 11
139.571625834069
 21
-5.043169996747
  0
LINE
  5
34D
100
AcDbEntity
  8
1
  6
CONTINUOUS
 62
           7
100
AcDbLine
 10
142.371625834062
 20
-5.493169996747
 11
137.571625834064
 21
-5.493169996747
  0
LINE
  5
34C
100
AcDbEntity
  8
1
  6
CONTINUOUS
 62
           7
100
AcDbLine
 10
137.28295069947
 20
-6.493169996746
 11
137.571625834064
 21
-5.993169996747
  0
LINE
  5
34B
100
AcDbEntity
  8
1
  6
CONTINUOUS
 62
           7
100
AcDbLine
 10
139.571625834069
 20
-5.043169996747
 11
139.571625834069
 21
-5.493169996747
  0
LINE
  5
34A
100
AcDbEntity
  8
1
  6
CONTINUOUS
 62
           2
100
AcDbLine
 10
137.571625834069
 20
-5.493169996747
 11
139.571625834069
 21
-5.043169996747
  0
LINE
  5
349
100
AcDbEntity
  8
1
  6
CONTINUOUS
 62
           7
100
AcDbLine
 10
137.571625834064
 20
-5.493169996747
 11
137.571625834064
 21
-5.993169996747
  0
LINE
  5
348
100
AcDbEntity
  8
1
  6
CONTINUOUS
 62
           7
100
AcDbLine
 10
134.571625834064
 20
-5.993169996745
 11
134.571625834064
 21
-4.893169996745
  0
LINE
  5
347
100
AcDbEntity
  8
1
  6
CONTINUOUS
 62
           7
100
AcDbLine
 10
137.28295069947
 20
-6.493169996746
 11
134.860300968658
 21
-6.493169996745
  0
LINE
  5
346
100
AcDbEntity
  8
1
  6
CONTINUOUS
 62
           7
100
AcDbLine
 10
134.571625834064
 20
-5.993169996745
 11
134.860300968658
 21
-6.493169996745
  0
LINE
  5
345
100
AcDbEntity
  8
1
  6
CONTINUOUS
 62
           7
100
AcDbLine
 10
137.571625834064
 20
6.006830003256
 11
137.28295069947
 21
6.506830003255
  0
LINE
  5
344
100
AcDbEntity
  8
1
  6
CONTINUOUS
 62
           7
100
AcDbLine
 10
139.571625834069
 20
5.506830003256
 11
139.571625834069
 21
5.056830003256
  0
LINE
  5
343
100
AcDbEntity
  8
1
  6
CONTINUOUS
 62
           2
100
AcDbLine
 10
139.571625834069
 20
5.056830003256
 11
137.571625834069
 21
5.506830003256
  0
LINE
  5
342
100
AcDbEntity
  8
1
  6
CONTINUOUS
 62
           7
100
AcDbLine
 10
137.571625834064
 20
6.006830003256
 11
137.571625834064
 21
5.506830003256
  0
LINE
  5
341
100
AcDbEntity
  8
1
  6
CONTINUOUS
 62
           2
100
AcDbLine
 10
139.571625834069
 20
5.056830003256
 11
142.371625834062
 21
5.056830003255
  0
LINE
  5
340
100
AcDbEntity
  8
1
  6
CONTINUOUS
 62
           7
100
AcDbLine
 10
137.571625834064
 20
5.506830003256
 11
142.371625834062
 21
5.506830003256
  0
LINE
  5
33F
100
AcDbEntity
  8
1
  6
CONTINUOUS
 62
           7
100
AcDbLine
 10
134.571625834064
 20
4.906830003254
 11
134.571625834064
 21
6.006830003255
  0
LINE
  5
33E
100
AcDbEntity
  8
1
  6
CONTINUOUS
 62
           7
100
AcDbLine
 10
134.860300968658
 20
6.506830003255
 11
137.28295069947
 21
6.506830003255
  0
LINE
  5
33D
100
AcDbEntity
  8
1
  6
CONTINUOUS
 62
           7
100
AcDbLine
 10
134.860300968658
 20
6.506830003255
 11
134.571625834064
 21
6.006830003255
  0
LINE
  5
33C
100
AcDbEntity
  8
1
  6
CONTINUOUS
 62
           7
100
AcDbLine
 10
137.571625834064
 20
-5.493169996745
 11
137.571625834064
 21
0.006830003256
  0
LINE
  5
33B
100
AcDbEntity
  8
1
  6
CONTINUOUS
 62
           2
100
AcDbLine
 10
134.847536092141
 20
-2.493169996743
 11
137.295715575987
 21
-2.493169996744
  0
LINE
  5
33A
100
AcDbEntity
  8
1
  6
CONTINUOUS
 62
           2
100
AcDbLine
 10
137.295715575987
 20
-2.493169996744
 11
137.304178579594
 21
-3.939322419451
  0
LINE
  5
339
100
AcDbEntity
  8
1
  6
CONTINUOUS
 62
           7
100
AcDbLine
 10
137.571625834064
 20
6.006830003256
 11
137.571625834064
 21
5.506830003256
  0
LINE
  5
338
100
AcDbEntity
  8
1
  6
CONTINUOUS
 62
           7
100
AcDbLine
 10
137.571625834064
 20
6.006830003256
 11
137.28295069947
 21
6.506830003255
  0
LINE
  5
337
100
AcDbEntity
  8
1
  6
CONTINUOUS
 62
           7
100
AcDbLine
 10
137.571625834064
 20
-5.493169996745
 11
137.571625834064
 21
-5.993169996744
  0
LINE
  5
336
100
AcDbEntity
  8
1
  6
CONTINUOUS
 62
           7
100
AcDbLine
 10
137.28295069947
 20
-6.493169996743
 11
137.571625834064
 21
-5.993169996744
  0
LINE
  5
335
100
AcDbEntity
  8
1
  6
CONTINUOUS
 62
           7
100
AcDbLine
 10
137.571625834064
 20
5.506830003256
 11
137.571625834064
 21
0.006830003256
  0
LINE
  5
334
100
AcDbEntity
  8
1
  6
CONTINUOUS
 62
           2
100
AcDbLine
 10
137.304178579594
 20
3.952982425963
 11
137.295715575987
 21
2.506830003255
  0
LINE
  5
333
100
AcDbEntity
  8
1
  6
CONTINUOUS
 62
           7
100
AcDbLine
 10
134.571625834064
 20
0.006830003254
 11
134.571625834064
 21
-4.993169996746
  0
LINE
  5
332
100
AcDbEntity
  8
1
  6
CONTINUOUS
 62
           7
100
AcDbLine
 10
134.571625834064
 20
-4.993169996746
 11
134.571625834064
 21
-5.693169996746
  0
LINE
  5
331
100
AcDbEntity
  8
1
  6
CONTINUOUS
 62
           7
100
AcDbLine
 10
134.571625834064
 20
5.006830003254
 11
134.571625834064
 21
0.006830003254
  0
LINE
  5
330
100
AcDbEntity
  8
1
  6
CONTINUOUS
 62
           7
100
AcDbLine
 10
134.571625834064
 20
5.706830003254
 11
134.571625834064
 21
5.006830003254
  0
LINE
  5
32F
100
AcDbEntity
  8
1
  6
CONTINUOUS
 62
           7
100
AcDbLine
 10
134.860300968658
 20
6.506830003255
 11
134.571625834064
 21
6.006830003255
  0
LINE
  5
32E
100
AcDbEntity
  8
1
  6
CONTINUOUS
 62
           7
100
AcDbLine
 10
134.571625834064
 20
4.906830003254
 11
134.571625834064
 21
6.006830003255
  0
LINE
  5
32D
100
AcDbEntity
  8
1
  6
CONTINUOUS
 62
           7
100
AcDbLine
 10
134.571625834064
 20
-5.993169996743
 11
134.860300968658
 21
-6.493169996744
  0
LINE
  5
32C
100
AcDbEntity
  8
1
  6
CONTINUOUS
 62
           7
100
AcDbLine
 10
134.571625834064
 20
-5.993169996743
 11
134.571625834064
 21
-4.893169996743
  0
LINE
  5
32B
100
AcDbEntity
  8
1
  6
CONTINUOUS
 62
           7
100
AcDbLine
 10
134.571625834064
 20
4.906830003254
 11
134.571625834064
 21
0.006830003256
  0
LINE
  5
32A
100
AcDbEntity
  8
1
  6
CONTINUOUS
 62
           7
100
AcDbLine
 10
134.571625834064
 20
-4.893169996743
 11
134.571625834064
 21
0.006830003256
  0
LINE
  5
329
100
AcDbEntity
  8
1
  6
CONTINUOUS
 62
           2
100
AcDbLine
 10
134.839073088534
 20
3.952982425963
 11
134.847536092141
 21
2.506830003255
  0
LINE
  5
328
100
AcDbEntity
  8
1
  6
CONTINUOUS
 62
           2
100
AcDbLine
 10
134.839073088534
 20
-3.939322419451
 11
134.847536092141
 21
-2.493169996743
  0
LINE
  5
327
100
AcDbEntity
  8
1
  6
CONTINUOUS
 62
           2
100
AcDbLine
 10
137.304178579594
 20
-3.939322419451
 11
134.839073088534
 21
-3.939322419451
  0
LINE
  5
326
100
AcDbEntity
  8
1
  6
CONTINUOUS
 62
           2
100
AcDbLine
 10
134.839073088534
 20
3.952982425963
 11
137.304178579594
 21
3.952982425963
  0
LINE
  5
325
100
AcDbEntity
  8
1
  6
CONTINUOUS
 62
           2
100
AcDbLine
 10
137.295715575987
 20
2.506830003255
 11
134.847536092141
 21
2.506830003255
  0
LINE
  5
324
100
AcDbEntity
  8
1
  6
CONTINUOUS
 62
           7
100
AcDbLine
 10
139.571625834069
 20
5.056830003256
 11
139.571625834069
 21
-5.043169996747
  0
LINE
  5
323
100
AcDbEntity
  8
1
  6
CONTINUOUS
 62
           7
100
AcDbLine
 10
158.871625834059
 20
8.006830003256
 11
158.871625834059
 21
0.006830003257
  0
LINE
  5
322
100
AcDbEntity
  8
1
  6
CONTINUOUS
 62
           7
100
AcDbLine
 10
158.871625834059
 20
-7.993169996744
 11
158.871625834059
 21
0.006830003257
  0
LINE
  5
321
100
AcDbEntity
  8
1
  6
CONTINUOUS
 62
           2
100
AcDbLine
 10
158.871625834059
 20
-7.729063796755
 11
142.871625834061
 21
-7.729063796755
  0
LINE
  5
320
100
AcDbEntity
  8
1
  6
CONTINUOUS
 62
           2
100
AcDbLine
 10
142.871625834061
 20
-7.450879566185
 11
158.871625834059
 21
-7.450879566185
  0
LINE
  5
31F
100
AcDbEntity
  8
1
  6
CONTINUOUS
 62
           2
100
AcDbLine
 10
158.871625834059
 20
-6.71996441596
 11
142.871625834061
 21
-6.71996441596
  0
LINE
  5
31E
100
AcDbEntity
  8
1
  6
CONTINUOUS
 62
           2
100
AcDbLine
 10
142.871625834061
 20
-6.33806269721
 11
158.871625834059
 21
-6.338062697211
  0
LINE
  5
31D
100
AcDbEntity
  8
1
  6
CONTINUOUS
 62
           2
100
AcDbLine
 10
158.871625834059
 20
-6.190826565532
 11
142.871625834061
 21
-6.190826565532
  0
LINE
  5
31C
100
AcDbEntity
  8
1
  6
CONTINUOUS
 62
           2
100
AcDbLine
 10
158.871625834059
 20
-5.05239952908
 11
142.871625834061
 21
-5.05239952908
  0
LINE
  5
31B
100
AcDbEntity
  8
1
  6
CONTINUOUS
 62
           2
100
AcDbLine
 10
158.871625834059
 20
-4.734490787663
 11
142.871625834061
 21
-4.734490787663
  0
LINE
  5
31A
100
AcDbEntity
  8
1
  6
CONTINUOUS
 62
           2
100
AcDbLine
 10
158.871625834059
 20
-4.324103758314
 11
142.871625834061
 21
-4.324103758314
  0
LINE
  5
319
100
AcDbEntity
  8
1
  6
CONTINUOUS
 62
           2
100
AcDbLine
 10
142.871625834061
 20
-2.88960200585
 11
158.871625834059
 21
-2.88960200585
  0
LINE
  5
318
100
AcDbEntity
  8
1
  6
CONTINUOUS
 62
           2
100
AcDbLine
 10
158.871625834058
 20
-2.666805364375
 11
142.871625834061
 21
-2.666805364375
  0
LINE
  5
317
100
AcDbEntity
  8
1
  6
CONTINUOUS
 62
           2
100
AcDbLine
 10
142.871625834061
 20
-2.033438979123
 11
158.871625834059
 21
-2.033438979123
  0
LINE
  5
316
100
AcDbEntity
  8
1
  6
CONTINUOUS
 62
           2
100
AcDbLine
 10
158.871625834059
 20
-0.44328153694
 11
142.871625834062
 21
-0.44328153694
  0
LINE
  5
315
100
AcDbEntity
  8
1
  6
CONTINUOUS
 62
           2
100
AcDbLine
 10
158.871625834059
 20
-0.337405882991
 11
142.871625834062
 21
-0.337405882991
  0
LINE
  5
314
100
AcDbEntity
  8
1
  6
CONTINUOUS
 62
           2
100
AcDbLine
 10
142.871625834062
 20
0.351065889503
 11
158.871625834059
 21
0.351065889503
  0
LINE
  5
313
100
AcDbEntity
  8
1
  6
CONTINUOUS
 62
           2
100
AcDbLine
 10
158.871625834059
 20
2.047098985635
 11
142.871625834061
 21
2.047098985635
  0
LINE
  5
312
100
AcDbEntity
  8
1
  6
CONTINUOUS
 62
           2
100
AcDbLine
 10
142.871625834061
 20
0.456941543452
 11
158.871625834059
 21
0.456941543452
  0
LINE
  5
311
100
AcDbEntity
  8
1
  6
CONTINUOUS
 62
           2
100
AcDbLine
 10
158.871625834059
 20
2.680465370887
 11
142.871625834062
 21
2.680465370887
  0
LINE
  5
310
100
AcDbEntity
  8
1
  6
CONTINUOUS
 62
           2
100
AcDbLine
 10
142.871625834061
 20
2.903262012362
 11
158.871625834059
 21
2.903262012362
  0
LINE
  5
30F
100
AcDbEntity
  8
1
  6
CONTINUOUS
 62
           2
100
AcDbLine
 10
158.871625834059
 20
4.337763764826
 11
142.871625834061
 21
4.337763764826
  0
LINE
  5
30E
100
AcDbEntity
  8
1
  6
CONTINUOUS
 62
           2
100
AcDbLine
 10
158.871625834059
 20
4.748150794174
 11
142.871625834061
 21
4.748150794174
  0
LINE
  5
30D
100
AcDbEntity
  8
1
  6
CONTINUOUS
 62
           2
100
AcDbLine
 10
158.871625834059
 20
5.066059535592
 11
142.871625834061
 21
5.066059535592
  0
LINE
  5
30C
100
AcDbEntity
  8
1
  6
CONTINUOUS
 62
           2
100
AcDbLine
 10
158.871625834058
 20
6.204486572044
 11
142.871625834061
 21
6.204486572044
  0
LINE
  5
30B
100
AcDbEntity
  8
1
  6
CONTINUOUS
 62
           2
100
AcDbLine
 10
142.871625834061
 20
6.351722703722
 11
158.871625834059
 21
6.351722703722
  0
LINE
  5
30A
100
AcDbEntity
  8
1
  6
CONTINUOUS
 62
           2
100
AcDbLine
 10
158.871625834059
 20
6.733624422472
 11
142.871625834061
 21
6.733624422472
  0
LINE
  5
309
100
AcDbEntity
  8
1
  6
CONTINUOUS
 62
           2
100
AcDbLine
 10
142.871625834061
 20
7.464539572697
 11
158.871625834059
 21
7.464539572697
  0
LINE
  5
308
100
AcDbEntity
  8
1
  6
CONTINUOUS
 62
           2
100
AcDbLine
 10
158.871625834059
 20
7.742723803267
 11
142.871625834061
 21
7.742723803266
  0
LINE
  5
307
100
AcDbEntity
  8
1
  6
CONTINUOUS
 62
           7
100
AcDbLine
 10
142.371625834061
 20
0.006830003256
 11
142.371625834062
 21
5.756830003257
  0
LINE
  5
306
100
AcDbEntity
  8
1
  6
CONTINUOUS
 62
           7
100
AcDbLine
 10
142.871625834061
 20
8.006830003256
 11
158.871625834059
 21
8.006830003256
  0
LINE
  5
305
100
AcDbEntity
  8
1
  6
CONTINUOUS
 62
           7
100
AcDbLine
 10
159.871625834059
 20
0.006830003256
 11
159.871625834059
 21
7.006830003256
  0
LINE
  5
304
100
AcDbEntity
  8
1
  6
CONTINUOUS
 62
           7
100
AcDbLine
 10
142.871625834061
 20
8.006830003256
 11
142.371625834062
 21
7.506830003256
  0
LINE
  5
303
100
AcDbEntity
  8
1
  6
CONTINUOUS
 62
           7
100
AcDbLine
 10
142.371625834062
 20
5.756830003257
 11
142.371625834062
 21
7.506830003256
  0
LINE
  5
302
100
AcDbEntity
  8
1
  6
CONTINUOUS
 62
           7
100
AcDbLine
 10
142.371625834062
 20
-5.743169996745
 11
142.371625834061
 21
0.006830003256
  0
LINE
  5
301
100
AcDbEntity
  8
1
  6
CONTINUOUS
 62
           7
100
AcDbLine
 10
158.871625834059
 20
-7.993169996744
 11
142.871625834061
 21
-7.993169996744
  0
LINE
  5
300
100
AcDbEntity
  8
1
  6
CONTINUOUS
 62
           7
100
AcDbLine
 10
159.871625834059
 20
-6.993169996744
 11
159.871625834059
 21
0.006830003256
  0
LINE
  5
2FF
100
AcDbEntity
  8
1
  6
CONTINUOUS
 62
           7
100
AcDbLine
 10
142.371625834062
 20
-7.493169996744
 11
142.871625834061
 21
-7.993169996744
  0
LINE
  5
2FE
100
AcDbEntity
  8
1
  6
CONTINUOUS
 62
           7
100
AcDbLine
 10
142.371625834062
 20
-7.493169996744
 11
142.371625834062
 21
-5.743169996745
  0
LINE
  5
2FD
100
AcDbEntity
  8
1
  6
CONTINUOUS
 62
           7
100
AcDbLine
 10
142.871625834061
 20
8.006830003256
 11
142.871625834062
 21
0.006830003257
  0
LINE
  5
2FC
100
AcDbEntity
  8
1
  6
CONTINUOUS
 62
           7
100
AcDbLine
 10
142.871625834061
 20
-7.993169996744
 11
142.871625834062
 21
0.006830003257
  0
LINE
  5
2FB
100
AcDbEntity
  8
1
  6
CONTINUOUS
 62
           2
100
AcDbLine
 10
124.071625834064
 20
3.256445365108
 11
128.898860548007
 21
3.256445365108
  0
LINE
  5
2FA
100
AcDbEntity
  8
1
  6
CONTINUOUS
 62
           2
100
AcDbLine
 10
124.071625834064
 20
-5.729578247985
 11
128.910272514957
 21
-5.729578247985
  0
LINE
  5
2F9
100
AcDbEntity
  8
1
  6
CONTINUOUS
 62
           7
100
AcDbLine
 10
124.071625834064
 20
8.006830003256
 11
125.171625834064
 21
9.106830003256
  0
LINE
  5
2F8
100
AcDbEntity
  8
1
  6
CONTINUOUS
 62
           2
100
AcDbLine
 10
128.910272514957
 20
5.743238254499
 11
128.898860548007
 21
3.256445365108
  0
LINE
  5
2F7
100
AcDbEntity
  8
1
  6
CONTINUOUS
 62
           2
100
AcDbLine
 10
128.910272514957
 20
-5.729578247985
 11
128.898860548007
 21
-3.242785358594
  0
LINE
  5
2F6
100
AcDbEntity
  8
1
  6
CONTINUOUS
 62
           2
100
AcDbLine
 10
128.898860548007
 20
-3.242785358594
 11
124.071625834064
 21
-3.242785358594
  0
LINE
  5
2F5
100
AcDbEntity
  8
1
  6
CONTINUOUS
 62
           2
100
AcDbLine
 10
128.910272514957
 20
5.743238254499
 11
124.071625834064
 21
5.743238254499
  0
LINE
  5
2F4
100
AcDbEntity
  8
1
  6
CONTINUOUS
 62
           7
100
AcDbLine
 10
134.571625834064
 20
0.006830003256
 11
134.571625834064
 21
-4.993169996744
  0
LINE
  5
2F3
100
AcDbEntity
  8
1
  6
CONTINUOUS
 62
           7
100
AcDbLine
 10
133.771625834064
 20
-6.493169996744
 11
129.660300968659
 21
-6.493169996744
  0
LINE
  5
2F2
100
AcDbEntity
  8
1
  6
CONTINUOUS
 62
           7
100
AcDbLine
 10
129.227288266766
 20
-6.743169996744
 11
127.870515134171
 21
-9.093169996744
  0
LINE
  5
2F1
100
AcDbEntity
  8
1
  6
CONTINUOUS
 62
           7
100
AcDbLine
 10
127.870515134171
 20
-9.093169996744
 11
125.171625834064
 21
-9.093169996744
  0
LINE
  5
2F0
100
AcDbEntity
  8
1
  6
CONTINUOUS
 62
           7
100
AcDbLine
 10
125.171625834064
 20
-9.093169996744
 11
124.071625834064
 21
-7.993169996744
  0
LINE
  5
2EF
100
AcDbEntity
  8
1
  6
CONTINUOUS
 62
           7
100
AcDbLine
 10
133.771625834064
 20
-6.493169996744
 11
134.571625834064
 21
-5.693169996744
  0
LINE
  5
2EE
100
AcDbEntity
  8
1
  6
CONTINUOUS
 62
           7
100
AcDbLine
 10
134.571625834064
 20
-4.993169996744
 11
134.571625834064
 21
-5.693169996744
  0
LINE
  5
2ED
100
AcDbEntity
  8
1
  6
CONTINUOUS
 62
           7
100
AcDbLine
 10
134.571625834064
 20
5.006830003256
 11
134.571625834064
 21
0.006830003256
  0
LINE
  5
2EC
100
AcDbEntity
  8
1
  6
CONTINUOUS
 62
           7
100
AcDbLine
 10
129.660300968659
 20
6.506830003256
 11
133.771625834064
 21
6.506830003256
  0
LINE
  5
2EB
100
AcDbEntity
  8
1
  6
CONTINUOUS
 62
           7
100
AcDbLine
 10
127.870515134171
 20
9.106830003256
 11
129.227288266767
 21
6.756830003256
  0
LINE
  5
2EA
100
AcDbEntity
  8
1
  6
CONTINUOUS
 62
           7
100
AcDbLine
 10
125.171625834064
 20
9.106830003256
 11
127.870515134171
 21
9.106830003256
  0
LINE
  5
2E9
100
AcDbEntity
  8
1
  6
CONTINUOUS
 62
           7
100
AcDbLine
 10
134.571625834064
 20
5.706830003256
 11
133.771625834064
 21
6.506830003256
  0
LINE
  5
2E8
100
AcDbEntity
  8
1
  6
CONTINUOUS
 62
           7
100
AcDbLine
 10
134.571625834064
 20
5.706830003256
 11
134.571625834064
 21
5.006830003256
  0
LINE
  5
2E7
100
AcDbEntity
  8
1
  6
CONTINUOUS
 62
           7
100
AcDbLine
 10
133.771625834064
 20
6.506830003256
 11
133.771625834064
 21
0.006830003256
  0
LINE
  5
2E6
100
AcDbEntity
  8
1
  6
CONTINUOUS
 62
           7
100
AcDbLine
 10
133.771625834064
 20
-6.493169996744
 11
133.771625834064
 21
0.006830003256
  0
LINE
  5
2E5
100
AcDbEntity
  8
1
  6
CONTINUOUS
 62
           7
100
AcDbLine
 10
129.227288266767
 20
6.756830003256
 11
129.227288266767
 21
0.006830003257
  0
LINE
  5
2E4
100
AcDbEntity
  8
1
  6
CONTINUOUS
 62
           7
100
AcDbLine
 10
129.227288266766
 20
-6.743169996744
 11
129.227288266767
 21
0.006830003257
  0
LINE
  5
2E3
100
AcDbEntity
  8
1
  6
CONTINUOUS
 62
           7
100
AcDbLine
 10
129.660300968659
 20
6.506830003256
 11
129.660300968659
 21
0.006830003257
  0
LINE
  5
2E2
100
AcDbEntity
  8
1
  6
CONTINUOUS
 62
           7
100
AcDbLine
 10
129.660300968659
 20
-6.493169996744
 11
129.660300968659
 21
0.006830003257
  0
LINE
  5
2E1
100
AcDbEntity
  8
1
  6
CONTINUOUS
 62
           7
100
AcDbLine
 10
107.606488638837
 20
23.52947016091
 11
109.469733762461
 21
23.692482986598
  0
LINE
  5
2E0
100
AcDbEntity
  8
1
  6
CONTINUOUS
 62
           7
100
AcDbLine
 10
115.265613447611
 20
14.813841273178
 11
114.699101119751
 21
21.289106810774
  0
LINE
  5
2DF
100
AcDbEntity
  8
1
  6
CONTINUOUS
 62
           7
100
AcDbLine
 10
114.699101119751
 20
21.289106810774
 11
114.132588791891
 21
27.76437234837
  0
LINE
  5
2DE
100
AcDbEntity
  8
1
  6
CONTINUOUS
 62
           2
100
AcDbLine
 10
115.245987255561
 20
15.038169674805
 11
110.763111114148
 21
14.645968832441
  0
LINE
  5
2DD
100
AcDbEntity
  8
1
  6
CONTINUOUS
 62
           2
100
AcDbLine
 10
110.742911659899
 20
14.876849651003
 11
115.225787801312
 21
15.269050493368
  0
LINE
  5
2DC
100
AcDbEntity
  8
1
  6
CONTINUOUS
 62
           2
100
AcDbLine
 10
110.691889094528
 20
15.460040241815
 11
115.174765235941
 21
15.85224108418
  0
LINE
  5
2DB
100
AcDbEntity
  8
1
  6
CONTINUOUS
 62
           2
100
AcDbLine
 10
115.14198233173
 20
16.226951393946
 11
110.659106190317
 21
15.834750551582
  0
LINE
  5
2DA
100
AcDbEntity
  8
1
  6
CONTINUOUS
 62
           2
100
AcDbLine
 10
110.653467449348
 20
15.899201655778
 11
115.136343590761
 21
16.291402498142
  0
LINE
  5
2D9
100
AcDbEntity
  8
1
  6
CONTINUOUS
 62
           2
100
AcDbLine
 10
115.056874082064
 20
17.199743139024
 11
110.573997940651
 21
16.807542296659
  0
LINE
  5
2D8
100
AcDbEntity
  8
1
  6
CONTINUOUS
 62
           2
100
AcDbLine
 10
115.003991224284
 20
17.804196969371
 11
110.521115082871
 21
17.411996127006
  0
LINE
  5
2D7
100
AcDbEntity
  8
1
  6
CONTINUOUS
 62
           2
100
AcDbLine
 10
110.546708270807
 20
17.119464650305
 11
115.02958441222
 21
17.51166549267
  0
LINE
  5
2D6
100
AcDbEntity
  8
1
  6
CONTINUOUS
 62
           2
100
AcDbLine
 10
110.420977660056
 20
18.556572107245
 11
114.903853801469
 21
18.948772949609
  0
LINE
  5
2D5
100
AcDbEntity
  8
1
  6
CONTINUOUS
 62
           2
100
AcDbLine
 10
110.401852527601
 20
18.775173371506
 11
114.884728669014
 21
19.16737421387
  0
LINE
  5
2D4
100
AcDbEntity
  8
1
  6
CONTINUOUS
 62
           2
100
AcDbLine
 10
114.841686273664
 20
19.659351043949
 11
110.358810132252
 21
19.267150201584
  0
LINE
  5
2D3
100
AcDbEntity
  8
1
  6
CONTINUOUS
 62
           2
100
AcDbLine
 10
110.247806943962
 20
20.535922449506
 11
114.730683085374
 21
20.928123291871
  0
LINE
  5
2D2
100
AcDbEntity
  8
1
  6
CONTINUOUS
 62
           2
100
AcDbLine
 10
114.667519154127
 20
21.650090329677
 11
110.184643012714
 21
21.257889487313
  0
LINE
  5
2D1
100
AcDbEntity
  8
1
  6
CONTINUOUS
 62
           2
100
AcDbLine
 10
110.073639824425
 20
22.526661735235
 11
114.556515965838
 21
22.9188625776
  0
LINE
  5
2D0
100
AcDbEntity
  8
1
  6
CONTINUOUS
 62
           2
100
AcDbLine
 10
114.513473570489
 20
23.410839407678
 11
110.030597429076
 21
23.018638565313
  0
LINE
  5
2CF
100
AcDbEntity
  8
1
  6
CONTINUOUS
 62
           2
100
AcDbLine
 10
114.494348438033
 20
23.629440671939
 11
110.01147229662
 21
23.237239829574
  0
LINE
  5
2CE
100
AcDbEntity
  8
1
  6
CONTINUOUS
 62
           2
100
AcDbLine
 10
109.911334873805
 20
24.381815809813
 11
114.394211015218
 21
24.774016652178
  0
LINE
  5
2CD
100
AcDbEntity
  8
1
  6
CONTINUOUS
 62
           2
100
AcDbLine
 10
114.368617827283
 20
25.066548128878
 11
109.88574168587
 21
24.674347286514
  0
LINE
  5
2CC
100
AcDbEntity
  8
1
  6
CONTINUOUS
 62
           2
100
AcDbLine
 10
109.858452016025
 20
24.98626964016
 11
114.341328157438
 21
25.378470482525
  0
LINE
  5
2CB
100
AcDbEntity
  8
1
  6
CONTINUOUS
 62
           2
100
AcDbLine
 10
114.261858648741
 20
26.286811123406
 11
109.778982507328
 21
25.894610281041
  0
LINE
  5
2CA
100
AcDbEntity
  8
1
  6
CONTINUOUS
 62
           2
100
AcDbLine
 10
109.77334376636
 20
25.959061385238
 11
114.256219907772
 21
26.351262227602
  0
LINE
  5
2C9
100
AcDbEntity
  8
1
  6
CONTINUOUS
 62
           2
100
AcDbLine
 10
114.223437003561
 20
26.725972537368
 11
109.740560862149
 21
26.333771695004
  0
LINE
  5
2C8
100
AcDbEntity
  8
1
  6
CONTINUOUS
 62
           2
100
AcDbLine
 10
109.669338842528
 20
27.147843104378
 11
114.152214983941
 21
27.540043946743
  0
LINE
  5
2C7
100
AcDbEntity
  8
1
  6
CONTINUOUS
 62
           2
100
AcDbLine
 10
114.17241443819
 20
27.30916312818
 11
109.689538296777
 21
26.916962285816
  0
LINE
  5
2C6
100
AcDbEntity
  8
1
  6
CONTINUOUS
 62
           7
100
AcDbLine
 10
109.195193172807
 20
26.830496285586
 11
109.469733762461
 21
23.692482986598
  0
LINE
  5
2C5
100
AcDbEntity
  8
1
  6
CONTINUOUS
 62
           7
100
AcDbLine
 10
109.649712650478
 20
27.372171506006
 11
114.132588791891
 21
27.76437234837
  0
LINE
  5
2C4
100
AcDbEntity
  8
1
  6
CONTINUOUS
 62
           7
100
AcDbLine
 10
109.649712650478
 20
27.372171506006
 11
109.195193172807
 21
26.830496285586
  0
LINE
  5
2C3
100
AcDbEntity
  8
1
  6
CONTINUOUS
 62
           7
100
AcDbLine
 10
115.215939232731
 20
26.855333393026
 11
115.695295817843
 21
21.376262553522
  0
LINE
  5
2C2
100
AcDbEntity
  8
1
  6
CONTINUOUS
 62
           7
100
AcDbLine
 10
109.966521496123
 20
18.014173207474
 11
108.103276372499
 21
17.851160381787
  0
LINE
  5
2C1
100
AcDbEntity
  8
1
  6
CONTINUOUS
 62
           7
100
AcDbLine
 10
109.966521496123
 20
18.014173207474
 11
110.241062085778
 21
14.876159908485
  0
LINE
  5
2C0
100
AcDbEntity
  8
1
  6
CONTINUOUS
 62
           7
100
AcDbLine
 10
115.265613447611
 20
14.813841273178
 11
110.782737306198
 21
14.421640430813
  0
LINE
  5
2BF
100
AcDbEntity
  8
1
  6
CONTINUOUS
 62
           7
100
AcDbLine
 10
110.241062085778
 20
14.876159908485
 11
110.782737306198
 21
14.421640430813
  0
LINE
  5
2BE
100
AcDbEntity
  8
1
  6
CONTINUOUS
 62
           7
100
AcDbLine
 10
115.695295817843
 20
21.376262553522
 11
116.174652402955
 21
15.897191714017
  0
LINE
  5
2BD
100
AcDbEntity
  8
1
  6
CONTINUOUS
 62
           7
100
AcDbLine
 10
109.469733762461
 20
23.692482986598
 11
109.718127629292
 21
20.853328097032
  0
LINE
  5
2BC
100
AcDbEntity
  8
1
  6
CONTINUOUS
 62
           7
100
AcDbLine
 10
109.966521496123
 20
18.014173207474
 11
109.718127629292
 21
20.853328097032
  0
LINE
  5
2BB
100
AcDbEntity
  8
1
  6
CONTINUOUS
 62
           7
100
AcDbLine
 10
110.782737306198
 20
14.421640430813
 11
110.216224978339
 21
20.896905968406
  0
LINE
  5
2BA
100
AcDbEntity
  8
1
  6
CONTINUOUS
 62
           7
100
AcDbLine
 10
109.649712650478
 20
27.372171506006
 11
110.216224978339
 21
20.896905968406
  0
LINE
  5
2B9
100
AcDbEntity
  8
1
  6
CONTINUOUS
 62
           7
100
AcDbLine
 10
104.038138161923
 20
13.83156446566
 11
104.688148426428
 21
13.286141092453
  0
LINE
  5
2B8
100
AcDbEntity
  8
1
  6
CONTINUOUS
 62
           2
100
AcDbLine
 10
107.773107828174
 20
17.822274377106
 11
107.898427761308
 21
16.477198871676
  0
LINE
  5
2B7
100
AcDbEntity
  8
1
  6
CONTINUOUS
 62
           2
100
AcDbLine
 10
107.166166225927
 20
24.84698652037
 11
107.276320094511
 21
23.500584156229
  0
LINE
  5
2B6
100
AcDbEntity
  8
1
  6
CONTINUOUS
 62
           2
100
AcDbLine
 10
107.898427761308
 20
16.477198871676
 11
104.43547342061
 21
16.174229624557
  0
LINE
  5
2B5
100
AcDbEntity
  8
1
  6
CONTINUOUS
 62
           2
100
AcDbLine
 10
104.318309252507
 20
17.513422193982
 11
107.773107828174
 21
17.822274377106
  0
LINE
  5
2B4
100
AcDbEntity
  8
1
  6
CONTINUOUS
 62
           2
100
AcDbLine
 10
107.274202041768
 20
23.506995323606
 11
103.820376053332
 21
23.204824703827
  0
LINE
  5
2B3
100
AcDbEntity
  8
1
  6
CONTINUOUS
 62
           2
100
AcDbLine
 10
103.70321188523
 20
24.544017273251
 11
107.166166225927
 21
24.84698652037
  0
LINE
  5
2B2
100
AcDbEntity
  8
1
  6
CONTINUOUS
 62
           7
100
AcDbLine
 10
107.597032240749
 20
23.637557285649
 11
107.854882505668
 21
20.690315271345
  0
LINE
  5
2B1
100
AcDbEntity
  8
1
  6
CONTINUOUS
 62
           7
100
AcDbLine
 10
108.112732770587
 20
17.743073257041
 11
108.386532536429
 21
14.613527612986
  0
LINE
  5
2B0
100
AcDbEntity
  8
1
  6
CONTINUOUS
 62
           7
100
AcDbLine
 10
107.477493581085
 20
13.530177172146
 11
104.688148426428
 21
13.286141092453
  0
LINE
  5
2AF
100
AcDbEntity
  8
1
  6
CONTINUOUS
 62
           7
100
AcDbLine
 10
107.854882505668
 20
20.690315271345
 11
108.112732770587
 21
17.743073257041
  0
LINE
  5
2AE
100
AcDbEntity
  8
1
  6
CONTINUOUS
 62
           7
100
AcDbLine
 10
103.450536879411
 20
27.432105805355
 11
106.239882034068
 21
27.676141885049
  0
LINE
  5
2AD
100
AcDbEntity
  8
1
  6
CONTINUOUS
 62
           7
100
AcDbLine
 10
107.323232474907
 20
26.767102929705
 11
107.597032240749
 21
23.637557285649
  0
LINE
  5
2AC
100
AcDbEntity
  8
1
  6
CONTINUOUS
 62
           7
100
AcDbLine
 10
103.450536879411
 20
27.432105805355
 11
102.905113506204
 21
26.782095540851
  0
LINE
  5
2AB
100
AcDbEntity
  8
1
  6
CONTINUOUS
 62
           7
100
AcDbLine
 10
104.688148426428
 20
13.286141092453
 11
104.069342652919
 21
20.359123448904
  0
LINE
  5
2AA
100
AcDbEntity
  8
1
  6
CONTINUOUS
 62
           7
100
AcDbLine
 10
103.450536879411
 20
27.432105805355
 11
104.069342652919
 21
20.359123448904
  0
LINE
  5
2A9
100
AcDbEntity
  8
1
  6
CONTINUOUS
 62
           7
100
AcDbLine
 10
2.438803916277
 20
15.299999999998
 11
-2.516218960541
 21
15.299999999998
  0
LINE
  5
2A8
100
AcDbEntity
  8
1
  6
CONTINUOUS
 62
           7
100
AcDbLine
 10
-14.561196083722
 20
3.5
 11
-9.061196083722
 21
3.500000000001
  0
LINE
  5
2A7
100
AcDbEntity
  8
1
  6
CONTINUOUS
 62
           7
100
AcDbLine
 10
-14.561196083722
 20
-3.499999999999
 11
-14.561196083722
 21
3.5
  0
LINE
  5
2A6
100
AcDbEntity
  8
1
  6
CONTINUOUS
 62
           7
100
AcDbLine
 10
-9.061196083722
 20
-3.5
 11
-14.561196083722
 21
-3.499999999999
  0
LINE
  5
2A5
100
AcDbEntity
  8
1
  6
CONTINUOUS
 62
           7
100
AcDbLine
 10
-9.061196083722
 20
-7.3
 11
-9.061196083722
 21
-7.5
  0
LINE
  5
2A4
100
AcDbEntity
  8
1
  6
CONTINUOUS
 62
           7
100
AcDbLine
 10
-9.061196083722
 20
-7.5
 11
-2.516218960542
 21
-15.299999999998
  0
LINE
  5
2A3
100
AcDbEntity
  8
1
  6
CONTINUOUS
 62
           7
100
AcDbLine
 10
-2.516218960542
 20
-15.299999999998
 11
2.438803916278
 21
-15.299999999998
  0
LINE
  5
2A2
100
AcDbEntity
  8
1
  6
CONTINUOUS
 62
           7
100
AcDbLine
 10
-9.061196083723
 20
7.3
 11
-9.061196083722
 21
3.500000000001
  0
LINE
  5
2A1
100
AcDbEntity
  8
1
  6
LONG_DASHED
 62
           2
100
AcDbLine
 10
-9.061196083723
 20
7.3
 11
-9.063858653951
 21
7.303173127636
  0
LINE
  5
2A0
100
AcDbEntity
  8
1
  6
CONTINUOUS
 62
           7
100
AcDbLine
 10
-9.061196083723
 20
7.5
 11
-9.061196083723
 21
7.3
  0
LINE
  5
29F
100
AcDbEntity
  8
1
  6
CONTINUOUS
 62
           7
100
AcDbLine
 10
-2.516218960541
 20
15.299999999998
 11
-9.061196083723
 21
7.5
  0
LINE
  5
29E
100
AcDbEntity
  8
1
  6
CONTINUOUS
 62
           7
100
AcDbLine
 10
-9.061196083722
 20
-3.5
 11
-9.061196083722
 21
-7.3
  0
LINE
  5
29D
100
AcDbEntity
  8
1
  6
CONTINUOUS
 62
           7
100
AcDbLine
 10
50.371625834064
 20
-5.493169996744
 11
51.328950397904
 21
-5.493169996745
  0
LINE
  5
29C
100
AcDbEntity
  8
1
  6
CONTINUOUS
 62
           2
100
AcDbLine
 10
50.371625834064
 20
-5.193169996744
 11
51.328950397904
 21
-5.193169996744
  0
LINE
  5
29B
100
AcDbEntity
  8
1
  6
CONTINUOUS
 62
           7
100
AcDbLine
 10
55.828950397904
 20
-5.493169996745
 11
55.540275263311
 21
-5.993169996741
  0
LINE
  5
29A
100
AcDbEntity
  8
1
  6
CONTINUOUS
 62
           7
100
AcDbLine
 10
55.540275263308
 20
6.006830003259
 11
55.828950397904
 21
5.506830003256
  0
LINE
  5
299
100
AcDbEntity
  8
1
  6
CONTINUOUS
 62
           7
100
AcDbLine
 10
51.328950397904
 20
5.006830003256
 11
51.328950397904
 21
5.506830003256
  0
LINE
  5
298
100
AcDbEntity
  8
1
  6
CONTINUOUS
 62
           7
100
AcDbLine
 10
51.328950397904
 20
-4.993169996744
 11
51.328950397904
 21
-5.493169996745
  0
LINE
  5
297
100
AcDbEntity
  8
1
  6
CONTINUOUS
 62
           7
100
AcDbLine
 10
51.328950397904
 20
-4.993169996744
 11
52.828950397904
 21
-4.993169996744
  0
LINE
  5
296
100
AcDbEntity
  8
1
  6
CONTINUOUS
 62
           7
100
AcDbLine
 10
51.328950397904
 20
5.006830003256
 11
52.828950397904
 21
5.006830003256
  0
LINE
  5
295
100
AcDbEntity
  8
1
  6
CONTINUOUS
 62
           7
100
AcDbLine
 10
55.828950397904
 20
-1.693169996744
 11
55.828950397904
 21
-5.493169996745
  0
LINE
  5
294
100
AcDbEntity
  8
1
  6
CONTINUOUS
 62
           7
100
AcDbLine
 10
52.828950397904
 20
6.006830003259
 11
52.828950397904
 21
5.006830003256
  0
LINE
  5
293
100
AcDbEntity
  8
1
  6
CONTINUOUS
 62
           7
100
AcDbLine
 10
52.828950397904
 20
-4.993169996744
 11
52.828950397904
 21
-5.993169996742
  0
LINE
  5
292
100
AcDbEntity
  8
1
  6
CONTINUOUS
 62
           7
100
AcDbLine
 10
55.540275263311
 20
-5.993169996741
 11
52.828950397904
 21
-5.993169996742
  0
LINE
  5
291
100
AcDbEntity
  8
1
  6
CONTINUOUS
 62
           7
100
AcDbLine
 10
55.828950397904
 20
5.506830003256
 11
55.828950397904
 21
1.706830003256
  0
LINE
  5
290
100
AcDbEntity
  8
1
  6
CONTINUOUS
 62
           7
100
AcDbLine
 10
55.540275263308
 20
6.006830003259
 11
52.828950397904
 21
6.006830003259
  0
LINE
  5
28F
100
AcDbEntity
  8
1
  6
CONTINUOUS
 62
           2
100
AcDbLine
 10
51.328950397904
 20
5.206830003256
 11
50.379638675188
 21
5.206830003256
  0
LINE
  5
28E
100
AcDbEntity
  8
1
  6
CONTINUOUS
 62
           7
100
AcDbLine
 10
51.328950397904
 20
5.506830003256
 11
50.42213609128
 21
5.506830003255
  0
LINE
  5
28D
100
AcDbEntity
  8
1
  6
CONTINUOUS
 62
           7
100
AcDbLine
 10
55.828950397904
 20
1.706830003256
 11
55.828950397904
 21
0.006830003256
  0
LINE
  5
28C
100
AcDbEntity
  8
1
  6
CONTINUOUS
 62
           7
100
AcDbLine
 10
55.828950397904
 20
-1.693169996744
 11
55.828950397904
 21
0.006830003256
  0
LINE
  5
28B
100
AcDbEntity
  8
1
  6
CONTINUOUS
 62
           7
100
AcDbLine
 10
52.828950397904
 20
-4.993169996744
 11
52.828950397904
 21
0.006830003256
  0
LINE
  5
28A
100
AcDbEntity
  8
1
  6
CONTINUOUS
 62
           7
100
AcDbLine
 10
52.828950397904
 20
5.006830003256
 11
52.828950397904
 21
0.006830003256
  0
LINE
  5
289
100
AcDbEntity
  8
1
  6
CONTINUOUS
 62
           7
100
AcDbLine
 10
51.328950397904
 20
5.006830003256
 11
51.328950397904
 21
0.006830003259
  0
LINE
  5
288
100
AcDbEntity
  8
1
  6
CONTINUOUS
 62
           7
100
AcDbLine
 10
51.328950397904
 20
-4.993169996744
 11
51.328950397904
 21
0.006830003259
  0
LINE
  5
287
100
AcDbEntity
  8
1
  6
CONTINUOUS
 62
           2
100
AcDbLine
 10
55.559481638649
 20
3.571011843239
 11
52.828950397904
 21
3.571011843239
  0
LINE
  5
286
100
AcDbEntity
  8
1
  6
CONTINUOUS
 62
           2
100
AcDbLine
 10
52.828950397904
 20
2.404745764918
 11
55.551712114363
 21
2.404745764918
  0
LINE
  5
285
100
AcDbEntity
  8
1
  6
CONTINUOUS
 62
           2
100
AcDbLine
 10
55.551712114363
 20
-2.391085758407
 11
52.828950397904
 21
-2.391085758407
  0
LINE
  5
284
100
AcDbEntity
  8
1
  6
CONTINUOUS
 62
           2
100
AcDbLine
 10
52.828950397904
 20
-3.557351836728
 11
55.559481638649
 21
-3.557351836728
  0
LINE
  5
283
100
AcDbEntity
  8
1
  6
CONTINUOUS
 62
           2
100
AcDbLine
 10
55.551712114363
 20
-2.391085758407
 11
55.559481638649
 21
-3.557351836728
  0
LINE
  5
282
100
AcDbEntity
  8
1
  6
CONTINUOUS
 62
           2
100
AcDbLine
 10
55.551712114363
 20
2.404745764918
 11
55.559481638649
 21
3.571011843239
  0
LINE
  5
281
100
AcDbEntity
  8
1
  6
CONTINUOUS
 62
           7
100
AcDbLine
 10
143.090376829118
 20
-105.902348378408
 11
143.158892395319
 21
-106.158051952583
  0
LINE
  5
280
100
AcDbEntity
  8
1
  6
CONTINUOUS
 62
           2
100
AcDbLine
 10
136.782822605901
 20
-112.756107057282
 11
134.853273653789
 21
-113.282951819308
  0
LINE
  5
27F
100
AcDbEntity
  8
1
  6
CONTINUOUS
 62
           2
100
AcDbLine
 10
143.948762403175
 20
-110.845822954144
 11
142.014301611787
 21
-111.354336482435
  0
LINE
  5
27E
100
AcDbEntity
  8
1
  6
CONTINUOUS
 62
           2
100
AcDbLine
 10
143.603893148451
 20
-109.558753373545
 11
141.671888276701
 21
-110.076432518703
  0
LINE
  5
27D
100
AcDbEntity
  8
1
  6
CONTINUOUS
 62
           2
100
AcDbLine
 10
143.138018867266
 20
-107.820086886224
 11
141.206013995516
 21
-108.337766031383
  0
LINE
  5
27C
100
AcDbEntity
  8
1
  6
CONTINUOUS
 62
           2
100
AcDbLine
 10
134.853273653789
 20
-113.282951819308
 11
133.628419645716
 21
-108.711734429326
  0
LINE
  5
27B
100
AcDbEntity
  8
1
  6
CONTINUOUS
 62
           2
100
AcDbLine
 10
135.560424517466
 20
-108.194055284167
 11
136.782822605901
 21
-112.756107057282
  0
LINE
  5
27A
100
AcDbEntity
  8
1
  6
CONTINUOUS
 62
           2
100
AcDbLine
 10
142.014301611787
 20
-111.354336482435
 11
140.791903523352
 21
-106.79228470932
  0
LINE
  5
279
100
AcDbEntity
  8
1
  6
CONTINUOUS
 62
           2
100
AcDbLine
 10
142.723908395103
 20
-106.274605564161
 11
143.948762403175
 21
-110.845822954144
  0
LINE
  5
278
100
AcDbEntity
  8
1
  6
CONTINUOUS
 62
           7
100
AcDbLine
 10
139.470259245921
 20
-112.322799128188
 11
134.350852366591
 21
-113.694540067231
  0
LINE
  5
277
100
AcDbEntity
  8
1
  6
CONTINUOUS
 62
           7
100
AcDbLine
 10
134.350852366591
 20
-113.694540067231
 11
133.191741375044
 21
-114.005122921356
  0
LINE
  5
276
100
AcDbEntity
  8
1
  6
CONTINUOUS
 62
           7
100
AcDbLine
 10
132.0701921796
 20
-113.704604720164
 11
133.191741375044
 21
-114.005122921356
  0
LINE
  5
275
100
AcDbEntity
  8
1
  6
CONTINUOUS
 62
           7
100
AcDbLine
 10
132.0701921796
 20
-113.704604720164
 11
131.845163664797
 21
-112.864786869767
  0
LINE
  5
274
100
AcDbEntity
  8
1
  6
CONTINUOUS
 62
           7
100
AcDbLine
 10
131.301643670081
 20
-110.836342634559
 11
131.591421417969
 21
-110.91398834809
  0
LINE
  5
273
100
AcDbEntity
  8
1
  6
CONTINUOUS
 62
           7
100
AcDbLine
 10
131.379289383613
 20
-111.126120382447
 11
131.591421417969
 21
-110.91398834809
  0
LINE
  5
272
100
AcDbEntity
  8
1
  6
CONTINUOUS
 62
           7
100
AcDbLine
 10
131.301643670081
 20
-110.836342634559
 11
130.926356054682
 21
-109.435750186441
  0
LINE
  5
271
100
AcDbEntity
  8
1
  6
CONTINUOUS
 62
           7
100
AcDbLine
 10
131.767517951266
 20
-112.57500912188
 11
132.057295699153
 21
-112.652654835411
  0
LINE
  5
270
100
AcDbEntity
  8
1
  6
CONTINUOUS
 62
           7
100
AcDbLine
 10
131.845163664797
 20
-112.864786869767
 11
132.057295699153
 21
-112.652654835411
  0
LINE
  5
26F
100
AcDbEntity
  8
1
  6
CONTINUOUS
 62
           7
100
AcDbLine
 10
131.767517951266
 20
-112.57500912188
 11
131.379289383613
 21
-111.126120382447
  0
LINE
  5
26E
100
AcDbEntity
  8
1
  6
CONTINUOUS
 62
           7
100
AcDbLine
 10
133.193435645499
 20
-108.828288040904
 11
133.124920079297
 21
-108.572584466729
  0
LINE
  5
26D
100
AcDbEntity
  8
1
  6
CONTINUOUS
 62
           7
100
AcDbLine
 10
133.193435645499
 20
-108.828288040904
 11
132.903657897612
 21
-108.905933754435
  0
LINE
  5
26C
100
AcDbEntity
  8
1
  6
CONTINUOUS
 62
           7
100
AcDbLine
 10
135.715227064794
 20
-123.422899727674
 11
134.201135650945
 21
-117.772233643881
  0
LINE
  5
26B
100
AcDbEntity
  8
1
  6
CONTINUOUS
 62
           7
100
AcDbLine
 10
134.201135650945
 20
-117.772233643881
 11
134.837531754013
 21
-116.66996325963
  0
LINE
  5
26A
100
AcDbEntity
  8
1
  6
CONTINUOUS
 62
           7
100
AcDbLine
 10
138.212083980323
 20
-124.047964159055
 11
137.246158154034
 21
-124.306783204157
  0
LINE
  5
269
100
AcDbEntity
  8
1
  6
CONTINUOUS
 62
           7
100
AcDbLine
 10
135.715227064794
 20
-123.422899727674
 11
137.246158154034
 21
-124.306783204157
  0
LINE
  5
268
100
AcDbEntity
  8
1
  6
CONTINUOUS
 62
           7
100
AcDbLine
 10
135.127309501899
 20
-116.592317546099
 11
134.350852366591
 21
-113.694540067231
  0
LINE
  5
267
100
AcDbEntity
  8
1
  6
CONTINUOUS
 62
           7
100
AcDbLine
 10
135.127309501899
 20
-116.592317546099
 11
134.837531754013
 21
-116.66996325963
  0
LINE
  5
266
100
AcDbEntity
  8
1
  6
CONTINUOUS
 62
           2
100
AcDbLine
 10
136.817497449047
 20
-124.059295830741
 11
134.837531754013
 21
-116.66996325963
  0
LINE
  5
265
100
AcDbEntity
  8
1
  6
CONTINUOUS
 62
           7
100
AcDbLine
 10
132.903657897612
 20
-108.905933754435
 11
130.926356054682
 21
-109.435750186441
  0
LINE
  5
264
100
AcDbEntity
  8
1
  6
CONTINUOUS
 62
           7
100
AcDbLine
 10
142.31726874205
 20
-122.947983217369
 11
138.212083980323
 21
-124.047964159055
  0
LINE
  5
263
100
AcDbEntity
  8
1
  6
CONTINUOUS
 62
           7
100
AcDbLine
 10
138.176164020409
 20
-107.493169996743
 11
133.193435645499
 21
-108.828288040904
  0
LINE
  5
262
100
AcDbEntity
  8
1
  6
CONTINUOUS
 62
           2
100
AcDbLine
 10
135.97453498963
 20
-109.73953660623
 11
134.042530117879
 21
-110.257215751388
  0
LINE
  5
261
100
AcDbEntity
  8
1
  6
CONTINUOUS
 62
           2
100
AcDbLine
 10
136.440409270815
 20
-111.47820309355
 11
134.508404399064
 21
-111.995882238709
  0
LINE
  5
260
100
AcDbEntity
  8
1
  6
CONTINUOUS
 62
           7
100
AcDbLine
 10
140.246716381229
 20
-115.220576607056
 11
135.127309501899
 21
-116.592317546099
  0
LINE
  5
25F
100
AcDbEntity
  8
1
  6
CONTINUOUS
 62
           7
100
AcDbLine
 10
140.479653521821
 20
-116.089909850716
 11
134.201135650945
 21
-117.772233643881
  0
LINE
  5
25E
100
AcDbEntity
  8
1
  6
CONTINUOUS
 62
           7
100
AcDbLine
 10
141.993744935671
 20
-121.740575934509
 11
135.715227064794
 21
-123.422899727674
  0
LINE
  5
25D
100
AcDbEntity
  8
1
  6
CONTINUOUS
 62
           7
100
AcDbLine
 10
144.589666125252
 20
-110.951058189145
 11
139.470259245921
 21
-112.322799128188
  0
LINE
  5
25C
100
AcDbEntity
  8
1
  6
CONTINUOUS
 62
           7
100
AcDbLine
 10
145.748777116799
 20
-110.640475335023
 11
144.589666125252
 21
-110.951058189145
  0
LINE
  5
25B
100
AcDbEntity
  8
1
  6
CONTINUOUS
 62
           7
100
AcDbLine
 10
145.748777116799
 20
-110.640475335023
 11
146.569808111052
 21
-109.81944434077
  0
LINE
  5
25A
100
AcDbEntity
  8
1
  6
CONTINUOUS
 62
           7
100
AcDbLine
 10
146.34477959625
 20
-108.979626490372
 11
146.569808111052
 21
-109.81944434077
  0
LINE
  5
259
100
AcDbEntity
  8
1
  6
CONTINUOUS
 62
           7
100
AcDbLine
 10
145.589127567177
 20
-107.163314289521
 11
145.801259601535
 21
-106.951182255165
  0
LINE
  5
258
100
AcDbEntity
  8
1
  6
CONTINUOUS
 62
           7
100
AcDbLine
 10
145.589127567177
 20
-107.163314289521
 11
145.878905315064
 21
-107.240960003054
  0
LINE
  5
257
100
AcDbEntity
  8
1
  6
CONTINUOUS
 62
           7
100
AcDbLine
 10
145.425971986136
 20
-105.550589807046
 11
145.801259601535
 21
-106.951182255165
  0
LINE
  5
256
100
AcDbEntity
  8
1
  6
CONTINUOUS
 62
           7
100
AcDbLine
 10
146.055001848362
 20
-108.901980776842
 11
146.267133882718
 21
-108.689848742486
  0
LINE
  5
255
100
AcDbEntity
  8
1
  6
CONTINUOUS
 62
           7
100
AcDbLine
 10
146.055001848362
 20
-108.901980776842
 11
146.34477959625
 21
-108.979626490372
  0
LINE
  5
254
100
AcDbEntity
  8
1
  6
CONTINUOUS
 62
           7
100
AcDbLine
 10
145.878905315064
 20
-107.240960003054
 11
146.267133882718
 21
-108.689848742486
  0
LINE
  5
253
100
AcDbEntity
  8
1
  6
CONTINUOUS
 62
           7
100
AcDbLine
 10
143.448670143207
 20
-106.080406239052
 11
143.158892395319
 21
-106.158051952583
  0
LINE
  5
252
100
AcDbEntity
  8
1
  6
CONTINUOUS
 62
           7
100
AcDbLine
 10
146.758171392698
 20
-114.40758605755
 11
148.272262806548
 21
-120.058252141343
  0
LINE
  5
251
100
AcDbEntity
  8
1
  6
CONTINUOUS
 62
           7
100
AcDbLine
 10
145.655901008446
 20
-113.771189954483
 11
146.758171392698
 21
-114.40758605755
  0
LINE
  5
250
100
AcDbEntity
  8
1
  6
CONTINUOUS
 62
           7
100
AcDbLine
 10
147.388379330065
 20
-121.589183230582
 11
146.422453503776
 21
-121.848002275684
  0
LINE
  5
24F
100
AcDbEntity
  8
1
  6
CONTINUOUS
 62
           7
100
AcDbLine
 10
147.388379330065
 20
-121.589183230582
 11
148.272262806548
 21
-120.058252141343
  0
LINE
  5
24E
100
AcDbEntity
  8
1
  6
CONTINUOUS
 62
           7
100
AcDbLine
 10
144.589666125252
 20
-110.951058189145
 11
145.366123260559
 21
-113.848835668014
  0
LINE
  5
24D
100
AcDbEntity
  8
1
  6
CONTINUOUS
 62
           7
100
AcDbLine
 10
145.655901008446
 20
-113.771189954483
 11
145.366123260559
 21
-113.848835668014
  0
LINE
  5
24C
100
AcDbEntity
  8
1
  6
CONTINUOUS
 62
           2
100
AcDbLine
 10
145.655901008446
 20
-113.771189954483
 11
147.635866703481
 21
-121.160522525594
  0
LINE
  5
24B
100
AcDbEntity
  8
1
  6
CONTINUOUS
 62
           7
100
AcDbLine
 10
145.425971986136
 20
-105.550589807046
 11
143.448670143207
 21
-106.080406239052
  0
LINE
  5
24A
100
AcDbEntity
  8
1
  6
CONTINUOUS
 62
           7
100
AcDbLine
 10
146.422453503776
 20
-121.848002275684
 11
142.31726874205
 21
-122.947983217369
  0
LINE
  5
249
100
AcDbEntity
  8
1
  6
CONTINUOUS
 62
           7
100
AcDbLine
 10
143.158892395319
 20
-106.158051952583
 11
138.176164020409
 21
-107.493169996743
  0
LINE
  5
248
100
AcDbEntity
  8
1
  6
CONTINUOUS
 62
           7
100
AcDbLine
 10
145.366123260559
 20
-113.848835668014
 11
140.246716381229
 21
-115.220576607056
  0
LINE
  5
247
100
AcDbEntity
  8
1
  6
CONTINUOUS
 62
           7
100
AcDbLine
 10
146.758171392698
 20
-114.40758605755
 11
140.479653521821
 21
-116.089909850716
  0
LINE
  5
246
100
AcDbEntity
  8
1
  6
CONTINUOUS
 62
           7
100
AcDbLine
 10
148.272262806548
 20
-120.058252141343
 11
141.993744935671
 21
-121.740575934509
  0
LINE
  5
245
100
AcDbEntity
  8
1
  6
CONTINUOUS
 62
           2
100
AcDbLine
 10
11.438803916277
 20
-15.279470782741
 11
4.238803916277
 21
-15.279470782741
  0
LINE
  5
244
100
AcDbEntity
  8
1
  6
CONTINUOUS
 62
           7
100
AcDbLine
 10
3.438803916278
 20
18.156830003259
 11
3.438803916277
 21
0.006830003255
  0
LINE
  5
243
100
AcDbEntity
  8
1
  6
CONTINUOUS
 62
           7
100
AcDbLine
 10
3.438803916277
 20
-18.143169996741
 11
3.438803916277
 21
0.006830003255
  0
LINE
  5
242
100
AcDbEntity
  8
1
  6
CONTINUOUS
 62
           7
100
AcDbLine
 10
13.938803916278
 20
-18.143169996741
 11
13.938803916278
 21
0.006830003256
  0
LINE
  5
241
100
AcDbEntity
  8
1
  6
CONTINUOUS
 62
           7
100
AcDbLine
 10
13.938803916278
 20
18.156830003259
 11
13.938803916278
 21
0.006830003256
  0
LINE
  5
240
100
AcDbEntity
  8
1
  6
CONTINUOUS
 62
           2
100
AcDbLine
 10
11.438803916278
 20
-18.100450410924
 11
4.238803916277
 21
-18.100450410925
  0
LINE
  5
23F
100
AcDbEntity
  8
1
  6
CONTINUOUS
 62
           2
100
AcDbLine
 10
4.238803916277
 20
-17.676819816538
 11
11.438803916278
 21
-17.676819816538
  0
LINE
  5
23E
100
AcDbEntity
  8
1
  6
CONTINUOUS
 62
           2
100
AcDbLine
 10
11.438803916278
 20
-17.503091280241
 11
4.238803916277
 21
-17.503091280243
  0
LINE
  5
23D
100
AcDbEntity
  8
1
  6
CONTINUOUS
 62
           2
100
AcDbLine
 10
11.438803916278
 20
-14.573948410624
 11
4.238803916278
 21
-14.573948410624
  0
LINE
  5
23C
100
AcDbEntity
  8
1
  6
CONTINUOUS
 62
           2
100
AcDbLine
 10
11.438803916278
 20
-11.385792122089
 11
4.238803916278
 21
-11.385792122089
  0
LINE
  5
23B
100
AcDbEntity
  8
1
  6
CONTINUOUS
 62
           2
100
AcDbLine
 10
11.438803916277
 20
-10.217537359598
 11
4.238803916277
 21
-10.217537359599
  0
LINE
  5
23A
100
AcDbEntity
  8
1
  6
CONTINUOUS
 62
           2
100
AcDbLine
 10
4.238803916277
 20
-6.698776356021
 11
11.438803916278
 21
-6.69877635602
  0
LINE
  5
239
100
AcDbEntity
  8
1
  6
CONTINUOUS
 62
           2
100
AcDbLine
 10
11.438803916278
 20
-6.376924230743
 11
4.238803916277
 21
-6.376924230743
  0
LINE
  5
238
100
AcDbEntity
  8
1
  6
CONTINUOUS
 62
           2
100
AcDbLine
 10
4.238803916278
 20
-4.950339456301
 11
11.438803916278
 21
-4.950339456301
  0
LINE
  5
237
100
AcDbEntity
  8
1
  6
CONTINUOUS
 62
           2
100
AcDbLine
 10
11.438803916277
 20
-4.86029399374
 11
4.238803916277
 21
-4.86029399374
  0
LINE
  5
236
100
AcDbEntity
  8
1
  6
CONTINUOUS
 62
           2
100
AcDbLine
 10
4.238803916277
 20
-0.959717373675
 11
11.438803916278
 21
-0.959717373675
  0
LINE
  5
235
100
AcDbEntity
  8
1
  6
CONTINUOUS
 62
           2
100
AcDbLine
 10
11.438803916277
 20
-0.743169996742
 11
4.238803916277
 21
-0.743169996742
  0
LINE
  5
234
100
AcDbEntity
  8
1
  6
CONTINUOUS
 62
           2
100
AcDbLine
 10
4.238803916277
 20
0.756830003258
 11
11.438803916278
 21
0.756830003258
  0
LINE
  5
233
100
AcDbEntity
  8
1
  6
CONTINUOUS
 62
           2
100
AcDbLine
 10
11.438803916278
 20
0.973377380192
 11
4.238803916277
 21
0.973377380192
  0
LINE
  5
232
100
AcDbEntity
  8
1
  6
CONTINUOUS
 62
           2
100
AcDbLine
 10
4.238803916277
 20
4.873954000257
 11
11.438803916278
 21
4.873954000258
  0
LINE
  5
231
100
AcDbEntity
  8
1
  6
CONTINUOUS
 62
           2
100
AcDbLine
 10
11.438803916278
 20
4.963999462817
 11
4.238803916278
 21
4.963999462817
  0
LINE
  5
230
100
AcDbEntity
  8
1
  6
CONTINUOUS
 62
           2
100
AcDbLine
 10
11.438803916278
 20
6.39058423726
 11
4.238803916278
 21
6.39058423726
  0
LINE
  5
22F
100
AcDbEntity
  8
1
  6
CONTINUOUS
 62
           2
100
AcDbLine
 10
4.238803916277
 20
6.712436362538
 11
11.438803916277
 21
6.712436362538
  0
LINE
  5
22E
100
AcDbEntity
  8
1
  6
CONTINUOUS
 62
           2
100
AcDbLine
 10
11.438803916278
 20
10.231197366116
 11
4.238803916278
 21
10.231197366116
  0
LINE
  5
22D
100
AcDbEntity
  8
1
  6
CONTINUOUS
 62
           2
100
AcDbLine
 10
4.238803916277
 20
11.399452128607
 11
11.438803916278
 21
11.399452128607
  0
LINE
  5
22C
100
AcDbEntity
  8
1
  6
CONTINUOUS
 62
           2
100
AcDbLine
 10
11.438803916278
 20
11.795103873731
 11
4.238803916277
 21
11.79510387373
  0
LINE
  5
22B
100
AcDbEntity
  8
1
  6
CONTINUOUS
 62
           2
100
AcDbLine
 10
11.438803916278
 20
14.587608417142
 11
4.238803916278
 21
14.587608417142
  0
LINE
  5
22A
100
AcDbEntity
  8
1
  6
CONTINUOUS
 62
           2
100
AcDbLine
 10
4.238803916277
 20
15.299999999999
 11
11.438803916277
 21
15.299999999999
  0
LINE
  5
229
100
AcDbEntity
  8
1
  6
CONTINUOUS
 62
           2
100
AcDbLine
 10
4.238803916277
 20
17.51675128676
 11
11.438803916278
 21
17.51675128676
  0
LINE
  5
228
100
AcDbEntity
  8
1
  6
CONTINUOUS
 62
           2
100
AcDbLine
 10
11.438803916278
 20
17.690479823057
 11
4.238803916278
 21
17.690479823058
  0
LINE
  5
227
100
AcDbEntity
  8
1
  6
CONTINUOUS
 62
           2
100
AcDbLine
 10
4.238803916277
 20
18.114110417441
 11
11.438803916277
 21
18.114110417441
  0
LINE
  5
226
100
AcDbEntity
  8
1
  6
CONTINUOUS
 62
           7
100
AcDbLine
 10
2.438803916277
 20
-15.693169996742
 11
2.438803916278
 21
-17.143169996741
  0
LINE
  5
225
100
AcDbEntity
  8
1
  6
CONTINUOUS
 62
           7
100
AcDbLine
 10
4.238803916278
 20
-18.143169996741
 11
3.438803916277
 21
-18.143169996741
  0
LINE
  5
224
100
AcDbEntity
  8
1
  6
CONTINUOUS
 62
           7
100
AcDbLine
 10
13.938803916278
 20
-18.143169996741
 11
11.438803916277
 21
-18.143169996742
  0
LINE
  5
223
100
AcDbEntity
  8
1
  6
CONTINUOUS
 62
           7
100
AcDbLine
 10
11.438803916277
 20
-18.143169996742
 11
11.438803916278
 21
-18.443169996741
  0
LINE
  5
222
100
AcDbEntity
  8
1
  6
CONTINUOUS
 62
           7
100
AcDbLine
 10
4.238803916277
 20
-18.443169996741
 11
4.238803916278
 21
-18.143169996741
  0
LINE
  5
221
100
AcDbEntity
  8
1
  6
CONTINUOUS
 62
           7
100
AcDbLine
 10
2.438803916278
 20
0.006830003259
 11
2.438803916277
 21
-15.693169996742
  0
LINE
  5
220
100
AcDbEntity
  8
1
  6
CONTINUOUS
 62
           7
100
AcDbLine
 10
14.438803916278
 20
0.00683000326
 11
14.438803916278
 21
-17.393169996742
  0
LINE
  5
21F
100
AcDbEntity
  8
1
  6
CONTINUOUS
 62
           7
100
AcDbLine
 10
14.438803916278
 20
-17.643169996741
 11
14.438803916278
 21
-17.393169996742
  0
LINE
  5
21E
100
AcDbEntity
  8
1
  6
CONTINUOUS
 62
           7
100
AcDbLine
 10
11.138803916278
 20
-18.743169996741
 11
4.538803916278
 21
-18.743169996741
  0
LINE
  5
21D
100
AcDbEntity
  8
1
  6
CONTINUOUS
 62
           7
100
AcDbLine
 10
2.438803916277
 20
17.156830003259
 11
2.438803916278
 21
15.706830003259
  0
LINE
  5
21C
100
AcDbEntity
  8
1
  6
CONTINUOUS
 62
           7
100
AcDbLine
 10
3.438803916278
 20
18.156830003259
 11
4.238803916277
 21
18.156830003259
  0
LINE
  5
21B
100
AcDbEntity
  8
1
  6
CONTINUOUS
 62
           7
100
AcDbLine
 10
11.438803916278
 20
18.156830003259
 11
13.938803916278
 21
18.156830003259
  0
LINE
  5
21A
100
AcDbEntity
  8
1
  6
CONTINUOUS
 62
           7
100
AcDbLine
 10
11.438803916277
 20
18.456830003259
 11
11.438803916278
 21
18.156830003259
  0
LINE
  5
219
100
AcDbEntity
  8
1
  6
CONTINUOUS
 62
           7
100
AcDbLine
 10
4.238803916277
 20
18.156830003259
 11
4.238803916277
 21
18.456830003259
  0
LINE
  5
218
100
AcDbEntity
  8
1
  6
CONTINUOUS
 62
           7
100
AcDbLine
 10
2.438803916278
 20
15.706830003259
 11
2.438803916278
 21
0.006830003259
  0
LINE
  5
217
100
AcDbEntity
  8
1
  6
CONTINUOUS
 62
           7
100
AcDbLine
 10
14.438803916278
 20
17.40683000326
 11
14.438803916278
 21
0.00683000326
  0
LINE
  5
216
100
AcDbEntity
  8
1
  6
CONTINUOUS
 62
           7
100
AcDbLine
 10
14.438803916278
 20
17.40683000326
 11
14.438803916278
 21
17.656830003259
  0
LINE
  5
215
100
AcDbEntity
  8
1
  6
CONTINUOUS
 62
           7
100
AcDbLine
 10
4.538803916277
 20
18.756830003259
 11
11.138803916278
 21
18.756830003259
  0
LINE
  5
214
100
AcDbEntity
  8
1
  6
CONTINUOUS
 62
           7
100
AcDbLine
 10
11.438803916278
 20
18.156830003259
 11
11.438803916278
 21
0.006830003259
  0
LINE
  5
213
100
AcDbEntity
  8
1
  6
CONTINUOUS
 62
           7
100
AcDbLine
 10
11.438803916277
 20
-18.143169996742
 11
11.438803916278
 21
0.006830003259
  0
LINE
  5
212
100
AcDbEntity
  8
1
  6
CONTINUOUS
 62
           7
100
AcDbLine
 10
4.238803916278
 20
-18.143169996741
 11
4.238803916277
 21
0.006830003259
  0
LINE
  5
211
100
AcDbEntity
  8
1
  6
CONTINUOUS
 62
           7
100
AcDbLine
 10
4.238803916277
 20
18.156830003259
 11
4.238803916277
 21
0.006830003259
  0
LINE
  5
210
100
AcDbEntity
  8
1
  6
CONTINUOUS
 62
           2
100
AcDbLine
 10
4.238803916277
 20
-11.781443867214
 11
11.438803916278
 21
-11.781443867213
  0
LINE
  5
20F
100
AcDbEntity
  8
1
  6
CONTINUOUS
 62
           2
100
AcDbLine
 10
11.438803916277
 20
15.723853004748
 11
4.238803916277
 21
15.723853004748
  0
LINE
  5
20E
100
AcDbEntity
  8
1
  6
CONTINUOUS
 62
           2
100
AcDbLine
 10
11.438803916278
 20
-15.710192998231
 11
4.238803916278
 21
-15.710192998231
  0
LINE
  5
20D
100
AcDbEntity
  8
1
  6
CONTINUOUS
 62
           7
100
AcDbLine
 10
119.594265991716
 20
-106.128032801518
 11
119.80819746966
 21
-108.573280783625
  0
LINE
  5
20C
100
AcDbEntity
  8
1
  6
CONTINUOUS
 62
           2
100
AcDbLine
 10
111.153884157868
 20
-114.349534276726
 11
110.761683315504
 21
-109.866658135313
  0
LINE
  5
20B
100
AcDbEntity
  8
1
  6
CONTINUOUS
 62
           2
100
AcDbLine
 10
110.992564134066
 20
-109.846458681063
 11
111.384764976431
 21
-114.329334822476
  0
LINE
  5
20A
100
AcDbEntity
  8
1
  6
CONTINUOUS
 62
           2
100
AcDbLine
 10
111.575754724878
 20
-109.795436115692
 11
111.967955567243
 21
-114.278312257105
  0
LINE
  5
209
100
AcDbEntity
  8
1
  6
CONTINUOUS
 62
           2
100
AcDbLine
 10
112.342665877009
 20
-114.245529352894
 11
111.950465034644
 21
-109.762653211481
  0
LINE
  5
208
100
AcDbEntity
  8
1
  6
CONTINUOUS
 62
           2
100
AcDbLine
 10
112.014916138841
 20
-109.757014470512
 11
112.407116981205
 21
-114.239890611926
  0
LINE
  5
207
100
AcDbEntity
  8
1
  6
CONTINUOUS
 62
           2
100
AcDbLine
 10
113.315457622086
 20
-114.160421103228
 11
112.923256779722
 21
-109.677544961815
  0
LINE
  5
206
100
AcDbEntity
  8
1
  6
CONTINUOUS
 62
           2
100
AcDbLine
 10
113.235179133368
 20
-109.650255291971
 11
113.627379975733
 21
-114.133131433384
  0
LINE
  5
205
100
AcDbEntity
  8
1
  6
CONTINUOUS
 62
           2
100
AcDbLine
 10
113.919911452433
 20
-114.107538245448
 11
113.527710610069
 21
-109.624662104035
  0
LINE
  5
204
100
AcDbEntity
  8
1
  6
CONTINUOUS
 62
           2
100
AcDbLine
 10
114.672286590308
 20
-109.52452468122
 11
115.064487432672
 21
-114.007400822633
  0
LINE
  5
203
100
AcDbEntity
  8
1
  6
CONTINUOUS
 62
           2
100
AcDbLine
 10
114.890887854569
 20
-109.505399548765
 11
115.283088696933
 21
-113.988275690177
  0
LINE
  5
202
100
AcDbEntity
  8
1
  6
CONTINUOUS
 62
           2
100
AcDbLine
 10
115.775065527011
 20
-113.945233294829
 11
115.382864684647
 21
-109.462357153415
  0
LINE
  5
201
100
AcDbEntity
  8
1
  6
CONTINUOUS
 62
           2
100
AcDbLine
 10
116.651636932569
 20
-109.351353965126
 11
117.043837774934
 21
-113.834230106539
  0
LINE
  5
200
100
AcDbEntity
  8
1
  6
CONTINUOUS
 62
           2
100
AcDbLine
 10
117.765804812741
 20
-113.771066175291
 11
117.373603970376
 21
-109.288190033878
  0
LINE
  5
1FF
100
AcDbEntity
  8
1
  6
CONTINUOUS
 62
           2
100
AcDbLine
 10
118.642376218298
 20
-109.177186845589
 11
119.034577060662
 21
-113.660062987002
  0
LINE
  5
1FE
100
AcDbEntity
  8
1
  6
CONTINUOUS
 62
           2
100
AcDbLine
 10
119.526553890741
 20
-113.617020591653
 11
119.134353048377
 21
-109.13414445024
  0
LINE
  5
1FD
100
AcDbEntity
  8
1
  6
CONTINUOUS
 62
           2
100
AcDbLine
 10
119.745155155002
 20
-113.597895459197
 11
119.352954312637
 21
-109.115019317784
  0
LINE
  5
1FC
100
AcDbEntity
  8
1
  6
CONTINUOUS
 62
           2
100
AcDbLine
 10
120.497530292876
 20
-109.01488189497
 11
120.889731135241
 21
-113.497758036382
  0
LINE
  5
1FB
100
AcDbEntity
  8
1
  6
CONTINUOUS
 62
           2
100
AcDbLine
 10
121.182262611941
 20
-113.472164848447
 11
120.790061769577
 21
-108.989288707034
  0
LINE
  5
1FA
100
AcDbEntity
  8
1
  6
CONTINUOUS
 62
           2
100
AcDbLine
 10
121.101984123223
 20
-108.96199903719
 11
121.494184965588
 21
-113.444875178602
  0
LINE
  5
1F9
100
AcDbEntity
  8
1
  6
CONTINUOUS
 62
           2
100
AcDbLine
 10
122.402525606469
 20
-113.365405669905
 11
122.010324764104
 21
-108.882529528492
  0
LINE
  5
1F8
100
AcDbEntity
  8
1
  6
CONTINUOUS
 62
           2
100
AcDbLine
 10
122.0747758683
 20
-108.876890787524
 11
122.466976710665
 21
-113.359766928936
  0
LINE
  5
1F7
100
AcDbEntity
  8
1
  6
CONTINUOUS
 62
           2
100
AcDbLine
 10
122.841687020431
 20
-113.326984024726
 11
122.449486178067
 21
-108.844107883312
  0
LINE
  5
1F6
100
AcDbEntity
  8
1
  6
CONTINUOUS
 62
           2
100
AcDbLine
 10
123.424877611243
 20
-113.275961459355
 11
123.032676768879
 21
-108.793085317942
  0
LINE
  5
1F5
100
AcDbEntity
  8
1
  6
CONTINUOUS
 62
           2
100
AcDbLine
 10
123.263557587441
 20
-108.772885863692
 11
123.655758429805
 21
-113.255762005104
  0
LINE
  5
1F4
100
AcDbEntity
  8
1
  6
CONTINUOUS
 62
           7
100
AcDbLine
 10
117.491977036585
 20
-114.798842839007
 11
112.012906197081
 21
-115.278199424118
  0
LINE
  5
1F3
100
AcDbEntity
  8
1
  6
CONTINUOUS
 62
           7
100
AcDbLine
 10
110.991874391549
 20
-109.344609106942
 11
110.537354913877
 21
-109.886284327361
  0
LINE
  5
1F2
100
AcDbEntity
  8
1
  6
CONTINUOUS
 62
           7
100
AcDbLine
 10
110.929555756241
 20
-114.369160468774
 11
110.537354913877
 21
-109.886284327361
  0
LINE
  5
1F1
100
AcDbEntity
  8
1
  6
CONTINUOUS
 62
           7
100
AcDbLine
 10
114.129887690538
 20
-109.070068517287
 11
110.991874391549
 21
-109.344609106942
  0
LINE
  5
1F0
100
AcDbEntity
  8
1
  6
CONTINUOUS
 62
           7
100
AcDbLine
 10
114.129887690538
 20
-109.070068517287
 11
113.915956212593
 21
-106.62482053518
  0
LINE
  5
1EF
100
AcDbEntity
  8
1
  6
CONTINUOUS
 62
           7
100
AcDbLine
 10
122.971047876089
 20
-114.319486253895
 11
117.491977036585
 21
-114.798842839007
  0
LINE
  5
1EE
100
AcDbEntity
  8
1
  6
CONTINUOUS
 62
           7
100
AcDbLine
 10
123.487885989068
 20
-108.753259671642
 11
122.946210768649
 21
-108.29874019397
  0
LINE
  5
1ED
100
AcDbEntity
  8
1
  6
CONTINUOUS
 62
           7
100
AcDbLine
 10
123.487885989068
 20
-108.753259671642
 11
123.880086831434
 21
-113.236135813056
  0
LINE
  5
1EC
100
AcDbEntity
  8
1
  6
CONTINUOUS
 62
           7
100
AcDbLine
 10
122.946210768649
 20
-108.29874019397
 11
119.80819746966
 21
-108.573280783625
  0
LINE
  5
1EB
100
AcDbEntity
  8
1
  6
CONTINUOUS
 62
           7
100
AcDbLine
 10
119.80819746966
 20
-108.573280783625
 11
116.969042580097
 21
-108.821674650456
  0
LINE
  5
1EA
100
AcDbEntity
  8
1
  6
CONTINUOUS
 62
           7
100
AcDbLine
 10
114.129887690538
 20
-109.070068517287
 11
116.969042580097
 21
-108.821674650456
  0
LINE
  5
1E9
100
AcDbEntity
  8
1
  6
CONTINUOUS
 62
           7
100
AcDbLine
 10
123.487885989068
 20
-108.753259671642
 11
117.012620451471
 21
-109.319771999502
  0
LINE
  5
1E8
100
AcDbEntity
  8
1
  6
CONTINUOUS
 62
           7
100
AcDbLine
 10
110.537354913877
 20
-109.886284327361
 11
117.012620451471
 21
-109.319771999502
  0
LINE
  5
1E7
100
AcDbEntity
  8
1
  6
CONTINUOUS
 62
           7
100
AcDbLine
 10
123.880086831434
 20
-113.236135813056
 11
117.404821293836
 21
-113.802648140915
  0
LINE
  5
1E6
100
AcDbEntity
  8
1
  6
CONTINUOUS
 62
           7
100
AcDbLine
 10
117.404821293836
 20
-113.802648140915
 11
110.929555756241
 21
-114.369160468774
  0
LINE
  5
1E5
100
AcDbEntity
  8
1
  6
CONTINUOUS
 62
           7
100
AcDbLine
 10
109.896360296468
 20
-102.559682324605
 11
109.350936923262
 21
-103.209692589108
  0
LINE
  5
1E4
100
AcDbEntity
  8
1
  6
CONTINUOUS
 62
           2
100
AcDbLine
 10
113.887070207912
 20
-106.294651990855
 11
112.541994702485
 21
-106.419971923987
  0
LINE
  5
1E3
100
AcDbEntity
  8
1
  6
CONTINUOUS
 62
           2
100
AcDbLine
 10
120.911782351177
 20
-105.687710388608
 11
119.571791154416
 21
-105.795746204449
  0
LINE
  5
1E2
100
AcDbEntity
  8
1
  6
CONTINUOUS
 62
           2
100
AcDbLine
 10
112.541994702485
 20
-106.419971923987
 11
112.239025455366
 21
-102.957017583289
  0
LINE
  5
1E1
100
AcDbEntity
  8
1
  6
CONTINUOUS
 62
           2
100
AcDbLine
 10
113.887070207912
 20
-106.294651990855
 11
113.584764390152
 21
-102.83928068243
  0
LINE
  5
1E0
100
AcDbEntity
  8
1
  6
CONTINUOUS
 62
           2
100
AcDbLine
 10
119.571791154416
 20
-105.795746204449
 11
119.269620534636
 21
-102.341920216012
  0
LINE
  5
1DF
100
AcDbEntity
  8
1
  6
CONTINUOUS
 62
           2
100
AcDbLine
 10
120.608813104058
 20
-102.224756047909
 11
120.911782351177
 21
-105.687710388608
  0
LINE
  5
1DE
100
AcDbEntity
  8
1
  6
CONTINUOUS
 62
           7
100
AcDbLine
 10
113.80786908785
 20
-106.634276933268
 11
110.678323443794
 21
-106.908076699109
  0
LINE
  5
1DD
100
AcDbEntity
  8
1
  6
CONTINUOUS
 62
           7
100
AcDbLine
 10
119.702353116458
 20
-106.11857640343
 11
116.755111102154
 21
-106.376426668348
  0
LINE
  5
1DC
100
AcDbEntity
  8
1
  6
CONTINUOUS
 62
           7
100
AcDbLine
 10
116.755111102154
 20
-106.376426668348
 11
113.80786908785
 21
-106.634276933268
  0
LINE
  5
1DB
100
AcDbEntity
  8
1
  6
CONTINUOUS
 62
           7
100
AcDbLine
 10
109.594973002956
 20
-105.999037743765
 11
109.350936923262
 21
-103.209692589108
  0
LINE
  5
1DA
100
AcDbEntity
  8
1
  6
CONTINUOUS
 62
           7
100
AcDbLine
 10
123.496901636164
 20
-101.972081042091
 11
122.846891371661
 21
-101.426657668884
  0
LINE
  5
1D9
100
AcDbEntity
  8
1
  6
CONTINUOUS
 62
           7
100
AcDbLine
 10
122.831898760514
 20
-105.844776637588
 11
119.702353116458
 21
-106.11857640343
  0
LINE
  5
1D8
100
AcDbEntity
  8
1
  6
CONTINUOUS
 62
           7
100
AcDbLine
 10
123.496901636164
 20
-101.972081042091
 11
123.740937715858
 21
-104.761426196749
  0
LINE
  5
1D7
100
AcDbEntity
  8
1
  6
CONTINUOUS
 62
           7
100
AcDbLine
 10
123.496901636164
 20
-101.972081042091
 11
116.423919279712
 21
-102.5908868156
  0
LINE
  5
1D6
100
AcDbEntity
  8
1
  6
CONTINUOUS
 62
           7
100
AcDbLine
 10
109.350936923262
 20
-103.209692589108
 11
116.423919279712
 21
-102.5908868156
  0
LINE
  5
1D5
100
AcDbEntity
  8
1
  6
CONTINUOUS
 62
           7
100
AcDbLine
 10
65.742554285091
 20
3.74119083704
 11
65.934097588282
 21
6.449612641232
  0
LINE
  5
1D4
100
AcDbEntity
  8
1
  6
CONTINUOUS
 62
           7
100
AcDbLine
 10
65.052282904038
 20
-6.019244678613
 11
65.279098794599
 21
-2.812068581627
  0
LINE
  5
1D3
100
AcDbEntity
  8
1
  6
CONTINUOUS
 62
           7
100
AcDbLine
 10
65.279098794599
 20
-2.812068581627
 11
65.510826539845
 21
0.464561127706
  0
LINE
  5
1D2
100
AcDbEntity
  8
1
  6
CONTINUOUS
 62
           7
100
AcDbLine
 10
65.371501199507
 20
-60.383612840942
 11
65.656426369987
 21
-60.898591280052
  0
LINE
  5
1D1
100
AcDbEntity
  8
1
  6
CONTINUOUS
 62
           7
100
AcDbLine
 10
80.593580230646
 20
-50.328451947479
 11
79.476911840459
 21
-17.609574713584
  0
LINE
  5
1D0
100
AcDbEntity
  8
1
  6
CONTINUOUS
 62
           7
100
AcDbLine
 10
65.510826539845
 20
0.464561127706
 11
65.742554285091
 21
3.74119083704
  0
LINE
  5
1CF
100
AcDbEntity
  8
1
  6
CONTINUOUS
 62
           7
100
AcDbLine
 10
71.544169894907
 20
-19.716742409033
 11
72.610174457993
 21
-50.95114712299
  0
LINE
  5
1CE
100
AcDbEntity
  8
1
  6
CONTINUOUS
 62
           7
100
AcDbLine
 10
66.605588601392
 20
-11.143003639072
 11
68.267521486256
 21
-12.650085949186
  0
LINE
  5
1CD
100
AcDbEntity
  8
1
  6
CONTINUOUS
 62
           7
100
AcDbLine
 10
64.976812008585
 20
-7.086402942167
 11
65.052282904038
 21
-6.019244678613
  0
LINE
  5
1CC
100
AcDbEntity
  8
1
  6
CONTINUOUS
 62
           7
100
AcDbLine
 10
69.260723442809
 20
-56.860375555611
 11
64.790559657455
 21
-59.333609543462
  0
LINE
  5
1CB
100
AcDbEntity
  8
1
  6
CONTINUOUS
 62
           7
100
AcDbLine
 10
64.790559657455
 20
-59.333609543462
 11
65.371501199507
 21
-60.383612840942
  0
LINE
  5
1CA
100
AcDbEntity
  8
1
  6
CONTINUOUS
 62
           7
100
AcDbLine
 10
69.358965763025
 20
-61.160439942044
 11
65.656426369987
 21
-60.898591280052
  0
LINE
  5
1C9
100
AcDbEntity
  8
1
  6
CONTINUOUS
 62
           7
100
AcDbLine
 10
78.340878358283
 20
-10.288120090249
 11
78.652565149091
 21
-11.575972935066
  0
LINE
  5
1C8
100
AcDbEntity
  8
1
  6
CONTINUOUS
 62
           7
100
AcDbLine
 10
77.499645578585
 20
-3.416279748555
 11
77.404322187375
 21
12.037848748991
  0
LINE
  5
1C7
100
AcDbEntity
  8
1
  6
CONTINUOUS
 62
           7
100
AcDbLine
 10
71.697637438354
 20
17.069481208998
 11
72.757143173561
 21
16.994551510841
  0
LINE
  5
1C6
100
AcDbEntity
  8
1
  6
CONTINUOUS
 62
           7
100
AcDbLine
 10
65.934097588282
 20
6.449612641232
 11
66.357368636719
 21
12.434664154758
  0
LINE
  5
1C5
100
AcDbEntity
  8
1
  6
CONTINUOUS
 62
           7
100
AcDbLine
 10
41.671625834063
 20
-32.629712077269
 11
41.671625834063
 21
-33.81232579642
  0
LINE
  5
1C4
100
AcDbEntity
  8
1
  6
CONTINUOUS
 62
           7
100
AcDbLine
 10
28.293125834062
 20
-52.612240500311
 11
29.093125834062
 21
-51.812240500311
  0
LINE
  5
1C3
100
AcDbEntity
  8
1
  6
CONTINUOUS
 62
           7
100
AcDbLine
 10
41.450125834062
 20
-52.612240500311
 11
40.650125834062
 21
-51.812240500311
  0
LINE
  5
1C2
100
AcDbEntity
  8
1
  6
CONTINUOUS
 62
           7
100
AcDbLine
 10
28.071625834062
 20
-48.312240500311
 11
28.571625834062
 21
-48.812240500311
  0
LINE
  5
1C1
100
AcDbEntity
  8
1
  6
CONTINUOUS
 62
           7
100
AcDbLine
 10
41.671625834062
 20
-48.312240500312
 11
41.171625834062
 21
-48.812240500311
  0
LINE
  5
1C0
100
AcDbEntity
  8
1
  6
CONTINUOUS
 62
           7
100
AcDbLine
 10
30.121625834062
 20
-59.812240500311
 11
34.871625834062
 21
-59.812240500311
  0
LINE
  5
1BF
100
AcDbEntity
  8
1
  6
CONTINUOUS
 62
           7
100
AcDbLine
 10
28.293125834062
 20
-52.612240500311
 11
28.293125834062
 21
-59.012240500311
  0
LINE
  5
1BE
100
AcDbEntity
  8
1
  6
CONTINUOUS
 62
           7
100
AcDbLine
 10
29.149125834062
 20
-51.812240500311
 11
29.093125834062
 21
-51.812240500311
  0
LINE
  5
1BD
100
AcDbEntity
  8
1
  6
CONTINUOUS
 62
           7
100
AcDbLine
 10
29.149125834062
 20
-48.812240500311
 11
29.149125834062
 21
-51.812240500311
  0
LINE
  5
1BC
100
AcDbEntity
  8
1
  6
CONTINUOUS
 62
           7
100
AcDbLine
 10
28.071625834062
 20
-48.312240500311
 11
28.071625834063
 21
-39.312325796422
  0
LINE
  5
1BB
100
AcDbEntity
  8
1
  6
CONTINUOUS
 62
           7
100
AcDbLine
 10
29.093125834062
 20
-59.812240500312
 11
30.121625834062
 21
-59.812240500311
  0
LINE
  5
1BA
100
AcDbEntity
  8
1
  6
CONTINUOUS
 62
           7
100
AcDbLine
 10
26.371625834062
 20
-33.812325796421
 11
28.071625834063
 21
-33.81232579642
  0
LINE
  5
1B9
100
AcDbEntity
  8
1
  6
CONTINUOUS
 62
           7
100
AcDbLine
 10
28.071625834063
 20
-33.81232579642
 11
28.071625834062
 21
-32.66732579642
  0
LINE
  5
1B8
100
AcDbEntity
  8
1
  6
CONTINUOUS
 62
           7
100
AcDbLine
 10
25.621625834062
 20
-34.245338498313
 11
26.371625834062
 21
-33.812325796421
  0
LINE
  5
1B7
100
AcDbEntity
  8
1
  6
CONTINUOUS
 62
           7
100
AcDbLine
 10
25.621625834062
 20
-38.879313094529
 11
25.621625834062
 21
-34.245338498313
  0
LINE
  5
1B6
100
AcDbEntity
  8
1
  6
CONTINUOUS
 62
           7
100
AcDbLine
 10
25.621625834062
 20
-38.879313094529
 11
26.371625834062
 21
-39.312325796422
  0
LINE
  5
1B5
100
AcDbEntity
  8
1
  6
CONTINUOUS
 62
           7
100
AcDbLine
 10
26.371625834062
 20
-39.312325796422
 11
28.071625834063
 21
-39.312325796422
  0
LINE
  5
1B4
100
AcDbEntity
  8
1
  6
CONTINUOUS
 62
           7
100
AcDbLine
 10
28.571625834062
 20
-48.812240500311
 11
29.149125834062
 21
-48.812240500311
  0
LINE
  5
1B3
100
AcDbEntity
  8
1
  6
CONTINUOUS
 62
           7
100
AcDbLine
 10
34.871625834062
 20
-59.812240500311
 11
39.621625834062
 21
-59.812240500311
  0
LINE
  5
1B2
100
AcDbEntity
  8
1
  6
CONTINUOUS
 62
           7
100
AcDbLine
 10
41.450125834062
 20
-59.012240500311
 11
41.450125834062
 21
-52.612240500311
  0
LINE
  5
1B1
100
AcDbEntity
  8
1
  6
CONTINUOUS
 62
           7
100
AcDbLine
 10
40.650125834062
 20
-51.812240500311
 11
40.594125834062
 21
-51.812240500311
  0
LINE
  5
1B0
100
AcDbEntity
  8
1
  6
CONTINUOUS
 62
           7
100
AcDbLine
 10
40.594125834062
 20
-51.812240500311
 11
40.594125834062
 21
-48.812240500311
  0
LINE
  5
1AF
100
AcDbEntity
  8
1
  6
CONTINUOUS
 62
           7
100
AcDbLine
 10
41.671625834062
 20
-39.312325796422
 11
41.671625834062
 21
-48.312240500312
  0
LINE
  5
1AE
100
AcDbEntity
  8
1
  6
CONTINUOUS
 62
           2
100
AcDbLine
 10
40.594125834062
 20
-51.812240500311
 11
40.594125834062
 21
-59.812240500311
  0
LINE
  5
1AD
100
AcDbEntity
  8
1
  6
CONTINUOUS
 62
           7
100
AcDbLine
 10
39.621625834062
 20
-59.812240500311
 11
40.650125834062
 21
-59.812240500311
  0
LINE
  5
1AC
100
AcDbEntity
  8
1
  6
CONTINUOUS
 62
           7
100
AcDbLine
 10
41.671625834063
 20
-33.81232579642
 11
43.371625834063
 21
-33.81232579642
  0
LINE
  5
1AB
100
AcDbEntity
  8
1
  6
CONTINUOUS
 62
           7
100
AcDbLine
 10
43.371625834063
 20
-33.81232579642
 11
44.121625834063
 21
-34.245338498312
  0
LINE
  5
1AA
100
AcDbEntity
  8
1
  6
CONTINUOUS
 62
           7
100
AcDbLine
 10
44.121625834063
 20
-34.245338498312
 11
44.121625834063
 21
-38.879313094529
  0
LINE
  5
1A9
100
AcDbEntity
  8
1
  6
CONTINUOUS
 62
           7
100
AcDbLine
 10
43.371625834062
 20
-39.312325796422
 11
44.121625834063
 21
-38.879313094529
  0
LINE
  5
1A8
100
AcDbEntity
  8
1
  6
CONTINUOUS
 62
           7
100
AcDbLine
 10
41.671625834062
 20
-39.312325796422
 11
43.371625834062
 21
-39.312325796422
  0
LINE
  5
1A7
100
AcDbEntity
  8
1
  6
CONTINUOUS
 62
           7
100
AcDbLine
 10
40.594125834062
 20
-48.812240500311
 11
41.171625834062
 21
-48.812240500311
  0
LINE
  5
1A6
100
AcDbEntity
  8
1
  6
CONTINUOUS
 62
           7
100
AcDbLine
 10
29.093125834062
 20
-59.812240500312
 11
28.293125834062
 21
-59.012240500311
  0
LINE
  5
1A5
100
AcDbEntity
  8
1
  6
CONTINUOUS
 62
           7
100
AcDbLine
 10
40.650125834062
 20
-59.812240500311
 11
41.450125834062
 21
-59.012240500311
  0
LINE
  5
1A4
100
AcDbEntity
  8
1
  6
CONTINUOUS
 62
           7
100
AcDbLine
 10
41.671625834063
 20
-33.81232579642
 11
34.871625834062
 21
-33.81232579642
  0
LINE
  5
1A3
100
AcDbEntity
  8
1
  6
CONTINUOUS
 62
           7
100
AcDbLine
 10
28.071625834063
 20
-33.81232579642
 11
34.871625834062
 21
-33.81232579642
  0
LINE
  5
1A2
100
AcDbEntity
  8
1
  6
CONTINUOUS
 62
           7
100
AcDbLine
 10
28.071625834063
 20
-39.312325796422
 11
34.871625834063
 21
-39.312325796422
  0
LINE
  5
1A1
100
AcDbEntity
  8
1
  6
CONTINUOUS
 62
           7
100
AcDbLine
 10
41.671625834062
 20
-39.312325796422
 11
34.871625834063
 21
-39.312325796422
  0
LINE
  5
1A0
100
AcDbEntity
  8
1
  6
CONTINUOUS
 62
           7
100
AcDbLine
 10
28.071625834062
 20
-48.312240500311
 11
34.871625834062
 21
-48.312240500312
  0
LINE
  5
19F
100
AcDbEntity
  8
1
  6
CONTINUOUS
 62
           7
100
AcDbLine
 10
41.671625834062
 20
-48.312240500312
 11
34.871625834062
 21
-48.312240500312
  0
LINE
  5
19E
100
AcDbEntity
  8
1
  6
CONTINUOUS
 62
           7
100
AcDbLine
 10
40.594125834062
 20
-48.812240500311
 11
34.871625834062
 21
-48.812240500311
  0
LINE
  5
19D
100
AcDbEntity
  8
1
  6
CONTINUOUS
 62
           7
100
AcDbLine
 10
29.149125834062
 20
-48.812240500311
 11
34.871625834062
 21
-48.812240500311
  0
LINE
  5
19C
100
AcDbEntity
  8
1
  6
CONTINUOUS
 62
           7
100
AcDbLine
 10
29.149125834062
 20
-51.812240500311
 11
34.871625834062
 21
-51.812240500311
  0
LINE
  5
19B
100
AcDbEntity
  8
1
  6
CONTINUOUS
 62
           7
100
AcDbLine
 10
40.594125834062
 20
-51.812240500311
 11
34.871625834062
 21
-51.812240500311
  0
LINE
  5
19A
100
AcDbEntity
  8
1
  6
CONTINUOUS
 62
           2
100
AcDbLine
 10
29.334724841812
 20
-38.909202570262
 11
31.22299595423
 21
-38.897172495973
  0
LINE
  5
199
100
AcDbEntity
  8
1
  6
CONTINUOUS
 62
           2
100
AcDbLine
 10
38.520255713896
 20
-38.897172495973
 11
40.408526826314
 21
-38.909202570262
  0
LINE
  5
198
100
AcDbEntity
  8
1
  6
CONTINUOUS
 62
           2
100
AcDbLine
 10
40.408526826314
 20
-34.215449022578
 11
38.520255713896
 21
-34.227479096868
  0
LINE
  5
197
100
AcDbEntity
  8
1
  6
CONTINUOUS
 62
           2
100
AcDbLine
 10
31.222995954229
 20
-34.227479096867
 11
29.334724841811
 21
-34.215449022578
  0
LINE
  5
196
100
AcDbEntity
  8
1
  6
CONTINUOUS
 62
           2
100
AcDbLine
 10
40.408526826314
 20
-34.215449022578
 11
40.408526826314
 21
-38.909202570262
  0
LINE
  5
195
100
AcDbEntity
  8
1
  6
CONTINUOUS
 62
           2
100
AcDbLine
 10
38.520255713896
 20
-38.897172495973
 11
38.520255713896
 21
-34.227479096868
  0
LINE
  5
194
100
AcDbEntity
  8
1
  6
CONTINUOUS
 62
           2
100
AcDbLine
 10
31.222995954229
 20
-34.227479096867
 11
31.22299595423
 21
-38.897172495973
  0
LINE
  5
193
100
AcDbEntity
  8
1
  6
CONTINUOUS
 62
           2
100
AcDbLine
 10
29.334724841812
 20
-38.909202570262
 11
29.334724841811
 21
-34.215449022578
  0
LINE
  5
192
100
AcDbEntity
  8
1
  6
CONTINUOUS
 62
           2
100
AcDbLine
 10
29.149125834062
 20
-59.812240500312
 11
29.149125834062
 21
-51.812240500311
  0
LINE
  5
191
100
AcDbEntity
  8
1
  6
CONTINUOUS
 62
           7
100
AcDbLine
 10
40.271625834064
 20
-17.493169996744
 11
40.271625834063
 21
-18.167325796419
  0
LINE
  5
190
100
AcDbEntity
  8
1
  6
CONTINUOUS
 62
           7
100
AcDbLine
 10
34.871625834062
 20
-32.66732579642
 11
28.071625834062
 21
-32.66732579642
  0
LINE
  5
18F
100
AcDbEntity
  8
1
  6
CONTINUOUS
 62
           7
100
AcDbLine
 10
25.621625834062
 20
-32.234313094528
 11
26.371625834063
 21
-32.66732579642
  0
LINE
  5
18E
100
AcDbEntity
  8
1
  6
CONTINUOUS
 62
           7
100
AcDbLine
 10
28.071625834062
 20
-32.66732579642
 11
26.371625834063
 21
-32.66732579642
  0
LINE
  5
18D
100
AcDbEntity
  8
1
  6
CONTINUOUS
 62
           7
100
AcDbLine
 10
28.971625834063
 20
-18.66732579642
 11
26.371625834063
 21
-18.667325796419
  0
LINE
  5
18C
100
AcDbEntity
  8
1
  6
CONTINUOUS
 62
           7
100
AcDbLine
 10
29.471625834063
 20
-18.167325796419
 11
29.471625834064
 21
-17.493169996744
  0
LINE
  5
18B
100
AcDbEntity
  8
1
  6
CONTINUOUS
 62
           7
100
AcDbLine
 10
26.371625834063
 20
-18.667325796419
 11
25.621625834064
 21
-19.10033849831
  0
LINE
  5
18A
100
AcDbEntity
  8
1
  6
CONTINUOUS
 62
           7
100
AcDbLine
 10
25.621625834062
 20
-32.234313094528
 11
25.621625834064
 21
-19.10033849831
  0
LINE
  5
189
100
AcDbEntity
  8
1
  6
CONTINUOUS
 62
           7
100
AcDbLine
 10
41.671625834062
 20
-32.66732579642
 11
34.871625834062
 21
-32.66732579642
  0
LINE
  5
188
100
AcDbEntity
  8
1
  6
CONTINUOUS
 62
           7
100
AcDbLine
 10
43.371625834063
 20
-32.66732579642
 11
44.121625834063
 21
-32.234313094528
  0
LINE
  5
187
100
AcDbEntity
  8
1
  6
CONTINUOUS
 62
           7
100
AcDbLine
 10
43.371625834063
 20
-32.66732579642
 11
41.671625834062
 21
-32.66732579642
  0
LINE
  5
186
100
AcDbEntity
  8
1
  6
CONTINUOUS
 62
           7
100
AcDbLine
 10
43.371625834064
 20
-18.667325796419
 11
40.771625834063
 21
-18.667325796419
  0
LINE
  5
185
100
AcDbEntity
  8
1
  6
CONTINUOUS
 62
           7
100
AcDbLine
 10
44.121625834064
 20
-19.100338498311
 11
43.371625834064
 21
-18.667325796419
  0
LINE
  5
184
100
AcDbEntity
  8
1
  6
CONTINUOUS
 62
           7
100
AcDbLine
 10
44.121625834064
 20
-19.100338498311
 11
44.121625834063
 21
-32.234313094528
  0
LINE
  5
183
100
AcDbEntity
  8
1
  6
CONTINUOUS
 62
           7
100
AcDbLine
 10
40.771625834063
 20
-18.667325796419
 11
34.871625834063
 21
-18.667325796418
  0
LINE
  5
182
100
AcDbEntity
  8
1
  6
CONTINUOUS
 62
           7
100
AcDbLine
 10
28.971625834063
 20
-18.66732579642
 11
34.871625834063
 21
-18.667325796418
  0
LINE
  5
181
100
AcDbEntity
  8
1
  6
CONTINUOUS
 62
           7
100
AcDbLine
 10
40.271625834063
 20
-18.167325796419
 11
34.871625834063
 21
-18.167325796419
  0
LINE
  5
180
100
AcDbEntity
  8
1
  6
CONTINUOUS
 62
           7
100
AcDbLine
 10
29.471625834063
 20
-18.167325796419
 11
34.871625834063
 21
-18.167325796419
  0
LINE
  5
17F
100
AcDbEntity
  8
1
  6
CONTINUOUS
 62
           2
100
AcDbLine
 10
40.408526826314
 20
-19.070449022578
 11
40.408526826314
 21
-32.264202570261
  0
LINE
  5
17E
100
AcDbEntity
  8
1
  6
CONTINUOUS
 62
           2
100
AcDbLine
 10
38.520255713896
 20
-32.252172495972
 11
38.520255713897
 21
-19.082479096867
  0
LINE
  5
17D
100
AcDbEntity
  8
1
  6
CONTINUOUS
 62
           2
100
AcDbLine
 10
31.22299595423
 20
-19.082479096867
 11
31.22299595423
 21
-32.252172495971
  0
LINE
  5
17C
100
AcDbEntity
  8
1
  6
CONTINUOUS
 62
           2
100
AcDbLine
 10
29.334724841812
 20
-32.264202570261
 11
29.334724841812
 21
-19.070449022578
  0
LINE
  5
17B
100
AcDbEntity
  8
1
  6
CONTINUOUS
 62
           2
100
AcDbLine
 10
40.408526826314
 20
-19.070449022578
 11
38.520255713897
 21
-19.082479096867
  0
LINE
  5
17A
100
AcDbEntity
  8
1
  6
CONTINUOUS
 62
           2
100
AcDbLine
 10
31.22299595423
 20
-19.082479096867
 11
29.334724841812
 21
-19.070449022578
  0
LINE
  5
179
100
AcDbEntity
  8
1
  6
CONTINUOUS
 62
           2
100
AcDbLine
 10
29.334724841812
 20
-32.264202570261
 11
31.22299595423
 21
-32.252172495971
  0
LINE
  5
178
100
AcDbEntity
  8
1
  6
CONTINUOUS
 62
           2
100
AcDbLine
 10
38.520255713896
 20
-32.252172495972
 11
40.408526826314
 21
-32.264202570261
  0
LINE
  5
177
100
AcDbEntity
  8
1
  6
CONTINUOUS
 62
           2
100
AcDbLine
 10
97.571279759222
 20
-3.492785381366
 11
97.571279759222
 21
2.507214618634
  0
LINE
  5
176
100
AcDbEntity
  8
1
  6
CONTINUOUS
 62
           2
100
AcDbLine
 10
97.571279759222
 20
-3.492785381366
 11
98.481639288159
 21
-3.492785381366
  0
LINE
  5
175
100
AcDbEntity
  8
1
  6
CONTINUOUS
 62
           2
100
AcDbLine
 10
98.481639288159
 20
-3.492785381366
 11
98.481639288159
 21
-0.304635871492
  0
LINE
  5
174
100
AcDbEntity
  8
1
  6
CONTINUOUS
 62
           2
100
AcDbLine
 10
98.481639288159
 20
-0.304635871492
 11
98.893215902178
 21
-3.492785381366
  0
LINE
  5
173
100
AcDbEntity
  8
1
  6
CONTINUOUS
 62
           2
100
AcDbLine
 10
98.893215902178
 20
-3.492785381366
 11
99.583849652485
 21
-3.492785381366
  0
LINE
  5
172
100
AcDbEntity
  8
1
  6
CONTINUOUS
 62
           2
100
AcDbLine
 10
99.583849652485
 20
-3.492785381366
 11
100.049133201122
 21
-0.329649747481
  0
LINE
  5
171
100
AcDbEntity
  8
1
  6
CONTINUOUS
 62
           2
100
AcDbLine
 10
100.049133201122
 20
-0.329649747481
 11
100.049133201122
 21
-3.492785381366
  0
LINE
  5
170
100
AcDbEntity
  8
1
  6
CONTINUOUS
 62
           2
100
AcDbLine
 10
100.049133201122
 20
-3.492785381366
 11
101.00029123548
 21
-3.492785381366
  0
LINE
  5
16F
100
AcDbEntity
  8
1
  6
CONTINUOUS
 62
           2
100
AcDbLine
 10
101.00029123548
 20
-3.492785381366
 11
101.000291235479
 21
2.507214618634
  0
LINE
  5
16E
100
AcDbEntity
  8
1
  6
CONTINUOUS
 62
           2
100
AcDbLine
 10
101.000291235479
 20
2.507214618634
 11
99.59645713903
 21
2.507214618634
  0
LINE
  5
16D
100
AcDbEntity
  8
1
  6
CONTINUOUS
 62
           2
100
AcDbLine
 10
99.59645713903
 20
2.507214618634
 11
99.275608237978
 21
-0.165486550664
  0
LINE
  5
16C
100
AcDbEntity
  8
1
  6
CONTINUOUS
 62
           2
100
AcDbLine
 10
99.275608237978
 20
-0.165486550664
 11
99.025353452038
 21
2.507214618634
  0
LINE
  5
16B
100
AcDbEntity
  8
1
  6
CONTINUOUS
 62
           2
100
AcDbLine
 10
99.025353452038
 20
2.507214618634
 11
97.571279759222
 21
2.507214618634
  0
LINE
  5
16A
100
AcDbEntity
  8
1
  6
CONTINUOUS
 62
           2
100
AcDbLine
 10
103.349486014967
 20
-0.924087792725
 11
103.349486014967
 21
-2.449738265804
  0
LINE
  5
169
100
AcDbEntity
  8
1
  6
CONTINUOUS
 62
           2
100
AcDbLine
 10
102.363680676949
 20
-0.282017210726
 11
103.349486014967
 21
-0.924087792725
  0
LINE
  5
168
100
AcDbEntity
  8
1
  6
CONTINUOUS
 62
           2
100
AcDbLine
 10
102.00029123548
 20
1.707214618634
 11
102.00029123548
 21
0.388334353887
  0
LINE
  5
167
100
AcDbEntity
  8
1
  6
CONTINUOUS
 62
           2
100
AcDbLine
 10
103.183867308011
 20
-2.589738265805
 11
103.209486014967
 21
-2.589738265806
  0
LINE
  5
166
100
AcDbEntity
  8
1
  6
CONTINUOUS
 62
           2
100
AcDbLine
 10
103.043867308012
 20
-0.995656922095
 11
103.043867308012
 21
-2.449738265804
  0
LINE
  5
165
100
AcDbEntity
  8
1
  6
CONTINUOUS
 62
           2
100
AcDbLine
 10
102.00029123548
 20
-0.995656922094
 11
103.043867308012
 21
-0.995656922095
  0
LINE
  5
164
100
AcDbEntity
  8
1
  6
CONTINUOUS
 62
           2
100
AcDbLine
 10
102.00029123548
 20
-2.692785381366
 11
102.00029123548
 21
-0.995656922094
  0
LINE
  5
163
100
AcDbEntity
  8
1
  6
CONTINUOUS
 62
           2
100
AcDbLine
 10
103.607970317106
 20
-3.492785381366
 11
102.80029123548
 21
-3.492785381366
  0
LINE
  5
162
100
AcDbEntity
  8
1
  6
CONTINUOUS
 62
           2
100
AcDbLine
 10
104.407970317106
 20
-0.952799605677
 11
104.407970317106
 21
-2.692785381366
  0
LINE
  5
161
100
AcDbEntity
  8
1
  6
CONTINUOUS
 62
           2
100
AcDbLine
 10
103.043867308011
 20
0.380873446054
 11
104.049951963215
 21
-0.285977122176
  0
LINE
  5
160
100
AcDbEntity
  8
1
  6
CONTINUOUS
 62
           2
100
AcDbLine
 10
103.043867308011
 20
1.51947222581
 11
103.043867308011
 21
0.380873446054
  0
LINE
  5
15F
100
AcDbEntity
  8
1
  6
CONTINUOUS
 62
           2
100
AcDbLine
 10
103.209486014967
 20
1.65947222581
 11
103.183867308011
 21
1.65947222581
  0
LINE
  5
15E
100
AcDbEntity
  8
1
  6
CONTINUOUS
 62
           2
100
AcDbLine
 10
103.349486014967
 20
0.413170775823
 11
103.349486014967
 21
1.51947222581
  0
LINE
  5
15D
100
AcDbEntity
  8
1
  6
CONTINUOUS
 62
           2
100
AcDbLine
 10
104.407970317106
 20
0.413170775823
 11
103.349486014967
 21
0.413170775823
  0
LINE
  5
15C
100
AcDbEntity
  8
1
  6
CONTINUOUS
 62
           2
100
AcDbLine
 10
103.607970317106
 20
2.507214618634
 11
102.80029123548
 21
2.507214618634
  0
LINE
  5
15B
100
AcDbEntity
  8
1
  6
CONTINUOUS
 62
           2
100
AcDbLine
 10
104.407970317106
 20
0.413170775823
 11
104.407970317106
 21
1.707214618634
  0
LINE
  5
15A
100
AcDbEntity
  8
1
  6
CONTINUOUS
 62
           2
100
AcDbLine
 10
106.635373894475
 20
-0.428465853972
 11
107.830414022454
 21
-0.428465853972
  0
LINE
  5
159
100
AcDbEntity
  8
1
  6
CONTINUOUS
 62
           2
100
AcDbLine
 10
106.635373894475
 20
-1.256186374331
 11
106.635373894475
 21
-0.428465853972
  0
LINE
  5
158
100
AcDbEntity
  8
1
  6
CONTINUOUS
 62
           2
100
AcDbLine
 10
106.803070294226
 20
-1.256186374331
 11
106.635373894475
 21
-1.256186374331
  0
LINE
  5
157
100
AcDbEntity
  8
1
  6
CONTINUOUS
 62
           2
100
AcDbLine
 10
106.803070294226
 20
-2.501232219913
 11
106.803070294226
 21
-1.256186374331
  0
LINE
  5
156
100
AcDbEntity
  8
1
  6
CONTINUOUS
 62
           2
100
AcDbLine
 10
106.549995759761
 20
-2.601232219913
 11
106.703070294226
 21
-2.601232219913
  0
LINE
  5
155
100
AcDbEntity
  8
1
  6
CONTINUOUS
 62
           2
100
AcDbLine
 10
106.449995759761
 20
1.592264524248
 11
106.449995759761
 21
-2.501232219914
  0
LINE
  5
154
100
AcDbEntity
  8
1
  6
CONTINUOUS
 62
           2
100
AcDbLine
 10
106.703070294226
 20
1.692264524248
 11
106.54999575976
 21
1.692264524248
  0
LINE
  5
153
100
AcDbEntity
  8
1
  6
CONTINUOUS
 62
           2
100
AcDbLine
 10
106.803070294226
 20
0.408307859578
 11
106.803070294226
 21
1.592264524248
  0
LINE
  5
152
100
AcDbEntity
  8
1
  6
CONTINUOUS
 62
           2
100
AcDbLine
 10
107.830414022454
 20
-0.428465853972
 11
107.830414022454
 21
-3.492785381366
  0
LINE
  5
151
100
AcDbEntity
  8
1
  6
CONTINUOUS
 62
           2
100
AcDbLine
 10
107.830414022454
 20
0.408307859578
 11
106.803070294226
 21
0.408307859578
  0
LINE
  5
150
100
AcDbEntity
  8
1
  6
CONTINUOUS
 62
           2
100
AcDbLine
 10
107.830414022454
 20
1.707214618634
 11
107.830414022454
 21
0.408307859578
  0
LINE
  5
14F
100
AcDbEntity
  8
1
  6
CONTINUOUS
 62
           2
100
AcDbLine
 10
106.207970317106
 20
2.507214618634
 11
107.030414022453
 21
2.507214618634
  0
LINE
  5
14E
100
AcDbEntity
  8
1
  6
CONTINUOUS
 62
           2
100
AcDbLine
 10
105.407970317106
 20
-2.692785381366
 11
105.407970317106
 21
1.707214618634
  0
LINE
  5
14D
100
AcDbEntity
  8
1
  6
CONTINUOUS
 62
           2
100
AcDbLine
 10
106.550422217055
 20
-3.492785381366
 11
106.207970317106
 21
-3.492785381366
  0
LINE
  5
14C
100
AcDbEntity
  8
1
  6
CONTINUOUS
 62
           2
100
AcDbLine
 10
107.480564053994
 20
-3.492785381366
 11
107.242939646743
 21
-3.072665429347
  0
LINE
  5
14B
100
AcDbEntity
  8
1
  6
CONTINUOUS
 62
           2
100
AcDbLine
 10
107.830414022454
 20
-3.492785381366
 11
107.480564053994
 21
-3.492785381366
  0
LINE
  5
14A
100
AcDbEntity
  8
1
  6
CONTINUOUS
 62
           2
100
AcDbLine
 10
111.930414022454
 20
1.747214618632
 11
111.930414022454
 21
0.4269544287
  0
LINE
  5
149
100
AcDbEntity
  8
1
  6
CONTINUOUS
 62
           2
100
AcDbLine
 10
113.580429796166
 20
2.507214618634
 11
112.690414022454
 21
2.507214618634
  0
LINE
  5
148
100
AcDbEntity
  8
1
  6
CONTINUOUS
 62
           2
100
AcDbLine
 10
114.340429796165
 20
0.404764984674
 11
114.340429796165
 21
1.747214618632
  0
LINE
  5
147
100
AcDbEntity
  8
1
  6
CONTINUOUS
 62
           2
100
AcDbLine
 10
112.970752887734
 20
1.561215642387
 11
112.970752887734
 21
0.4269544287
  0
LINE
  5
146
100
AcDbEntity
  8
1
  6
CONTINUOUS
 62
           2
100
AcDbLine
 10
113.17548055907
 20
1.701215642388
 11
113.110752887734
 21
1.701215642388
  0
LINE
  5
145
100
AcDbEntity
  8
1
  6
CONTINUOUS
 62
           2
100
AcDbLine
 10
113.31548055907
 20
0.482048754281
 11
113.31548055907
 21
1.561215642387
  0
LINE
  5
144
100
AcDbEntity
  8
1
  6
CONTINUOUS
 62
           2
100
AcDbLine
 10
111.930414022454
 20
-2.601272745903
 11
113.258578174992
 21
0.227009581645
  0
LINE
  5
143
100
AcDbEntity
  8
1
  6
CONTINUOUS
 62
           2
100
AcDbLine
 10
111.930414022454
 20
-3.492785381366
 11
111.930414022454
 21
-2.601272745903
  0
LINE
  5
142
100
AcDbEntity
  8
1
  6
CONTINUOUS
 62
           2
100
AcDbLine
 10
114.340429796165
 20
-3.492785381366
 11
111.930414022454
 21
-3.492785381366
  0
LINE
  5
141
100
AcDbEntity
  8
1
  6
CONTINUOUS
 62
           2
100
AcDbLine
 10
114.340429796165
 20
-2.682436306718
 11
114.340429796165
 21
-3.492785381366
  0
LINE
  5
140
100
AcDbEntity
  8
1
  6
CONTINUOUS
 62
           2
100
AcDbLine
 10
113.012972571962
 20
-2.682436306718
 11
114.340429796165
 21
-2.682436306718
  0
LINE
  5
13F
100
AcDbEntity
  8
1
  6
CONTINUOUS
 62
           2
100
AcDbLine
 10
114.202854018148
 20
-0.200449922405
 11
113.012972571962
 21
-2.682436306718
  0
LINE
  5
13E
100
AcDbEntity
  8
1
  6
CONTINUOUS
 62
           2
100
AcDbLine
 10
112.970752887734
 20
0.4269544287
 11
111.930414022454
 21
0.4269544287
  0
LINE
  5
13D
100
AcDbEntity
  8
1
  6
CONTINUOUS
 62
           2
100
AcDbLine
 10
115.340429796165
 20
1.747214618632
 11
115.340429796165
 21
-2.732785381366
  0
LINE
  5
13C
100
AcDbEntity
  8
1
  6
CONTINUOUS
 62
           2
100
AcDbLine
 10
116.100429796165
 20
-3.492785381366
 11
117.002246833886
 21
-3.492785381366
  0
LINE
  5
13B
100
AcDbEntity
  8
1
  6
CONTINUOUS
 62
           2
100
AcDbLine
 10
117.762246833886
 20
-2.732785381366
 11
117.762246833886
 21
1.747214618632
  0
LINE
  5
13A
100
AcDbEntity
  8
1
  6
CONTINUOUS
 62
           2
100
AcDbLine
 10
116.580647476038
 20
1.697942694779
 11
116.517978968407
 21
1.697942694779
  0
LINE
  5
139
100
AcDbEntity
  8
1
  6
CONTINUOUS
 62
           2
100
AcDbLine
 10
116.377978968408
 20
1.557942694778
 11
116.377978968408
 21
-2.525395932311
  0
LINE
  5
138
100
AcDbEntity
  8
1
  6
CONTINUOUS
 62
           2
100
AcDbLine
 10
116.517978968407
 20
-2.665395932312
 11
116.580647476038
 21
-2.665395932312
  0
LINE
  5
137
100
AcDbEntity
  8
1
  6
CONTINUOUS
 62
           2
100
AcDbLine
 10
116.720647476038
 20
-2.525395932311
 11
116.720647476038
 21
1.557942694778
  0
LINE
  5
136
100
AcDbEntity
  8
1
  6
CONTINUOUS
 62
           2
100
AcDbLine
 10
117.002246833886
 20
2.507214618634
 11
116.100429796165
 21
2.507214618634
  0
LINE
  5
135
100
AcDbEntity
  8
1
  6
CONTINUOUS
 62
           2
100
AcDbLine
 10
118.762246833886
 20
1.747214618631
 11
118.762246833887
 21
-2.732785381366
  0
LINE
  5
134
100
AcDbEntity
  8
1
  6
CONTINUOUS
 62
           2
100
AcDbLine
 10
119.522246833887
 20
-3.492785381366
 11
120.424063871608
 21
-3.492785381366
  0
LINE
  5
133
100
AcDbEntity
  8
1
  6
CONTINUOUS
 62
           2
100
AcDbLine
 10
121.184063871608
 20
-2.732785381366
 11
121.184063871608
 21
1.747214618632
  0
LINE
  5
132
100
AcDbEntity
  8
1
  6
CONTINUOUS
 62
           2
100
AcDbLine
 10
120.002464513759
 20
1.697942694779
 11
119.939796006129
 21
1.697942694779
  0
LINE
  5
131
100
AcDbEntity
  8
1
  6
CONTINUOUS
 62
           2
100
AcDbLine
 10
119.799796006129
 20
1.557942694778
 11
119.799796006129
 21
-2.525395932311
  0
LINE
  5
130
100
AcDbEntity
  8
1
  6
CONTINUOUS
 62
           2
100
AcDbLine
 10
119.939796006129
 20
-2.665395932312
 11
120.002464513759
 21
-2.665395932312
  0
LINE
  5
12F
100
AcDbEntity
  8
1
  6
CONTINUOUS
 62
           2
100
AcDbLine
 10
120.142464513759
 20
-2.525395932311
 11
120.142464513759
 21
1.557942694778
  0
LINE
  5
12E
100
AcDbEntity
  8
1
  6
CONTINUOUS
 62
           2
100
AcDbLine
 10
120.424063871607
 20
2.507214618634
 11
119.522246833886
 21
2.507214618634
  0
LINE
  5
12D
100
AcDbEntity
  8
1
  6
CONTINUOUS
 62
           2
100
AcDbLine
 10
108.830414022454
 20
-1.11534127457
 11
110.930414022454
 21
-1.11534127457
  0
LINE
  5
12C
100
AcDbEntity
  8
1
  6
CONTINUOUS
 62
           2
100
AcDbLine
 10
110.930414022454
 20
-1.11534127457
 11
110.930414022454
 21
-0.038418197646
  0
LINE
  5
12B
100
AcDbEntity
  8
1
  6
CONTINUOUS
 62
           2
100
AcDbLine
 10
110.930414022454
 20
-0.038418197646
 11
108.830414022454
 21
-0.038418197646
  0
LINE
  5
12A
100
AcDbEntity
  8
1
  6
CONTINUOUS
 62
           2
100
AcDbLine
 10
108.830414022454
 20
-0.038418197646
 11
108.830414022454
 21
-1.11534127457
  0
LINE
  5
129
100
AcDbEntity
  8
1
  6
CONTINUOUS
 62
           7
100
AcDbLine
 10
55.828950397904
 20
1.256830003258
 11
65.566856880911
 21
1.256830003258
  0
LINE
  5
128
100
AcDbEntity
  8
1
  6
CONTINUOUS
 62
           7
100
AcDbLine
 10
65.390053453455
 20
-1.243169996746
 11
55.828950397904
 21
-1.243169996747
  0
LINE
  5
127
100
AcDbEntity
  8
1
  6
CONTINUOUS
 62
           7
100
AcDbLine
 10
14.438803916278
 20
17.006830003255
 11
15.771625834064
 21
17.006830003256
  0
LINE
  5
126
100
AcDbEntity
  8
1
  6
CONTINUOUS
 62
           7
100
AcDbLine
 10
77.432270193149
 20
7.506830003256
 11
86.979213359031
 21
7.506830003255
  0
LINE
  5
125
100
AcDbEntity
  8
1
  6
CONTINUOUS
 62
           7
100
AcDbLine
 10
77.964145081897
 20
-8.493169996745
 11
92.533105221456
 21
-8.493169996744
  0
LINE
  5
124
100
AcDbEntity
  8
1
  6
CONTINUOUS
 62
           2
100
AcDbLine
 10
82.102980646512
 20
-63.415354195227
 11
102.633113754296
 21
-57.914321608494
  0
LINE
  5
123
100
AcDbEntity
  8
1
  6
CONTINUOUS
 62
           7
100
AcDbLine
 10
134.327421319472
 20
-98.993169996745
 11
135.898595884745
 21
-98.993169996745
  0
LINE
  5
122
100
AcDbEntity
  8
1
  6
CONTINUOUS
 62
           7
100
AcDbLine
 10
102.34381610708
 20
-23.993169996744
 11
102.750466007753
 21
-25.510808086949
  0
LINE
  5
121
100
AcDbEntity
  8
1
  6
CONTINUOUS
 62
           7
100
AcDbLine
 10
102.750466007753
 20
-25.510808086949
 11
122.042807862793
 21
-97.51080808695
  0
LINE
  5
120
100
AcDbEntity
  8
1
  6
CONTINUOUS
 62
           7
100
AcDbLine
 10
46.619762800073
 20
-9.338006862179
 11
46.759625834076
 21
-7.993169996745
  0
LINE
  5
11F
100
AcDbEntity
  8
1
  6
CONTINUOUS
 62
           7
100
AcDbLine
 10
46.759625834076
 20
-7.993169996745
 11
47.998657743386
 21
3.920598362096
  0
LINE
  5
11E
100
AcDbEntity
  8
1
  6
CONTINUOUS
 62
           7
100
AcDbLine
 10
48.111716017058
 20
-7.993169996744
 11
48.871625834064
 21
-7.993169996744
  0
LINE
  5
11D
100
AcDbEntity
  8
1
  6
CONTINUOUS
 62
           7
100
AcDbLine
 10
98.166173740825
 20
27.371311871793
 11
102.120621474792
 21
27.717281219023
  0
LINE
  5
11C
100
AcDbEntity
  8
1
  6
CONTINUOUS
 62
           7
100
AcDbLine
 10
19.067083150978
 20
-14.77700101225
 11
17.71026672966
 21
-16.1701516908
  0
LINE
  5
11B
100
AcDbEntity
  8
1
  6
CONTINUOUS
 62
           7
100
AcDbLine
 10
17.71026672966
 20
-16.1701516908
 11
17.488667651492
 21
-16.397684982161
  0
LINE
  5
11A
100
AcDbEntity
  8
1
  6
CONTINUOUS
 62
           7
100
AcDbLine
 10
23.075473411357
 20
-17.091246208097
 11
20.751234186582
 21
-15.749346066012
  0
LINE
  5
119
100
AcDbEntity
  8
1
  6
CONTINUOUS
 62
           7
100
AcDbLine
 10
46.097972913428
 20
-14.35521731073
 11
46.619762800073
 21
-9.338006862179
  0
LINE
  5
118
100
AcDbEntity
  8
1
  6
CONTINUOUS
 62
           7
100
AcDbLine
 10
16.771625834064
 20
17.006830003256
 11
20.011410606949
 21
12.600646423431
  0
LINE
  5
117
100
AcDbEntity
  8
1
  6
CONTINUOUS
 62
           7
100
AcDbLine
 10
103.371625834063
 20
10.006830003256
 11
103.381017202151
 21
9.975240856054
  0
LINE
  5
116
100
AcDbEntity
  8
1
  6
CONTINUOUS
 62
           7
100
AcDbLine
 10
105.298089914709
 20
8.545181392221
 11
122.971625834064
 21
8.545181392221
  0
LINE
  5
115
100
AcDbEntity
  8
1
  6
CONTINUOUS
 62
           7
100
AcDbLine
 10
107.219376851142
 20
-47.984565366707
 11
93.740694143054
 21
2.318563318974
  0
LINE
  5
114
100
AcDbEntity
  8
1
  6
CONTINUOUS
 62
           7
100
AcDbLine
 10
101.303703556547
 20
-56.816598511551
 11
102.269629382836
 21
-56.557779466447
  0
LINE
  5
113
100
AcDbEntity
  8
1
  6
CONTINUOUS
 62
           7
100
AcDbLine
 10
50.371625834063
 20
0.006830003255
 11
50.371625834063
 21
-6.493169996745
  0
LINE
  5
112
100
AcDbEntity
  8
1
  6
CONTINUOUS
 62
           7
100
AcDbLine
 10
34.871625834064
 20
-17.493169996744
 11
42.616748740463
 21
-17.493169996745
  0
LINE
  5
111
100
AcDbEntity
  8
1
  6
CONTINUOUS
 62
           7
100
AcDbLine
 10
17.221625834064
 20
17.606830003256
 11
17.453736216633
 21
17.916310513349
  0
LINE
  5
110
100
AcDbEntity
  8
1
  6
CONTINUOUS
 62
           7
100
AcDbLine
 10
76.640277464354
 20
44.645573258698
 11
89.731240228989
 21
29.94507111413
  0
LINE
  5
10F
100
AcDbEntity
  8
1
  6
CONTINUOUS
 62
           7
100
AcDbLine
 10
98.320879851857
 20
26.995702852502
 11
103.371625834063
 21
10.006830003256
  0
LINE
  5
10E
100
AcDbEntity
  8
1
  6
CONTINUOUS
 62
           7
100
AcDbLine
 10
123.771625834064
 20
0.006830003256
 11
123.771625834064
 21
-9.093169996744
  0
LINE
  5
10D
100
AcDbEntity
  8
1
  6
CONTINUOUS
 62
           7
100
AcDbLine
 10
123.771625834064
 20
9.106830003257
 11
123.771625834064
 21
0.006830003256
  0
LINE
  5
10C
100
AcDbEntity
  8
1
  6
CONTINUOUS
 62
           7
100
AcDbLine
 10
61.171625834063
 20
50.506830003256
 11
63.571625834063
 21
50.506830003256
  0
LINE
  5
10B
100
AcDbEntity
  8
1
  6
CONTINUOUS
 62
           7
100
AcDbLine
 10
55.171625834064
 20
36.506830003256
 11
55.171625834063
 21
38.006830003256
  0
LINE
  5
10A
100
AcDbEntity
  8
1
  6
CONTINUOUS
 62
           7
100
AcDbLine
 10
49.671625834064
 20
38.006830003256
 11
49.671625834064
 21
39.006830003255
  0
LINE
  5
109
100
AcDbEntity
  8
1
  6
CONTINUOUS
 62
           7
100
AcDbLine
 10
53.671625834064
 20
35.006830003256
 11
52.671625834064
 21
35.006830003255
  0
LINE
  5
108
100
AcDbEntity
  8
1
  6
CONTINUOUS
 62
           7
100
AcDbLine
 10
100.167119356806
 20
-15.869627132051
 11
102.34381610708
 21
-23.993169996744
  0
LINE
  5
107
100
AcDbEntity
  8
1
  6
CONTINUOUS
 62
           7
100
AcDbLine
 10
109.23748753327
 20
-102.617326222091
 11
109.056634340225
 21
-100.993169996745
  0
LINE
  5
106
100
AcDbEntity
  8
1
  6
CONTINUOUS
 62
           7
100
AcDbLine
 10
123.51164000085
 20
-100.993169996745
 11
123.582691185791
 21
-101.362283526524
  0
LINE
  5
105
100
AcDbEntity
  8
1
  6
CONTINUOUS
 62
           7
100
AcDbLine
 10
76.330599108507
 20
18.435401431827
 11
77.320342427118
 21
25.292544288969
  0
LINE
  5
104
100
AcDbEntity
  8
1
  6
CONTINUOUS
 62
           7
100
AcDbLine
 10
67.42290924101
 20
25.292544288971
 11
68.412652559621
 21
18.435401431827
  0
LINE
  5
103
100
AcDbEntity
  8
1
  6
CONTINUOUS
 62
           7
100
AcDbLine
 10
103.172767424636
 20
20.280683280433
 11
103.791573198145
 21
13.207700923981
  0
LINE
  5
102
100
AcDbEntity
  8
1
  6
CONTINUOUS
 62
           7
100
AcDbLine
 10
102.553961651128
 20
27.353665636883
 11
103.172767424636
 21
20.280683280433
  0
LINE
  5
101
100
AcDbEntity
  8
1
  6
CONTINUOUS
 62
           7
100
AcDbLine
 10
123.771625834064
 20
-9.093169996744
 11
124.071625834064
 21
-9.093169996744
  0
LINE
  5
100
100
AcDbEntity
  8
1
  6
CONTINUOUS
 62
           7
100
AcDbLine
 10
123.771625834064
 20
9.106830003257
 11
124.071625834064
 21
9.106830003257
  0
LINE
  5
FF
100
AcDbEntity
  8
1
  6
CONTINUOUS
 62
           7
100
AcDbLine
 10
15.771625834064
 20
17.006830003256
 11
16.021625834064
 21
17.006830003256
  0
LINE
  5
FE
100
AcDbEntity
  8
1
  6
CONTINUOUS
 62
           7
100
AcDbLine
 10
80.886890954767
 20
-63.689637613956
 11
80.85982209771
 21
-63.588615264116
  0
LINE
  5
FD
100
AcDbEntity
  8
1
  6
CONTINUOUS
 62
           7
100
AcDbLine
 10
142.371625834064
 20
-13.093169996744
 11
142.371625834064
 21
-14.022617635923
  0
LINE
  5
FC
100
AcDbEntity
  8
1
  6
CONTINUOUS
 62
           7
100
AcDbLine
 10
126.401201572438
 20
-30.706933789871
 11
146.059198932562
 21
-104.071578712908
  0
LINE
  5
FB
100
AcDbEntity
  8
1
  6
CONTINUOUS
 62
           7
100
AcDbLine
 10
101.303703556547
 20
-56.816598511551
 11
81.743705574193
 21
-62.057684174876
  0
LINE
  5
FA
100
AcDbEntity
  8
1
  6
CONTINUOUS
 62
           7
100
AcDbLine
 10
106.253451024853
 20
-48.243384411809
 11
96.396808526612
 21
-11.457893816333
  0
LINE
  5
F9
100
AcDbEntity
  8
1
  6
CONTINUOUS
 62
           7
100
AcDbLine
 10
103.471625834064
 20
20.306830003255
 11
102.852820060556
 21
27.379812359708
  0
LINE
  5
F8
100
AcDbEntity
  8
1
  6
CONTINUOUS
 62
           7
100
AcDbLine
 10
103.471625834064
 20
20.306830003255
 11
104.090431607572
 21
13.233847646805
  0
LINE
  5
F7
100
AcDbEntity
  8
1
  6
CONTINUOUS
 62
           7
100
AcDbLine
 10
123.771625834064
 20
-9.093169996744
 11
123.771625834064
 21
-10.093169996744
  0
LINE
  5
F6
100
AcDbEntity
  8
1
  6
CONTINUOUS
 62
           7
100
AcDbLine
 10
125.771625834064
 20
-12.093169996744
 11
141.371625834064
 21
-12.093169996744
  0
LINE
  5
F5
100
AcDbEntity
  8
1
  6
CONTINUOUS
 62
           7
100
AcDbLine
 10
123.771625834064
 20
9.106830003257
 11
123.771625834064
 21
9.206830003256
  0
LINE
  5
F4
100
AcDbEntity
  8
1
  6
CONTINUOUS
 62
           7
100
AcDbLine
 10
116.410089359531
 20
-101.989804874307
 11
123.582691185791
 21
-101.362283526524
  0
LINE
  5
F3
100
AcDbEntity
  8
1
  6
CONTINUOUS
 62
           7
100
AcDbLine
 10
116.410089359531
 20
-101.989804874307
 11
109.23748753327
 21
-102.617326222091
  0
LINE
  5
F2
100
AcDbEntity
  8
1
  6
CONTINUOUS
 62
           7
100
AcDbLine
 10
106.263499118572
 20
-86.917917459651
 11
101.132030455129
 21
-67.767015690234
  0
LINE
  5
F1
100
AcDbEntity
  8
1
  6
CONTINUOUS
 62
           7
100
AcDbLine
 10
138.176164020409
 20
-107.493169996745
 11
131.221498071128
 21
-109.356667121482
  0
LINE
  5
F0
100
AcDbEntity
  8
1
  6
CONTINUOUS
 62
           7
100
AcDbLine
 10
122.971625834064
 20
10.006830003255
 11
104.987944291135
 21
10.006830003256
  0
LINE
  5
EF
100
AcDbEntity
  8
1
  6
CONTINUOUS
 62
           7
100
AcDbLine
 10
50.371625834063
 20
0.006830003255
 11
50.371625834064
 21
5.006830003256
  0
LINE
  5
EE
100
AcDbEntity
  8
1
  6
CONTINUOUS
 62
           7
100
AcDbLine
 10
51.977199655346
 20
7.506830003256
 11
52.871625834064
 21
7.506830003256
  0
LINE
  5
ED
100
AcDbEntity
  8
1
  6
CONTINUOUS
 62
           7
100
AcDbLine
 10
124.071625834064
 20
9.106830003257
 11
124.071625834064
 21
0.006830003256
  0
LINE
  5
EC
100
AcDbEntity
  8
1
  6
CONTINUOUS
 62
           7
100
AcDbLine
 10
124.071625834064
 20
0.006830003256
 11
124.071625834064
 21
-9.093169996744
  0
LINE
  5
EB
100
AcDbEntity
  8
1
  6
CONTINUOUS
 62
           7
100
AcDbLine
 10
15.771625834064
 20
-16.993169996744
 11
14.438803916278
 21
-16.993169996744
  0
LINE
  5
EA
100
AcDbEntity
  8
1
  6
CONTINUOUS
 62
           7
100
AcDbLine
 10
82.311358459712
 20
-64.597123498843
 11
93.155012427437
 21
-62.685094734867
  0
LINE
  5
E9
100
AcDbEntity
  8
1
  6
CONTINUOUS
 62
           7
100
AcDbLine
 10
130.863204757039
 20
-109.178609260836
 11
131.152982504925
 21
-109.100963547306
  0
LINE
  5
E8
100
AcDbEntity
  8
1
  6
CONTINUOUS
 62
           7
100
AcDbLine
 10
131.152982504925
 20
-109.100963547306
 11
131.221498071128
 21
-109.356667121482
  0
LINE
  5
E7
100
AcDbEntity
  8
1
  6
CONTINUOUS
 62
           7
100
AcDbLine
 10
145.130829969691
 20
-105.629672872006
 11
145.062314403489
 21
-105.37396929783
  0
LINE
  5
E6
100
AcDbEntity
  8
1
  6
CONTINUOUS
 62
           7
100
AcDbLine
 10
145.062314403489
 20
-105.37396929783
 11
145.352092151375
 21
-105.296323584298
  0
LINE
  5
E5
100
AcDbEntity
  8
1
  6
CONTINUOUS
 62
           7
100
AcDbLine
 10
145.130829969691
 20
-105.629672872006
 11
138.176164020409
 21
-107.493169996745
  0
LINE
  5
E4
100
AcDbEntity
  8
1
  6
CONTINUOUS
 62
           7
100
AcDbLine
 10
131.152982504925
 20
-109.100963547306
 11
138.107648454208
 21
-107.237466422569
  0
LINE
  5
E3
100
AcDbEntity
  8
1
  6
CONTINUOUS
 62
           7
100
AcDbLine
 10
138.107648454208
 20
-107.237466422569
 11
145.062314403489
 21
-105.37396929783
  0
LINE
  5
E2
100
AcDbEntity
  8
1
  6
CONTINUOUS
 62
           7
100
AcDbLine
 10
107.872568994853
 20
-100.080325739491
 11
107.171565272652
 21
-92.067816530296
  0
LINE
  5
E1
100
AcDbEntity
  8
1
  6
CONTINUOUS
 62
           7
100
AcDbLine
 10
127.634646736122
 20
-100.993169996744
 11
129.638459885648
 21
-108.471502479651
  0
LINE
  5
E0
100
AcDbEntity
  8
1
  6
CONTINUOUS
 62
           7
100
AcDbLine
 10
108.868763692946
 20
-100.993169996744
 11
109.056634340225
 21
-100.993169996745
  0
LINE
  5
DF
100
AcDbEntity
  8
1
  6
CONTINUOUS
 62
           7
100
AcDbLine
 10
123.974659515371
 20
-98.993169996744
 11
134.327421319472
 21
-98.993169996745
  0
LINE
  5
DE
100
AcDbEntity
  8
1
  6
CONTINUOUS
 62
           7
100
AcDbLine
 10
141.751002301488
 20
-87.993169996744
 11
136.287181405626
 21
-87.993169996745
  0
LINE
  5
DD
100
AcDbEntity
  8
1
  6
CONTINUOUS
 62
           7
100
AcDbLine
 10
135.99740365774
 20
-87.770815710277
 11
135.675864626822
 21
-86.570815710276
  0
LINE
  5
DC
100
AcDbEntity
  8
1
  6
CONTINUOUS
 62
           7
100
AcDbLine
 10
135.965642374709
 20
-86.193169996743
 11
141.268693755112
 21
-86.193169996743
  0
LINE
  5
DB
100
AcDbEntity
  8
1
  6
CONTINUOUS
 62
           7
100
AcDbLine
 10
140.751055664907
 20
-86.193169996743
 11
141.233364211283
 21
-87.993169996745
  0
LINE
  5
DA
100
AcDbEntity
  8
1
  6
CONTINUOUS
 62
           7
100
AcDbLine
 10
139.87535795447
 20
-80.993169996744
 11
134.411537058608
 21
-80.993169996745
  0
LINE
  5
D9
100
AcDbEntity
  8
1
  6
CONTINUOUS
 62
           7
100
AcDbLine
 10
134.121759310722
 20
-80.770815710276
 11
133.800220279804
 21
-79.570815710275
  0
LINE
  5
D8
100
AcDbEntity
  8
1
  6
CONTINUOUS
 62
           7
100
AcDbLine
 10
134.089998027691
 20
-79.193169996744
 11
139.393049408094
 21
-79.193169996743
  0
LINE
  5
D7
100
AcDbEntity
  8
1
  6
CONTINUOUS
 62
           7
100
AcDbLine
 10
138.875411317889
 20
-79.193169996744
 11
139.357719864265
 21
-80.993169996745
  0
LINE
  5
D6
100
AcDbEntity
  8
1
  6
CONTINUOUS
 62
           7
100
AcDbLine
 10
137.999713607452
 20
-73.993169996745
 11
132.535892711591
 21
-73.993169996745
  0
LINE
  5
D5
100
AcDbEntity
  8
1
  6
CONTINUOUS
 62
           7
100
AcDbLine
 10
132.246114963704
 20
-73.770815710276
 11
131.924575932787
 21
-72.570815710275
  0
LINE
  5
D4
100
AcDbEntity
  8
1
  6
CONTINUOUS
 62
           7
100
AcDbLine
 10
132.214353680673
 20
-72.193169996743
 11
137.517405061077
 21
-72.193169996743
  0
LINE
  5
D3
100
AcDbEntity
  8
1
  6
CONTINUOUS
 62
           7
100
AcDbLine
 10
136.999766970872
 20
-72.193169996743
 11
137.482075517248
 21
-73.993169996744
  0
LINE
  5
D2
100
AcDbEntity
  8
1
  6
CONTINUOUS
 62
           7
100
AcDbLine
 10
136.124069260435
 20
-66.993169996745
 11
130.660248364573
 21
-66.993169996745
  0
LINE
  5
D1
100
AcDbEntity
  8
1
  6
CONTINUOUS
 62
           7
100
AcDbLine
 10
130.370470616686
 20
-66.770815710276
 11
130.048931585769
 21
-65.570815710276
  0
LINE
  5
D0
100
AcDbEntity
  8
1
  6
CONTINUOUS
 62
           7
100
AcDbLine
 10
130.338709333655
 20
-65.193169996743
 11
135.641760714058
 21
-65.193169996743
  0
LINE
  5
CF
100
AcDbEntity
  8
1
  6
CONTINUOUS
 62
           7
100
AcDbLine
 10
135.124122623854
 20
-65.193169996743
 11
135.60643117023
 21
-66.993169996744
  0
LINE
  5
CE
100
AcDbEntity
  8
1
  6
CONTINUOUS
 62
           7
100
AcDbLine
 10
134.248424913416
 20
-59.993169996745
 11
128.784604017555
 21
-59.993169996744
  0
LINE
  5
CD
100
AcDbEntity
  8
1
  6
CONTINUOUS
 62
           7
100
AcDbLine
 10
128.494826269668
 20
-59.770815710276
 11
128.173287238751
 21
-58.570815710275
  0
LINE
  5
CC
100
AcDbEntity
  8
1
  6
CONTINUOUS
 62
           7
100
AcDbLine
 10
128.463064986638
 20
-58.193169996743
 11
133.766116367041
 21
-58.193169996744
  0
LINE
  5
CB
100
AcDbEntity
  8
1
  6
CONTINUOUS
 62
           7
100
AcDbLine
 10
133.248478276836
 20
-58.193169996743
 11
133.730786823212
 21
-59.993169996744
  0
LINE
  5
CA
100
AcDbEntity
  8
1
  6
CONTINUOUS
 62
           7
100
AcDbLine
 10
132.372780566399
 20
-52.993169996744
 11
126.908959670537
 21
-52.993169996745
  0
LINE
  5
C9
100
AcDbEntity
  8
1
  6
CONTINUOUS
 62
           7
100
AcDbLine
 10
126.61918192265
 20
-52.770815710276
 11
126.297642891733
 21
-51.570815710275
  0
LINE
  5
C8
100
AcDbEntity
  8
1
  6
CONTINUOUS
 62
           7
100
AcDbLine
 10
126.58742063962
 20
-51.193169996743
 11
131.890472020023
 21
-51.193169996743
  0
LINE
  5
C7
100
AcDbEntity
  8
1
  6
CONTINUOUS
 62
           7
100
AcDbLine
 10
131.372833929818
 20
-51.193169996743
 11
131.855142476194
 21
-52.993169996745
  0
LINE
  5
C6
100
AcDbEntity
  8
1
  6
CONTINUOUS
 62
           7
100
AcDbLine
 10
130.497136219381
 20
-45.993169996744
 11
125.03331532352
 21
-45.993169996744
  0
LINE
  5
C5
100
AcDbEntity
  8
1
  6
CONTINUOUS
 62
           7
100
AcDbLine
 10
124.743537575633
 20
-45.770815710276
 11
124.421998544715
 21
-44.570815710275
  0
LINE
  5
C4
100
AcDbEntity
  8
1
  6
CONTINUOUS
 62
           7
100
AcDbLine
 10
124.711776292602
 20
-44.193169996743
 11
130.014827673005
 21
-44.193169996743
  0
LINE
  5
C3
100
AcDbEntity
  8
1
  6
CONTINUOUS
 62
           7
100
AcDbLine
 10
129.4971895828
 20
-44.193169996744
 11
129.979498129176
 21
-45.993169996745
  0
LINE
  5
C2
100
AcDbEntity
  8
1
  6
CONTINUOUS
 62
           7
100
AcDbLine
 10
128.621491872363
 20
-38.993169996744
 11
123.157670976502
 21
-38.993169996745
  0
LINE
  5
C1
100
AcDbEntity
  8
1
  6
CONTINUOUS
 62
           7
100
AcDbLine
 10
122.867893228615
 20
-38.770815710277
 11
122.546354197697
 21
-37.570815710275
  0
LINE
  5
C0
100
AcDbEntity
  8
1
  6
CONTINUOUS
 62
           7
100
AcDbLine
 10
122.836131945584
 20
-37.193169996744
 11
128.139183325987
 21
-37.193169996743
  0
LINE
  5
BF
100
AcDbEntity
  8
1
  6
CONTINUOUS
 62
           7
100
AcDbLine
 10
127.621545235783
 20
-37.193169996743
 11
128.103853782159
 21
-38.993169996744
  0
LINE
  5
BE
100
AcDbEntity
  8
1
  6
CONTINUOUS
 62
           2
100
AcDbLine
 10
106.307348368471
 20
-60.035641952053
 11
109.917257704489
 21
-73.508007004789
  0
LINE
  5
BD
100
AcDbEntity
  8
1
  6
CONTINUOUS
 62
           7
100
AcDbLine
 10
112.613811062481
 20
-12.093169996744
 11
103.064896835673
 21
-12.093169996744
  0
LINE
  5
BC
100
AcDbEntity
  8
1
  6
CONTINUOUS
 62
           7
100
AcDbLine
 10
140.889263924268
 20
-15.954469288502
 11
133.825822774897
 21
-17.84711264026
  0
LINE
  5
BB
100
AcDbEntity
  8
1
  6
CONTINUOUS
 62
           7
100
AcDbLine
 10
24.575473411357
 20
-17.493169996744
 11
34.871625834064
 21
-17.493169996744
  0
LINE
  5
BA
100
AcDbEntity
  8
1
  6
CONTINUOUS
 62
           7
100
AcDbLine
 10
15.86915455481
 20
-16.993169996745
 11
15.771625834064
 21
-16.993169996744
  0
LINE
  5
B9
100
AcDbEntity
  8
1
  6
CONTINUOUS
 62
           7
100
AcDbLine
 10
15.771625834063
 20
0.006830003255
 11
15.771625834064
 21
-16.993169996744
  0
LINE
  5
B8
100
AcDbEntity
  8
1
  6
CONTINUOUS
 62
           7
100
AcDbLine
 10
103.791573198145
 20
13.207700923981
 11
104.090431607572
 21
13.233847646805
  0
LINE
  5
B7
100
AcDbEntity
  8
1
  6
CONTINUOUS
 62
           7
100
AcDbLine
 10
102.553961651128
 20
27.353665636883
 11
102.852820060556
 21
27.379812359708
  0
LINE
  5
B6
100
AcDbEntity
  8
1
  6
CONTINUOUS
 62
           7
100
AcDbLine
 10
60.671625834064
 20
43.506830003256
 11
61.871625834064
 21
43.506830003256
  0
LINE
  5
B5
100
AcDbEntity
  8
1
  6
CONTINUOUS
 62
           7
100
AcDbLine
 10
15.771625834064
 20
17.006830003256
 11
15.771625834063
 21
0.006830003255
  0
LINE
  5
B4
100
AcDbEntity
  8
1
  6
CONTINUOUS
 62
           7
100
AcDbLine
 10
52.871625834064
 20
7.506830003256
 11
66.008865449551
 21
7.506830003256
  0
LINE
  5
B3
100
AcDbEntity
  8
1
  6
CONTINUOUS
 62
           7
100
AcDbLine
 10
103.791573198145
 20
13.207700923981
 11
103.991749593044
 21
10.919674260508
  0
LINE
  5
B2
100
AcDbEntity
  8
1
  6
CONTINUOUS
 62
           7
100
AcDbLine
 10
123.51164000085
 20
-100.993169996745
 11
127.634646736122
 21
-100.993169996744
  0
LINE
  5
B1
100
AcDbEntity
  8
1
  6
CONTINUOUS
 62
           7
100
AcDbLine
 10
127.634646736122
 20
-100.993169996744
 11
136.434494269607
 21
-100.993169996745
  0
LINE
  5
B0
100
AcDbEntity
  8
1
  6
CONTINUOUS
 62
           7
100
AcDbLine
 10
109.056634340225
 20
-100.993169996745
 11
123.51164000085
 21
-100.993169996745
  0
LINE
  5
AF
100
AcDbEntity
  8
1
  6
DOT_CENTER
 62
           2
100
AcDbLine
 10
-33.33075619745
 20
0.0
 11
-29.23762915792
 21
0.0
  0
LINE
  5
AE
100
AcDbEntity
  8
1
  6
CONTINUOUS
 62
           7
100
AcDbLine
 10
-51.87364941627
 20
0.747417742625
 11
-51.87364941627
 21
-0.747417742625
  0
LINE
  5
AD
100
AcDbEntity
  8
1
  6
CONTINUOUS
 62
           7
100
AcDbLine
 10
-52.28786297863
 20
-0.747417742625
 11
-52.28786297863
 21
0.747417742625
  0
LINE
  5
AC
100
AcDbEntity
  8
1
  6
CONTINUOUS
 62
           7
100
AcDbLine
 10
-45.580756197447
 20
-3.5
 11
-45.580756197447
 21
3.5
  0
LINE
  5
AB
100
AcDbEntity
  8
1
  6
CONTINUOUS
 62
           7
100
AcDbLine
 10
-58.580756197445
 20
3.5
 11
-58.580756197445
 21
-3.5
  0
LINE
  5
AA
100
AcDbEntity
  8
1
  6
CONTINUOUS
 62
           7
100
AcDbLine
 10
-44.58971429962
 20
-3.5
 11
-44.58971429962
 21
3.5
  0
LINE
  5
A9
100
AcDbEntity
  8
1
  6
CONTINUOUS
 62
           7
100
AcDbLine
 10
-59.57179809528
 20
3.5
 11
-59.57179809528
 21
-3.5
  0
LINE
  5
A8
100
AcDbEntity
  8
1
  6
CONTINUOUS
 62
           7
100
AcDbLine
 10
-40.080756197454
 20
-3.5
 11
-40.080756197454
 21
3.5
  0
LINE
  5
A7
100
AcDbEntity
  8
1
  6
CONTINUOUS
 62
           7
100
AcDbLine
 10
-64.080756197446
 20
3.5
 11
-64.080756197446
 21
-3.5
  0
LINE
  5
A6
100
AcDbEntity
  8
1
  6
CONTINUOUS
 62
           7
100
AcDbLine
 10
-37.186461987923
 20
-3.5
 11
-45.606387994162
 21
-3.5
  0
LINE
  5
A5
100
AcDbEntity
  8
1
  6
CONTINUOUS
 62
           7
100
AcDbLine
 10
-45.606387994162
 20
3.5
 11
-37.186461987923
 21
3.5
  0
LINE
  5
A4
100
AcDbEntity
  8
1
  6
DOT_CENTER
 62
           2
100
AcDbLine
 10
-45.118873459341
 20
-0.831044667146
 11
-45.118873459341
 21
0.853231930664
  0
LINE
  5
A3
100
AcDbEntity
  8
1
  6
CONTINUOUS
 62
           7
100
AcDbLine
 10
-58.580756197445
 20
-3.5
 11
-66.975050406977
 21
-3.5
  0
LINE
  5
A2
100
AcDbEntity
  8
1
  6
CONTINUOUS
 62
           7
100
AcDbLine
 10
-66.975050406977
 20
3.5
 11
-58.580756197445
 21
3.5
  0
LINE
  5
A1
100
AcDbEntity
  8
1
  6
DOT_CENTER
 62
           2
100
AcDbLine
 10
-59.042638935559
 20
0.853231930664
 11
-59.042638935559
 21
-0.831044667146
  0
LINE
  5
A0
100
AcDbEntity
  8
1
  6
CONTINUOUS
 62
           7
100
AcDbLine
 10
-38.745089734916
 20
7.5
 11
-65.416422659984
 21
7.5
  0
LINE
  5
9F
100
AcDbEntity
  8
1
  6
CONTINUOUS
 62
           7
100
AcDbLine
 10
-65.416422659984
 20
-7.5
 11
-38.745089734916
 21
-7.5
  0
LINE
  5
9E
100
AcDbEntity
  8
1
  6
CONTINUOUS
 62
           7
100
AcDbLine
 10
-53.080756197394
 20
5.771095674849
 11
-53.08075619745
 21
7.3
  0
LINE
  5
9D
100
AcDbEntity
  8
1
  6
CONTINUOUS
 62
           7
100
AcDbLine
 10
-53.08075619745
 20
7.3
 11
-51.08075619745
 21
7.3
  0
LINE
  5
9C
100
AcDbEntity
  8
1
  6
CONTINUOUS
 62
           7
100
AcDbLine
 10
-51.08075619745
 20
7.3
 11
-51.08075619745
 21
5.771084241398
  0
LINE
  5
9B
100
AcDbEntity
  8
1
  6
DOT_CENTER
 62
           2
100
AcDbLine
 10
-53.41833282252
 20
6.53712386692
 11
-50.705743973805
 21
6.53712386692
  0
LINE
  5
9A
100
AcDbEntity
  8
1
  6
CONTINUOUS
 62
           7
100
AcDbLine
 10
-53.08075619745
 20
-7.3
 11
-53.080756197394
 21
-5.771095674849
  0
LINE
  5
99
100
AcDbEntity
  8
1
  6
CONTINUOUS
 62
           7
100
AcDbLine
 10
-51.08075619745
 20
-7.3
 11
-53.08075619745
 21
-7.3
  0
LINE
  5
98
100
AcDbEntity
  8
1
  6
CONTINUOUS
 62
           7
100
AcDbLine
 10
-51.08075619745
 20
-5.771084241397
 11
-51.08075619745
 21
-7.3
  0
LINE
  5
97
100
AcDbEntity
  8
1
  6
DOT_CENTER
 62
           2
100
AcDbLine
 10
-50.705743973805
 20
-6.537123866919
 11
-53.41833282252
 21
-6.537123866919
  0
LINE
  5
96
100
AcDbEntity
  8
1
  6
CONTINUOUS
 62
           7
100
AcDbLine
 10
-47.123586737891
 20
-17.683649819797
 11
-45.697001963448
 21
-17.220124328235
  0
LINE
  5
95
100
AcDbEntity
  8
1
  6
CONTINUOUS
 62
           7
100
AcDbLine
 10
-47.213632200452
 20
-18.107280414183
 11
-47.123586737891
 21
-17.683649819797
  0
LINE
  5
94
100
AcDbEntity
  8
1
  6
CONTINUOUS
 62
           7
100
AcDbLine
 10
-45.375149838171
 20
-17.509921283501
 11
-45.697001963448
 21
-17.220124328235
  0
LINE
  5
93
100
AcDbEntity
  8
1
  6
CONTINUOUS
 62
           7
100
AcDbLine
 10
-41.901659563664
 20
-15.286300786
 11
-40.688134072102
 21
-14.404622907562
  0
LINE
  5
92
100
AcDbEntity
  8
1
  6
CONTINUOUS
 62
           7
100
AcDbLine
 10
-41.856388834593
 20
-15.71702300149
 11
-41.901659563664
 21
-15.286300786
  0
LINE
  5
91
100
AcDbEntity
  8
1
  6
CONTINUOUS
 62
           7
100
AcDbLine
 10
-40.292482326978
 20
-14.580778413883
 11
-40.688134072102
 21
-14.404622907562
  0
LINE
  5
90
100
AcDbEntity
  8
1
  6
CONTINUOUS
 62
           7
100
AcDbLine
 10
-37.676133289889
 20
-11.392622125348
 11
-36.79445541145
 21
-10.179096633786
  0
LINE
  5
8F
100
AcDbEntity
  8
1
  6
CONTINUOUS
 62
           7
100
AcDbLine
 10
-37.499977783567
 20
-11.788273870473
 11
-37.676133289889
 21
-11.392622125348
  0
LINE
  5
8E
100
AcDbEntity
  8
1
  6
CONTINUOUS
 62
           7
100
AcDbLine
 10
-36.363733195961
 20
-10.224367362857
 11
-36.79445541145
 21
-10.179096633786
  0
LINE
  5
8D
100
AcDbEntity
  8
1
  6
CONTINUOUS
 62
           7
100
AcDbLine
 10
-34.860631869215
 20
-6.383754234002
 11
-34.397106377652
 21
-4.95716945956
  0
LINE
  5
8C
100
AcDbEntity
  8
1
  6
CONTINUOUS
 62
           7
100
AcDbLine
 10
-33.973475783267
 20
-4.867123996999
 11
-34.397106377652
 21
-4.95716945956
  0
LINE
  5
8B
100
AcDbEntity
  8
1
  6
CONTINUOUS
 62
           7
100
AcDbLine
 10
-34.570834913949
 20
-6.70560635928
 11
-34.860631869215
 21
-6.383754234002
  0
LINE
  5
8A
100
AcDbEntity
  8
1
  6
CONTINUOUS
 62
           7
100
AcDbLine
 10
-33.73075619745
 20
-0.750000000001
 11
-33.73075619745
 21
0.749999999999
  0
LINE
  5
89
100
AcDbEntity
  8
1
  6
CONTINUOUS
 62
           7
100
AcDbLine
 10
-33.355685138355
 20
0.966547376933
 11
-33.73075619745
 21
0.749999999999
  0
LINE
  5
88
100
AcDbEntity
  8
1
  6
CONTINUOUS
 62
           7
100
AcDbLine
 10
-33.355685138355
 20
-0.966547376934
 11
-33.73075619745
 21
-0.750000000001
  0
LINE
  5
87
100
AcDbEntity
  8
1
  6
CONTINUOUS
 62
           7
100
AcDbLine
 10
-34.397106377653
 20
4.957169459558
 11
-34.860631869214
 21
6.383754234001
  0
LINE
  5
86
100
AcDbEntity
  8
1
  6
CONTINUOUS
 62
           7
100
AcDbLine
 10
-34.570834913949
 20
6.705606359279
 11
-34.860631869214
 21
6.383754234001
  0
LINE
  5
85
100
AcDbEntity
  8
1
  6
CONTINUOUS
 62
           7
100
AcDbLine
 10
-33.973475783267
 20
4.867123996998
 11
-34.397106377653
 21
4.957169459558
  0
LINE
  5
84
100
AcDbEntity
  8
1
  6
CONTINUOUS
 62
           7
100
AcDbLine
 10
-36.79445541145
 20
10.179096633785
 11
-37.676133289888
 21
11.392622125348
  0
LINE
  5
83
100
AcDbEntity
  8
1
  6
CONTINUOUS
 62
           7
100
AcDbLine
 10
-37.499977783567
 20
11.788273870471
 11
-37.676133289888
 21
11.392622125348
  0
LINE
  5
82
100
AcDbEntity
  8
1
  6
CONTINUOUS
 62
           7
100
AcDbLine
 10
-36.36373319596
 20
10.224367362857
 11
-36.79445541145
 21
10.179096633785
  0
LINE
  5
81
100
AcDbEntity
  8
1
  6
CONTINUOUS
 62
           7
100
AcDbLine
 10
-40.688134072101
 20
14.40462290756
 11
-41.901659563664
 21
15.286300786
  0
LINE
  5
80
100
AcDbEntity
  8
1
  6
CONTINUOUS
 62
           7
100
AcDbLine
 10
-41.856388834592
 20
15.717023001489
 11
-41.901659563664
 21
15.286300786
  0
LINE
  5
7F
100
AcDbEntity
  8
1
  6
CONTINUOUS
 62
           7
100
AcDbLine
 10
-40.292482326977
 20
14.580778413883
 11
-40.688134072101
 21
14.40462290756
  0
LINE
  5
7E
100
AcDbEntity
  8
1
  6
CONTINUOUS
 62
           7
100
AcDbLine
 10
-45.697001963448
 20
17.220124328234
 11
-47.12358673789
 21
17.683649819798
  0
LINE
  5
7D
100
AcDbEntity
  8
1
  6
CONTINUOUS
 62
           7
100
AcDbLine
 10
-47.213632200451
 20
18.107280414182
 11
-47.12358673789
 21
17.683649819798
  0
LINE
  5
7C
100
AcDbEntity
  8
1
  6
CONTINUOUS
 62
           7
100
AcDbLine
 10
-45.375149838171
 20
17.509921283501
 11
-45.697001963448
 21
17.220124328234
  0
LINE
  5
7B
100
AcDbEntity
  8
1
  6
CONTINUOUS
 62
           7
100
AcDbLine
 10
-51.114208820516
 20
18.725071059095
 11
-51.330756197449
 21
18.35
  0
LINE
  5
7A
100
AcDbEntity
  8
1
  6
CONTINUOUS
 62
           7
100
AcDbLine
 10
-51.330756197449
 20
18.35
 11
-52.08075619745
 21
18.35
  0
LINE
  5
79
100
AcDbEntity
  8
1
  6
CONTINUOUS
 62
           7
100
AcDbLine
 10
-51.330756197449
 20
-18.35
 11
-51.114208820517
 21
-18.725071059095
  0
LINE
  5
78
100
AcDbEntity
  8
1
  6
CONTINUOUS
 62
           7
100
AcDbLine
 10
-52.08075619745
 20
-18.35
 11
-51.330756197449
 21
-18.35
  0
LINE
  5
77
100
AcDbEntity
  8
1
  6
CONTINUOUS
 62
           7
100
AcDbLine
 10
-58.464510431451
 20
-17.220124328235
 11
-57.037925657009
 21
-17.683649819797
  0
LINE
  5
76
100
AcDbEntity
  8
1
  6
CONTINUOUS
 62
           7
100
AcDbLine
 10
-57.037925657009
 20
-17.683649819797
 11
-56.947880194448
 21
-18.107280414183
  0
LINE
  5
75
100
AcDbEntity
  8
1
  6
CONTINUOUS
 62
           7
100
AcDbLine
 10
-58.464510431451
 20
-17.220124328235
 11
-58.786362556729
 21
-17.509921283501
  0
LINE
  5
74
100
AcDbEntity
  8
1
  6
CONTINUOUS
 62
           7
100
AcDbLine
 10
-63.473378322798
 20
-14.404622907562
 11
-62.259852831235
 21
-15.286300786
  0
LINE
  5
73
100
AcDbEntity
  8
1
  6
CONTINUOUS
 62
           7
100
AcDbLine
 10
-62.259852831235
 20
-15.286300786
 11
-62.305123560307
 21
-15.71702300149
  0
LINE
  5
72
100
AcDbEntity
  8
1
  6
CONTINUOUS
 62
           7
100
AcDbLine
 10
-63.473378322798
 20
-14.404622907562
 11
-63.869030067922
 21
-14.580778413883
  0
LINE
  5
71
100
AcDbEntity
  8
1
  6
CONTINUOUS
 62
           7
100
AcDbLine
 10
-67.36705698345
 20
-10.179096633786
 11
-66.485379105011
 21
-11.392622125348
  0
LINE
  5
70
100
AcDbEntity
  8
1
  6
CONTINUOUS
 62
           7
100
AcDbLine
 10
-66.485379105011
 20
-11.392622125348
 11
-66.661534611333
 21
-11.788273870473
  0
LINE
  5
6F
100
AcDbEntity
  8
1
  6
CONTINUOUS
 62
           7
100
AcDbLine
 10
-67.36705698345
 20
-10.179096633786
 11
-67.797779198939
 21
-10.224367362857
  0
LINE
  5
6E
100
AcDbEntity
  8
1
  6
CONTINUOUS
 62
           7
100
AcDbLine
 10
-69.764406017248
 20
-4.95716945956
 11
-69.300880525685
 21
-6.383754234002
  0
LINE
  5
6D
100
AcDbEntity
  8
1
  6
CONTINUOUS
 62
           7
100
AcDbLine
 10
-69.764406017248
 20
-4.95716945956
 11
-70.188036611633
 21
-4.867123996999
  0
LINE
  5
6C
100
AcDbEntity
  8
1
  6
CONTINUOUS
 62
           7
100
AcDbLine
 10
-69.300880525685
 20
-6.383754234002
 11
-69.590677480951
 21
-6.70560635928
  0
LINE
  5
6B
100
AcDbEntity
  8
1
  6
CONTINUOUS
 62
           7
100
AcDbLine
 10
-70.430756197451
 20
0.749999999999
 11
-70.43075619745
 21
-0.750000000001
  0
LINE
  5
6A
100
AcDbEntity
  8
1
  6
CONTINUOUS
 62
           7
100
AcDbLine
 10
-70.430756197451
 20
0.749999999999
 11
-70.805827256545
 21
0.966547376933
  0
LINE
  5
69
100
AcDbEntity
  8
1
  6
CONTINUOUS
 62
           7
100
AcDbLine
 10
-70.43075619745
 20
-0.750000000001
 11
-70.805827256545
 21
-0.966547376934
  0
LINE
  5
68
100
AcDbEntity
  8
1
  6
CONTINUOUS
 62
           7
100
AcDbLine
 10
-69.300880525685
 20
6.383754234001
 11
-69.764406017247
 21
4.957169459558
  0
LINE
  5
67
100
AcDbEntity
  8
1
  6
CONTINUOUS
 62
           7
100
AcDbLine
 10
-69.300880525685
 20
6.383754234001
 11
-69.590677480951
 21
6.705606359279
  0
LINE
  5
66
100
AcDbEntity
  8
1
  6
CONTINUOUS
 62
           7
100
AcDbLine
 10
-69.764406017247
 20
4.957169459558
 11
-70.188036611633
 21
4.867123996998
  0
LINE
  5
65
100
AcDbEntity
  8
1
  6
CONTINUOUS
 62
           7
100
AcDbLine
 10
-66.485379105012
 20
11.392622125348
 11
-67.36705698345
 21
10.179096633785
  0
LINE
  5
64
100
AcDbEntity
  8
1
  6
CONTINUOUS
 62
           7
100
AcDbLine
 10
-66.485379105012
 20
11.392622125348
 11
-66.661534611333
 21
11.788273870471
  0
LINE
  5
63
100
AcDbEntity
  8
1
  6
CONTINUOUS
 62
           7
100
AcDbLine
 10
-67.36705698345
 20
10.179096633785
 11
-67.79777919894
 21
10.224367362857
  0
LINE
  5
62
100
AcDbEntity
  8
1
  6
CONTINUOUS
 62
           7
100
AcDbLine
 10
-62.259852831236
 20
15.286300786
 11
-63.473378322799
 21
14.40462290756
  0
LINE
  5
61
100
AcDbEntity
  8
1
  6
CONTINUOUS
 62
           7
100
AcDbLine
 10
-62.259852831236
 20
15.286300786
 11
-62.305123560307
 21
15.717023001489
  0
LINE
  5
60
100
AcDbEntity
  8
1
  6
CONTINUOUS
 62
           7
100
AcDbLine
 10
-63.473378322799
 20
14.40462290756
 11
-63.869030067922
 21
14.580778413883
  0
LINE
  5
5F
100
AcDbEntity
  8
1
  6
CONTINUOUS
 62
           7
100
AcDbLine
 10
-57.037925657009
 20
17.683649819798
 11
-58.464510431452
 21
17.220124328234
  0
LINE
  5
5E
100
AcDbEntity
  8
1
  6
CONTINUOUS
 62
           7
100
AcDbLine
 10
-57.037925657009
 20
17.683649819798
 11
-56.947880194449
 21
18.107280414182
  0
LINE
  5
5D
100
AcDbEntity
  8
1
  6
CONTINUOUS
 62
           7
100
AcDbLine
 10
-58.464510431452
 20
17.220124328234
 11
-58.786362556729
 21
17.509921283501
  0
LINE
  5
5C
100
AcDbEntity
  8
1
  6
CONTINUOUS
 62
           7
100
AcDbLine
 10
-52.830756197451
 20
18.35
 11
-53.047303574383
 21
18.725071059095
  0
LINE
  5
5B
100
AcDbEntity
  8
1
  6
CONTINUOUS
 62
           7
100
AcDbLine
 10
-52.08075619745
 20
18.35
 11
-52.830756197451
 21
18.35
  0
LINE
  5
5A
100
AcDbEntity
  8
1
  6
CONTINUOUS
 62
           7
100
AcDbLine
 10
-53.047303574383
 20
-18.725071059095
 11
-52.830756197451
 21
-18.35
  0
LINE
  5
59
100
AcDbEntity
  8
1
  6
CONTINUOUS
 62
           7
100
AcDbLine
 10
-52.830756197451
 20
-18.35
 11
-52.08075619745
 21
-18.35
  0
LINE
  5
58
100
AcDbEntity
  8
1
  6
CONTINUOUS
 62
           7
100
AcDbLine
 10
-44.08075619745
 20
-59.222338668822
 11
-44.08075619745
 21
-25.064189490744
  0
LINE
  5
57
100
AcDbEntity
  8
1
  6
CONTINUOUS
 62
           7
100
AcDbLine
 10
-60.08075619745
 20
-25.064189490744
 11
-60.08075619745
 21
-59.222338668822
  0
LINE
  5
56
100
AcDbEntity
  8
1
  6
CONTINUOUS
 62
           7
100
AcDbLine
 10
-61.283861793644
 20
22.25
 11
-61.080756197451
 21
22.25
  0
LINE
  5
55
100
AcDbEntity
  8
1
  6
CONTINUOUS
 62
           7
100
AcDbLine
 10
-61.080756197451
 20
24.152053689705
 11
-61.080756197451
 21
26.0
  0
LINE
  5
54
100
AcDbEntity
  8
1
  6
CONTINUOUS
 62
           7
100
AcDbLine
 10
-61.080756197451
 20
22.25
 11
-61.080756197451
 21
24.152053689705
  0
LINE
  5
53
100
AcDbEntity
  8
1
  6
CONTINUOUS
 62
           7
100
AcDbLine
 10
-61.080756197451
 20
26.0
 11
-61.080756197451
 21
27.847946310295
  0
LINE
  5
52
100
AcDbEntity
  8
1
  6
CONTINUOUS
 62
           7
100
AcDbLine
 10
-61.080756197451
 20
29.75
 11
-61.283861793644
 21
29.75
  0
LINE
  5
51
100
AcDbEntity
  8
1
  6
CONTINUOUS
 62
           7
100
AcDbLine
 10
-61.080756197451
 20
27.847946310295
 11
-61.080756197451
 21
29.75
  0
LINE
  5
50
100
AcDbEntity
  8
1
  6
CONTINUOUS
 62
           7
100
AcDbLine
 10
-43.08075619745
 20
29.75
 11
-43.08075619745
 21
27.847946310295
  0
LINE
  5
4F
100
AcDbEntity
  8
1
  6
CONTINUOUS
 62
           7
100
AcDbLine
 10
-42.877650601256
 20
29.75
 11
-43.08075619745
 21
29.75
  0
LINE
  5
4E
100
AcDbEntity
  8
1
  6
CONTINUOUS
 62
           7
100
AcDbLine
 10
-43.08075619745
 20
27.847946310295
 11
-43.08075619745
 21
26.0
  0
LINE
  5
4D
100
AcDbEntity
  8
1
  6
CONTINUOUS
 62
           7
100
AcDbLine
 10
-43.08075619745
 20
24.152053689705
 11
-43.08075619745
 21
22.25
  0
LINE
  5
4C
100
AcDbEntity
  8
1
  6
CONTINUOUS
 62
           7
100
AcDbLine
 10
-43.08075619745
 20
26.0
 11
-43.08075619745
 21
24.152053689705
  0
LINE
  5
4B
100
AcDbEntity
  8
1
  6
CONTINUOUS
 62
           7
100
AcDbLine
 10
-43.08075619745
 20
22.25
 11
-42.877650601257
 21
22.25
  0
LINE
  5
4A
100
AcDbEntity
  8
1
  6
CONTINUOUS
 62
           7
100
AcDbLine
 10
-38.961696305126
 20
13.547586476147
 11
-38.961696305126
 21
13.395998191312
  0
LINE
  5
49
100
AcDbEntity
  8
1
  6
CONTINUOUS
 62
           7
100
AcDbLine
 10
-38.961696305126
 20
13.547586476147
 11
-39.118294985499
 21
13.547586476147
  0
LINE
  5
48
100
AcDbEntity
  8
1
  6
CONTINUOUS
 62
           7
100
AcDbLine
 10
-38.73075619745
 20
15.0
 11
-38.73075619745
 21
13.165864954496
  0
LINE
  5
47
100
AcDbEntity
  8
1
  6
CONTINUOUS
 62
           7
100
AcDbLine
 10
-38.961696305126
 20
15.400000000001
 11
-38.73075619745
 21
15.0
  0
LINE
  5
46
100
AcDbEntity
  8
1
  6
CONTINUOUS
 62
           7
100
AcDbLine
 10
-41.23075619745
 20
15.400000000001
 11
-38.961696305126
 21
15.400000000001
  0
LINE
  5
45
100
AcDbEntity
  8
1
  6
CONTINUOUS
 62
           7
100
AcDbLine
 10
-41.23075619745
 20
15.400000000001
 11
-41.23075619745
 21
14.798860958263
  0
LINE
  5
44
100
AcDbEntity
  8
1
  6
CONTINUOUS
 62
           7
100
AcDbLine
 10
-62.93075619745
 20
14.798860958263
 11
-62.93075619745
 21
15.400000000001
  0
LINE
  5
43
100
AcDbEntity
  8
1
  6
CONTINUOUS
 62
           7
100
AcDbLine
 10
-65.199816089774
 20
15.400000000001
 11
-62.93075619745
 21
15.400000000001
  0
LINE
  5
42
100
AcDbEntity
  8
1
  6
CONTINUOUS
 62
           7
100
AcDbLine
 10
-65.43075619745
 20
15.0
 11
-65.199816089774
 21
15.400000000001
  0
LINE
  5
41
100
AcDbEntity
  8
1
  6
CONTINUOUS
 62
           7
100
AcDbLine
 10
-65.43075619745
 20
13.165864954496
 11
-65.43075619745
 21
15.0
  0
LINE
  5
40
100
AcDbEntity
  8
1
  6
CONTINUOUS
 62
           7
100
AcDbLine
 10
-65.043217409401
 20
13.547586476147
 11
-65.199816089774
 21
13.547586476147
  0
LINE
  5
3F
100
AcDbEntity
  8
1
  6
CONTINUOUS
 62
           7
100
AcDbLine
 10
-65.199816089774
 20
13.395998191312
 11
-65.199816089774
 21
13.547586476147
  0
LINE
  5
3E
100
AcDbEntity
  8
1
  6
DOT_CENTER
 62
           2
100
AcDbLine
 10
-70.83075619745
 20
0.0
 11
-33.33075619745
 21
0.0
  0
LINE
  5
3D
100
AcDbEntity
  8
1
  6
CONTINUOUS
 62
           7
100
AcDbLine
 10
-55.939807229166
 20
48.620359174226
 11
-56.294743968269
 21
43.125785329891
  0
LINE
  5
3C
100
AcDbEntity
  8
1
  6
CONTINUOUS
 62
           7
100
AcDbLine
 10
-48.221705165734
 20
48.620359174226
 11
-47.86676842663
 21
43.125785329891
  0
LINE
  5
3B
100
AcDbEntity
  8
1
  6
CONTINUOUS
 62
           7
100
AcDbLine
 10
-52.08075619745
 20
35.0
 11
-50.989271440877
 21
35.0
  0
LINE
  5
3A
100
AcDbEntity
  8
1
  6
CONTINUOUS
 62
           7
100
AcDbLine
 10
-43.08075619745
 20
31.0
 11
-43.08075619745
 21
16.448784149596
  0
LINE
  5
39
100
AcDbEntity
  8
1
  6
CONTINUOUS
 62
           7
100
AcDbLine
 10
-48.700486064201
 20
43.118714966066
 11
-48.409188389455
 21
49.337880198223
  0
LINE
  5
38
100
AcDbEntity
  8
1
  6
CONTINUOUS
 62
           7
100
AcDbLine
 10
-48.300924116506
 20
43.5
 11
-48.265936457367
 21
43.5
  0
LINE
  5
37
100
AcDbEntity
  8
1
  6
CONTINUOUS
 62
           7
100
AcDbLine
 10
-48.991461702406
 20
36.906425169669
 11
-48.700486064201
 21
43.118714966066
  0
LINE
  5
36
100
AcDbEntity
  8
1
  6
CONTINUOUS
 62
           7
100
AcDbLine
 10
-46.30205236882
 20
31.0
 11
-43.08075619745
 21
31.0
  0
LINE
  5
35
100
AcDbEntity
  8
1
  6
CONTINUOUS
 62
           7
100
AcDbLine
 10
-53.172240954023
 20
35.0
 11
-52.08075619745
 21
35.0
  0
LINE
  5
34
100
AcDbEntity
  8
1
  6
DOT_CENTER
 62
           2
100
AcDbLine
 10
-74.657462889307
 20
0.0
 11
-70.83075619745
 21
0.0
  0
LINE
  5
33
100
AcDbEntity
  8
1
  6
CONTINUOUS
 62
           7
100
AcDbLine
 10
-61.08075619745
 20
16.448784149596
 11
-61.08075619745
 21
31.0
  0
LINE
  5
32
100
AcDbEntity
  8
1
  6
DOT_CENTER
 62
           2
100
AcDbLine
 10
-52.08075619745
 20
51.76843026103
 11
-52.08075619745
 21
-65.78688602219
  0
LINE
  5
31
100
AcDbEntity
  8
1
  6
CONTINUOUS
 62
           7
100
AcDbLine
 10
-55.752324005444
 20
49.337880198223
 11
-55.461026330699
 21
43.118714966066
  0
LINE
  5
30
100
AcDbEntity
  8
1
  6
CONTINUOUS
 62
           7
100
AcDbLine
 10
-55.895575937533
 20
43.5
 11
-55.860588278393
 21
43.5
  0
LINE
  5
2F
100
AcDbEntity
  8
1
  6
CONTINUOUS
 62
           7
100
AcDbLine
 10
-55.461026330699
 20
43.118714966066
 11
-55.170050692494
 21
36.906425169669
  0
LINE
  5
2E
100
AcDbEntity
  8
1
  6
CONTINUOUS
 62
           7
100
AcDbLine
 10
-61.08075619745
 20
31.0
 11
-57.85946002608
 21
31.0
  0
LINE
  5
2D
100
AcDbEntity
  8
1
  6
DOT_CENTER
 62
           2
100
AcDbLine
 10
-63.643104308354
 20
26.0
 11
-40.160817934484
 21
26.0
  0
LINE
  5
2C
100
AcDbEntity
  8
1
  6
DOT_CENTER
 62
           2
100
AcDbLine
 10
164.930712745184
 20
0.006830003256
 11
-19.880568961723
 21
0.006830003256
  0
LINE
  5
2B
100
AcDbEntity
  8
1
  6
DOT_CENTER
 62
           2
100
AcDbLine
 10
120.46891173791
 20
21.793899830556
 11
89.597858908908
 21
19.093032676906
  0
LINE
  5
2A
100
AcDbEntity
  8
1
  6
DOT_CENTER
 62
           2
100
AcDbLine
 10
34.871625834062
 20
-60.917291622537
 11
34.871625834062
 21
-10.013859538966
  0
LINE
  5
29
100
AcDbEntity
  8
1
  6
DOT_CENTER
 62
           2
100
AcDbLine
 10
136.689241939807
 20
-101.943901245035
 11
143.196818103688
 21
-126.230506122767
  0
LINE
  5
28
100
AcDbEntity
  8
1
  6
DOT_CENTER
 62
           2
100
AcDbLine
 10
116.109340592943
 20
-98.995235972485
 11
118.125884627157
 21
-122.044439754351
  0
ENDSEC
  0
SECTION
  2
OBJECTS
  0
DICTIONARY
  5
19
100
AcDbDictionary
  3
ACAD_GROUP
350
1A
  3
ACAD_MLINESTYLE
350
1B
  0
DICTIONARY
  5
1A
102
{ACAD_REACTORS
330
19
102
}
100
AcDbDictionary
  0
DICTIONARY
  5
1B
102
{ACAD_REACTORS
330
19
102
}
100
AcDbDictionary
  3
STANDARD
350
1C
  0
MLINESTYLE
  5
1C
102
{ACAD_REACTORS
330
1B
102
}
100
AcDbMlineStyle
  2
STANDARD
 70
           0
  3

 62
           0
 51
90.0
 52
90.0
 71
           2
 49
0.5
 62
         256
  6
BYLAYER
 49
-0.5
 62
         256
  6
BYLAYER
  0
ENDSEC
  0
EOF
