  0
SECTION
  2
HEADER
  9
$ACADVER
  1
AC1014
  9
$ACADMAINTVER
 70
           0
  9
$DWGCODEPAGE
  3
DOS932
  9
$INSBASE
 10
0.0
 20
0.0
 30
0.0
  9
$EXTMIN
 10
1.000000000000E+20
 20
1.000000000000E+20
 30
1.000000000000E+20
  9
$EXTMAX
 10
-1.000000000000E+20
 20
-1.000000000000E+20
 30
-1.000000000000E+20
  9
$LIMMIN
 10
0.0
 20
0.0
  9
$LIMMAX
 10
0.0
 20
0.0
  9
$ORTHOMODE
 70
           0
  9
$REGENMODE
 70
           1
  9
$FILLMODE
 70
           1
  9
$QTEXTMODE
 70
           0
  9
$MIRRTEXT
 70
           1
  9
$DRAGMODE
 70
           2
  9
$LTSCALE
 40
1.0
  9
$OSMODE
 70
           0
  9
$ATTMODE
 70
           1
  9
$TEXTSIZE
 40
0.2
  9
$TRACEWID
 40
0.05
  9
$TEXTSTYLE
  7
STANDARD
  9
$CLAYER
  8
0
  9
$CELTYPE
  6
CONTINUOUS
  9
$CECOLOR
 62
         256
  9
$CELTSCALE
 40
1.0
  9
$DELOBJ
 70
           1
  9
$DISPSILH
 70
           0
  9
$DIMSCALE
 40
1.0
  9
$DIMASZ
 40
0.18
  9
$DIMEXO
 40
0.0625
  9
$DIMDLI
 40
0.38
  9
$DIMRND
 40
0.0
  9
$DIMDLE
 40
0.0
  9
$DIMEXE
 40
0.18
  9
$DIMTP
 40
0.0
  9
$DIMTM
 40
0.0
  9
$DIMTXT
 40
0.18
  9
$DIMCEN
 40
0.09
  9
$DIMTSZ
 40
0.0
  9
$DIMTOL
 70
           0
  9
$DIMLIM
 70
           0
  9
$DIMTIH
 70
           1
  9
$DIMTOH
 70
           1
  9
$DIMSE1
 70
           0
  9
$DIMSE2
 70
           0
  9
$DIMTAD
 70
           0
  9
$DIMZIN
 70
           0
  9
$DIMBLK
  1

  9
$DIMASO
 70
           1
  9
$DIMSHO
 70
           1
  9
$DIMPOST
  1

  9
$DIMAPOST
  1

  9
$DIMALT
 70
           0
  9
$DIMALTD
 70
           2
  9
$DIMALTF
 40
25.4
  9
$DIMLFAC
 40
1.0
  9
$DIMTOFL
 70
           0
  9
$DIMTVP
 40
0.0
  9
$DIMTIX
 70
           0
  9
$DIMSOXD
 70
           0
  9
$DIMSAH
 70
           0
  9
$DIMBLK1
  1

  9
$DIMBLK2
  1

  9
$DIMSTYLE
  2
STANDARD
  9
$DIMCLRD
 70
           0
  9
$DIMCLRE
 70
           0
  9
$DIMCLRT
 70
           0
  9
$DIMTFAC
 40
1.0
  9
$DIMGAP
 40
0.09
  9
$DIMJUST
 70
           0
  9
$DIMSD1
 70
           0
  9
$DIMSD2
 70
           0
  9
$DIMTOLJ
 70
           1
  9
$DIMTZIN
 70
           0
  9
$DIMALTZ
 70
           0
  9
$DIMALTTZ
 70
           0
  9
$DIMFIT
 70
           3
  9
$DIMUPT
 70
           0
  9
$DIMUNIT
 70
           2
  9
$DIMDEC
 70
           4
  9
$DIMTDEC
 70
           4
  9
$DIMALTU
 70
           2
  9
$DIMALTTD
 70
           2
  9
$DIMTXSTY
  7
STANDARD
  9
$DIMAUNIT
 70
           0
  9
$LUNITS
 70
           2
  9
$LUPREC
 70
           4
  9
$SKETCHINC
 40
0.1
  9
$FILLETRAD
 40
0.0
  9
$AUNITS
 70
           0
  9
$AUPREC
 70
           0
  9
$MENU
  1
acad
  9
$ELEVATION
 40
0.0
  9
$PELEVATION
 40
0.0
  9
$THICKNESS
 40
0.0
  9
$LIMCHECK
 70
           0
  9
$BLIPMODE
 70
           1
  9
$CHAMFERA
 40
0.0
  9
$CHAMFERB
 40
0.0
  9
$CHAMFERC
 40
0.0
  9
$CHAMFERD
 40
0.0
  9
$SKPOLY
 70
           0
  9
$TDCREATE
 40
0.000000000
  9
$TDUPDATE
 40
0.000000000
  9
$TDINDWG
 40
0.0000000000
  9
$TDUSRTIMER
 40
0.0000000000
  9
$USRTIMER
 70
           1
  9
$ANGBASE
 50
0.0
  9
$ANGDIR
 70
           0
  9
$PDMODE
 70
           0
  9
$PDSIZE
 40
0.0
  9
$PLINEWID
 40
0.0
  9
$COORDS
 70
           0
  9
$SPLFRAME
 70
           0
  9
$SPLINETYPE
 70
           6
  9
$SPLINESEGS
 70
           8
  9
$ATTDIA
 70
           0
  9
$ATTREQ
 70
           1
  9
$HANDLING
 70
           1
  9
$HANDSEED
  5
1D7
  9
$SURFTAB1
 70
           6
  9
$SURFTAB2
 70
           6
  9
$SURFTYPE
 70
           6
  9
$SURFU
 70
           6
  9
$SURFV
 70
           6
  9
$UCSNAME
  2

  9
$UCSORG
 10
0.0
 20
0.0
 30
0.0
  9
$UCSXDIR
 10
1.0
 20
0.0
 30
0.0
  9
$UCSYDIR
 10
0.0
 20
1.0
 30
0.0
  9
$PUCSNAME
  2

  9
$PUCSORG
 10
0.0
 20
0.0
 30
0.0
  9
$PUCSXDIR
 10
1.0
 20
0.0
 30
0.0
  9
$PUCSYDIR
 10
0.0
 20
1.0
 30
0.0
  9
$USERI1
 70
           0
  9
$USERI2
 70
           0
  9
$USERI3
 70
           0
  9
$USERI4
 70
           0
  9
$USERI5
 70
           0
  9
$USERR1
 40
0.0
  9
$USERR2
 40
0.0
  9
$USERR3
 40
0.0
  9
$USERR4
 40
0.0
  9
$USERR5
 40
0.0
  9
$WORLDVIEW
 70
           1
  9
$SHADEDGE
 70
           3
  9
$SHADEDIF
 70
          70
  9
$TILEMODE
 70
           1
  9
$MAXACTVP
 70
          16
  9
$PINSBASE
 10
0.0
 20
0.0
 30
0.0
  9
$PLIMCHECK
 70
           0
  9
$PEXTMIN
 10
1.000000000000E+20
 20
1.000000000000E+20
 30
1.000000000000E+20
  9
$PEXTMAX
 10
-1.000000000000E+20
 20
-1.000000000000E+20
 30
-1.000000000000E+20
  9
$PLIMMIN
 10
0.0
 20
0.0
  9
$PLIMMAX
 10
12.0
 20
9.0
  9
$UNITMODE
 70
           0
  9
$VISRETAIN
 70
           0
  9
$PLINEGEN
 70
           1
  9
$PSLTSCALE
 70
           0
  9
$TREEDEPTH
 70
        3020
  9
$PICKSTYLE
 70
           1
  9
$CMLSTYLE
  2
STANDARD
  9
$CMLJUST
 70
           0
  9
$CMLSCALE
 40
1.0
  9
$PROXYGRAPHICS
 70
           0
  9
$MEASUREMENT
 70
           0
  0
ENDSEC
  0
SECTION
  2
CLASSES
  0
CLASS
  1
LWPOLYLINE
  2
AcDbPolyline
  3
"AutoCAD"
 90
        0
280
           0
281
           1
  0
CLASS
  1
IMAGE
  2
AcDbRasterImage
  3
ISM
 90
      127
280
           0
281
           1
  0
CLASS
  1
OLE2FRAME
  2
AcDbOle2Frame
  3
""
 90
        0
280
           0
281
           1
  0
CLASS
  1
HATCH
  2
AcDbHatch
  3
"ACAD_SEDONA"
 90
        0
280
           0
281
           1
  0
CLASS
  1
DICTIONARYVAR
  2
AcDbDictionaryVar
  3
"AutoCAD"
 90
        0
280
           0
281
           0
  0
CLASS
  1
RASTERVARIABLES
  2
AcDbRasterVariables
  3
ISM
 90
        0
280
           0
281
           0
  0
CLASS
  1
IMAGEDEF
  2
AcDbRasterImageDef
  3
ISM
 90
        0
280
           0
281
           0
  0
CLASS
  1
IMAGEDEF_REACTOR
  2
AcDbRasterImageDefReactor
  3
ISM
 90
        1
280
           0
281
           0
  0
CLASS
  1
IDBUFFER
  2
AcDbIdBuffer
  3
"Acad"
 90
        0
280
           0
281
           0
  0
CLASS
  1
SPATIAL_FILTER
  2
AcDbSpatialFilter
  3
"Acad"
 90
        0
280
           0
281
           0
  0
CLASS
  1
XRECORD
  2
AcDbXrecord
  3
"<Built In>"
 90
        0
280
           0
281
           0
  0
CLASS
  1
SORTENTSTABLE
  2
AcDbSortentsTable
  3
"AutoCAD"
 90
        0
280
           0
281
           0
  0
CLASS
  1
LAYER_INDEX
  2
AcDbLayerIndex
  3
"Acad"
 90
        0
280
           0
281
           0
  0
CLASS
  1
SPATIAL_INDEX
  2
AcDbSpatialIndex
  3
"Acad"
 90
        0
280
           0
281
           0
  0
CLASS
  1
OBJECT_PTR
  2
CAseDLPNTableRecord
  3
"ASE-LPNTableRecord"
 90
        1
280
           0
281
           0
  0
CLASS
  1
LAYOUT
  2
AcDbLayout
  3
"AutoCAD 2000"
 90
        1
280
           0
281
           0
  0
CLASS
  1
PLOTSETTINGS
  2
AcDbPlotSettings
  3
"AutoCAD 2000"
 90
        1
280
           0
281
           0
  0
CLASS
  1
ACDBDICTIONARYWDFLT
  2
AcDbDictionaryWithDefault
  3
"AutoCAD 2000"
 90
        1
280
           0
281
           0
  0
CLASS
  1
ACDBPLACEHOLDER
  2
AcDbPlaceHolder
  3
"AutoCAD 2000"
 90
        1
280
           0
281
           0
  0
CLASS
  1
VBA_PROJECT
  2
AcDbVbaProject
  3
"acadvba"
 90
        1
280
           0
281
           0
  0
CLASS
  1
WIPEOUT
  2
AcDbWipeout
  3
WipeOut|AutoCAD Express Tool|expresstools@autodesk.com
 90
      127
280
           0
281
           1
  0
CLASS
  1
WIPEOUTVARIABLES
  2
AcDbWipeoutVariables
  3
WipeOut|AutoCAD Express Tool|expresstools@autodesk.com
 90
        0
280
           0
281
           0
  0
CLASS
  1
RTEXT
  2
RText
  3
RText|AutoCAD Express Tool|expresstools@autodesk.com
 90
        0
280
           0
281
           1
  0
CLASS
  1
ARCALIGNEDTEXT
  2
AcDbArcAlignedText
  3
ATEXT|AutoCAD Express Tool|expresstools@autodesk.com
 90
        0
280
           0
281
           1
  0
ENDSEC
  0
SECTION
  2
TABLES
  0
TABLE
  2
VPORT
  5
7
100
AcDbSymbolTable
 70
           1
  0
VPORT
  5
15
100
AcDbSymbolTableRecord
100
AcDbViewportTableRecord
  2
*ACTIVE
 70
           0
 10
0.0
 20
0.0
 11
1.0
 21
1.0
 12
6.591288
 22
4.579184
 13
0.0
 23
0.0
 14
1.0
 24
1.0
 15
0.0
 25
0.0
 16
0.0
 26
0.0
 36
1.0
 17
0.0
 27
0.0
 37
0.0
 40
9.158369
 41
0.688564
 42
50.0
 43
0.0
 44
0.0
 50
0.0
 51
0.0
 71
           0
 72
         100
 73
           1
 74
           1
 75
           0
 76
           0
 77
           0
 78
           0
  0
ENDTAB
  0
TABLE
  2
LTYPE
  5
4
100
AcDbSymbolTable
 70
          10
  0
LTYPE
  5
11
100
AcDbSymbolTableRecord
100
AcDbLinetypeTableRecord
  2
BYBLOCK
 70
          64
  3

 72
          65
 73
           0
 40
0.0
  0
LTYPE
  5
12
100
AcDbSymbolTableRecord
100
AcDbLinetypeTableRecord
  2
BYLAYER
 70
          64
  3

 72
          65
 73
           0
 40
0.0
  0
LTYPE
  5
13
100
AcDbSymbolTableRecord
100
AcDbLinetypeTableRecord
  2
CONTINUOUS
 70
          64
  3
Solid line
 72
          65
 73
           0
 40
0.0
  0
LTYPE
  5
1D
100
AcDbSymbolTableRecord
100
AcDbLinetypeTableRecord
  2
DASHED
 70
          64
  3
Dashed
 72
          65
 73
           2
 40
15.0
 49
12.0
 74
           0
 49
-3.0
 74
           0
  0
LTYPE
  5
1E
100
AcDbSymbolTableRecord
100
AcDbLinetypeTableRecord
  2
DOTTED
 70
          64
  3
Dotted
 72
          65
 73
           2
 40
3.5
 49
0.5
 74
           0
 49
-3.0
 74
           0
  0
LTYPE
  5
1F
100
AcDbSymbolTableRecord
100
AcDbLinetypeTableRecord
  2
DOT_CENTER
 70
          64
  3
Dot_Center
 72
          65
 73
           4
 40
2.0
 49
1.25
 74
           0
 49
-0.25
 74
           0
 49
0.25
 74
           0
 49
-0.25
 74
           0
  0
LTYPE
  5
20
100
AcDbSymbolTableRecord
100
AcDbLinetypeTableRecord
  2
LONG_DASHED
 70
          64
  3
Long_Dashed
 72
          65
 73
           2
 40
2.0
 49
1.5
 74
           0
 49
-0.5
 74
           0
  0
LTYPE
  5
21
100
AcDbSymbolTableRecord
100
AcDbLinetypeTableRecord
  2
DASH_CENTER
 70
          64
  3
Dash_Center
 72
          65
 73
           4
 40
36.0
 49
24.0
 74
           0
 49
-3.0
 74
           0
 49
6.0
 74
           0
 49
-3.0
 74
           0
  0
LTYPE
  5
22
100
AcDbSymbolTableRecord
100
AcDbLinetypeTableRecord
  2
PHANTOM
 70
          64
  3
Phantom
 72
          65
 73
           6
 40
2.5
 49
1.25
 74
           0
 49
-0.25
 74
           0
 49
0.25
 74
           0
 49
-0.25
 74
           0
 49
0.25
 74
           0
 49
-0.25
 74
           0
  0
LTYPE
  5
23
100
AcDbSymbolTableRecord
100
AcDbLinetypeTableRecord
  2
CENTER_DASH_DASH
 70
          64
  3
Center_Dash_Dash
 72
          65
 73
           6
 40
22.0
 49
12.0
 74
           0
 49
-3.0
 74
           0
 49
0.5
 74
           0
 49
-3.0
 74
           0
 49
0.5
 74
           0
 49
-3.0
 74
           0
  0
ENDTAB
  0
TABLE
  2
LAYER
  5
2
100
AcDbSymbolTable
 70
           3
  0
LAYER
  5
14
100
AcDbSymbolTableRecord
100
AcDbLayerTableRecord
  2
0
 70
           0
 62
           7
  6
CONTINUOUS
  0
LAYER
  5
24
100
AcDbSymbolTableRecord
100
AcDbLayerTableRecord
  2
976
 70
           0
 62
           7
  6
CONTINUOUS
  0
LAYER
  5
25
100
AcDbSymbolTableRecord
100
AcDbLayerTableRecord
  2
1
 70
           0
 62
           7
  6
CONTINUOUS
  0
ENDTAB
  0
TABLE
  2
STYLE
  5
3
100
AcDbSymbolTable
 70
           3
  0
STYLE
  5
17
100
AcDbSymbolTableRecord
100
AcDbTextStyleTableRecord
  2
STANDARD
 70
           0
 40
0.0
 41
1.0
 50
0.0
 71
           0
 42
0.0
  3
txt
  4

  0
STYLE
  5
1BA
100
AcDbSymbolTableRecord
100
AcDbTextStyleTableRecord
  2
CONVERTER_1
 70
           0
 40
0.0
 41
0.9
 50
0.0
 71
           0
 42
0.0
  3
txt.shx
  4

  0
STYLE
  5
1D1
100
AcDbSymbolTableRecord
100
AcDbTextStyleTableRecord
  2
CONVERTER_2
 70
           0
 40
0.0
 41
0.89
 50
0.0
 71
           0
 42
0.0
  3
MS Mincho.ttf
  4

1001
ACAD
1000
MS Mincho
1071
    32785
  0
ENDTAB
  0
TABLE
  2
VIEW
  5
5
100
AcDbSymbolTable
 70
           0
  0
ENDTAB
  0
TABLE
  2
UCS
  5
6
100
AcDbSymbolTable
 70
           0
  0
ENDTAB
  0
TABLE
  2
APPID
  5
8
100
AcDbSymbolTable
 70
           1
  0
APPID
  5
16
100
AcDbSymbolTableRecord
100
AcDbRegAppTableRecord
  2
ACAD
 70
           0
  0
ENDTAB
  0
TABLE
  2
DIMSTYLE
  5
9
100
AcDbSymbolTable
 70
           4
  0
DIMSTYLE
105
18
100
AcDbSymbolTableRecord
100
AcDbDimStyleTableRecord
  2
STANDARD
 70
           0
  3

  4

  5

  6

  7

 40
1.0
 41
0.18
 42
0.0625
 43
0.38
 44
0.18
 45
0.0
 46
0.0
 47
0.0
 48
0.0
 71
           0
 72
           0
 73
           1
 74
           1
 75
           0
 76
           0
 77
           0
 78
           0
140
0.18
141
0.09
142
0.0
143
25.4
144
1.0
145
0.0
146
1.0
147
0.09
170
           0
171
           2
172
           0
173
           0
174
           0
175
           0
176
           0
177
           0
178
           0
270
           2
271
           4
272
           4
273
           2
274
           2
275
           0
280
           0
281
           0
282
           0
283
           1
284
           0
285
           0
286
           0
287
           0
288
           0
340
17
  0
DIMSTYLE
105
1BD
100
AcDbSymbolTableRecord
100
AcDbDimStyleTableRecord
  2
ME10_DIM_0
 70
           0
  3

  4

  5

  6

  7

 40
1.0
 41
2.8
 42
0.8
 43
0.38
 44
1.0
 45
0.0
 46
0.0
 47
0.0
 48
0.0
 71
           0
 72
           0
 73
           0
 74
           0
 75
           0
 76
           0
 77
           1
 78
           8
140
2.8
141
0.09
142
0.0
143
25.4
144
1.0
145
0.0
146
1.0
147
0.09
170
           0
171
           2
172
           0
173
           1
174
           0
175
           0
176
           2
177
           2
178
           2
270
           2
271
           0
272
           4
273
           2
274
           2
275
           0
280
           0
281
           0
282
           0
283
           1
284
           0
285
           0
286
           0
287
           3
288
           0
340
17
  0
DIMSTYLE
105
1C8
100
AcDbSymbolTableRecord
100
AcDbDimStyleTableRecord
  2
ME10_DIM_1
 70
           0
  3

  4

  5

  6

  7

 40
1.0
 41
2.8
 42
0.8
 43
0.38
 44
1.0
 45
0.0
 46
0.0
 47
0.0
 48
0.0
 71
           0
 72
           0
 73
           0
 74
           0
 75
           0
 76
           0
 77
           1
 78
           8
140
2.8
141
0.09
142
0.0
143
25.4
144
1.0
145
0.0
146
1.0
147
0.09
170
           0
171
           2
172
           0
173
           1
174
           0
175
           0
176
           2
177
           2
178
           2
270
           2
271
           0
272
           4
273
           2
274
           2
275
           0
280
           0
281
           0
282
           0
283
           1
284
           0
285
           0
286
           0
287
           3
288
           0
340
17
  0
DIMSTYLE
105
1D4
100
AcDbSymbolTableRecord
100
AcDbDimStyleTableRecord
  2
ME10_DIM_2
 70
           0
  3
ó<>
  4

  5

  6

  7

 40
1.0
 41
2.8
 42
0.8
 43
0.38
 44
1.0
 45
0.0
 46
0.0
 47
0.0
 48
0.0
 71
           0
 72
           0
 73
           0
 74
           0
 75
           0
 76
           0
 77
           1
 78
           8
140
2.8
141
0.09
142
0.0
143
25.4
144
1.0
145
0.0
146
1.0
147
0.09
170
           0
171
           2
172
           0
173
           1
174
           0
175
           0
176
           2
177
           2
178
           2
270
           2
271
           3
272
           4
273
           2
274
           2
275
           0
280
           0
281
           0
282
           0
283
           1
284
           0
285
           0
286
           0
287
           3
288
           0
340
17
  0
ENDTAB
  0
TABLE
  2
BLOCK_RECORD
  5
1
100
AcDbSymbolTable
 70
           3
  0
BLOCK_RECORD
  5
A
100
AcDbSymbolTableRecord
100
AcDbBlockTableRecord
  2
*MODEL_SPACE
  0
BLOCK_RECORD
  5
B
100
AcDbSymbolTableRecord
100
AcDbBlockTableRecord
  2
*PAPER_SPACE
  0
BLOCK_RECORD
  5
1B3
100
AcDbSymbolTableRecord
100
AcDbBlockTableRecord
  2
*D0
  0
BLOCK_RECORD
  5
1BF
100
AcDbSymbolTableRecord
100
AcDbBlockTableRecord
  2
*D1
  0
BLOCK_RECORD
  5
1CA
100
AcDbSymbolTableRecord
100
AcDbBlockTableRecord
  2
*D2
  0
ENDTAB
  0
ENDSEC
  0
SECTION
  2
BLOCKS
  0
BLOCK
  5
D
100
AcDbEntity
  8
0
100
AcDbBlockBegin
  2
*MODEL_SPACE
 70
           0
 10
0.0
 20
0.0
 30
0.0
  3
*MODEL_SPACE
  1

  0
ENDBLK
  5
E
100
AcDbEntity
  8
0
100
AcDbBlockEnd
  0
BLOCK
  5
F
100
AcDbEntity
 67
           1
  8
0
100
AcDbBlockBegin
  2
*PAPER_SPACE
 70
           0
 10
0.0
 20
0.0
 30
0.0
  3
*PAPER_SPACE
  1

  0
ENDBLK
  5
10
100
AcDbEntity
 67
           1
  8
0
100
AcDbBlockEnd
  0
BLOCK
  5
1B4
100
AcDbEntity
  8
0
100
AcDbBlockBegin
  2
*D0
 70
           1
 10
0.0
 20
0.0
 30
0.0
  3
*D0
  1

  0
LINE
  5
1B5
100
AcDbEntity
  8
0
  6
CONTINUOUS
 62
           2
100
AcDbLine
 10
452.007731272877
 20
-224.081489944959
 11
452.007731272877
 21
-96.449984170212
  0
LINE
  5
1B6
100
AcDbEntity
  8
0
  6
CONTINUOUS
 62
           2
100
AcDbLine
 10
471.663863764352
 20
-96.449984170212
 11
451.007731272877
 21
-96.449984170212
  0
LINE
  5
1B7
100
AcDbEntity
  8
0
  6
CONTINUOUS
 62
           2
100
AcDbLine
 10
495.450394210068
 20
-224.081489944959
 11
451.007731272877
 21
-224.081489944959
  0
SOLID
  5
1B8
100
AcDbEntity
  8
0
 62
           2
100
AcDbTrace
 10
452.376358266122
 20
-99.249984170212
 11
451.639104279632
 21
-99.249984170212
 12
452.007731272877
 22
-96.449984170212
 13
452.007731272877
 23
-96.449984170212
  0
SOLID
  5
1B9
100
AcDbEntity
  8
0
 62
           2
100
AcDbTrace
 10
451.639104279632
 20
-221.281489944959
 11
452.376358266122
 21
-221.281489944959
 12
452.007731272877
 22
-224.081489944959
 13
452.007731272877
 23
-224.081489944959
  0
MTEXT
  5
1BB
100
AcDbEntity
  8
0
 62
           2
100
AcDbMText
 10
451.007731272877
 20
-160.929272447029
 30
0.0
 40
2.8
 41
0.0
 71
           7
 72
           1
  1
128
  7
CONVERTER_1
 11
0.0
 21
1.0
 31
0.0
  0
ENDBLK
  5
1BC
100
AcDbEntity
  8
0
100
AcDbBlockEnd
  0
BLOCK
  5
1C0
100
AcDbEntity
  8
0
100
AcDbBlockBegin
  2
*D1
 70
           1
 10
0.0
 20
0.0
 30
0.0
  3
*D1
  1

  0
LINE
  5
1C1
100
AcDbEntity
  8
0
  6
CONTINUOUS
 62
           2
100
AcDbLine
 10
467.463863764352
 20
-75.490449569654
 11
533.946663316887
 21
-75.490449569654
  0
LINE
  5
1C2
100
AcDbEntity
  8
0
  6
CONTINUOUS
 62
           2
100
AcDbLine
 10
533.946663316887
 20
-184.031489944959
 11
533.946663316887
 21
-74.490449569654
  0
LINE
  5
1C3
100
AcDbEntity
  8
0
  6
CONTINUOUS
 62
           2
100
AcDbLine
 10
467.463863764352
 20
-100.649984170212
 11
467.463863764352
 21
-74.490449569654
  0
SOLID
  5
1C4
100
AcDbEntity
  8
0
 62
           2
100
AcDbTrace
 10
470.263863764352
 20
-75.12182257641
 11
470.263863764352
 21
-75.859076562899
 12
467.463863764352
 22
-75.490449569654
 13
467.463863764352
 23
-75.490449569654
  0
SOLID
  5
1C5
100
AcDbEntity
  8
0
 62
           2
100
AcDbTrace
 10
531.146663316887
 20
-75.859076562899
 11
531.146663316887
 21
-75.12182257641
 12
533.946663316887
 22
-75.490449569654
 13
533.946663316887
 23
-75.490449569654
  0
TEXT
  5
1C6
100
AcDbEntity
  8
0
 62
           2
100
AcDbText
 10
501.925512032454
 20
-74.490449569654
 40
2.8
  1
66
 41
0.9
  7
CONVERTER_1
100
AcDbText
  0
ENDBLK
  5
1C7
100
AcDbEntity
  8
0
100
AcDbBlockEnd
  0
BLOCK
  5
1CB
100
AcDbEntity
  8
0
100
AcDbBlockBegin
  2
*D2
 70
           1
 10
0.0
 20
0.0
 30
0.0
  3
*D2
  1

  0
LINE
  5
1CC
100
AcDbEntity
  8
0
  6
CONTINUOUS
 62
           2
100
AcDbLine
 10
467.463863764352
 20
-85.237680224426
 11
527.463863764352
 21
-85.237680224426
  0
LINE
  5
1CD
100
AcDbEntity
  8
0
  6
CONTINUOUS
 62
           2
100
AcDbLine
 10
527.463863764352
 20
-100.649984170212
 11
527.463863764352
 21
-84.237680224426
  0
LINE
  5
1CE
100
AcDbEntity
  8
0
  6
CONTINUOUS
 62
           2
100
AcDbLine
 10
467.463863764352
 20
-100.649984170212
 11
467.463863764352
 21
-84.237680224426
  0
SOLID
  5
1CF
100
AcDbEntity
  8
0
 62
           2
100
AcDbTrace
 10
470.263863764352
 20
-84.869053231181
 11
470.263863764352
 21
-85.606307217671
 12
467.463863764352
 22
-85.237680224426
 13
467.463863764352
 23
-85.237680224426
  0
SOLID
  5
1D0
100
AcDbEntity
  8
0
 62
           2
100
AcDbTrace
 10
524.663863764352
 20
-85.606307217671
 11
524.663863764352
 21
-84.869053231181
 12
527.463863764352
 22
-85.237680224426
 13
527.463863764352
 23
-85.237680224426
  0
MTEXT
  5
1D2
100
AcDbEntity
  8
0
 62
           2
100
AcDbMText
 10
494.242769807745
 20
-84.237680224426
 30
0.0
 40
2.8
 41
0.0
 71
           7
 72
           1
  1
\C2;ó\C2;60\C2;
  7
CONVERTER_2
  0
ENDBLK
  5
1D3
100
AcDbEntity
  8
0
100
AcDbBlockEnd
  0
ENDSEC
  0
SECTION
  2
ENTITIES
  0
DIMENSION
  5
1D5
100
AcDbEntity
  8
0
100
AcDbDimension
  2
*D2
 10
467.463863764352
 20
-85.237680224426
 11
496.958769807745
 21
-82.837680224426
 31
0.0
  1
<>
  3
ME10_DIM_2
100
AcDbAlignedDimension
 13
527.463863764352
 23
-101.449984170212
 14
467.463863764352
 24
-101.449984170212
100
AcDbRotatedDimension
  0
DIMENSION
  5
1C9
100
AcDbEntity
  8
0
100
AcDbDimension
  2
*D1
 10
467.463863764352
 20
-75.490449569654
 11
504.025512032454
 21
-73.090449569654
 31
0.0
  1
<>
  3
ME10_DIM_1
100
AcDbAlignedDimension
 13
533.946663316887
 23
-184.831489944959
 14
467.463863764352
 24
-101.449984170212
100
AcDbRotatedDimension
  0
DIMENSION
  5
1BE
100
AcDbEntity
  8
0
100
AcDbDimension
  2
*D0
 10
452.007731272877
 20
-96.449984170212
 11
449.607731272877
 21
-157.989272447029
 31
0.0
 53
90.0
  1
<>
  3
ME10_DIM_0
100
AcDbAlignedDimension
 13
496.250394210068
 23
-224.081489944959
 14
472.463863764352
 24
-96.449984170212
 50
90.0
100
AcDbRotatedDimension
  0
ARC
  5
1B2
100
AcDbEntity
  8
1
  6
CONTINUOUS
 62
           7
100
AcDbCircle
 10
533.624219268976
 20
-183.678256359704
 40
1.0
100
AcDbArc
 50
179.402267989865
 51
-150.000000000002
  0
ARC
  5
1B1
100
AcDbEntity
  8
1
  6
CONTINUOUS
 62
           7
100
AcDbCircle
 10
520.869107364798
 20
-183.678256359704
 40
1.0
100
AcDbArc
 50
-29.999999999997
 51
0.597732010134
  0
ARC
  5
1B0
100
AcDbEntity
  8
1
  6
CONTINUOUS
 62
           7
100
AcDbCircle
 10
520.869107364798
 20
-200.484723530213
 40
1.0
100
AcDbArc
 50
-0.597732010134
 51
29.999999999997
  0
ARC
  5
1AF
100
AcDbEntity
  8
1
  6
CONTINUOUS
 62
           7
100
AcDbCircle
 10
533.624219268976
 20
-200.484723530213
 40
1.0
100
AcDbArc
 50
150.000000000002
 51
-179.402267989865
  0
ARC
  5
1AE
100
AcDbEntity
  8
1
  6
CONTINUOUS
 62
           7
100
AcDbCircle
 10
496.250394210068
 20
-222.081489944959
 40
2.0
100
AcDbArc
 50
-173.346605327991
 51
-90.0
  0
ARC
  5
1AD
100
AcDbEntity
  8
1
  6
CONTINUOUS
 62
           7
100
AcDbCircle
 10
498.677333318637
 20
-222.081489944959
 40
2.0
100
AcDbArc
 50
-90.0
 51
-6.653394672009
  0
ARC
  5
1AC
100
AcDbEntity
  8
1
  6
CONTINUOUS
 62
           7
100
AcDbCircle
 10
525.813863764352
 20
-105.94955671153
 40
0.999999999999
100
AcDbArc
 50
31.002719133845
 51
97.474185223766
  0
ARC
  5
1AB
100
AcDbEntity
  8
1
  6
CONTINUOUS
 62
           7
100
AcDbCircle
 10
526.413863764352
 20
-105.589001583984
 40
0.3
100
AcDbArc
 50
0.0
 51
31.002719133801
  0
ARC
  5
1AA
100
AcDbEntity
  8
1
  6
CONTINUOUS
 62
           7
100
AcDbCircle
 10
525.713863764352
 20
-106.44955671153
 40
1.0
100
AcDbArc
 50
-90.0
 51
0.0
  0
ARC
  5
1A9
100
AcDbEntity
  8
1
  6
CONTINUOUS
 62
           7
100
AcDbCircle
 10
514.089427204941
 20
-185.142071840515
 40
4.12557868374
100
AcDbArc
 50
155.979322918958
 51
-153.446899855888
  0
ARC
  5
1A8
100
AcDbEntity
  8
1
  6
CONTINUOUS
 62
           7
100
AcDbCircle
 10
514.838300323763
 20
-185.142071840515
 40
4.12557868374
100
AcDbArc
 50
-26.553100144113
 51
24.02067708103
  0
ARC
  5
1A7
100
AcDbEntity
  8
1
  6
CONTINUOUS
 62
           7
100
AcDbCircle
 10
514.838300323763
 20
-199.020908049403
 40
4.12557868374
100
AcDbArc
 50
-24.02067708103
 51
26.553100144114
  0
ARC
  5
1A6
100
AcDbEntity
  8
1
  6
CONTINUOUS
 62
           7
100
AcDbCircle
 10
503.678394944168
 20
-192.081489944959
 40
15.285468820184
100
AcDbArc
 50
-15.7240512144
 51
15.7240512144
  0
ARC
  5
1A5
100
AcDbEntity
  8
1
  6
CONTINUOUS
 62
           7
100
AcDbCircle
 10
514.089427204941
 20
-199.020908049403
 40
4.12557868374
100
AcDbArc
 50
153.446899855887
 51
-155.979322918958
  0
ARC
  5
1A4
100
AcDbEntity
  8
1
  6
CONTINUOUS
 62
           7
100
AcDbCircle
 10
525.249332584536
 20
-192.081489944959
 40
15.285468820184
100
AcDbArc
 50
164.2759487856
 51
-164.2759487856
  0
ARC
  5
1A3
100
AcDbEntity
  8
1
  6
CONTINUOUS
 62
           7
100
AcDbCircle
 10
526.624600187303
 20
-183.605230942989
 40
6.0
100
AcDbArc
 50
-0.597732010135
 51
58.644680567663
  0
ARC
  5
1A2
100
AcDbEntity
  8
1
  6
CONTINUOUS
 62
           7
100
AcDbCircle
 10
527.86872644647
 20
-183.605230942989
 40
6.0
100
AcDbArc
 50
121.355319432335
 51
-179.402267989865
  0
ARC
  5
1A1
100
AcDbEntity
  8
1
  6
CONTINUOUS
 62
           7
100
AcDbCircle
 10
527.86872644647
 20
-200.557748946929
 40
6.0
100
AcDbArc
 50
179.402267989865
 51
-121.355319432335
  0
ARC
  5
1A0
100
AcDbEntity
  8
1
  6
CONTINUOUS
 62
           7
100
AcDbCircle
 10
526.624600187303
 20
-200.557748946929
 40
6.0
100
AcDbArc
 50
-58.644680567663
 51
0.597732010135
  0
ARC
  5
19F
100
AcDbEntity
  8
1
  6
CONTINUOUS
 62
           7
100
AcDbCircle
 10
483.813863797422
 20
-208.934596761639
 40
10.0
100
AcDbArc
 50
0.004659644947
 51
62.289778164771
  0
ARC
  5
19E
100
AcDbEntity
  8
1
  6
CONTINUOUS
 62
           7
100
AcDbCircle
 10
511.113863731283
 20
-208.934596761639
 40
10.0
100
AcDbArc
 50
117.71022183523
 51
179.995340355051
  0
ARC
  5
19D
100
AcDbEntity
  8
976
  6
CONTINUOUS
 62
           7
100
AcDbCircle
 10
493.810581573089
 20
-155.846890214308
 40
24.0
100
AcDbArc
 50
179.05241342002
 51
-100.434609713866
  0
ARC
  5
19C
100
AcDbEntity
  8
976
  6
CONTINUOUS
 62
           7
100
AcDbCircle
 10
501.117145955615
 20
-155.846890214308
 40
24.000000000001
100
AcDbArc
 50
-79.565390286133
 51
0.94758657998
  0
ARC
  5
19B
100
AcDbEntity
  8
1
  6
CONTINUOUS
 62
           7
100
AcDbCircle
 10
469.463863764352
 20
-106.199984170212
 40
1.25
100
AcDbArc
 50
90.0
 51
180.0
  0
ARC
  5
19A
100
AcDbEntity
  8
1
  6
CONTINUOUS
 62
           7
100
AcDbCircle
 10
469.463863764352
 20
-106.199984170212
 40
1.25
100
AcDbArc
 50
180.0
 51
-90.0
  0
ARC
  5
199
100
AcDbEntity
  8
1
  6
CONTINUOUS
 62
           2
100
AcDbCircle
 10
448.662134551779
 20
-101.596662002913
 40
19.308166356737
100
AcDbArc
 50
-1.903426304249
 51
4.035133861233
  0
ARC
  5
198
100
AcDbEntity
  8
1
  6
CONTINUOUS
 62
           2
100
AcDbCircle
 10
449.355946998102
 20
-101.596662002913
 40
19.308166356737
100
AcDbArc
 50
-1.903426304249
 51
4.035133861233
  0
ARC
  5
197
100
AcDbEntity
  8
1
  6
CONTINUOUS
 62
           2
100
AcDbCircle
 10
450.049759444425
 20
-101.596662002913
 40
19.308166356737
100
AcDbArc
 50
-1.903426304249
 51
4.035133861233
  0
ARC
  5
196
100
AcDbEntity
  8
1
  6
CONTINUOUS
 62
           2
100
AcDbCircle
 10
450.743571890747
 20
-101.596662002913
 40
19.308166356738
100
AcDbArc
 50
-1.903426304249
 51
4.035133861233
  0
ARC
  5
195
100
AcDbEntity
  8
1
  6
CONTINUOUS
 62
           2
100
AcDbCircle
 10
451.43738433707
 20
-101.596662002913
 40
19.308166356737
100
AcDbArc
 50
-1.903426304249
 51
4.035133861233
  0
ARC
  5
194
100
AcDbEntity
  8
1
  6
CONTINUOUS
 62
           2
100
AcDbCircle
 10
452.131196783393
 20
-101.596662002913
 40
19.308166356737
100
AcDbArc
 50
-1.903426304249
 51
4.035133861233
  0
ARC
  5
193
100
AcDbEntity
  8
1
  6
CONTINUOUS
 62
           2
100
AcDbCircle
 10
452.825009229716
 20
-101.596662002913
 40
19.308166356738
100
AcDbArc
 50
-1.903426304249
 51
4.035133861233
  0
ARC
  5
192
100
AcDbEntity
  8
1
  6
CONTINUOUS
 62
           2
100
AcDbCircle
 10
453.518821676039
 20
-101.596662002913
 40
19.308166356738
100
AcDbArc
 50
-1.903426304249
 51
4.035133861233
  0
ARC
  5
191
100
AcDbEntity
  8
1
  6
CONTINUOUS
 62
           7
100
AcDbCircle
 10
469.963863764352
 20
-101.449984170212
 40
2.5
100
AcDbArc
 50
180.0
 51
-90.0
  0
ARC
  5
190
100
AcDbEntity
  8
1
  6
CONTINUOUS
 62
           7
100
AcDbCircle
 10
472.463863764352
 20
-98.449984170212
 40
2.0
100
AcDbArc
 50
90.0
 51
180.0
  0
ARC
  5
18F
100
AcDbEntity
  8
1
  6
CONTINUOUS
 62
           7
100
AcDbCircle
 10
470.463863764352
 20
-101.449984170212
 40
3.0
100
AcDbArc
 50
90.0
 51
180.0
  0
ARC
  5
18E
100
AcDbEntity
  8
1
  6
CONTINUOUS
 62
           2
100
AcDbCircle
 10
482.899353840161
 20
-101.596662002913
 40
5.121323193055
100
AcDbArc
 50
-7.193771993656
 51
15.384701383864
  0
ARC
  5
18D
100
AcDbEntity
  8
1
  6
CONTINUOUS
 62
           2
100
AcDbCircle
 10
483.973183900491
 20
-101.596662002913
 40
4.951124074854
100
AcDbArc
 50
-7.442440628929
 51
15.927366696463
  0
ARC
  5
18C
100
AcDbEntity
  8
1
  6
CONTINUOUS
 62
           2
100
AcDbCircle
 10
485.038398805874
 20
-101.596662002913
 40
4.795699743442
100
AcDbArc
 50
-7.685077101086
 51
16.457987755397
  0
ARC
  5
18B
100
AcDbEntity
  8
1
  6
CONTINUOUS
 62
           2
100
AcDbCircle
 10
486.095972071452
 20
-101.596662002913
 40
4.653420446263
100
AcDbArc
 50
-7.921535776603
 51
16.976205993232
  0
ARC
  5
18A
100
AcDbEntity
  8
1
  6
CONTINUOUS
 62
           2
100
AcDbCircle
 10
487.146637289127
 20
-101.596662002913
 40
4.522892384373
100
AcDbArc
 50
-8.151679511873
 51
17.481675180072
  0
ARC
  5
189
100
AcDbEntity
  8
1
  6
CONTINUOUS
 62
           2
100
AcDbCircle
 10
488.190929436171
 20
-101.596662002913
 40
4.402916880054
100
AcDbArc
 50
-8.375379506996
 51
17.974061475114
  0
ARC
  5
188
100
AcDbEntity
  8
1
  6
CONTINUOUS
 62
           2
100
AcDbCircle
 10
489.229217963891
 20
-101.596662002913
 40
4.292457766874
100
AcDbArc
 50
-8.592515131082
 51
18.453043450039
  0
ARC
  5
187
100
AcDbEntity
  8
1
  6
CONTINUOUS
 62
           2
100
AcDbCircle
 10
490.261733532984
 20
-101.596662002913
 40
4.190615135234
100
AcDbArc
 50
-8.802973721455
 51
18.918312085967
  0
ARC
  5
186
100
AcDbEntity
  8
1
  6
CONTINUOUS
 62
           2
100
AcDbCircle
 10
491.306612240897
 20
-101.596662002913
 40
4.079606056456
100
AcDbArc
 50
-9.044491403849
 51
19.453518993296
  0
ARC
  5
185
100
AcDbEntity
  8
1
  6
CONTINUOUS
 62
           2
100
AcDbCircle
 10
492.309801260874
 20
-101.596662002914
 40
4.009737084388
100
AcDbArc
 50
-9.203447623087
 51
19.806535123556
  0
ARC
  5
184
100
AcDbEntity
  8
1
  6
CONTINUOUS
 62
           2
100
AcDbCircle
 10
493.205476052521
 20
-101.596662002913
 40
4.042053757681
100
AcDbArc
 50
-9.129233330115
 51
19.641640154094
  0
ARC
  5
183
100
AcDbEntity
  8
1
  6
CONTINUOUS
 62
           2
100
AcDbCircle
 10
454.212634122362
 20
-101.596662002913
 40
19.308166356738
100
AcDbArc
 50
-1.903426304249
 51
4.035133861233
  0
ARC
  5
182
100
AcDbEntity
  8
1
  6
CONTINUOUS
 62
           2
100
AcDbCircle
 10
457.698361130792
 20
-101.596662002914
 40
16.510255402023
100
AcDbArc
 50
-2.226141130182
 51
4.72038614262
  0
ARC
  5
181
100
AcDbEntity
  8
1
  6
CONTINUOUS
 62
           2
100
AcDbCircle
 10
460.48086373932
 20
-101.596662002913
 40
14.432342998173
100
AcDbArc
 50
-2.546850183689
 51
5.401901497108
  0
ARC
  5
180
100
AcDbEntity
  8
1
  6
CONTINUOUS
 62
           2
100
AcDbCircle
 10
462.804481909411
 20
-101.596662002913
 40
12.829580958336
100
AcDbArc
 50
-2.865271448542
 51
6.079146186503
  0
ARC
  5
17F
100
AcDbEntity
  8
1
  6
CONTINUOUS
 62
           2
100
AcDbCircle
 10
464.813820776827
 20
-101.596662002913
 40
11.556844188664
100
AcDbArc
 50
-3.181127693832
 51
6.751592126443
  0
ARC
  5
17E
100
AcDbEntity
  8
1
  6
CONTINUOUS
 62
           2
100
AcDbCircle
 10
466.599828194708
 20
-101.596662002913
 40
10.522653520276
100
AcDbArc
 50
-3.494146996096
 51
7.418717533491
  0
ARC
  5
17D
100
AcDbEntity
  8
1
  6
CONTINUOUS
 62
           2
100
AcDbCircle
 10
468.222485422684
 20
-101.596662002913
 40
9.666485403396
100
AcDbArc
 50
-3.804063231007
 51
8.08000754634
  0
ARC
  5
17C
100
AcDbEntity
  8
1
  6
CONTINUOUS
 62
           2
100
AcDbCircle
 10
469.722879405177
 20
-101.596662002913
 40
8.946700020199
100
AcDbArc
 50
-4.110616532172
 51
8.734954818977
  0
ARC
  5
17B
100
AcDbEntity
  8
1
  6
CONTINUOUS
 62
           2
100
AcDbCircle
 10
471.130034492585
 20
-101.596662002913
 40
8.33370996243
100
AcDbArc
 50
-4.413553714886
 51
9.383060083924
  0
ARC
  5
17A
100
AcDbEntity
  8
1
  6
CONTINUOUS
 62
           2
100
AcDbCircle
 10
472.464978688352
 20
-101.596662002913
 40
7.805914390461
100
AcDbArc
 50
-4.712628663032
 51
10.023832683839
  0
ARC
  5
179
100
AcDbEntity
  8
1
  6
CONTINUOUS
 62
           2
100
AcDbCircle
 10
473.743267985302
 20
-101.596662002913
 40
7.347175110156
100
AcDbArc
 50
-5.007602677576
 51
10.656791070073
  0
ARC
  5
178
100
AcDbEntity
  8
1
  6
CONTINUOUS
 62
           2
100
AcDbCircle
 10
474.976610442962
 20
-101.596662002913
 40
6.945192915489
100
AcDbArc
 50
-5.298244785516
 51
11.281463267013
  0
ARC
  5
177
100
AcDbEntity
  8
1
  6
CONTINUOUS
 62
           2
100
AcDbCircle
 10
476.173943619277
 20
-101.596662002913
 40
6.590430583228
100
AcDbArc
 50
-5.584332008374
 51
11.897387301259
  0
ARC
  5
176
100
AcDbEntity
  8
1
  6
CONTINUOUS
 62
           2
100
AcDbCircle
 10
477.342168666492
 20
-101.596662002913
 40
6.275379209596
100
AcDbArc
 50
-5.865649589742
 51
12.504111595022
  0
ARC
  5
175
100
AcDbEntity
  8
1
  6
CONTINUOUS
 62
           2
100
AcDbCircle
 10
478.486662343698
 20
-101.596662002913
 40
5.994046636102
100
AcDbArc
 50
-6.141991181635
 51
13.101195323305
  0
ARC
  5
174
100
AcDbEntity
  8
1
  6
CONTINUOUS
 62
           2
100
AcDbCircle
 10
481.815643136854
 20
-101.596662002913
 40
5.308214380529
100
AcDbArc
 50
-6.939225434304
 51
14.830362641287
  0
ARC
  5
173
100
AcDbEntity
  8
1
  6
CONTINUOUS
 62
           2
100
AcDbCircle
 10
480.720428093335
 20
-101.596662002913
 40
5.51406821585
100
AcDbArc
 50
-6.678963878305
 51
14.264733436179
  0
ARC
  5
172
100
AcDbEntity
  8
1
  6
CONTINUOUS
 62
           2
100
AcDbCircle
 10
479.611641610536
 20
-101.596662002913
 40
5.74159329972
100
AcDbArc
 50
-6.413158989792
 51
13.688208734746
  0
ARC
  5
171
100
AcDbEntity
  8
1
  6
CONTINUOUS
 62
           2
100
AcDbCircle
 10
500.622307828945
 20
-101.596662002913
 40
3.857188769859
100
AcDbArc
 50
159.375232152236
 51
-170.429207852688
  0
ARC
  5
170
100
AcDbEntity
  8
1
  6
CONTINUOUS
 62
           2
100
AcDbCircle
 10
499.618546401903
 20
-101.596662002913
 40
3.78824930011
100
AcDbArc
 50
158.9822889202
 51
-170.253352244845
  0
ARC
  5
16F
100
AcDbEntity
  8
1
  6
CONTINUOUS
 62
           2
100
AcDbCircle
 10
498.621093372332
 20
-101.596662002913
 40
3.724439925703
100
AcDbArc
 50
158.604648829985
 51
-170.084694257535
  0
ARC
  5
16E
100
AcDbEntity
  8
1
  6
CONTINUOUS
 62
           2
100
AcDbCircle
 10
497.630249655275
 20
-101.596662002913
 40
3.665388118977
100
AcDbArc
 50
158.242536291184
 51
-169.923298243593
  0
ARC
  5
16D
100
AcDbEntity
  8
1
  6
CONTINUOUS
 62
           2
100
AcDbCircle
 10
470.792774344985
 20
-101.596662002913
 40
3.175664471753
100
AcDbArc
 50
154.669360845135
 51
-168.349092842899
  0
ARC
  5
16C
100
AcDbEntity
  8
1
  6
CONTINUOUS
 62
           2
100
AcDbCircle
 10
471.486586791308
 20
-101.596662002913
 40
3.175664471753
100
AcDbArc
 50
154.669360845133
 51
-168.349092842898
  0
ARC
  5
16B
100
AcDbEntity
  8
1
  6
CONTINUOUS
 62
           2
100
AcDbCircle
 10
472.180399237631
 20
-101.596662002913
 40
3.175664471753
100
AcDbArc
 50
154.669360845134
 51
-168.349092842899
  0
ARC
  5
16A
100
AcDbEntity
  8
1
  6
CONTINUOUS
 62
           2
100
AcDbCircle
 10
472.874211683954
 20
-101.596662002913
 40
3.175664471753
100
AcDbArc
 50
154.669360845134
 51
-168.349092842899
  0
ARC
  5
169
100
AcDbEntity
  8
1
  6
CONTINUOUS
 62
           2
100
AcDbCircle
 10
473.568024130277
 20
-101.596662002913
 40
3.175664471753
100
AcDbArc
 50
154.669360845134
 51
-168.349092842899
  0
ARC
  5
168
100
AcDbEntity
  8
1
  6
CONTINUOUS
 62
           2
100
AcDbCircle
 10
474.261836576599
 20
-101.596662002913
 40
3.175664471753
100
AcDbArc
 50
154.669360845134
 51
-168.349092842899
  0
ARC
  5
167
100
AcDbEntity
  8
1
  6
CONTINUOUS
 62
           2
100
AcDbCircle
 10
474.955649022922
 20
-101.596662002913
 40
3.175664471753
100
AcDbArc
 50
154.669360845133
 51
-168.349092842899
  0
ARC
  5
166
100
AcDbEntity
  8
1
  6
CONTINUOUS
 62
           2
100
AcDbCircle
 10
475.649461469245
 20
-101.596662002913
 40
3.175664471753
100
AcDbArc
 50
154.669360845134
 51
-168.349092842899
  0
ARC
  5
165
100
AcDbEntity
  8
1
  6
CONTINUOUS
 62
           2
100
AcDbCircle
 10
476.343273915568
 20
-101.596662002913
 40
3.175664471753
100
AcDbArc
 50
154.669360845133
 51
-168.349092842899
  0
ARC
  5
164
100
AcDbEntity
  8
1
  6
CONTINUOUS
 62
           2
100
AcDbCircle
 10
477.01421304901
 20
-101.596662002913
 40
3.167766832947
100
AcDbArc
 50
154.601725675436
 51
-168.319637011649
  0
ARC
  5
163
100
AcDbEntity
  8
1
  6
CONTINUOUS
 62
           2
100
AcDbCircle
 10
477.704286933283
 20
-101.596662002913
 40
3.161968559198
100
AcDbArc
 50
154.551830042922
 51
-168.297915508145
  0
ARC
  5
162
100
AcDbEntity
  8
1
  6
CONTINUOUS
 62
           2
100
AcDbCircle
 10
478.412971201008
 20
-101.596662002913
 40
3.158247220009
100
AcDbArc
 50
154.519699500676
 51
-168.283931697614
  0
ARC
  5
161
100
AcDbEntity
  8
1
  6
CONTINUOUS
 62
           2
100
AcDbCircle
 10
479.139737647578
 20
-101.596662002914
 40
3.156588473324
100
AcDbArc
 50
154.505350476298
 51
-168.277687713107
  0
ARC
  5
160
100
AcDbEntity
  8
1
  6
CONTINUOUS
 62
           2
100
AcDbCircle
 10
479.884054476171
 20
-101.596662002913
 40
3.156985939882
100
AcDbArc
 50
154.508790299226
 51
-168.279184498534
  0
ARC
  5
15F
100
AcDbEntity
  8
1
  6
CONTINUOUS
 62
           2
100
AcDbCircle
 10
480.645386621026
 20
-101.596662002913
 40
3.159441147511
100
AcDbArc
 50
154.530017212756
 51
-168.28842182814
  0
ARC
  5
15E
100
AcDbEntity
  8
1
  6
CONTINUOUS
 62
           2
100
AcDbCircle
 10
481.423196147829
 20
-101.596662002914
 40
3.163963544463
100
AcDbArc
 50
154.569020371291
 51
-168.305398301725
  0
ARC
  5
15D
100
AcDbEntity
  8
1
  6
CONTINUOUS
 62
           2
100
AcDbCircle
 10
482.216942731118
 20
-101.596662002913
 40
3.170570581987
100
AcDbArc
 50
154.625779822274
 51
-168.33011131609
  0
ARC
  5
15C
100
AcDbEntity
  8
1
  6
CONTINUOUS
 62
           2
100
AcDbCircle
 10
483.026084209808
 20
-101.596662002913
 40
3.17928786753
100
AcDbArc
 50
154.700266473074
 51
-168.362557012934
  0
ARC
  5
15B
100
AcDbEntity
  8
1
  6
CONTINUOUS
 62
           2
100
AcDbCircle
 10
483.850077223072
 20
-101.596662002913
 40
3.190149391082
100
AcDbArc
 50
154.792442043361
 51
-168.402730202824
  0
ARC
  5
15A
100
AcDbEntity
  8
1
  6
CONTINUOUS
 62
           2
100
AcDbCircle
 10
484.688377930084
 20
-101.596662002913
 40
3.203197828472
100
AcDbArc
 50
154.902259002929
 51
-168.450624266339
  0
ARC
  5
159
100
AcDbEntity
  8
1
  6
CONTINUOUS
 62
           2
100
AcDbCircle
 10
485.54044281845
 20
-101.596662002913
 40
3.218484926743
100
AcDbArc
 50
155.029660495592
 51
-168.506231032379
  0
ARC
  5
158
100
AcDbEntity
  8
1
  6
CONTINUOUS
 62
           2
100
AcDbCircle
 10
486.405729607673
 20
-101.596662002913
 40
3.23607197825
100
AcDbArc
 50
155.174580249759
 51
-168.569540634455
  0
ARC
  5
157
100
AcDbEntity
  8
1
  6
CONTINUOUS
 62
           2
100
AcDbCircle
 10
487.283698255626
 20
-101.596662002913
 40
3.256030391774
100
AcDbArc
 50
155.336942476246
 51
-168.640541345575
  0
ARC
  5
156
100
AcDbEntity
  8
1
  6
CONTINUOUS
 62
           2
100
AcDbCircle
 10
488.173812077953
 20
-101.596662002913
 40
3.278442370882
100
AcDbArc
 50
155.516661754167
 51
-168.719219392606
  0
ARC
  5
155
100
AcDbEntity
  8
1
  6
CONTINUOUS
 62
           2
100
AcDbCircle
 10
489.075538992518
 20
-101.596662002913
 40
3.303401711971
100
AcDbArc
 50
155.713642905779
 51
-168.805558751049
  0
ARC
  5
154
100
AcDbEntity
  8
1
  6
CONTINUOUS
 62
           2
100
AcDbCircle
 10
489.988352903592
 20
-101.596662002913
 40
3.331014736997
100
AcDbArc
 50
155.927780861222
 51
-168.899540921285
  0
ARC
  5
153
100
AcDbEntity
  8
1
  6
CONTINUOUS
 62
           2
100
AcDbCircle
 10
490.91173524354
 20
-101.596662002913
 40
3.361401379003
100
AcDbArc
 50
156.158960514301
 51
-169.001144687515
  0
ARC
  5
152
100
AcDbEntity
  8
1
  6
CONTINUOUS
 62
           2
100
AcDbCircle
 10
491.845176693386
 20
-101.596662002913
 40
3.394696442132
100
AcDbArc
 50
156.407056570452
 51
-169.110345860666
  0
ARC
  5
151
100
AcDbEntity
  8
1
  6
CONTINUOUS
 62
           2
100
AcDbCircle
 10
492.788179108011
 20
-101.596662002913
 40
3.431051062207
100
AcDbArc
 50
156.6719333882
 51
-169.227117006759
  0
ARC
  5
150
100
AcDbEntity
  8
1
  6
CONTINUOUS
 62
           2
100
AcDbCircle
 10
493.740257676963
 20
-101.596662002913
 40
3.470634399224
100
AcDbArc
 50
156.953444815462
 51
-169.351427162221
  0
ARC
  5
14F
100
AcDbEntity
  8
1
  6
CONTINUOUS
 62
           2
100
AcDbCircle
 10
496.646355618146
 20
-101.596662002913
 40
3.610762140308
100
AcDbArc
 50
157.896164047632
 51
-169.769222824652
  0
ARC
  5
14E
100
AcDbEntity
  8
1
  6
CONTINUOUS
 62
           2
100
AcDbCircle
 10
495.669785630631
 20
-101.596662002913
 40
3.560266072821
100
AcDbArc
 50
157.565733331165
 51
-169.622521213566
  0
ARC
  5
14D
100
AcDbEntity
  8
1
  6
CONTINUOUS
 62
           2
100
AcDbCircle
 10
494.7009433583
 20
-101.596662002913
 40
3.513635599471
100
AcDbArc
 50
157.251434022238
 51
-169.48324153791
  0
ARC
  5
14C
100
AcDbEntity
  8
1
  6
CONTINUOUS
 62
           2
100
AcDbCircle
 10
500.226784170404
 20
-101.596662002913
 40
3.513635599471
100
AcDbArc
 50
-10.516758462089
 51
22.748565977761
  0
ARC
  5
14B
100
AcDbEntity
  8
1
  6
CONTINUOUS
 62
           2
100
AcDbCircle
 10
499.257941898073
 20
-101.596662002913
 40
3.560266072821
100
AcDbArc
 50
-10.377478786433
 51
22.434266668834
  0
ARC
  5
14A
100
AcDbEntity
  8
1
  6
CONTINUOUS
 62
           2
100
AcDbCircle
 10
498.281371910559
 20
-101.596662002913
 40
3.610762140308
100
AcDbArc
 50
-10.230777175348
 51
22.103835952368
  0
ARC
  5
149
100
AcDbEntity
  8
1
  6
CONTINUOUS
 62
           2
100
AcDbCircle
 10
501.187469851742
 20
-101.596662002913
 40
3.470634399224
100
AcDbArc
 50
-10.648572837778
 51
23.046555184537
  0
ARC
  5
148
100
AcDbEntity
  8
1
  6
CONTINUOUS
 62
           2
100
AcDbCircle
 10
502.139548420694
 20
-101.596662002913
 40
3.431051062207
100
AcDbArc
 50
-10.772882993241
 51
23.3280666118
  0
ARC
  5
147
100
AcDbEntity
  8
1
  6
CONTINUOUS
 62
           2
100
AcDbCircle
 10
503.082550835318
 20
-101.596662002913
 40
3.394696442132
100
AcDbArc
 50
-10.889654139333
 51
23.592943429547
  0
ARC
  5
146
100
AcDbEntity
  8
1
  6
CONTINUOUS
 62
           2
100
AcDbCircle
 10
504.015992285165
 20
-101.596662002913
 40
3.361401379003
100
AcDbArc
 50
-10.998855312485
 51
23.841039485699
  0
ARC
  5
145
100
AcDbEntity
  8
1
  6
CONTINUOUS
 62
           2
100
AcDbCircle
 10
504.939374625113
 20
-101.596662002913
 40
3.331014736997
100
AcDbArc
 50
-11.100459078714
 51
24.072219138777
  0
ARC
  5
144
100
AcDbEntity
  8
1
  6
CONTINUOUS
 62
           2
100
AcDbCircle
 10
505.852188536187
 20
-101.596662002913
 40
3.303401711971
100
AcDbArc
 50
-11.194441248951
 51
24.286357094221
  0
ARC
  5
143
100
AcDbEntity
  8
1
  6
CONTINUOUS
 62
           2
100
AcDbCircle
 10
506.753915450752
 20
-101.596662002913
 40
3.278442370883
100
AcDbArc
 50
-11.280780607393
 51
24.483338245833
  0
ARC
  5
142
100
AcDbEntity
  8
1
  6
CONTINUOUS
 62
           2
100
AcDbCircle
 10
507.644029273079
 20
-101.596662002913
 40
3.256030391774
100
AcDbArc
 50
-11.359458654424
 51
24.663057523753
  0
ARC
  5
141
100
AcDbEntity
  8
1
  6
CONTINUOUS
 62
           2
100
AcDbCircle
 10
508.521997921031
 20
-101.596662002913
 40
3.23607197825
100
AcDbArc
 50
-11.430459365544
 51
24.825419750239
  0
ARC
  5
140
100
AcDbEntity
  8
1
  6
CONTINUOUS
 62
           2
100
AcDbCircle
 10
509.387284710255
 20
-101.596662002913
 40
3.218484926743
100
AcDbArc
 50
-11.49376896762
 51
24.970339504409
  0
ARC
  5
13F
100
AcDbEntity
  8
1
  6
CONTINUOUS
 62
           2
100
AcDbCircle
 10
510.239349598621
 20
-101.596662002913
 40
3.203197828472
100
AcDbArc
 50
-11.549375733661
 51
25.097740997071
  0
ARC
  5
13E
100
AcDbEntity
  8
1
  6
CONTINUOUS
 62
           2
100
AcDbCircle
 10
511.077650305632
 20
-101.596662002913
 40
3.190149391082
100
AcDbArc
 50
-11.597269797175
 51
25.207557956639
  0
ARC
  5
13D
100
AcDbEntity
  8
1
  6
CONTINUOUS
 62
           2
100
AcDbCircle
 10
511.901643318896
 20
-101.596662002913
 40
3.17928786753
100
AcDbArc
 50
-11.637442987066
 51
25.299733526927
  0
ARC
  5
13C
100
AcDbEntity
  8
1
  6
CONTINUOUS
 62
           2
100
AcDbCircle
 10
512.710784797586
 20
-101.596662002913
 40
3.170570581987
100
AcDbArc
 50
-11.66988868391
 51
25.374220177725
  0
ARC
  5
13B
100
AcDbEntity
  8
1
  6
CONTINUOUS
 62
           2
100
AcDbCircle
 10
513.504531380875
 20
-101.596662002914
 40
3.163963544463
100
AcDbArc
 50
-11.694601698275
 51
25.43097962871
  0
ARC
  5
13A
100
AcDbEntity
  8
1
  6
CONTINUOUS
 62
           2
100
AcDbCircle
 10
514.282340907678
 20
-101.596662002913
 40
3.159441147512
100
AcDbArc
 50
-11.71157817186
 51
25.469982787243
  0
ARC
  5
139
100
AcDbEntity
  8
1
  6
CONTINUOUS
 62
           2
100
AcDbCircle
 10
515.043673052534
 20
-101.596662002913
 40
3.156985939882
100
AcDbArc
 50
-11.720815501467
 51
25.491209700774
  0
ARC
  5
138
100
AcDbEntity
  8
1
  6
CONTINUOUS
 62
           2
100
AcDbCircle
 10
515.787989881126
 20
-101.596662002914
 40
3.156588473324
100
AcDbArc
 50
-11.722312286892
 51
25.494649523703
  0
ARC
  5
137
100
AcDbEntity
  8
1
  6
CONTINUOUS
 62
           2
100
AcDbCircle
 10
516.514756327697
 20
-101.596662002913
 40
3.158247220009
100
AcDbArc
 50
-11.716068302386
 51
25.480300499322
  0
ARC
  5
136
100
AcDbEntity
  8
1
  6
CONTINUOUS
 62
           2
100
AcDbCircle
 10
517.223440595421
 20
-101.596662002913
 40
3.161968559199
100
AcDbArc
 50
-11.702084491855
 51
25.448169957078
  0
ARC
  5
135
100
AcDbEntity
  8
1
  6
CONTINUOUS
 62
           2
100
AcDbCircle
 10
517.913514479695
 20
-101.596662002913
 40
3.167766832948
100
AcDbArc
 50
-11.68036298835
 51
25.398274324564
  0
ARC
  5
134
100
AcDbEntity
  8
1
  6
CONTINUOUS
 62
           2
100
AcDbCircle
 10
518.584453613136
 20
-101.596662002913
 40
3.175664471753
100
AcDbArc
 50
-11.650907157101
 51
25.330639154866
  0
ARC
  5
133
100
AcDbEntity
  8
1
  6
CONTINUOUS
 62
           2
100
AcDbCircle
 10
519.278266059459
 20
-101.596662002913
 40
3.175664471753
100
AcDbArc
 50
-11.650907157102
 51
25.330639154866
  0
ARC
  5
132
100
AcDbEntity
  8
1
  6
CONTINUOUS
 62
           2
100
AcDbCircle
 10
519.972078505782
 20
-101.596662002913
 40
3.175664471753
100
AcDbArc
 50
-11.650907157101
 51
25.330639154866
  0
ARC
  5
131
100
AcDbEntity
  8
1
  6
CONTINUOUS
 62
           2
100
AcDbCircle
 10
520.665890952105
 20
-101.596662002913
 40
3.175664471753
100
AcDbArc
 50
-11.6509071571
 51
25.330639154866
  0
ARC
  5
130
100
AcDbEntity
  8
1
  6
CONTINUOUS
 62
           2
100
AcDbCircle
 10
521.359703398428
 20
-101.596662002913
 40
3.175664471753
100
AcDbArc
 50
-11.6509071571
 51
25.330639154866
  0
ARC
  5
12F
100
AcDbEntity
  8
1
  6
CONTINUOUS
 62
           2
100
AcDbCircle
 10
522.053515844751
 20
-101.596662002913
 40
3.175664471753
100
AcDbArc
 50
-11.6509071571
 51
25.330639154866
  0
ARC
  5
12E
100
AcDbEntity
  8
1
  6
CONTINUOUS
 62
           2
100
AcDbCircle
 10
522.747328291074
 20
-101.596662002913
 40
3.175664471753
100
AcDbArc
 50
-11.6509071571
 51
25.330639154866
  0
ARC
  5
12D
100
AcDbEntity
  8
1
  6
CONTINUOUS
 62
           2
100
AcDbCircle
 10
523.441140737396
 20
-101.596662002913
 40
3.175664471753
100
AcDbArc
 50
-11.6509071571
 51
25.330639154866
  0
ARC
  5
12C
100
AcDbEntity
  8
1
  6
CONTINUOUS
 62
           2
100
AcDbCircle
 10
524.134953183719
 20
-101.596662002913
 40
3.175664471753
100
AcDbArc
 50
-11.6509071571
 51
25.330639154864
  0
ARC
  5
12B
100
AcDbEntity
  8
1
  6
CONTINUOUS
 62
           2
100
AcDbCircle
 10
497.297477873429
 20
-101.596662002913
 40
3.665388118977
100
AcDbArc
 50
-10.076701756406
 51
21.757463708815
  0
ARC
  5
12A
100
AcDbEntity
  8
1
  6
CONTINUOUS
 62
           2
100
AcDbCircle
 10
496.306634156373
 20
-101.596662002913
 40
3.724439925704
100
AcDbArc
 50
-9.915305742465
 51
21.395351170014
  0
ARC
  5
129
100
AcDbEntity
  8
1
  6
CONTINUOUS
 62
           2
100
AcDbCircle
 10
495.309181126801
 20
-101.596662002913
 40
3.78824930011
100
AcDbArc
 50
-9.746647755155
 51
21.0177110798
  0
ARC
  5
128
100
AcDbEntity
  8
1
  6
CONTINUOUS
 62
           2
100
AcDbCircle
 10
494.30541969976
 20
-101.596662002913
 40
3.857188769859
100
AcDbArc
 50
-9.570792147312
 51
20.624767847763
  0
ARC
  5
127
100
AcDbEntity
  8
1
  6
CONTINUOUS
 62
           2
100
AcDbCircle
 10
515.316085918168
 20
-101.596662002913
 40
5.74159329972
100
AcDbArc
 50
166.311791265254
 51
-173.586841010208
  0
ARC
  5
126
100
AcDbEntity
  8
1
  6
CONTINUOUS
 62
           2
100
AcDbCircle
 10
514.207299435369
 20
-101.596662002913
 40
5.51406821585
100
AcDbArc
 50
165.735266563821
 51
-173.321036121695
  0
ARC
  5
125
100
AcDbEntity
  8
1
  6
CONTINUOUS
 62
           2
100
AcDbCircle
 10
513.11208439185
 20
-101.596662002913
 40
5.308214380529
100
AcDbArc
 50
165.169637358712
 51
-173.060774565696
  0
ARC
  5
124
100
AcDbEntity
  8
1
  6
CONTINUOUS
 62
           2
100
AcDbCircle
 10
516.441065185007
 20
-101.596662002913
 40
5.994046636102
100
AcDbArc
 50
166.898804676694
 51
-173.858008818365
  0
ARC
  5
123
100
AcDbEntity
  8
1
  6
CONTINUOUS
 62
           2
100
AcDbCircle
 10
517.585558862212
 20
-101.596662002913
 40
6.275379209597
100
AcDbArc
 50
167.495888404978
 51
-174.134350410258
  0
ARC
  5
122
100
AcDbEntity
  8
1
  6
CONTINUOUS
 62
           2
100
AcDbCircle
 10
518.753783909427
 20
-101.596662002913
 40
6.590430583228
100
AcDbArc
 50
168.102612698741
 51
-174.415667991625
  0
ARC
  5
121
100
AcDbEntity
  8
1
  6
CONTINUOUS
 62
           2
100
AcDbCircle
 10
519.951117085743
 20
-101.596662002913
 40
6.945192915489
100
AcDbArc
 50
168.718536732987
 51
-174.701755214484
  0
ARC
  5
120
100
AcDbEntity
  8
1
  6
CONTINUOUS
 62
           2
100
AcDbCircle
 10
521.184459543403
 20
-101.596662002913
 40
7.347175110156
100
AcDbArc
 50
169.343208929927
 51
-174.992397322423
  0
ARC
  5
11F
100
AcDbEntity
  8
1
  6
CONTINUOUS
 62
           2
100
AcDbCircle
 10
522.462748840353
 20
-101.596662002913
 40
7.805914390461
100
AcDbArc
 50
169.976167316161
 51
-175.287371336968
  0
ARC
  5
11E
100
AcDbEntity
  8
1
  6
CONTINUOUS
 62
           2
100
AcDbCircle
 10
523.797693036119
 20
-101.596662002913
 40
8.333709962429
100
AcDbArc
 50
170.616939916076
 51
-175.586446285113
  0
ARC
  5
11D
100
AcDbEntity
  8
1
  6
CONTINUOUS
 62
           2
100
AcDbCircle
 10
525.204848123527
 20
-101.596662002913
 40
8.946700020199
100
AcDbArc
 50
171.265045181022
 51
-175.889383467828
  0
ARC
  5
11C
100
AcDbEntity
  8
1
  6
CONTINUOUS
 62
           2
100
AcDbCircle
 10
526.705242106021
 20
-101.596662002913
 40
9.666485403396
100
AcDbArc
 50
171.91999245366
 51
-176.195936768992
  0
ARC
  5
11B
100
AcDbEntity
  8
1
  6
CONTINUOUS
 62
           2
100
AcDbCircle
 10
528.327899333996
 20
-101.596662002913
 40
10.522653520276
100
AcDbArc
 50
172.581282466508
 51
-176.505853003904
  0
ARC
  5
11A
100
AcDbEntity
  8
1
  6
CONTINUOUS
 62
           2
100
AcDbCircle
 10
530.113906751877
 20
-101.596662002913
 40
11.556844188663
100
AcDbArc
 50
173.248407873557
 51
-176.818872306167
  0
ARC
  5
119
100
AcDbEntity
  8
1
  6
CONTINUOUS
 62
           2
100
AcDbCircle
 10
532.123245619294
 20
-101.596662002913
 40
12.829580958336
100
AcDbArc
 50
173.920853813496
 51
-177.134728551458
  0
ARC
  5
118
100
AcDbEntity
  8
1
  6
CONTINUOUS
 62
           2
100
AcDbCircle
 10
534.446863789384
 20
-101.596662002913
 40
14.432342998172
100
AcDbArc
 50
174.598098502891
 51
-177.453149816311
  0
ARC
  5
117
100
AcDbEntity
  8
1
  6
CONTINUOUS
 62
           2
100
AcDbCircle
 10
537.229366397912
 20
-101.596662002914
 40
16.510255402023
100
AcDbArc
 50
175.27961385738
 51
-177.773858869818
  0
ARC
  5
116
100
AcDbEntity
  8
1
  6
CONTINUOUS
 62
           2
100
AcDbCircle
 10
540.715093406343
 20
-101.596662002913
 40
19.308166356737
100
AcDbArc
 50
175.964866138766
 51
-178.096573695751
  0
ARC
  5
115
100
AcDbEntity
  8
1
  6
CONTINUOUS
 62
           2
100
AcDbCircle
 10
501.722251476183
 20
-101.596662002913
 40
4.042053757681
100
AcDbArc
 50
160.358359845906
 51
-170.870766669884
  0
ARC
  5
114
100
AcDbEntity
  8
1
  6
CONTINUOUS
 62
           2
100
AcDbCircle
 10
502.61792626783
 20
-101.596662002914
 40
4.009737084389
100
AcDbArc
 50
160.193464876443
 51
-170.796552376913
  0
ARC
  5
113
100
AcDbEntity
  8
1
  6
CONTINUOUS
 62
           2
100
AcDbCircle
 10
503.621115287807
 20
-101.596662002913
 40
4.079606056456
100
AcDbArc
 50
160.546481006703
 51
-170.95550859615
  0
ARC
  5
112
100
AcDbEntity
  8
1
  6
CONTINUOUS
 62
           2
100
AcDbCircle
 10
504.665993995721
 20
-101.596662002913
 40
4.190615135234
100
AcDbArc
 50
161.081687914032
 51
-171.197026278545
  0
ARC
  5
111
100
AcDbEntity
  8
1
  6
CONTINUOUS
 62
           2
100
AcDbCircle
 10
505.698509564814
 20
-101.596662002913
 40
4.292457766874
100
AcDbArc
 50
161.546956549961
 51
-171.407484868918
  0
ARC
  5
110
100
AcDbEntity
  8
1
  6
CONTINUOUS
 62
           2
100
AcDbCircle
 10
506.736798092533
 20
-101.596662002913
 40
4.402916880054
100
AcDbArc
 50
162.025938524885
 51
-171.624620493003
  0
ARC
  5
10F
100
AcDbEntity
  8
1
  6
CONTINUOUS
 62
           2
100
AcDbCircle
 10
507.781090239577
 20
-101.596662002913
 40
4.522892384373
100
AcDbArc
 50
162.518324819928
 51
-171.848320488126
  0
ARC
  5
10E
100
AcDbEntity
  8
1
  6
CONTINUOUS
 62
           2
100
AcDbCircle
 10
508.831755457253
 20
-101.596662002913
 40
4.653420446263
100
AcDbArc
 50
163.023794006767
 51
-172.078464223397
  0
ARC
  5
10D
100
AcDbEntity
  8
1
  6
CONTINUOUS
 62
           2
100
AcDbCircle
 10
509.88932872283
 20
-101.596662002913
 40
4.795699743442
100
AcDbArc
 50
163.542012244603
 51
-172.314922898913
  0
ARC
  5
10C
100
AcDbEntity
  8
1
  6
CONTINUOUS
 62
           2
100
AcDbCircle
 10
510.954543628214
 20
-101.596662002913
 40
4.951124074854
100
AcDbArc
 50
164.072633303537
 51
-172.557559371071
  0
ARC
  5
10B
100
AcDbEntity
  8
1
  6
CONTINUOUS
 62
           2
100
AcDbCircle
 10
512.028373688544
 20
-101.596662002913
 40
5.121323193055
100
AcDbArc
 50
164.615298616136
 51
-172.806228006344
  0
ARC
  5
10A
100
AcDbEntity
  8
1
  6
CONTINUOUS
 62
           7
100
AcDbCircle
 10
524.463863764352
 20
-101.449984170212
 40
3.0
100
AcDbArc
 50
0.0
 51
90.0
  0
ARC
  5
109
100
AcDbEntity
  8
1
  6
CONTINUOUS
 62
           7
100
AcDbCircle
 10
522.463863764352
 20
-98.449984170212
 40
2.0
100
AcDbArc
 50
0.0
 51
90.0
  0
ARC
  5
108
100
AcDbEntity
  8
1
  6
CONTINUOUS
 62
           7
100
AcDbCircle
 10
524.963863764352
 20
-101.449984170212
 40
2.5
100
AcDbArc
 50
-90.0
 51
0.0
  0
ARC
  5
107
100
AcDbEntity
  8
1
  6
CONTINUOUS
 62
           2
100
AcDbCircle
 10
541.408905852665
 20
-101.596662002913
 40
19.308166356737
100
AcDbArc
 50
175.964866138766
 51
-178.096573695751
  0
ARC
  5
106
100
AcDbEntity
  8
1
  6
CONTINUOUS
 62
           2
100
AcDbCircle
 10
542.102718298989
 20
-101.596662002913
 40
19.308166356738
100
AcDbArc
 50
175.964866138766
 51
-178.096573695751
  0
ARC
  5
105
100
AcDbEntity
  8
1
  6
CONTINUOUS
 62
           2
100
AcDbCircle
 10
542.796530745311
 20
-101.596662002913
 40
19.308166356737
100
AcDbArc
 50
175.964866138766
 51
-178.096573695751
  0
ARC
  5
104
100
AcDbEntity
  8
1
  6
CONTINUOUS
 62
           2
100
AcDbCircle
 10
543.490343191634
 20
-101.596662002913
 40
19.308166356737
100
AcDbArc
 50
175.964866138766
 51
-178.096573695751
  0
ARC
  5
103
100
AcDbEntity
  8
1
  6
CONTINUOUS
 62
           2
100
AcDbCircle
 10
544.184155637957
 20
-101.596662002913
 40
19.308166356737
100
AcDbArc
 50
175.964866138766
 51
-178.096573695751
  0
ARC
  5
102
100
AcDbEntity
  8
1
  6
CONTINUOUS
 62
           2
100
AcDbCircle
 10
544.87796808428
 20
-101.596662002913
 40
19.308166356737
100
AcDbArc
 50
175.964866138766
 51
-178.096573695751
  0
ARC
  5
101
100
AcDbEntity
  8
1
  6
CONTINUOUS
 62
           2
100
AcDbCircle
 10
545.571780530603
 20
-101.596662002913
 40
19.308166356738
100
AcDbArc
 50
175.964866138766
 51
-178.096573695751
  0
ARC
  5
100
100
AcDbEntity
  8
1
  6
CONTINUOUS
 62
           2
100
AcDbCircle
 10
546.265592976926
 20
-101.596662002913
 40
19.308166356737
100
AcDbArc
 50
175.964866138766
 51
-178.096573695751
  0
LINE
  5
FF
100
AcDbEntity
  8
1
  6
CONTINUOUS
 62
           7
100
AcDbLine
 10
518.391852033652
 20
-196.2239212997
 11
518.528714839031
 21
-197.176662897252
  0
LINE
  5
FE
100
AcDbEntity
  8
1
  6
CONTINUOUS
 62
           7
100
AcDbLine
 10
510.535875495052
 20
-196.2239212997
 11
510.399012689674
 21
-197.176662897252
  0
LINE
  5
FD
100
AcDbEntity
  8
1
  6
CONTINUOUS
 62
           7
100
AcDbLine
 10
518.528714839031
 20
-186.986316992666
 11
518.391852033652
 21
-187.939058590218
  0
LINE
  5
FC
100
AcDbEntity
  8
1
  6
CONTINUOUS
 62
           7
100
AcDbLine
 10
510.399012689674
 20
-186.986316992666
 11
510.535875495052
 21
-187.939058590218
  0
LINE
  5
FB
100
AcDbEntity
  8
1
  6
CONTINUOUS
 62
           7
100
AcDbLine
 10
518.524365393443
 20
-183.320256436701
 11
518.963863764352
 21
-184.081489944959
  0
LINE
  5
FA
100
AcDbEntity
  8
1
  6
CONTINUOUS
 62
           7
100
AcDbLine
 10
509.963863764352
 20
-184.081489944959
 11
510.403362135261
 21
-183.320256436701
  0
LINE
  5
F9
100
AcDbEntity
  8
1
  6
CONTINUOUS
 62
           7
100
AcDbLine
 10
518.391852033652
 20
-187.939058590218
 11
510.535875495052
 21
-187.939058590218
  0
LINE
  5
F8
100
AcDbEntity
  8
1
  6
CONTINUOUS
 62
           7
100
AcDbLine
 10
510.399012689674
 20
-186.986316992666
 11
518.528714839031
 21
-186.986316992666
  0
LINE
  5
F7
100
AcDbEntity
  8
1
  6
CONTINUOUS
 62
           7
100
AcDbLine
 10
518.524365393443
 20
-183.320256436701
 11
510.403362135261
 21
-183.320256436701
  0
LINE
  5
F6
100
AcDbEntity
  8
1
  6
CONTINUOUS
 62
           7
100
AcDbLine
 10
510.403362135261
 20
-200.842723453217
 11
518.524365393443
 21
-200.842723453217
  0
LINE
  5
F5
100
AcDbEntity
  8
1
  6
CONTINUOUS
 62
           7
100
AcDbLine
 10
518.528714839031
 20
-197.176662897252
 11
510.399012689674
 21
-197.176662897252
  0
LINE
  5
F4
100
AcDbEntity
  8
1
  6
CONTINUOUS
 62
           7
100
AcDbLine
 10
510.535875495052
 20
-196.2239212997
 11
518.391852033652
 21
-196.2239212997
  0
LINE
  5
F3
100
AcDbEntity
  8
1
  6
CONTINUOUS
 62
           7
100
AcDbLine
 10
518.963863764352
 20
-184.081489944959
 11
518.963863764352
 21
-200.081489944959
  0
LINE
  5
F2
100
AcDbEntity
  8
1
  6
CONTINUOUS
 62
           7
100
AcDbLine
 10
510.403362135261
 20
-200.842723453217
 11
509.963863764352
 21
-200.081489944959
  0
LINE
  5
F1
100
AcDbEntity
  8
1
  6
CONTINUOUS
 62
           7
100
AcDbLine
 10
518.963863764352
 20
-200.081489944959
 11
518.524365393443
 21
-200.842723453217
  0
LINE
  5
F0
100
AcDbEntity
  8
1
  6
CONTINUOUS
 62
           7
100
AcDbLine
 10
509.963863764352
 20
-184.081489944959
 11
509.963863764352
 21
-200.081489944959
  0
LINE
  5
EF
100
AcDbEntity
  8
1
  6
CONTINUOUS
 62
           7
100
AcDbLine
 10
505.213863764352
 20
-179.679066963716
 11
505.463863764352
 21
-179.449984170212
  0
LINE
  5
EE
100
AcDbEntity
  8
1
  6
CONTINUOUS
 62
           7
100
AcDbLine
 10
509.963863764352
 20
-186.081489944959
 11
506.463863764352
 21
-186.081489944959
  0
LINE
  5
ED
100
AcDbEntity
  8
1
  6
CONTINUOUS
 62
           7
100
AcDbLine
 10
506.463863764352
 20
-198.081489944959
 11
509.963863764352
 21
-198.081489944959
  0
LINE
  5
EC
100
AcDbEntity
  8
1
  6
DOT_CENTER
 62
           2
100
AcDbLine
 10
496.988773840168
 20
-192.081489944959
 11
539.724668429115
 21
-192.081489944959
  0
LINE
  5
EB
100
AcDbEntity
  8
1
  6
CONTINUOUS
 62
           7
100
AcDbLine
 10
532.758193865191
 20
-184.178256359704
 11
532.846663316887
 21
-184.331489944959
  0
LINE
  5
EA
100
AcDbEntity
  8
1
  6
CONTINUOUS
 62
           7
100
AcDbLine
 10
533.946663316887
 20
-184.831489944959
 11
533.446663316887
 21
-184.331489944959
  0
LINE
  5
E9
100
AcDbEntity
  8
1
  6
CONTINUOUS
 62
           7
100
AcDbLine
 10
524.746663316887
 20
-178.481489944959
 11
529.746663316887
 21
-178.481489944959
  0
LINE
  5
E8
100
AcDbEntity
  8
1
  6
CONTINUOUS
 62
           7
100
AcDbLine
 10
520.546663316887
 20
-184.831489944959
 11
521.046663316887
 21
-184.331489944959
  0
LINE
  5
E7
100
AcDbEntity
  8
1
  6
CONTINUOUS
 62
           7
100
AcDbLine
 10
533.946663316887
 20
-192.081489944959
 11
533.946663316887
 21
-184.831489944959
  0
LINE
  5
E6
100
AcDbEntity
  8
1
  6
CONTINUOUS
 62
           7
100
AcDbLine
 10
521.646663316887
 20
-184.331489944959
 11
521.735132768583
 21
-184.178256359704
  0
LINE
  5
E5
100
AcDbEntity
  8
1
  6
CONTINUOUS
 62
           7
100
AcDbLine
 10
520.546663316887
 20
-184.831489944959
 11
520.546663316887
 21
-192.081489944959
  0
LINE
  5
E4
100
AcDbEntity
  8
1
  6
CONTINUOUS
 62
           7
100
AcDbLine
 10
533.446663316887
 20
-184.331489944959
 11
521.046663316887
 21
-184.331489944959
  0
LINE
  5
E3
100
AcDbEntity
  8
1
  6
CONTINUOUS
 62
           7
100
AcDbLine
 10
521.046663316887
 20
-199.831489944959
 11
533.446663316887
 21
-199.831489944959
  0
LINE
  5
E2
100
AcDbEntity
  8
1
  6
CONTINUOUS
 62
           7
100
AcDbLine
 10
520.546663316887
 20
-192.081489944959
 11
520.546663316887
 21
-199.331489944959
  0
LINE
  5
E1
100
AcDbEntity
  8
1
  6
CONTINUOUS
 62
           7
100
AcDbLine
 10
521.735132768583
 20
-199.984723530213
 11
521.646663316887
 21
-199.831489944959
  0
LINE
  5
E0
100
AcDbEntity
  8
1
  6
CONTINUOUS
 62
           7
100
AcDbLine
 10
533.946663316887
 20
-199.331489944959
 11
533.946663316887
 21
-192.081489944959
  0
LINE
  5
DF
100
AcDbEntity
  8
1
  6
CONTINUOUS
 62
           7
100
AcDbLine
 10
521.046663316887
 20
-199.831489944959
 11
520.546663316887
 21
-199.331489944959
  0
LINE
  5
DE
100
AcDbEntity
  8
1
  6
CONTINUOUS
 62
           7
100
AcDbLine
 10
529.746663316887
 20
-205.681489944959
 11
524.746663316887
 21
-205.681489944959
  0
LINE
  5
DD
100
AcDbEntity
  8
1
  6
CONTINUOUS
 62
           7
100
AcDbLine
 10
533.446663316887
 20
-199.831489944959
 11
533.946663316887
 21
-199.331489944959
  0
LINE
  5
DC
100
AcDbEntity
  8
1
  6
DOT_CENTER
 62
           2
100
AcDbLine
 10
497.463863764352
 20
-92.149631034529
 11
497.463863764352
 21
-226.321478169659
  0
LINE
  5
DB
100
AcDbEntity
  8
1
  6
CONTINUOUS
 62
           7
100
AcDbLine
 10
520.546663316887
 20
-196.231489944959
 11
518.963863764352
 21
-196.231489944959
  0
LINE
  5
DA
100
AcDbEntity
  8
1
  6
CONTINUOUS
 62
           7
100
AcDbLine
 10
518.963863764352
 20
-187.931489944959
 11
520.546663316887
 21
-187.931489944959
  0
LINE
  5
D9
100
AcDbEntity
  8
1
  6
CONTINUOUS
 62
           7
100
AcDbLine
 10
497.463863764352
 20
-179.449984170212
 11
505.463863764349
 21
-179.449984170212
  0
LINE
  5
D8
100
AcDbEntity
  8
1
  6
CONTINUOUS
 62
           7
100
AcDbLine
 10
489.463863764352
 20
-179.449984170212
 11
497.463863764352
 21
-179.449984170212
  0
LINE
  5
D7
100
AcDbEntity
  8
1
  6
CONTINUOUS
 62
           7
100
AcDbLine
 10
489.463863764352
 20
-179.449984170212
 11
489.713863764352
 21
-179.679066963716
  0
LINE
  5
D6
100
AcDbEntity
  8
1
  6
CONTINUOUS
 62
           7
100
AcDbLine
 10
506.463863764352
 20
-200.081489944959
 11
506.463863764352
 21
-179.679066963716
  0
LINE
  5
D5
100
AcDbEntity
  8
1
  6
CONTINUOUS
 62
           7
100
AcDbLine
 10
497.463863764352
 20
-179.679066963716
 11
506.463863764352
 21
-179.679066963716
  0
LINE
  5
D4
100
AcDbEntity
  8
1
  6
CONTINUOUS
 62
           7
100
AcDbLine
 10
497.463863764352
 20
-179.679066963716
 11
488.463863764352
 21
-179.679066963716
  0
LINE
  5
D3
100
AcDbEntity
  8
1
  6
CONTINUOUS
 62
           7
100
AcDbLine
 10
488.463863764352
 20
-179.681489944959
 11
488.463863764352
 21
-200.081489944959
  0
LINE
  5
D2
100
AcDbEntity
  8
1
  6
DOT_CENTER
 62
           2
100
AcDbLine
 10
496.848695285429
 20
-192.081489944959
 11
512.037589058866
 21
-192.081489944959
  0
LINE
  5
D1
100
AcDbEntity
  8
1
  6
CONTINUOUS
 62
           7
100
AcDbLine
 10
496.250394210068
 20
-224.081489944959
 11
498.677333318637
 21
-224.081489944959
  0
LINE
  5
D0
100
AcDbEntity
  8
1
  6
CONTINUOUS
 62
           7
100
AcDbLine
 10
494.263863764352
 20
-222.313215619508
 11
493.813863764352
 21
-208.933783500177
  0
LINE
  5
CF
100
AcDbEntity
  8
1
  6
CONTINUOUS
 62
           7
100
AcDbLine
 10
501.113863764352
 20
-208.933783500177
 11
500.663863764352
 21
-222.313215619508
  0
LINE
  5
CE
100
AcDbEntity
  8
1
  6
CONTINUOUS
 62
           7
100
AcDbLine
 10
525.713863764352
 20
-107.44955671153
 11
525.113863764352
 21
-107.44955671153
  0
LINE
  5
CD
100
AcDbEntity
  8
1
  6
CONTINUOUS
 62
           7
100
AcDbLine
 10
525.313863764352
 20
-107.44955671153
 11
525.213863764352
 21
-107.44955671153
  0
LINE
  5
CC
100
AcDbEntity
  8
1
  6
CONTINUOUS
 62
           7
100
AcDbLine
 10
526.713863764352
 20
-105.589001583984
 11
526.713863764352
 21
-106.44955671153
  0
LINE
  5
CB
100
AcDbEntity
  8
1
  6
CONTINUOUS
 62
           7
100
AcDbLine
 10
497.463863764352
 20
-107.449984170212
 11
525.213863764352
 21
-107.449984170212
  0
LINE
  5
CA
100
AcDbEntity
  8
1
  6
CONTINUOUS
 62
           7
100
AcDbLine
 10
497.463863764352
 20
-104.949984170212
 11
525.683784283664
 21
-104.949984170212
  0
LINE
  5
C9
100
AcDbEntity
  8
1
  6
CONTINUOUS
 62
           7
100
AcDbLine
 10
525.113863764352
 20
-155.449984170212
 11
525.113863764352
 21
-107.44955671153
  0
LINE
  5
C8
100
AcDbEntity
  8
1
  6
CONTINUOUS
 62
           7
100
AcDbLine
 10
469.463863764352
 20
-107.449984170212
 11
497.463863764352
 21
-107.449984170212
  0
LINE
  5
C7
100
AcDbEntity
  8
1
  6
CONTINUOUS
 62
           7
100
AcDbLine
 10
469.463863764352
 20
-104.949984170212
 11
497.463863764352
 21
-104.949984170212
  0
LINE
  5
C6
100
AcDbEntity
  8
1
  6
CONTINUOUS
 62
           7
100
AcDbLine
 10
469.813863764352
 20
-107.449984170212
 11
469.813863764352
 21
-155.449984170212
  0
LINE
  5
C5
100
AcDbEntity
  8
1
  6
CONTINUOUS
 62
           7
100
AcDbLine
 10
497.463863764352
 20
-96.449984170212
 11
472.463863764352
 21
-96.449984170212
  0
LINE
  5
C4
100
AcDbEntity
  8
1
  6
CONTINUOUS
 62
           2
100
AcDbLine
 10
497.012336493453
 20
-100.237981700835
 11
497.012336493453
 21
-102.237981700835
  0
LINE
  5
C3
100
AcDbEntity
  8
1
  6
CONTINUOUS
 62
           2
100
AcDbLine
 10
496.082330826387
 20
-100.237981700835
 11
496.082330826387
 21
-102.237981700835
  0
LINE
  5
C2
100
AcDbEntity
  8
1
  6
CONTINUOUS
 62
           2
100
AcDbLine
 10
495.153321667487
 20
-100.237981700835
 11
495.153321667487
 21
-102.237981700835
  0
LINE
  5
C1
100
AcDbEntity
  8
1
  6
CONTINUOUS
 62
           2
100
AcDbLine
 10
494.225979116748
 20
-100.237981700835
 11
494.225979116748
 21
-102.237981700835
  0
LINE
  5
C0
100
AcDbEntity
  8
1
  6
CONTINUOUS
 62
           2
100
AcDbLine
 10
493.300972072029
 20
-100.237981700835
 11
493.300972072029
 21
-102.237981700835
  0
LINE
  5
BF
100
AcDbEntity
  8
1
  6
CONTINUOUS
 62
           2
100
AcDbLine
 10
492.378967746575
 20
-100.237981700835
 11
492.378967746575
 21
-102.237981700835
  0
LINE
  5
BE
100
AcDbEntity
  8
1
  6
CONTINUOUS
 62
           2
100
AcDbLine
 10
491.46063118775
 20
-100.237981700835
 11
491.46063118775
 21
-102.237981700835
  0
LINE
  5
BD
100
AcDbEntity
  8
1
  6
CONTINUOUS
 62
           2
100
AcDbLine
 10
490.546624797338
 20
-100.237981700835
 11
490.546624797338
 21
-102.237981700835
  0
LINE
  5
BC
100
AcDbEntity
  8
1
  6
CONTINUOUS
 62
           2
100
AcDbLine
 10
489.637607853743
 20
-100.237981700835
 11
489.637607853743
 21
-102.237981700835
  0
LINE
  5
BB
100
AcDbEntity
  8
1
  6
CONTINUOUS
 62
           2
100
AcDbLine
 10
488.734236036452
 20
-100.237981700835
 11
488.734236036452
 21
-102.237981700835
  0
LINE
  5
BA
100
AcDbEntity
  8
1
  6
CONTINUOUS
 62
           2
100
AcDbLine
 10
487.837160953088
 20
-100.237981700835
 11
487.837160953088
 21
-102.237981700835
  0
LINE
  5
B9
100
AcDbEntity
  8
1
  6
CONTINUOUS
 62
           2
100
AcDbLine
 10
483.468698847678
 20
-100.237981700835
 11
483.468698847678
 21
-102.237981700835
  0
LINE
  5
B8
100
AcDbEntity
  8
1
  6
CONTINUOUS
 62
           2
100
AcDbLine
 10
486.9470296694
 20
-100.237981700835
 11
486.9470296694
 21
-102.237981700835
  0
LINE
  5
B7
100
AcDbEntity
  8
1
  6
CONTINUOUS
 62
           2
100
AcDbLine
 10
485.19016125791
 20
-100.237981700835
 11
485.172167420206
 21
-102.237981700835
  0
LINE
  5
B6
100
AcDbEntity
  8
1
  6
CONTINUOUS
 62
           2
100
AcDbLine
 10
482.622801123447
 20
-100.237981700835
 11
482.622801123447
 21
-102.237981700835
  0
LINE
  5
B5
100
AcDbEntity
  8
1
  6
CONTINUOUS
 62
           2
100
AcDbLine
 10
480.963722952687
 20
-100.237981700835
 11
480.963722952687
 21
-102.237981700835
  0
LINE
  5
B4
100
AcDbEntity
  8
1
  6
CONTINUOUS
 62
           2
100
AcDbLine
 10
480.1517392094
 20
-100.237981700835
 11
480.1517392094
 21
-102.237981700835
  0
LINE
  5
B3
100
AcDbEntity
  8
1
  6
CONTINUOUS
 62
           2
100
AcDbLine
 10
479.352242807548
 20
-100.237981700835
 11
479.324746780471
 21
-102.237981700835
  0
LINE
  5
B2
100
AcDbEntity
  8
1
  6
CONTINUOUS
 62
           2
100
AcDbLine
 10
478.565810428778
 20
-100.237981700835
 11
478.565810428778
 21
-102.237981700835
  0
LINE
  5
B1
100
AcDbEntity
  8
1
  6
CONTINUOUS
 62
           2
100
AcDbLine
 10
477.034396942123
 20
-100.237981700835
 11
477.034396942123
 21
-102.237981700835
  0
LINE
  5
B0
100
AcDbEntity
  8
1
  6
CONTINUOUS
 62
           2
100
AcDbLine
 10
475.561916424362
 20
-100.237981700835
 11
475.561916424362
 21
-102.237981700835
  0
LINE
  5
AF
100
AcDbEntity
  8
1
  6
CONTINUOUS
 62
           2
100
AcDbLine
 10
474.152616546239
 20
-100.237981700835
 11
474.152616546239
 21
-102.237981700835
  0
LINE
  5
AE
100
AcDbEntity
  8
1
  6
CONTINUOUS
 62
           7
100
AcDbLine
 10
470.463863764352
 20
-98.449984170212
 11
497.463863764352
 21
-98.449984170212
  0
LINE
  5
AD
100
AcDbEntity
  8
1
  6
CONTINUOUS
 62
           7
100
AcDbLine
 10
497.463863764352
 20
-103.949984170212
 11
469.963863764352
 21
-103.949984170212
  0
LINE
  5
AC
100
AcDbEntity
  8
1
  6
CONTINUOUS
 62
           2
100
AcDbLine
 10
497.196329047189
 20
-102.237981700835
 11
496.818807565847
 21
-102.237981700835
  0
LINE
  5
AB
100
AcDbEntity
  8
1
  6
CONTINUOUS
 62
           2
100
AcDbLine
 10
496.267919567719
 20
-102.237981700835
 11
495.884976822421
 21
-102.237981700835
  0
LINE
  5
AA
100
AcDbEntity
  8
1
  6
CONTINUOUS
 62
           2
100
AcDbLine
 10
495.335494793284
 20
-102.237981700835
 11
494.952284055232
 21
-102.237981700835
  0
LINE
  5
A9
100
AcDbEntity
  8
1
  6
CONTINUOUS
 62
           2
100
AcDbLine
 10
494.402985065638
 20
-102.237981700835
 11
494.021402317441
 21
-102.237981700835
  0
LINE
  5
A8
100
AcDbEntity
  8
1
  6
CONTINUOUS
 62
           2
100
AcDbLine
 10
493.473496786666
 20
-102.237981700835
 11
493.093003358808
 21
-102.237981700835
  0
LINE
  5
A7
100
AcDbEntity
  8
1
  6
CONTINUOUS
 62
           2
100
AcDbLine
 10
492.546889272731
 20
-102.237981700835
 11
492.167757139265
 21
-102.237981700835
  0
LINE
  5
A6
100
AcDbEntity
  8
1
  6
CONTINUOUS
 62
           2
100
AcDbLine
 10
491.623831116255
 20
-102.237981700835
 11
491.246331343771
 21
-102.237981700835
  0
LINE
  5
A5
100
AcDbEntity
  8
1
  6
CONTINUOUS
 62
           2
100
AcDbLine
 10
490.704988332516
 20
-102.237981700835
 11
490.329390898835
 21
-102.237981700835
  0
LINE
  5
A4
100
AcDbEntity
  8
1
  6
CONTINUOUS
 62
           2
100
AcDbLine
 10
489.791023877801
 20
-102.237981700835
 11
489.417597491059
 21
-102.237981700835
  0
LINE
  5
A3
100
AcDbEntity
  8
1
  6
CONTINUOUS
 62
           2
100
AcDbLine
 10
488.88259716988
 20
-102.237981700835
 11
488.51160908806
 21
-102.237981700835
  0
LINE
  5
A2
100
AcDbEntity
  8
1
  6
CONTINUOUS
 62
           2
100
AcDbLine
 10
487.98036361114
 20
-102.237981700835
 11
487.612079462125
 21
-102.237981700835
  0
LINE
  5
A1
100
AcDbEntity
  8
1
  6
CONTINUOUS
 62
           2
100
AcDbLine
 10
487.084974114759
 20
-102.237981700835
 11
486.719657716954
 21
-102.237981700835
  0
LINE
  5
A0
100
AcDbEntity
  8
1
  6
CONTINUOUS
 62
           2
100
AcDbLine
 10
486.197074634249
 20
-102.237981700835
 11
485.834987817839
 21
-102.237981700835
  0
LINE
  5
9F
100
AcDbEntity
  8
1
  6
CONTINUOUS
 62
           2
100
AcDbLine
 10
485.317305696727
 20
-102.237981700835
 11
484.958708125627
 21
-102.237981700835
  0
LINE
  5
9E
100
AcDbEntity
  8
1
  6
CONTINUOUS
 62
           2
100
AcDbLine
 10
484.446301940252
 20
-102.237981700835
 11
484.091450934817
 21
-102.237981700835
  0
LINE
  5
9D
100
AcDbEntity
  8
1
  6
CONTINUOUS
 62
           2
100
AcDbLine
 10
483.58469165558
 20
-102.237981700835
 11
483.233842016117
 21
-102.237981700835
  0
LINE
  5
9C
100
AcDbEntity
  8
1
  6
CONTINUOUS
 62
           2
100
AcDbLine
 10
482.733096332655
 20
-102.237981700835
 11
482.386500163814
 21
-102.237981700835
  0
LINE
  5
9B
100
AcDbEntity
  8
1
  6
CONTINUOUS
 62
           2
100
AcDbLine
 10
481.892130212178
 20
-102.237981700835
 11
481.550036748283
 21
-102.237981700835
  0
LINE
  5
9A
100
AcDbEntity
  8
1
  6
CONTINUOUS
 62
           2
100
AcDbLine
 10
481.062399842589
 20
-102.237981700835
 11
480.725055273952
 21
-102.237981700835
  0
LINE
  5
99
100
AcDbEntity
  8
1
  6
CONTINUOUS
 62
           2
100
AcDbLine
 10
480.24450364276
 20
-102.237981700835
 11
479.912150943073
 21
-102.237981700835
  0
LINE
  5
98
100
AcDbEntity
  8
1
  6
CONTINUOUS
 62
           2
100
AcDbLine
 10
479.439031470738
 20
-102.237981700835
 11
479.111910225585
 21
-102.237981700835
  0
LINE
  5
97
100
AcDbEntity
  8
1
  6
CONTINUOUS
 62
           2
100
AcDbLine
 10
478.646564198831
 20
-102.237981700835
 11
478.324910435415
 21
-102.237981700835
  0
LINE
  5
96
100
AcDbEntity
  8
1
  6
CONTINUOUS
 62
           2
100
AcDbLine
 10
477.867673295355
 20
-102.237981700835
 11
477.551719313501
 21
-102.237981700835
  0
LINE
  5
95
100
AcDbEntity
  8
1
  6
CONTINUOUS
 62
           2
100
AcDbLine
 10
477.102920413328
 20
-102.237981700835
 11
476.792894617854
 21
-102.237981700835
  0
LINE
  5
94
100
AcDbEntity
  8
1
  6
CONTINUOUS
 62
           2
100
AcDbLine
 10
476.352856986412
 20
-102.237981700835
 11
476.048983720948
 21
-102.237981700835
  0
LINE
  5
93
100
AcDbEntity
  8
1
  6
CONTINUOUS
 62
           2
100
AcDbLine
 10
475.618023832375
 20
-102.237981700835
 11
475.320523214743
 21
-102.237981700835
  0
LINE
  5
92
100
AcDbEntity
  8
1
  6
CONTINUOUS
 62
           2
100
AcDbLine
 10
474.898950764372
 20
-102.237981700835
 11
474.608038523608
 21
-102.237981700835
  0
LINE
  5
91
100
AcDbEntity
  8
1
  6
CONTINUOUS
 62
           2
100
AcDbLine
 10
474.196156210289
 20
-102.237981700835
 11
473.912043525437
 21
-102.237981700835
  0
LINE
  5
90
100
AcDbEntity
  8
1
  6
CONTINUOUS
 62
           2
100
AcDbLine
 10
473.510146840443
 20
-102.237981700835
 11
473.23304018123
 21
-102.237981700835
  0
LINE
  5
8F
100
AcDbEntity
  8
1
  6
CONTINUOUS
 62
           2
100
AcDbLine
 10
472.81633439412
 20
-102.237981700835
 11
472.539227734907
 21
-102.237981700835
  0
LINE
  5
8E
100
AcDbEntity
  8
1
  6
CONTINUOUS
 62
           2
100
AcDbLine
 10
472.122521947797
 20
-102.237981700835
 11
471.845415288584
 21
-102.237981700835
  0
LINE
  5
8D
100
AcDbEntity
  8
1
  6
CONTINUOUS
 62
           2
100
AcDbLine
 10
471.428709501474
 20
-102.237981700835
 11
471.151602842262
 21
-102.237981700835
  0
LINE
  5
8C
100
AcDbEntity
  8
1
  6
CONTINUOUS
 62
           2
100
AcDbLine
 10
470.734897055151
 20
-102.237981700835
 11
470.457790395939
 21
-102.237981700835
  0
LINE
  5
8B
100
AcDbEntity
  8
1
  6
CONTINUOUS
 62
           2
100
AcDbLine
 10
470.041084608829
 20
-102.237981700835
 11
469.763977949616
 21
-102.237981700835
  0
LINE
  5
8A
100
AcDbEntity
  8
1
  6
CONTINUOUS
 62
           2
100
AcDbLine
 10
469.347272162506
 20
-102.237981700835
 11
469.070165503293
 21
-102.237981700835
  0
LINE
  5
89
100
AcDbEntity
  8
1
  6
CONTINUOUS
 62
           2
100
AcDbLine
 10
468.653459716183
 20
-102.237981700835
 11
468.37635305697
 21
-102.237981700835
  0
LINE
  5
88
100
AcDbEntity
  8
1
  6
CONTINUOUS
 62
           2
100
AcDbLine
 10
467.95964726986
 20
-102.237981700835
 11
467.682540610647
 21
-102.237981700835
  0
LINE
  5
87
100
AcDbEntity
  8
1
  6
CONTINUOUS
 62
           2
100
AcDbLine
 10
467.901630694529
 20
-102.237981700835
 11
467.922437661963
 21
-100.237981700835
  0
LINE
  5
86
100
AcDbEntity
  8
1
  6
CONTINUOUS
 62
           2
100
AcDbLine
 10
468.595443140852
 20
-102.237981700835
 11
468.616250108286
 21
-100.237981700835
  0
LINE
  5
85
100
AcDbEntity
  8
1
  6
CONTINUOUS
 62
           2
100
AcDbLine
 10
469.289255587175
 20
-102.237981700835
 11
469.310062554609
 21
-100.237981700835
  0
LINE
  5
84
100
AcDbEntity
  8
1
  6
CONTINUOUS
 62
           2
100
AcDbLine
 10
469.983068033497
 20
-102.237981700835
 11
470.003875000932
 21
-100.237981700835
  0
LINE
  5
83
100
AcDbEntity
  8
1
  6
CONTINUOUS
 62
           2
100
AcDbLine
 10
470.67688047982
 20
-102.237981700835
 11
470.697687447255
 21
-100.237981700835
  0
LINE
  5
82
100
AcDbEntity
  8
1
  6
CONTINUOUS
 62
           2
100
AcDbLine
 10
471.370692926143
 20
-102.237981700835
 11
471.391499893578
 21
-100.237981700835
  0
LINE
  5
81
100
AcDbEntity
  8
1
  6
CONTINUOUS
 62
           2
100
AcDbLine
 10
472.064505372466
 20
-102.237981700835
 11
472.085312339901
 21
-100.237981700835
  0
LINE
  5
80
100
AcDbEntity
  8
1
  6
CONTINUOUS
 62
           2
100
AcDbLine
 10
472.758317818789
 20
-102.237981700835
 11
472.779124786224
 21
-100.237981700835
  0
LINE
  5
7F
100
AcDbEntity
  8
1
  6
CONTINUOUS
 62
           2
100
AcDbLine
 10
473.452130265112
 20
-102.237981700835
 11
473.472937232546
 21
-100.237981700835
  0
LINE
  5
7E
100
AcDbEntity
  8
1
  6
CONTINUOUS
 62
           2
100
AcDbLine
 10
474.849110405272
 20
-102.237981700835
 11
474.849110405272
 21
-100.237981700835
  0
LINE
  5
7D
100
AcDbEntity
  8
1
  6
CONTINUOUS
 62
           2
100
AcDbLine
 10
476.29052045216
 20
-102.237981700835
 11
476.29052045216
 21
-100.237981700835
  0
LINE
  5
7C
100
AcDbEntity
  8
1
  6
CONTINUOUS
 62
           2
100
AcDbLine
 10
477.793009331582
 20
-102.237981700835
 11
477.793009331582
 21
-100.237981700835
  0
LINE
  5
7B
100
AcDbEntity
  8
1
  6
CONTINUOUS
 62
           2
100
AcDbLine
 10
481.787608348563
 20
-102.237981700835
 11
481.787608348563
 21
-100.237981700835
  0
LINE
  5
7A
100
AcDbEntity
  8
1
  6
CONTINUOUS
 62
           2
100
AcDbLine
 10
484.324691370048
 20
-102.237981700835
 11
484.324691370048
 21
-100.237981700835
  0
LINE
  5
79
100
AcDbEntity
  8
1
  6
CONTINUOUS
 62
           2
100
AcDbLine
 10
486.064484242534
 20
-102.237981700835
 11
486.064484242534
 21
-100.237981700835
  0
LINE
  5
78
100
AcDbEntity
  8
1
  6
CONTINUOUS
 62
           7
100
AcDbLine
 10
524.963863764352
 20
-103.949984170212
 11
524.892435192924
 21
-104.949984170212
  0
LINE
  5
77
100
AcDbEntity
  8
1
  6
CONTINUOUS
 62
           2
100
AcDbLine
 10
508.86324328617
 20
-100.237981700835
 11
508.86324328617
 21
-102.237981700835
  0
LINE
  5
76
100
AcDbEntity
  8
1
  6
CONTINUOUS
 62
           2
100
AcDbLine
 10
510.603036158656
 20
-100.237981700835
 11
510.603036158656
 21
-102.237981700835
  0
LINE
  5
75
100
AcDbEntity
  8
1
  6
CONTINUOUS
 62
           2
100
AcDbLine
 10
513.140119180141
 20
-100.237981700835
 11
513.140119180141
 21
-102.237981700835
  0
LINE
  5
74
100
AcDbEntity
  8
1
  6
CONTINUOUS
 62
           2
100
AcDbLine
 10
517.134718197122
 20
-100.237981700835
 11
517.134718197122
 21
-102.237981700835
  0
LINE
  5
73
100
AcDbEntity
  8
1
  6
CONTINUOUS
 62
           2
100
AcDbLine
 10
518.637207076544
 20
-100.237981700835
 11
518.637207076544
 21
-102.237981700835
  0
LINE
  5
72
100
AcDbEntity
  8
1
  6
CONTINUOUS
 62
           2
100
AcDbLine
 10
520.078617123432
 20
-100.237981700835
 11
520.078617123432
 21
-102.237981700835
  0
LINE
  5
71
100
AcDbEntity
  8
1
  6
CONTINUOUS
 62
           2
100
AcDbLine
 10
521.454790296158
 20
-100.237981700835
 11
521.475597263593
 21
-102.237981700835
  0
LINE
  5
70
100
AcDbEntity
  8
1
  6
CONTINUOUS
 62
           2
100
AcDbLine
 10
522.148602742481
 20
-100.237981700835
 11
522.169409709916
 21
-102.237981700835
  0
LINE
  5
6F
100
AcDbEntity
  8
1
  6
CONTINUOUS
 62
           2
100
AcDbLine
 10
522.842415188804
 20
-100.237981700835
 11
522.863222156238
 21
-102.237981700835
  0
LINE
  5
6E
100
AcDbEntity
  8
1
  6
CONTINUOUS
 62
           2
100
AcDbLine
 10
523.536227635127
 20
-100.237981700835
 11
523.557034602561
 21
-102.237981700835
  0
LINE
  5
6D
100
AcDbEntity
  8
1
  6
CONTINUOUS
 62
           2
100
AcDbLine
 10
524.230040081449
 20
-100.237981700835
 11
524.250847048884
 21
-102.237981700835
  0
LINE
  5
6C
100
AcDbEntity
  8
1
  6
CONTINUOUS
 62
           2
100
AcDbLine
 10
524.923852527772
 20
-100.237981700835
 11
524.944659495207
 21
-102.237981700835
  0
LINE
  5
6B
100
AcDbEntity
  8
1
  6
CONTINUOUS
 62
           2
100
AcDbLine
 10
525.617664974095
 20
-100.237981700835
 11
525.63847194153
 21
-102.237981700835
  0
LINE
  5
6A
100
AcDbEntity
  8
1
  6
CONTINUOUS
 62
           2
100
AcDbLine
 10
526.311477420418
 20
-100.237981700835
 11
526.332284387853
 21
-102.237981700835
  0
LINE
  5
69
100
AcDbEntity
  8
1
  6
CONTINUOUS
 62
           2
100
AcDbLine
 10
527.005289866741
 20
-100.237981700835
 11
527.026096834176
 21
-102.237981700835
  0
LINE
  5
68
100
AcDbEntity
  8
1
  6
CONTINUOUS
 62
           2
100
AcDbLine
 10
527.245186918057
 20
-102.237981700835
 11
526.968080258845
 21
-102.237981700835
  0
LINE
  5
67
100
AcDbEntity
  8
1
  6
CONTINUOUS
 62
           2
100
AcDbLine
 10
526.551374471734
 20
-102.237981700835
 11
526.274267812522
 21
-102.237981700835
  0
LINE
  5
66
100
AcDbEntity
  8
1
  6
CONTINUOUS
 62
           2
100
AcDbLine
 10
525.857562025412
 20
-102.237981700835
 11
525.580455366199
 21
-102.237981700835
  0
LINE
  5
65
100
AcDbEntity
  8
1
  6
CONTINUOUS
 62
           2
100
AcDbLine
 10
525.163749579089
 20
-102.237981700835
 11
524.886642919876
 21
-102.237981700835
  0
LINE
  5
64
100
AcDbEntity
  8
1
  6
CONTINUOUS
 62
           2
100
AcDbLine
 10
524.469937132766
 20
-102.237981700835
 11
524.192830473553
 21
-102.237981700835
  0
LINE
  5
63
100
AcDbEntity
  8
1
  6
CONTINUOUS
 62
           2
100
AcDbLine
 10
523.776124686443
 20
-102.237981700835
 11
523.49901802723
 21
-102.237981700835
  0
LINE
  5
62
100
AcDbEntity
  8
1
  6
CONTINUOUS
 62
           2
100
AcDbLine
 10
523.08231224012
 20
-102.237981700835
 11
522.805205580907
 21
-102.237981700835
  0
LINE
  5
61
100
AcDbEntity
  8
1
  6
CONTINUOUS
 62
           2
100
AcDbLine
 10
522.388499793797
 20
-102.237981700835
 11
522.111393134584
 21
-102.237981700835
  0
LINE
  5
60
100
AcDbEntity
  8
1
  6
CONTINUOUS
 62
           2
100
AcDbLine
 10
521.694687347474
 20
-102.237981700835
 11
521.417580688262
 21
-102.237981700835
  0
LINE
  5
5F
100
AcDbEntity
  8
1
  6
CONTINUOUS
 62
           2
100
AcDbLine
 10
521.015684003267
 20
-102.237981700835
 11
520.731571318415
 21
-102.237981700835
  0
LINE
  5
5E
100
AcDbEntity
  8
1
  6
CONTINUOUS
 62
           2
100
AcDbLine
 10
520.319689005097
 20
-102.237981700835
 11
520.028776764332
 21
-102.237981700835
  0
LINE
  5
5D
100
AcDbEntity
  8
1
  6
CONTINUOUS
 62
           2
100
AcDbLine
 10
519.607204313961
 20
-102.237981700835
 11
519.309703696329
 21
-102.237981700835
  0
LINE
  5
5C
100
AcDbEntity
  8
1
  6
CONTINUOUS
 62
           2
100
AcDbLine
 10
518.878743807756
 20
-102.237981700835
 11
518.574870542293
 21
-102.237981700835
  0
LINE
  5
5B
100
AcDbEntity
  8
1
  6
CONTINUOUS
 62
           2
100
AcDbLine
 10
518.13483291085
 20
-102.237981700835
 11
517.824807115376
 21
-102.237981700835
  0
LINE
  5
5A
100
AcDbEntity
  8
1
  6
CONTINUOUS
 62
           2
100
AcDbLine
 10
517.376008215203
 20
-102.237981700835
 11
517.06005423335
 21
-102.237981700835
  0
LINE
  5
59
100
AcDbEntity
  8
1
  6
CONTINUOUS
 62
           2
100
AcDbLine
 10
516.602817093289
 20
-102.237981700835
 11
516.281163329874
 21
-102.237981700835
  0
LINE
  5
58
100
AcDbEntity
  8
1
  6
CONTINUOUS
 62
           2
100
AcDbLine
 10
515.81581730312
 20
-102.237981700835
 11
515.488696057967
 21
-102.237981700835
  0
LINE
  5
57
100
AcDbEntity
  8
1
  6
CONTINUOUS
 62
           2
100
AcDbLine
 10
515.015576585632
 20
-102.237981700835
 11
514.683223885944
 21
-102.237981700835
  0
LINE
  5
56
100
AcDbEntity
  8
1
  6
CONTINUOUS
 62
           2
100
AcDbLine
 10
514.202672254752
 20
-102.237981700835
 11
513.865327686115
 21
-102.237981700835
  0
LINE
  5
55
100
AcDbEntity
  8
1
  6
CONTINUOUS
 62
           2
100
AcDbLine
 10
513.377690780422
 20
-102.237981700835
 11
513.035597316526
 21
-102.237981700835
  0
LINE
  5
54
100
AcDbEntity
  8
1
  6
CONTINUOUS
 62
           2
100
AcDbLine
 10
512.54122736489
 20
-102.237981700835
 11
512.19463119605
 21
-102.237981700835
  0
LINE
  5
53
100
AcDbEntity
  8
1
  6
CONTINUOUS
 62
           2
100
AcDbLine
 10
511.693885512588
 20
-102.237981700835
 11
511.343035873124
 21
-102.237981700835
  0
LINE
  5
52
100
AcDbEntity
  8
1
  6
CONTINUOUS
 62
           2
100
AcDbLine
 10
510.836276593887
 20
-102.237981700835
 11
510.481425588452
 21
-102.237981700835
  0
LINE
  5
51
100
AcDbEntity
  8
1
  6
CONTINUOUS
 62
           2
100
AcDbLine
 10
509.969019403077
 20
-102.237981700835
 11
509.610421831978
 21
-102.237981700835
  0
LINE
  5
50
100
AcDbEntity
  8
1
  6
CONTINUOUS
 62
           2
100
AcDbLine
 10
509.092739710865
 20
-102.237981700835
 11
508.730652894455
 21
-102.237981700835
  0
LINE
  5
4F
100
AcDbEntity
  8
1
  6
CONTINUOUS
 62
           2
100
AcDbLine
 10
508.20806981175
 20
-102.237981700835
 11
507.842753413945
 21
-102.237981700835
  0
LINE
  5
4E
100
AcDbEntity
  8
1
  6
CONTINUOUS
 62
           2
100
AcDbLine
 10
507.315648066579
 20
-102.237981700835
 11
506.947363917565
 21
-102.237981700835
  0
LINE
  5
4D
100
AcDbEntity
  8
1
  6
CONTINUOUS
 62
           2
100
AcDbLine
 10
506.416118440644
 20
-102.237981700835
 11
506.045130358825
 21
-102.237981700835
  0
LINE
  5
4C
100
AcDbEntity
  8
1
  6
CONTINUOUS
 62
           2
100
AcDbLine
 10
505.510130037645
 20
-102.237981700835
 11
505.136703650903
 21
-102.237981700835
  0
LINE
  5
4B
100
AcDbEntity
  8
1
  6
CONTINUOUS
 62
           2
100
AcDbLine
 10
504.598336629869
 20
-102.237981700835
 11
504.222739196189
 21
-102.237981700835
  0
LINE
  5
4A
100
AcDbEntity
  8
1
  6
CONTINUOUS
 62
           2
100
AcDbLine
 10
503.681396184933
 20
-102.237981700835
 11
503.303896412449
 21
-102.237981700835
  0
LINE
  5
49
100
AcDbEntity
  8
1
  6
CONTINUOUS
 62
           2
100
AcDbLine
 10
502.759970389439
 20
-102.237981700835
 11
502.380838255973
 21
-102.237981700835
  0
LINE
  5
48
100
AcDbEntity
  8
1
  6
CONTINUOUS
 62
           2
100
AcDbLine
 10
501.834724169896
 20
-102.237981700835
 11
501.454230742039
 21
-102.237981700835
  0
LINE
  5
47
100
AcDbEntity
  8
1
  6
CONTINUOUS
 62
           2
100
AcDbLine
 10
500.906325211264
 20
-102.237981700835
 11
500.524742463067
 21
-102.237981700835
  0
LINE
  5
46
100
AcDbEntity
  8
1
  6
CONTINUOUS
 62
           2
100
AcDbLine
 10
499.975443473472
 20
-102.237981700835
 11
499.59223273542
 21
-102.237981700835
  0
LINE
  5
45
100
AcDbEntity
  8
1
  6
CONTINUOUS
 62
           2
100
AcDbLine
 10
499.042750706284
 20
-102.237981700835
 11
498.659807960986
 21
-102.237981700835
  0
LINE
  5
44
100
AcDbEntity
  8
1
  6
CONTINUOUS
 62
           2
100
AcDbLine
 10
498.108919962858
 20
-102.237981700835
 11
497.731398481516
 21
-102.237981700835
  0
LINE
  5
43
100
AcDbEntity
  8
1
  6
CONTINUOUS
 62
           7
100
AcDbLine
 10
524.963863764352
 20
-103.949984170212
 11
497.463863764352
 21
-103.949984170212
  0
LINE
  5
42
100
AcDbEntity
  8
1
  6
CONTINUOUS
 62
           7
100
AcDbLine
 10
497.463863764352
 20
-98.449984170212
 11
524.463863764352
 21
-98.449984170212
  0
LINE
  5
41
100
AcDbEntity
  8
1
  6
CONTINUOUS
 62
           2
100
AcDbLine
 10
520.775110982465
 20
-102.237981700835
 11
520.775110982465
 21
-100.237981700835
  0
LINE
  5
40
100
AcDbEntity
  8
1
  6
CONTINUOUS
 62
           2
100
AcDbLine
 10
519.365811104343
 20
-102.237981700835
 11
519.365811104343
 21
-100.237981700835
  0
LINE
  5
3F
100
AcDbEntity
  8
1
  6
CONTINUOUS
 62
           2
100
AcDbLine
 10
517.893330586582
 20
-102.237981700835
 11
517.893330586582
 21
-100.237981700835
  0
LINE
  5
3E
100
AcDbEntity
  8
1
  6
CONTINUOUS
 62
           2
100
AcDbLine
 10
516.361917099926
 20
-102.237981700835
 11
516.361917099926
 21
-100.237981700835
  0
LINE
  5
3D
100
AcDbEntity
  8
1
  6
CONTINUOUS
 62
           2
100
AcDbLine
 10
515.602980748233
 20
-102.237981700835
 11
515.575484721157
 21
-100.237981700835
  0
LINE
  5
3C
100
AcDbEntity
  8
1
  6
CONTINUOUS
 62
           2
100
AcDbLine
 10
514.775988319304
 20
-102.237981700835
 11
514.775988319304
 21
-100.237981700835
  0
LINE
  5
3B
100
AcDbEntity
  8
1
  6
CONTINUOUS
 62
           2
100
AcDbLine
 10
513.964004576017
 20
-102.237981700835
 11
513.964004576017
 21
-100.237981700835
  0
LINE
  5
3A
100
AcDbEntity
  8
1
  6
CONTINUOUS
 62
           2
100
AcDbLine
 10
512.304926405257
 20
-102.237981700835
 11
512.304926405257
 21
-100.237981700835
  0
LINE
  5
39
100
AcDbEntity
  8
1
  6
CONTINUOUS
 62
           2
100
AcDbLine
 10
509.755560108498
 20
-102.237981700835
 11
509.737566270795
 21
-100.237981700835
  0
LINE
  5
38
100
AcDbEntity
  8
1
  6
CONTINUOUS
 62
           2
100
AcDbLine
 10
507.980697859304
 20
-102.237981700835
 11
507.980697859304
 21
-100.237981700835
  0
LINE
  5
37
100
AcDbEntity
  8
1
  6
CONTINUOUS
 62
           2
100
AcDbLine
 10
511.459028681026
 20
-102.237981700835
 11
511.459028681026
 21
-100.237981700835
  0
LINE
  5
36
100
AcDbEntity
  8
1
  6
CONTINUOUS
 62
           2
100
AcDbLine
 10
507.090566575617
 20
-102.237981700835
 11
507.090566575617
 21
-100.237981700835
  0
LINE
  5
35
100
AcDbEntity
  8
1
  6
CONTINUOUS
 62
           2
100
AcDbLine
 10
506.193491492253
 20
-102.237981700835
 11
506.193491492253
 21
-100.237981700835
  0
LINE
  5
34
100
AcDbEntity
  8
1
  6
CONTINUOUS
 62
           2
100
AcDbLine
 10
505.290119674962
 20
-102.237981700835
 11
505.290119674962
 21
-100.237981700835
  0
LINE
  5
33
100
AcDbEntity
  8
1
  6
CONTINUOUS
 62
           2
100
AcDbLine
 10
504.381102731367
 20
-102.237981700835
 11
504.381102731367
 21
-100.237981700835
  0
LINE
  5
32
100
AcDbEntity
  8
1
  6
CONTINUOUS
 62
           2
100
AcDbLine
 10
503.467096340954
 20
-102.237981700835
 11
503.467096340954
 21
-100.237981700835
  0
LINE
  5
31
100
AcDbEntity
  8
1
  6
CONTINUOUS
 62
           2
100
AcDbLine
 10
502.548759782129
 20
-102.237981700835
 11
502.548759782129
 21
-100.237981700835
  0
LINE
  5
30
100
AcDbEntity
  8
1
  6
CONTINUOUS
 62
           2
100
AcDbLine
 10
501.626755456675
 20
-102.237981700835
 11
501.626755456675
 21
-100.237981700835
  0
LINE
  5
2F
100
AcDbEntity
  8
1
  6
CONTINUOUS
 62
           2
100
AcDbLine
 10
500.701748411956
 20
-102.237981700835
 11
500.701748411956
 21
-100.237981700835
  0
LINE
  5
2E
100
AcDbEntity
  8
1
  6
CONTINUOUS
 62
           2
100
AcDbLine
 10
499.774405861217
 20
-102.237981700835
 11
499.774405861217
 21
-100.237981700835
  0
LINE
  5
2D
100
AcDbEntity
  8
1
  6
CONTINUOUS
 62
           2
100
AcDbLine
 10
498.845396702318
 20
-102.237981700835
 11
498.845396702318
 21
-100.237981700835
  0
LINE
  5
2C
100
AcDbEntity
  8
1
  6
CONTINUOUS
 62
           2
100
AcDbLine
 10
497.915391035252
 20
-102.237981700835
 11
497.915391035252
 21
-100.237981700835
  0
LINE
  5
2B
100
AcDbEntity
  8
1
  6
CONTINUOUS
 62
           7
100
AcDbLine
 10
522.463863764352
 20
-96.449984170212
 11
497.463863764352
 21
-96.449984170212
  0
LINE
  5
2A
100
AcDbEntity
  8
1
  6
CONTINUOUS
 62
           2
100
AcDbLine
 10
527.463863764352
 20
-101.519410013587
 11
527.463863764352
 21
-101.66290275128
  0
LINE
  5
29
100
AcDbEntity
  8
1
  6
CONTINUOUS
 62
           7
100
AcDbLine
 10
470.035292335781
 20
-104.949984170212
 11
469.963863764352
 21
-103.949984170212
  0
ENDSEC
  0
SECTION
  2
OBJECTS
  0
DICTIONARY
  5
19
100
AcDbDictionary
  3
ACAD_GROUP
350
1A
  3
ACAD_MLINESTYLE
350
1B
  0
DICTIONARY
  5
1A
102
{ACAD_REACTORS
330
19
102
}
100
AcDbDictionary
  0
DICTIONARY
  5
1B
102
{ACAD_REACTORS
330
19
102
}
100
AcDbDictionary
  3
STANDARD
350
1C
  0
MLINESTYLE
  5
1C
102
{ACAD_REACTORS
330
1B
102
}
100
AcDbMlineStyle
  2
STANDARD
 70
           0
  3

 62
           0
 51
90.0
 52
90.0
 71
           2
 49
0.5
 62
         256
  6
BYLAYER
 49
-0.5
 62
         256
  6
BYLAYER
  0
ENDSEC
  0
EOF
