  0
SECTION
  2
HEADER
  9
$ACADVER
  1
AC1014
  9
$ACADMAINTVER
 70
           0
  9
$DWGCODEPAGE
  3
DOS932
  9
$INSBASE
 10
0.0
 20
0.0
 30
0.0
  9
$EXTMIN
 10
1.000000000000E+20
 20
1.000000000000E+20
 30
1.000000000000E+20
  9
$EXTMAX
 10
-1.000000000000E+20
 20
-1.000000000000E+20
 30
-1.000000000000E+20
  9
$LIMMIN
 10
0.0
 20
0.0
  9
$LIMMAX
 10
0.0
 20
0.0
  9
$ORTHOMODE
 70
           0
  9
$REGENMODE
 70
           1
  9
$FILLMODE
 70
           1
  9
$QTEXTMODE
 70
           0
  9
$MIRRTEXT
 70
           1
  9
$DRAGMODE
 70
           2
  9
$LTSCALE
 40
1.0
  9
$OSMODE
 70
           0
  9
$ATTMODE
 70
           1
  9
$TEXTSIZE
 40
0.2
  9
$TRACEWID
 40
0.05
  9
$TEXTSTYLE
  7
STANDARD
  9
$CLAYER
  8
0
  9
$CELTYPE
  6
CONTINUOUS
  9
$CECOLOR
 62
         256
  9
$CELTSCALE
 40
1.0
  9
$DELOBJ
 70
           1
  9
$DISPSILH
 70
           0
  9
$DIMSCALE
 40
1.0
  9
$DIMASZ
 40
0.18
  9
$DIMEXO
 40
0.0625
  9
$DIMDLI
 40
0.38
  9
$DIMRND
 40
0.0
  9
$DIMDLE
 40
0.0
  9
$DIMEXE
 40
0.18
  9
$DIMTP
 40
0.0
  9
$DIMTM
 40
0.0
  9
$DIMTXT
 40
0.18
  9
$DIMCEN
 40
0.09
  9
$DIMTSZ
 40
0.0
  9
$DIMTOL
 70
           0
  9
$DIMLIM
 70
           0
  9
$DIMTIH
 70
           1
  9
$DIMTOH
 70
           1
  9
$DIMSE1
 70
           0
  9
$DIMSE2
 70
           0
  9
$DIMTAD
 70
           0
  9
$DIMZIN
 70
           0
  9
$DIMBLK
  1

  9
$DIMASO
 70
           1
  9
$DIMSHO
 70
           1
  9
$DIMPOST
  1

  9
$DIMAPOST
  1

  9
$DIMALT
 70
           0
  9
$DIMALTD
 70
           2
  9
$DIMALTF
 40
25.4
  9
$DIMLFAC
 40
1.0
  9
$DIMTOFL
 70
           0
  9
$DIMTVP
 40
0.0
  9
$DIMTIX
 70
           0
  9
$DIMSOXD
 70
           0
  9
$DIMSAH
 70
           0
  9
$DIMBLK1
  1

  9
$DIMBLK2
  1

  9
$DIMSTYLE
  2
STANDARD
  9
$DIMCLRD
 70
           0
  9
$DIMCLRE
 70
           0
  9
$DIMCLRT
 70
           0
  9
$DIMTFAC
 40
1.0
  9
$DIMGAP
 40
0.09
  9
$DIMJUST
 70
           0
  9
$DIMSD1
 70
           0
  9
$DIMSD2
 70
           0
  9
$DIMTOLJ
 70
           1
  9
$DIMTZIN
 70
           0
  9
$DIMALTZ
 70
           0
  9
$DIMALTTZ
 70
           0
  9
$DIMFIT
 70
           3
  9
$DIMUPT
 70
           0
  9
$DIMUNIT
 70
           2
  9
$DIMDEC
 70
           4
  9
$DIMTDEC
 70
           4
  9
$DIMALTU
 70
           2
  9
$DIMALTTD
 70
           2
  9
$DIMTXSTY
  7
STANDARD
  9
$DIMAUNIT
 70
           0
  9
$LUNITS
 70
           2
  9
$LUPREC
 70
           4
  9
$SKETCHINC
 40
0.1
  9
$FILLETRAD
 40
0.0
  9
$AUNITS
 70
           0
  9
$AUPREC
 70
           0
  9
$MENU
  1
acad
  9
$ELEVATION
 40
0.0
  9
$PELEVATION
 40
0.0
  9
$THICKNESS
 40
0.0
  9
$LIMCHECK
 70
           0
  9
$BLIPMODE
 70
           1
  9
$CHAMFERA
 40
0.0
  9
$CHAMFERB
 40
0.0
  9
$CHAMFERC
 40
0.0
  9
$CHAMFERD
 40
0.0
  9
$SKPOLY
 70
           0
  9
$TDCREATE
 40
0.000000000
  9
$TDUPDATE
 40
0.000000000
  9
$TDINDWG
 40
0.0000000000
  9
$TDUSRTIMER
 40
0.0000000000
  9
$USRTIMER
 70
           1
  9
$ANGBASE
 50
0.0
  9
$ANGDIR
 70
           0
  9
$PDMODE
 70
           0
  9
$PDSIZE
 40
0.0
  9
$PLINEWID
 40
0.0
  9
$COORDS
 70
           0
  9
$SPLFRAME
 70
           0
  9
$SPLINETYPE
 70
           6
  9
$SPLINESEGS
 70
           8
  9
$ATTDIA
 70
           0
  9
$ATTREQ
 70
           1
  9
$HANDLING
 70
           1
  9
$HANDSEED
  5
1D5
  9
$SURFTAB1
 70
           6
  9
$SURFTAB2
 70
           6
  9
$SURFTYPE
 70
           6
  9
$SURFU
 70
           6
  9
$SURFV
 70
           6
  9
$UCSNAME
  2

  9
$UCSORG
 10
0.0
 20
0.0
 30
0.0
  9
$UCSXDIR
 10
1.0
 20
0.0
 30
0.0
  9
$UCSYDIR
 10
0.0
 20
1.0
 30
0.0
  9
$PUCSNAME
  2

  9
$PUCSORG
 10
0.0
 20
0.0
 30
0.0
  9
$PUCSXDIR
 10
1.0
 20
0.0
 30
0.0
  9
$PUCSYDIR
 10
0.0
 20
1.0
 30
0.0
  9
$USERI1
 70
           0
  9
$USERI2
 70
           0
  9
$USERI3
 70
           0
  9
$USERI4
 70
           0
  9
$USERI5
 70
           0
  9
$USERR1
 40
0.0
  9
$USERR2
 40
0.0
  9
$USERR3
 40
0.0
  9
$USERR4
 40
0.0
  9
$USERR5
 40
0.0
  9
$WORLDVIEW
 70
           1
  9
$SHADEDGE
 70
           3
  9
$SHADEDIF
 70
          70
  9
$TILEMODE
 70
           1
  9
$MAXACTVP
 70
          16
  9
$PINSBASE
 10
0.0
 20
0.0
 30
0.0
  9
$PLIMCHECK
 70
           0
  9
$PEXTMIN
 10
1.000000000000E+20
 20
1.000000000000E+20
 30
1.000000000000E+20
  9
$PEXTMAX
 10
-1.000000000000E+20
 20
-1.000000000000E+20
 30
-1.000000000000E+20
  9
$PLIMMIN
 10
0.0
 20
0.0
  9
$PLIMMAX
 10
12.0
 20
9.0
  9
$UNITMODE
 70
           0
  9
$VISRETAIN
 70
           0
  9
$PLINEGEN
 70
           1
  9
$PSLTSCALE
 70
           0
  9
$TREEDEPTH
 70
        3020
  9
$PICKSTYLE
 70
           1
  9
$CMLSTYLE
  2
STANDARD
  9
$CMLJUST
 70
           0
  9
$CMLSCALE
 40
1.0
  9
$PROXYGRAPHICS
 70
           0
  9
$MEASUREMENT
 70
           0
  0
ENDSEC
  0
SECTION
  2
CLASSES
  0
CLASS
  1
LWPOLYLINE
  2
AcDbPolyline
  3
"AutoCAD"
 90
        0
280
           0
281
           1
  0
CLASS
  1
IMAGE
  2
AcDbRasterImage
  3
ISM
 90
      127
280
           0
281
           1
  0
CLASS
  1
OLE2FRAME
  2
AcDbOle2Frame
  3
""
 90
        0
280
           0
281
           1
  0
CLASS
  1
HATCH
  2
AcDbHatch
  3
"ACAD_SEDONA"
 90
        0
280
           0
281
           1
  0
CLASS
  1
DICTIONARYVAR
  2
AcDbDictionaryVar
  3
"AutoCAD"
 90
        0
280
           0
281
           0
  0
CLASS
  1
RASTERVARIABLES
  2
AcDbRasterVariables
  3
ISM
 90
        0
280
           0
281
           0
  0
CLASS
  1
IMAGEDEF
  2
AcDbRasterImageDef
  3
ISM
 90
        0
280
           0
281
           0
  0
CLASS
  1
IMAGEDEF_REACTOR
  2
AcDbRasterImageDefReactor
  3
ISM
 90
        1
280
           0
281
           0
  0
CLASS
  1
IDBUFFER
  2
AcDbIdBuffer
  3
"Acad"
 90
        0
280
           0
281
           0
  0
CLASS
  1
SPATIAL_FILTER
  2
AcDbSpatialFilter
  3
"Acad"
 90
        0
280
           0
281
           0
  0
CLASS
  1
XRECORD
  2
AcDbXrecord
  3
"<Built In>"
 90
        0
280
           0
281
           0
  0
CLASS
  1
SORTENTSTABLE
  2
AcDbSortentsTable
  3
"AutoCAD"
 90
        0
280
           0
281
           0
  0
CLASS
  1
LAYER_INDEX
  2
AcDbLayerIndex
  3
"Acad"
 90
        0
280
           0
281
           0
  0
CLASS
  1
SPATIAL_INDEX
  2
AcDbSpatialIndex
  3
"Acad"
 90
        0
280
           0
281
           0
  0
CLASS
  1
OBJECT_PTR
  2
CAseDLPNTableRecord
  3
"ASE-LPNTableRecord"
 90
        1
280
           0
281
           0
  0
CLASS
  1
LAYOUT
  2
AcDbLayout
  3
"AutoCAD 2000"
 90
        1
280
           0
281
           0
  0
CLASS
  1
PLOTSETTINGS
  2
AcDbPlotSettings
  3
"AutoCAD 2000"
 90
        1
280
           0
281
           0
  0
CLASS
  1
ACDBDICTIONARYWDFLT
  2
AcDbDictionaryWithDefault
  3
"AutoCAD 2000"
 90
        1
280
           0
281
           0
  0
CLASS
  1
ACDBPLACEHOLDER
  2
AcDbPlaceHolder
  3
"AutoCAD 2000"
 90
        1
280
           0
281
           0
  0
CLASS
  1
VBA_PROJECT
  2
AcDbVbaProject
  3
"acadvba"
 90
        1
280
           0
281
           0
  0
CLASS
  1
WIPEOUT
  2
AcDbWipeout
  3
WipeOut|AutoCAD Express Tool|expresstools@autodesk.com
 90
      127
280
           0
281
           1
  0
CLASS
  1
WIPEOUTVARIABLES
  2
AcDbWipeoutVariables
  3
WipeOut|AutoCAD Express Tool|expresstools@autodesk.com
 90
        0
280
           0
281
           0
  0
CLASS
  1
RTEXT
  2
RText
  3
RText|AutoCAD Express Tool|expresstools@autodesk.com
 90
        0
280
           0
281
           1
  0
CLASS
  1
ARCALIGNEDTEXT
  2
AcDbArcAlignedText
  3
ATEXT|AutoCAD Express Tool|expresstools@autodesk.com
 90
        0
280
           0
281
           1
  0
ENDSEC
  0
SECTION
  2
TABLES
  0
TABLE
  2
VPORT
  5
7
100
AcDbSymbolTable
 70
           1
  0
VPORT
  5
15
100
AcDbSymbolTableRecord
100
AcDbViewportTableRecord
  2
*ACTIVE
 70
           0
 10
0.0
 20
0.0
 11
1.0
 21
1.0
 12
6.591288
 22
4.579184
 13
0.0
 23
0.0
 14
1.0
 24
1.0
 15
0.0
 25
0.0
 16
0.0
 26
0.0
 36
1.0
 17
0.0
 27
0.0
 37
0.0
 40
9.158369
 41
0.688564
 42
50.0
 43
0.0
 44
0.0
 50
0.0
 51
0.0
 71
           0
 72
         100
 73
           1
 74
           1
 75
           0
 76
           0
 77
           0
 78
           0
  0
ENDTAB
  0
TABLE
  2
LTYPE
  5
4
100
AcDbSymbolTable
 70
          10
  0
LTYPE
  5
11
100
AcDbSymbolTableRecord
100
AcDbLinetypeTableRecord
  2
BYBLOCK
 70
          64
  3

 72
          65
 73
           0
 40
0.0
  0
LTYPE
  5
12
100
AcDbSymbolTableRecord
100
AcDbLinetypeTableRecord
  2
BYLAYER
 70
          64
  3

 72
          65
 73
           0
 40
0.0
  0
LTYPE
  5
13
100
AcDbSymbolTableRecord
100
AcDbLinetypeTableRecord
  2
CONTINUOUS
 70
          64
  3
Solid line
 72
          65
 73
           0
 40
0.0
  0
LTYPE
  5
1D
100
AcDbSymbolTableRecord
100
AcDbLinetypeTableRecord
  2
DASHED
 70
          64
  3
Dashed
 72
          65
 73
           2
 40
15.0
 49
12.0
 74
           0
 49
-3.0
 74
           0
  0
LTYPE
  5
1E
100
AcDbSymbolTableRecord
100
AcDbLinetypeTableRecord
  2
DOTTED
 70
          64
  3
Dotted
 72
          65
 73
           2
 40
3.5
 49
0.5
 74
           0
 49
-3.0
 74
           0
  0
LTYPE
  5
1F
100
AcDbSymbolTableRecord
100
AcDbLinetypeTableRecord
  2
DOT_CENTER
 70
          64
  3
Dot_Center
 72
          65
 73
           4
 40
2.0
 49
1.25
 74
           0
 49
-0.25
 74
           0
 49
0.25
 74
           0
 49
-0.25
 74
           0
  0
LTYPE
  5
20
100
AcDbSymbolTableRecord
100
AcDbLinetypeTableRecord
  2
LONG_DASHED
 70
          64
  3
Long_Dashed
 72
          65
 73
           2
 40
2.0
 49
1.5
 74
           0
 49
-0.5
 74
           0
  0
LTYPE
  5
21
100
AcDbSymbolTableRecord
100
AcDbLinetypeTableRecord
  2
DASH_CENTER
 70
          64
  3
Dash_Center
 72
          65
 73
           4
 40
36.0
 49
24.0
 74
           0
 49
-3.0
 74
           0
 49
6.0
 74
           0
 49
-3.0
 74
           0
  0
LTYPE
  5
22
100
AcDbSymbolTableRecord
100
AcDbLinetypeTableRecord
  2
PHANTOM
 70
          64
  3
Phantom
 72
          65
 73
           6
 40
2.5
 49
1.25
 74
           0
 49
-0.25
 74
           0
 49
0.25
 74
           0
 49
-0.25
 74
           0
 49
0.25
 74
           0
 49
-0.25
 74
           0
  0
LTYPE
  5
23
100
AcDbSymbolTableRecord
100
AcDbLinetypeTableRecord
  2
CENTER_DASH_DASH
 70
          64
  3
Center_Dash_Dash
 72
          65
 73
           6
 40
22.0
 49
12.0
 74
           0
 49
-3.0
 74
           0
 49
0.5
 74
           0
 49
-3.0
 74
           0
 49
0.5
 74
           0
 49
-3.0
 74
           0
  0
ENDTAB
  0
TABLE
  2
LAYER
  5
2
100
AcDbSymbolTable
 70
           3
  0
LAYER
  5
14
100
AcDbSymbolTableRecord
100
AcDbLayerTableRecord
  2
0
 70
           0
 62
           7
  6
CONTINUOUS
  0
LAYER
  5
24
100
AcDbSymbolTableRecord
100
AcDbLayerTableRecord
  2
976
 70
           0
 62
           7
  6
CONTINUOUS
  0
LAYER
  5
25
100
AcDbSymbolTableRecord
100
AcDbLayerTableRecord
  2
1
 70
           0
 62
           7
  6
CONTINUOUS
  0
ENDTAB
  0
TABLE
  2
STYLE
  5
3
100
AcDbSymbolTable
 70
           3
  0
STYLE
  5
17
100
AcDbSymbolTableRecord
100
AcDbTextStyleTableRecord
  2
STANDARD
 70
           0
 40
0.0
 41
1.0
 50
0.0
 71
           0
 42
0.0
  3
txt
  4

  0
STYLE
  5
1B8
100
AcDbSymbolTableRecord
100
AcDbTextStyleTableRecord
  2
CONVERTER_1
 70
           0
 40
0.0
 41
0.89
 50
0.0
 71
           0
 42
0.0
  3
MS Mincho.ttf
  4

1001
ACAD
1000
MS Mincho
1071
    32785
  0
STYLE
  5
1C4
100
AcDbSymbolTableRecord
100
AcDbTextStyleTableRecord
  2
CONVERTER_2
 70
           0
 40
0.0
 41
0.9
 50
0.0
 71
           0
 42
0.0
  3
txt.shx
  4

  0
ENDTAB
  0
TABLE
  2
VIEW
  5
5
100
AcDbSymbolTable
 70
           0
  0
ENDTAB
  0
TABLE
  2
UCS
  5
6
100
AcDbSymbolTable
 70
           0
  0
ENDTAB
  0
TABLE
  2
APPID
  5
8
100
AcDbSymbolTable
 70
           1
  0
APPID
  5
16
100
AcDbSymbolTableRecord
100
AcDbRegAppTableRecord
  2
ACAD
 70
           0
  0
ENDTAB
  0
TABLE
  2
DIMSTYLE
  5
9
100
AcDbSymbolTable
 70
           4
  0
DIMSTYLE
105
18
100
AcDbSymbolTableRecord
100
AcDbDimStyleTableRecord
  2
STANDARD
 70
           0
  3

  4

  5

  6

  7

 40
1.0
 41
0.18
 42
0.0625
 43
0.38
 44
0.18
 45
0.0
 46
0.0
 47
0.0
 48
0.0
 71
           0
 72
           0
 73
           1
 74
           1
 75
           0
 76
           0
 77
           0
 78
           0
140
0.18
141
0.09
142
0.0
143
25.4
144
1.0
145
0.0
146
1.0
147
0.09
170
           0
171
           2
172
           0
173
           0
174
           0
175
           0
176
           0
177
           0
178
           0
270
           2
271
           4
272
           4
273
           2
274
           2
275
           0
280
           0
281
           0
282
           0
283
           1
284
           0
285
           0
286
           0
287
           0
288
           0
340
17
  0
DIMSTYLE
105
1BB
100
AcDbSymbolTableRecord
100
AcDbDimStyleTableRecord
  2
ME10_DIM_0
 70
           0
  3
ó<>
  4

  5

  6

  7

 40
1.0
 41
2.8
 42
0.8
 43
0.38
 44
1.0
 45
0.0
 46
0.0
 47
0.0
 48
0.0
 71
           0
 72
           0
 73
           0
 74
           0
 75
           0
 76
           0
 77
           1
 78
           8
140
2.8
141
0.09
142
0.0
143
25.4
144
1.0
145
0.0
146
1.0
147
0.09
170
           0
171
           2
172
           0
173
           1
174
           0
175
           0
176
           2
177
           2
178
           2
270
           2
271
           3
272
           4
273
           2
274
           2
275
           0
280
           0
281
           0
282
           0
283
           1
284
           0
285
           0
286
           0
287
           3
288
           0
340
17
  0
DIMSTYLE
105
1C7
100
AcDbSymbolTableRecord
100
AcDbDimStyleTableRecord
  2
ME10_DIM_1
 70
           0
  3

  4

  5

  6

  7

 40
1.0
 41
2.8
 42
0.8
 43
0.38
 44
1.0
 45
0.0
 46
0.0
 47
0.0
 48
0.0
 71
           0
 72
           0
 73
           0
 74
           0
 75
           0
 76
           0
 77
           1
 78
           8
140
2.8
141
0.09
142
0.0
143
25.4
144
1.0
145
0.0
146
1.0
147
0.09
170
           0
171
           2
172
           0
173
           1
174
           0
175
           0
176
           2
177
           2
178
           2
270
           2
271
           3
272
           4
273
           2
274
           2
275
           0
280
           0
281
           0
282
           0
283
           1
284
           0
285
           0
286
           0
287
           3
288
           0
340
17
  0
DIMSTYLE
105
1D2
100
AcDbSymbolTableRecord
100
AcDbDimStyleTableRecord
  2
ME10_DIM_2
 70
           0
  3

  4

  5

  6

  7

 40
1.0
 41
2.8
 42
0.8
 43
0.38
 44
1.0
 45
0.0
 46
0.0
 47
0.0
 48
0.0
 71
           0
 72
           0
 73
           0
 74
           0
 75
           0
 76
           0
 77
           1
 78
           8
140
2.8
141
0.09
142
0.0
143
25.4
144
1.0
145
0.0
146
1.0
147
0.09
170
           0
171
           2
172
           0
173
           1
174
           0
175
           0
176
           2
177
           2
178
           2
270
           2
271
           3
272
           4
273
           2
274
           2
275
           0
280
           0
281
           0
282
           0
283
           1
284
           0
285
           0
286
           0
287
           3
288
           0
340
17
  0
ENDTAB
  0
TABLE
  2
BLOCK_RECORD
  5
1
100
AcDbSymbolTable
 70
           3
  0
BLOCK_RECORD
  5
A
100
AcDbSymbolTableRecord
100
AcDbBlockTableRecord
  2
*MODEL_SPACE
  0
BLOCK_RECORD
  5
B
100
AcDbSymbolTableRecord
100
AcDbBlockTableRecord
  2
*PAPER_SPACE
  0
BLOCK_RECORD
  5
1B1
100
AcDbSymbolTableRecord
100
AcDbBlockTableRecord
  2
*D0
  0
BLOCK_RECORD
  5
1BD
100
AcDbSymbolTableRecord
100
AcDbBlockTableRecord
  2
*D1
  0
BLOCK_RECORD
  5
1C9
100
AcDbSymbolTableRecord
100
AcDbBlockTableRecord
  2
*D2
  0
ENDTAB
  0
ENDSEC
  0
SECTION
  2
BLOCKS
  0
BLOCK
  5
D
100
AcDbEntity
  8
0
100
AcDbBlockBegin
  2
*MODEL_SPACE
 70
           0
 10
0.0
 20
0.0
 30
0.0
  3
*MODEL_SPACE
  1

  0
ENDBLK
  5
E
100
AcDbEntity
  8
0
100
AcDbBlockEnd
  0
BLOCK
  5
F
100
AcDbEntity
 67
           1
  8
0
100
AcDbBlockBegin
  2
*PAPER_SPACE
 70
           0
 10
0.0
 20
0.0
 30
0.0
  3
*PAPER_SPACE
  1

  0
ENDBLK
  5
10
100
AcDbEntity
 67
           1
  8
0
100
AcDbBlockEnd
  0
BLOCK
  5
1B2
100
AcDbEntity
  8
0
100
AcDbBlockBegin
  2
*D0
 70
           1
 10
0.0
 20
0.0
 30
0.0
  3
*D0
  1

  0
LINE
  5
1B3
100
AcDbEntity
  8
0
  6
CONTINUOUS
 62
           2
100
AcDbLine
 10
461.001779166136
 20
130.963775952308
 11
531.001779166136
 21
130.963775952308
  0
LINE
  5
1B4
100
AcDbEntity
  8
0
  6
CONTINUOUS
 62
           2
100
AcDbLine
 10
531.001779166136
 20
115.845079846256
 11
531.001779166136
 21
131.963775952308
  0
LINE
  5
1B5
100
AcDbEntity
  8
0
  6
CONTINUOUS
 62
           2
100
AcDbLine
 10
461.001779166136
 20
115.845079846256
 11
461.001779166136
 21
131.963775952308
  0
SOLID
  5
1B6
100
AcDbEntity
  8
0
 62
           2
100
AcDbTrace
 10
463.801779166136
 20
131.332402945553
 11
463.801779166136
 21
130.595148959063
 12
461.001779166136
 22
130.963775952308
 13
461.001779166136
 23
130.963775952308
  0
SOLID
  5
1B7
100
AcDbEntity
  8
0
 62
           2
100
AcDbTrace
 10
528.201779166136
 20
130.595148959063
 11
528.201779166136
 21
131.332402945553
 12
531.001779166136
 22
130.963775952308
 13
531.001779166136
 23
130.963775952308
  0
MTEXT
  5
1B9
100
AcDbEntity
  8
0
 62
           2
100
AcDbMText
 10
493.209325583139
 20
131.963775952308
 30
0.0
 40
2.8
 41
0.0
 71
           7
 72
           1
  1
\C2;ó\C2;70\C2;
  7
CONVERTER_1
  0
ENDBLK
  5
1BA
100
AcDbEntity
  8
0
100
AcDbBlockEnd
  0
BLOCK
  5
1BE
100
AcDbEntity
  8
0
100
AcDbBlockBegin
  2
*D1
 70
           1
 10
0.0
 20
0.0
 30
0.0
  3
*D1
  1

  0
LINE
  5
1BF
100
AcDbEntity
  8
0
  6
CONTINUOUS
 62
           2
100
AcDbLine
 10
445.671500681621
 20
-23.915603258893
 11
445.671500681621
 21
120.045079846256
  0
LINE
  5
1C0
100
AcDbEntity
  8
0
  6
CONTINUOUS
 62
           2
100
AcDbLine
 10
493.988309611852
 20
-23.915603258893
 11
444.671500681621
 21
-23.915603258893
  0
LINE
  5
1C1
100
AcDbEntity
  8
0
  6
CONTINUOUS
 62
           2
100
AcDbLine
 10
465.201779166136
 20
120.045079846256
 11
444.671500681621
 21
120.045079846256
  0
SOLID
  5
1C2
100
AcDbEntity
  8
0
 62
           2
100
AcDbTrace
 10
446.040127674866
 20
117.245079846256
 11
445.302873688376
 21
117.245079846256
 12
445.671500681621
 22
120.045079846256
 13
445.671500681621
 23
120.045079846256
  0
SOLID
  5
1C3
100
AcDbEntity
  8
0
 62
           2
100
AcDbTrace
 10
445.302873688376
 20
-21.115603258893
 11
446.040127674866
 21
-21.115603258893
 12
445.671500681621
 22
-23.915603258893
 13
445.671500681621
 23
-23.915603258893
  0
MTEXT
  5
1C5
100
AcDbEntity
  8
0
 62
           2
100
AcDbMText
 10
444.671500681621
 20
57.73114781147
 30
0.0
 40
2.8
 41
0.0
 71
           7
 72
           1
  1
144
  7
CONVERTER_2
 11
0.0
 21
1.0
 31
0.0
  0
ENDBLK
  5
1C6
100
AcDbEntity
  8
0
100
AcDbBlockEnd
  0
BLOCK
  5
1CA
100
AcDbEntity
  8
0
100
AcDbBlockBegin
  2
*D2
 70
           1
 10
0.0
 20
0.0
 30
0.0
  3
*D2
  1

  0
LINE
  5
1CB
100
AcDbEntity
  8
0
  6
CONTINUOUS
 62
           2
100
AcDbLine
 10
461.001779166136
 20
139.770025659786
 11
532.884578718671
 21
139.770025659786
  0
LINE
  5
1CC
100
AcDbEntity
  8
0
  6
CONTINUOUS
 62
           2
100
AcDbLine
 10
532.884578718671
 20
16.134396741107
 11
532.884578718671
 21
140.770025659786
  0
LINE
  5
1CD
100
AcDbEntity
  8
0
  6
CONTINUOUS
 62
           2
100
AcDbLine
 10
461.001779166136
 20
115.845079846256
 11
461.001779166136
 21
140.770025659786
  0
SOLID
  5
1CE
100
AcDbEntity
  8
0
 62
           2
100
AcDbTrace
 10
530.084578718671
 20
139.401398666541
 11
530.084578718671
 21
140.138652653031
 12
532.884578718671
 22
139.770025659786
 13
532.884578718671
 23
139.770025659786
  0
SOLID
  5
1CF
100
AcDbEntity
  8
0
 62
           2
100
AcDbTrace
 10
463.801779166136
 20
140.138652653031
 11
463.801779166136
 21
139.401398666541
 12
461.001779166136
 22
139.770025659786
 13
461.001779166136
 23
139.770025659786
  0
TEXT
  5
1D0
100
AcDbEntity
  8
0
 62
           2
100
AcDbText
 10
493.796027128676
 20
140.770025659786
 40
2.8
  1
71
 41
0.9
  7
CONVERTER_2
100
AcDbText
  0
ENDBLK
  5
1D1
100
AcDbEntity
  8
0
100
AcDbBlockEnd
  0
ENDSEC
  0
SECTION
  2
ENTITIES
  0
DIMENSION
  5
1D3
100
AcDbEntity
  8
0
100
AcDbDimension
  2
*D2
 10
532.884578718671
 20
139.770025659786
 11
495.476027128676
 21
142.170025659786
 31
0.0
  1
<>
  3
ME10_DIM_2
100
AcDbAlignedDimension
 13
461.001779166136
 23
115.045079846256
 14
532.884578718671
 24
15.334396741107
100
AcDbRotatedDimension
  0
DIMENSION
  5
1C8
100
AcDbEntity
  8
0
100
AcDbDimension
  2
*D1
 10
445.671500681621
 20
120.045079846256
 11
443.271500681621
 21
60.67114781147
 31
0.0
 53
90.0
  1
<>
  3
ME10_DIM_1
100
AcDbAlignedDimension
 13
494.788309611852
 23
-23.915603258893
 14
466.001779166136
 24
120.045079846256
 50
90.0
100
AcDbRotatedDimension
  0
DIMENSION
  5
1BC
100
AcDbEntity
  8
0
100
AcDbDimension
  2
*D0
 10
461.001779166136
 20
130.963775952308
 11
495.925325583139
 21
133.363775952308
 31
0.0
  1
<>
  3
ME10_DIM_0
100
AcDbAlignedDimension
 13
531.001779166136
 23
115.045079846256
 14
461.001779166136
 24
115.045079846256
100
AcDbRotatedDimension
  0
ARC
  5
1B0
100
AcDbEntity
  8
1
  6
CONTINUOUS
 62
           7
100
AcDbCircle
 10
497.215248720421
 20
-21.915603258893
 40
2.0
100
AcDbArc
 50
-90.0
 51
-6.653394672009
  0
ARC
  5
1AF
100
AcDbEntity
  8
1
  6
CONTINUOUS
 62
           7
100
AcDbCircle
 10
494.788309611852
 20
-21.915603258893
 40
2.0
100
AcDbArc
 50
-173.34660532799
 51
-90.0
  0
ARC
  5
1AE
100
AcDbEntity
  8
1
  6
CONTINUOUS
 62
           7
100
AcDbCircle
 10
487.301779166136
 20
44.715902515854
 40
24.0
100
AcDbArc
 50
180.0
 51
-90.0
  0
ARC
  5
1AD
100
AcDbEntity
  8
1
  6
CONTINUOUS
 62
           7
100
AcDbCircle
 10
462.401779166136
 20
105.545079846256
 40
0.9
100
AcDbArc
 50
180.0
 51
-90.0
  0
ARC
  5
1AC
100
AcDbEntity
  8
1
  6
CONTINUOUS
 62
           7
100
AcDbCircle
 10
462.651779166136
 20
106.495079846256
 40
1.15
100
AcDbArc
 50
90.0
 51
180.0
  0
ARC
  5
1AB
100
AcDbEntity
  8
1
  6
CONTINUOUS
 62
           7
100
AcDbCircle
 10
529.351779166136
 20
106.495079846256
 40
1.15
100
AcDbArc
 50
0.0
 51
90.0
  0
ARC
  5
1AA
100
AcDbEntity
  8
1
  6
CONTINUOUS
 62
           7
100
AcDbCircle
 10
529.601779166136
 20
105.545079846256
 40
0.9
100
AcDbArc
 50
-90.0
 51
0.0
  0
ARC
  5
1A9
100
AcDbEntity
  8
1
  6
CONTINUOUS
 62
           7
100
AcDbCircle
 10
504.701779166136
 20
44.715902515854
 40
24.0
100
AcDbArc
 50
-90.0
 51
0.0
  0
ARC
  5
1A8
100
AcDbEntity
  8
1
  6
CONTINUOUS
 62
           7
100
AcDbCircle
 10
532.56213467076
 20
-0.318836844147
 40
1.0
100
AcDbArc
 50
149.999999999999
 51
-179.402267989865
  0
ARC
  5
1A7
100
AcDbEntity
  8
1
  6
CONTINUOUS
 62
           7
100
AcDbCircle
 10
519.807022766582
 20
-0.318836844147
 40
1.0
100
AcDbArc
 50
-0.597732010134
 51
30.0
  0
ARC
  5
1A6
100
AcDbEntity
  8
1
  6
CONTINUOUS
 62
           7
100
AcDbCircle
 10
519.807022766582
 20
16.487630326362
 40
1.0
100
AcDbArc
 50
-30.0
 51
0.597732010134
  0
ARC
  5
1A5
100
AcDbEntity
  8
1
  6
CONTINUOUS
 62
           7
100
AcDbCircle
 10
532.56213467076
 20
16.487630326362
 40
1.0
100
AcDbArc
 50
179.402267989866
 51
-149.999999999999
  0
ARC
  5
1A4
100
AcDbEntity
  8
1
  6
CONTINUOUS
 62
           7
100
AcDbCircle
 10
509.651779133067
 20
-8.768710075573
 40
10.0
100
AcDbArc
 50
117.71022183523
 51
179.995340355051
  0
ARC
  5
1A3
100
AcDbEntity
  8
1
  6
CONTINUOUS
 62
           7
100
AcDbCircle
 10
482.351779199206
 20
-8.768710075573
 40
10.0
100
AcDbArc
 50
0.004659644947
 51
62.289778164771
  0
ARC
  5
1A2
100
AcDbEntity
  8
1
  6
CONTINUOUS
 62
           2
100
AcDbCircle
 10
480.019599968665
 20
113.834500896701
 40
18.718020116969
100
AcDbArc
 50
175.4035778173
 51
-175.4035778173
  0
ARC
  5
1A1
100
AcDbEntity
  8
1
  6
CONTINUOUS
 62
           2
100
AcDbCircle
 10
474.46117527441
 20
113.834500896701
 40
13.014135019229
100
AcDbArc
 50
173.381419113257
 51
-173.381419113257
  0
ARC
  5
1A0
100
AcDbEntity
  8
1
  6
CONTINUOUS
 62
           2
100
AcDbCircle
 10
472.794172757766
 20
113.834500896701
 40
11.185743663087
100
AcDbArc
 50
172.293462034641
 51
-172.293462034641
  0
ARC
  5
19F
100
AcDbEntity
  8
1
  6
CONTINUOUS
 62
           2
100
AcDbCircle
 10
471.613214487447
 20
113.834500896701
 40
9.818588413659
100
AcDbArc
 50
171.212429473395
 51
-171.212429473395
  0
ARC
  5
19E
100
AcDbEntity
  8
1
  6
CONTINUOUS
 62
           2
100
AcDbCircle
 10
470.76441953436
 20
113.834500896701
 40
8.758922646205
100
AcDbArc
 50
170.139266313186
 51
-170.139266313186
  0
ARC
  5
19D
100
AcDbEntity
  8
1
  6
CONTINUOUS
 62
           2
100
AcDbCircle
 10
470.15538782232
 20
113.834500896701
 40
7.91449838633
100
AcDbArc
 50
169.074900349229
 51
-169.074900349229
  0
ARC
  5
19C
100
AcDbEntity
  8
1
  6
CONTINUOUS
 62
           2
100
AcDbCircle
 10
469.72724635802
 20
113.834500896701
 40
7.22661243025
100
AcDbArc
 50
168.020240540937
 51
-168.020240540937
  0
ARC
  5
19B
100
AcDbEntity
  8
1
  6
CONTINUOUS
 62
           2
100
AcDbCircle
 10
469.440672419657
 20
113.834500896701
 40
6.65612941095
100
AcDbArc
 50
166.976175390467
 51
-166.976175390467
  0
ARC
  5
19A
100
AcDbEntity
  8
1
  6
CONTINUOUS
 62
           2
100
AcDbCircle
 10
469.268367656462
 20
113.834500896701
 40
6.17595576258
100
AcDbArc
 50
165.943571455262
 51
-165.943571455262
  0
ARC
  5
199
100
AcDbEntity
  8
1
  6
CONTINUOUS
 62
           2
100
AcDbCircle
 10
469.190757650048
 20
113.834500896701
 40
5.766739134089
100
AcDbArc
 50
164.923272001177
 51
-164.923272001177
  0
ARC
  5
198
100
AcDbEntity
  8
1
  6
CONTINUOUS
 62
           2
100
AcDbCircle
 10
469.193411727977
 20
113.834500896701
 40
5.414288042617
100
AcDbArc
 50
163.916095801176
 51
-163.916095801176
  0
ARC
  5
197
100
AcDbEntity
  8
1
  6
CONTINUOUS
 62
           2
100
AcDbCircle
 10
469.265430424666
 20
113.834500896701
 40
5.107959161877
100
AcDbArc
 50
162.922836082986
 51
-162.922836082986
  0
ARC
  5
196
100
AcDbEntity
  8
1
  6
CONTINUOUS
 62
           2
100
AcDbCircle
 10
469.398402151746
 20
113.834500896701
 40
4.839613807755
100
AcDbArc
 50
161.944259627567
 51
-161.944259627567
  0
ARC
  5
195
100
AcDbEntity
  8
1
  6
CONTINUOUS
 62
           2
100
AcDbCircle
 10
469.585707723415
 20
113.834500896701
 40
4.602922266817
100
AcDbArc
 50
160.981106018722
 51
-160.981106018722
  0
ARC
  5
194
100
AcDbEntity
  8
1
  6
CONTINUOUS
 62
           2
100
AcDbCircle
 10
469.822044584171
 20
113.834500896701
 40
4.392887815245
100
AcDbArc
 50
160.034087042745
 51
-160.034087042745
  0
ARC
  5
193
100
AcDbEntity
  8
1
  6
CONTINUOUS
 62
           2
100
AcDbCircle
 10
470.103093847301
 20
113.834500896701
 40
4.205513536726
100
AcDbArc
 50
159.103886235634
 51
-159.103886235634
  0
ARC
  5
192
100
AcDbEntity
  8
1
  6
CONTINUOUS
 62
           2
100
AcDbCircle
 10
470.425282544509
 20
113.834500896701
 40
4.037564339837
100
AcDbArc
 50
158.191158574171
 51
-158.191158574171
  0
ARC
  5
191
100
AcDbEntity
  8
1
  6
CONTINUOUS
 62
           2
100
AcDbCircle
 10
470.785610795958
 20
113.834500896701
 40
3.886393884379
100
AcDbArc
 50
157.296530306002
 51
-157.296530306002
  0
ARC
  5
190
100
AcDbEntity
  8
1
  6
CONTINUOUS
 62
           2
100
AcDbCircle
 10
471.181524145873
 20
113.834500896701
 40
3.749816661957
100
AcDbArc
 50
156.420598912878
 51
-156.420598912878
  0
ARC
  5
18F
100
AcDbEntity
  8
1
  6
CONTINUOUS
 62
           2
100
AcDbCircle
 10
471.603249267886
 20
113.831392734015
 40
3.620412090921
100
AcDbArc
 50
155.469600298421
 51
-155.540569074766
  0
ARC
  5
18E
100
AcDbEntity
  8
1
  6
CONTINUOUS
 62
           2
100
AcDbCircle
 10
472.159058060696
 20
113.834500896701
 40
3.604596123776
100
AcDbArc
 50
155.409162471168
 51
-155.322844332809
  0
ARC
  5
18D
100
AcDbEntity
  8
1
  6
CONTINUOUS
 62
           2
100
AcDbCircle
 10
487.022064379409
 20
113.834500896701
 40
3.619441268709
100
AcDbArc
 50
155.516661754162
 51
-155.516661754162
  0
ARC
  5
18C
100
AcDbEntity
  8
1
  6
CONTINUOUS
 62
           2
100
AcDbCircle
 10
477.569321389407
 20
113.834500896701
 40
6.338790616457
100
AcDbArc
 50
-13.688208734749
 51
13.688208734749
  0
ARC
  5
18B
100
AcDbEntity
  8
1
  6
CONTINUOUS
 62
           2
100
AcDbCircle
 10
487.92664164449
 20
113.834500896701
 40
3.646996692582
100
AcDbArc
 50
155.713642905774
 51
-155.713642905774
  0
ARC
  5
18A
100
AcDbEntity
  8
1
  6
CONTINUOUS
 62
           2
100
AcDbCircle
 10
478.702495000425
 20
113.834500896701
 40
6.087600085997
100
AcDbArc
 50
-14.264733436183
 51
14.264733436183
  0
ARC
  5
189
100
AcDbEntity
  8
1
  6
CONTINUOUS
 62
           2
100
AcDbCircle
 10
488.842603855454
 20
113.834500896701
 40
3.677481816621
100
AcDbArc
 50
155.927780861216
 51
-155.927780861216
  0
ARC
  5
188
100
AcDbEntity
  8
1
  6
CONTINUOUS
 62
           2
100
AcDbCircle
 10
479.819830336655
 20
113.834500896701
 40
5.860334884235
100
AcDbArc
 50
-14.830362641291
 51
14.830362641291
  0
ARC
  5
187
100
AcDbEntity
  8
1
  6
CONTINUOUS
 62
           2
100
AcDbCircle
 10
476.417349910354
 20
113.834500896701
 40
6.617502248615
100
AcDbArc
 50
-13.101195323309
 51
13.101195323309
  0
ARC
  5
186
100
AcDbEntity
  8
1
  6
CONTINUOUS
 62
           2
100
AcDbCircle
 10
486.129387280519
 20
113.834500896701
 40
3.594698164233
100
AcDbArc
 50
155.336942476239
 51
-155.336942476239
  0
ARC
  5
185
100
AcDbEntity
  8
1
  6
CONTINUOUS
 62
           2
100
AcDbCircle
 10
475.242848514637
 20
113.834500896701
 40
6.92809691875
100
AcDbArc
 50
-12.504111595025
 51
12.504111595025
  0
ARC
  5
184
100
AcDbEntity
  8
1
  6
CONTINUOUS
 62
           2
100
AcDbCircle
 10
485.249132841403
 20
113.834500896701
 40
3.572663826766
100
AcDbArc
 50
155.174580249755
 51
-155.174580249755
  0
ARC
  5
183
100
AcDbEntity
  8
1
  6
CONTINUOUS
 62
           2
100
AcDbCircle
 10
474.041097405518
 20
113.834500896701
 40
7.275917564802
100
AcDbArc
 50
-11.897387301262
 51
11.897387301262
  0
ARC
  5
182
100
AcDbEntity
  8
1
  6
CONTINUOUS
 62
           2
100
AcDbCircle
 10
484.381829347585
 20
113.834500896701
 40
3.553247502543
100
AcDbArc
 50
155.029660495584
 51
-155.029660495584
  0
ARC
  5
181
100
AcDbEntity
  8
1
  6
CONTINUOUS
 62
           2
100
AcDbCircle
 10
472.80609711056
 20
113.834500896701
 40
7.667579604487
100
AcDbArc
 50
-11.281463267016
 51
11.281463267016
  0
ARC
  5
180
100
AcDbEntity
  8
1
  6
CONTINUOUS
 62
           2
100
AcDbCircle
 10
483.528009548974
 20
113.834500896701
 40
3.53637035538
100
AcDbArc
 50
154.902259002922
 51
-154.902259002922
  0
ARC
  5
17F
100
AcDbEntity
  8
1
  6
CONTINUOUS
 62
           2
100
AcDbCircle
 10
471.530166011411
 20
113.834500896701
 40
8.11137296123
100
AcDbArc
 50
-10.656791070076
 51
10.656791070076
  0
ARC
  5
17E
100
AcDbEntity
  8
1
  6
CONTINUOUS
 62
           2
100
AcDbCircle
 10
482.688209469806
 20
113.834500896701
 40
3.521964717751
100
AcDbArc
 50
154.792442043357
 51
-154.792442043357
  0
ARC
  5
17D
100
AcDbEntity
  8
1
  6
CONTINUOUS
 62
           2
100
AcDbCircle
 10
470.203375120759
 20
113.834500896701
 40
8.617826848436
100
AcDbArc
 50
-10.023832683841
 51
10.023832683841
  0
ARC
  5
17C
100
AcDbEntity
  8
1
  6
CONTINUOUS
 62
           2
100
AcDbCircle
 10
481.862967342676
 20
113.834500896701
 40
3.509973460276
100
AcDbArc
 50
154.700266473066
 51
-154.700266473066
  0
ARC
  5
17B
100
AcDbEntity
  8
1
  6
CONTINUOUS
 62
           2
100
AcDbCircle
 10
468.812737675908
 20
113.834500896701
 40
9.200519742961
100
AcDbArc
 50
-9.383060083926
 51
9.383060083926
  0
ARC
  5
17A
100
AcDbEntity
  8
1
  6
CONTINUOUS
 62
           2
100
AcDbCircle
 10
481.052822655694
 20
113.834500896701
 40
3.500349468308
100
AcDbArc
 50
154.625779822269
 51
-154.625779822269
  0
ARC
  5
179
100
AcDbEntity
  8
1
  6
CONTINUOUS
 62
           2
100
AcDbCircle
 10
467.341019684671
 20
113.834500896701
 40
9.877268412421
100
AcDbArc
 50
-8.73495481898
 51
8.73495481898
  0
ARC
  5
178
100
AcDbEntity
  8
1
  6
CONTINUOUS
 62
           2
100
AcDbCircle
 10
480.258315303906
 20
113.834500896701
 40
3.493055216473
100
AcDbArc
 50
154.569020371302
 51
-154.569020371302
  0
ARC
  5
177
100
AcDbEntity
  8
1
  6
CONTINUOUS
 62
           2
100
AcDbCircle
 10
465.764946967009
 20
113.834500896701
 40
10.671920453188
100
AcDbArc
 50
-8.080007546342
 51
8.080007546342
  0
ARC
  5
176
100
AcDbEntity
  8
1
  6
CONTINUOUS
 62
           2
100
AcDbCircle
 10
479.479984837955
 20
113.834500896701
 40
3.488062433832
100
AcDbArc
 50
154.530017212751
 51
-154.530017212751
  0
ARC
  5
175
100
AcDbEntity
  8
1
  6
CONTINUOUS
 62
           2
100
AcDbCircle
 10
464.052418298796
 20
113.834500896701
 40
11.617140733011
100
AcDbArc
 50
-7.418717533493
 51
7.418717533493
  0
ARC
  5
174
100
AcDbEntity
  8
1
  6
CONTINUOUS
 62
           2
100
AcDbCircle
 10
478.718369804616
 20
113.834500896701
 40
3.485351853986
100
AcDbArc
 50
154.50879029922
 51
-154.50879029922
  0
ARC
  5
173
100
AcDbEntity
  8
1
  6
CONTINUOUS
 62
           2
100
AcDbCircle
 10
462.158016266153
 20
113.834500896701
 40
12.758900130132
100
AcDbArc
 50
-6.751592126445
 51
6.751592126445
  0
ARC
  5
172
100
AcDbEntity
  8
1
  6
CONTINUOUS
 62
           2
100
AcDbCircle
 10
477.974007175313
 20
113.834500896701
 40
3.484913045948
100
AcDbArc
 50
154.505350476308
 51
-154.505350476308
  0
ARC
  5
171
100
AcDbEntity
  8
1
  6
CONTINUOUS
 62
           2
100
AcDbCircle
 10
460.015465001107
 20
113.834500896701
 40
14.164017398402
100
AcDbArc
 50
-6.079146186505
 51
6.079146186505
  0
ARC
  5
170
100
AcDbEntity
  8
1
  6
CONTINUOUS
 62
           2
100
AcDbCircle
 10
477.24743186011
 20
113.834500896701
 40
3.486744322978
100
AcDbArc
 50
154.519699500671
 51
-154.519699500671
  0
ARC
  5
16F
100
AcDbEntity
  8
1
  6
CONTINUOUS
 62
           2
100
AcDbCircle
 10
457.524302276025
 20
113.834500896701
 40
15.933486681262
100
AcDbArc
 50
-5.40190149711
 51
5.40190149711
  0
ARC
  5
16E
100
AcDbEntity
  8
1
  6
CONTINUOUS
 62
           2
100
AcDbCircle
 10
476.539176305937
 20
113.834500896701
 40
3.490852727858
100
AcDbArc
 50
154.551830042914
 51
-154.551830042914
  0
ARC
  5
16D
100
AcDbEntity
  8
1
  6
CONTINUOUS
 62
           2
100
AcDbCircle
 10
454.524828739244
 20
113.834500896701
 40
18.227527892434
100
AcDbArc
 50
-4.720386142617
 51
4.720386142617
  0
ARC
  5
16C
100
AcDbEntity
  8
1
  6
CONTINUOUS
 62
           2
100
AcDbCircle
 10
475.849770179114
 20
113.834500896701
 40
3.497254094398
100
AcDbArc
 50
154.60172567543
 51
-154.60172567543
  0
ARC
  5
16B
100
AcDbEntity
  8
1
  6
CONTINUOUS
 62
           2
100
AcDbCircle
 10
450.747237771376
 20
113.834500896701
 40
21.316456484135
100
AcDbArc
 50
-4.035133861235
 51
4.035133861235
  0
ARC
  5
16A
100
AcDbEntity
  8
1
  6
CONTINUOUS
 62
           2
100
AcDbCircle
 10
475.179740133433
 20
113.834500896701
 40
3.505973186145
100
AcDbArc
 50
154.669360845128
 51
-154.669360845128
  0
ARC
  5
169
100
AcDbEntity
  8
1
  6
CONTINUOUS
 62
           2
100
AcDbCircle
 10
445.697439030938
 20
113.834500896701
 40
25.694859534421
100
AcDbArc
 50
-3.346683374421
 51
3.346683374421
  0
ARC
  5
168
100
AcDbEntity
  8
1
  6
CONTINUOUS
 62
           2
100
AcDbCircle
 10
474.529609666386
 20
113.834500896701
 40
3.517043914628
100
AcDbArc
 50
154.75470083137
 51
-154.754700831371
  0
ARC
  5
167
100
AcDbEntity
  8
1
  6
CONTINUOUS
 62
           2
100
AcDbCircle
 10
438.363608784511
 20
113.834500896701
 40
32.375045058725
100
AcDbArc
 50
-2.655577695328
 51
2.655577695328
  0
ARC
  5
166
100
AcDbEntity
  8
1
  6
CONTINUOUS
 62
           2
100
AcDbCircle
 10
473.899899067427
 20
113.834500896701
 40
3.530509640761
100
AcDbArc
 50
154.85770168936
 51
-154.85770168936
  0
ARC
  5
165
100
AcDbEntity
  8
1
  6
CONTINUOUS
 62
           2
100
AcDbCircle
 10
426.298667475454
 20
113.834500896701
 40
43.804564091825
100
AcDbArc
 50
-1.962363419031
 51
1.962363419031
  0
ARC
  5
164
100
AcDbEntity
  8
1
  6
CONTINUOUS
 62
           2
100
AcDbCircle
 10
473.291125463594
 20
113.834500896701
 40
3.546423564479
100
AcDbArc
 50
154.978310179366
 51
-154.978310179366
  0
ARC
  5
163
100
AcDbEntity
  8
1
  6
CONTINUOUS
 62
           2
100
AcDbCircle
 10
401.680116744756
 20
113.834500896701
 40
67.806373326915
100
AcDbArc
 50
-1.267589997405
 51
1.267589997405
  0
ARC
  5
162
100
AcDbEntity
  8
1
  6
CONTINUOUS
 62
           2
100
AcDbCircle
 10
472.70380296943
 20
113.834500896701
 40
3.564849209292
100
AcDbArc
 50
155.116463682383
 51
-155.116463682383
  0
ARC
  5
161
100
AcDbEntity
  8
1
  6
CONTINUOUS
 62
           2
100
AcDbCircle
 10
499.535705275958
 20
113.834500896701
 40
4.258384511749
100
AcDbArc
 50
159.37523215223
 51
-159.37523215223
  0
ARC
  5
160
100
AcDbEntity
  8
1
  6
CONTINUOUS
 62
           2
100
AcDbCircle
 10
491.347430486358
 20
113.834500896701
 40
4.462477764082
100
AcDbArc
 50
-19.641640154099
 51
19.641640154099
  0
ARC
  5
15F
100
AcDbEntity
  8
1
  6
CONTINUOUS
 62
           2
100
AcDbCircle
 10
498.524272329941
 20
113.834500896701
 40
4.182274477279
100
AcDbArc
 50
158.982288920195
 51
-158.982288920195
  0
ARC
  5
15E
100
AcDbEntity
  8
1
  6
CONTINUOUS
 62
           2
100
AcDbCircle
 10
490.455326533955
 20
113.834500896701
 40
4.426799753689
100
AcDbArc
 50
-19.806535123547
 51
19.806535123547
  0
ARC
  5
15D
100
AcDbEntity
  8
1
  6
CONTINUOUS
 62
           2
100
AcDbCircle
 10
497.519700284135
 20
113.834500896701
 40
4.111828132055
100
AcDbArc
 50
158.60464882998
 51
-158.60464882998
  0
ARC
  5
15C
100
AcDbEntity
  8
1
  6
CONTINUOUS
 62
           2
100
AcDbCircle
 10
489.444421883198
 20
113.834500896701
 40
4.503935970311
100
AcDbArc
 50
-19.453518993301
 51
19.453518993301
  0
ARC
  5
15B
100
AcDbEntity
  8
1
  6
CONTINUOUS
 62
           2
100
AcDbCircle
 10
496.522251653746
 20
113.834500896701
 40
4.04663420089
100
AcDbArc
 50
158.24253629118
 51
-158.24253629118
  0
ARC
  5
15A
100
AcDbEntity
  8
1
  6
CONTINUOUS
 62
           2
100
AcDbCircle
 10
488.387317948937
 20
113.834500896701
 40
4.626491377872
100
AcDbArc
 50
-18.918312085972
 51
18.918312085972
  0
ARC
  5
159
100
AcDbEntity
  8
1
  6
CONTINUOUS
 62
           2
100
AcDbCircle
 10
495.532232634922
 20
113.834500896701
 40
3.986326439102
100
AcDbArc
 50
157.896164047626
 51
-157.896164047626
  0
ARC
  5
158
100
AcDbEntity
  8
1
  6
CONTINUOUS
 62
           2
100
AcDbCircle
 10
487.34362015238
 20
113.834500896701
 40
4.738926913463
100
AcDbArc
 50
-18.453043450043
 51
18.453043450043
  0
ARC
  5
157
100
AcDbEntity
  8
1
  6
CONTINUOUS
 62
           2
100
AcDbCircle
 10
494.549987137968
 20
113.834500896701
 40
3.93057815077
100
AcDbArc
 50
157.565733331159
 51
-157.565733331159
  0
ARC
  5
156
100
AcDbEntity
  8
1
  6
CONTINUOUS
 62
           2
100
AcDbCircle
 10
486.293236617239
 20
113.834500896701
 40
4.860875152144
100
AcDbArc
 50
-17.974061475119
 51
17.974061475119
  0
ARC
  5
155
100
AcDbEntity
  8
1
  6
CONTINUOUS
 62
           2
100
AcDbCircle
 10
493.575891641487
 20
113.834500896701
 40
3.879097526581
100
AcDbArc
 50
157.251434022233
 51
-157.251434022233
  0
ARC
  5
154
100
AcDbEntity
  8
1
  6
CONTINUOUS
 62
           2
100
AcDbCircle
 10
485.235843518005
 20
113.834500896701
 40
4.993329605339
100
AcDbArc
 50
-17.481675180076
 51
17.481675180076
  0
ARC
  5
153
100
AcDbEntity
  8
1
  6
CONTINUOUS
 62
           2
100
AcDbCircle
 10
492.610350731673
 20
113.834500896701
 40
3.831623665164
100
AcDbArc
 50
156.953444815456
 51
-156.953444815456
  0
ARC
  5
152
100
AcDbEntity
  8
1
  6
CONTINUOUS
 62
           2
100
AcDbCircle
 10
484.17096407778
 20
113.834500896701
 40
5.137434213712
100
AcDbArc
 50
-16.976205993236
 51
16.976205993236
  0
ARC
  5
151
100
AcDbEntity
  8
1
  6
CONTINUOUS
 62
           2
100
AcDbCircle
 10
491.653793216585
 20
113.834500896701
 40
3.787923167384
100
AcDbArc
 50
156.671933388193
 51
-156.671933388193
  0
ARC
  5
150
100
AcDbEntity
  8
1
  6
CONTINUOUS
 62
           2
100
AcDbCircle
 10
483.097939101808
 20
113.834500896701
 40
5.294512332415
100
AcDbArc
 50
-16.457987755401
 51
16.457987755401
  0
ARC
  5
14F
100
AcDbEntity
  8
1
  6
CONTINUOUS
 62
           2
100
AcDbCircle
 10
490.706668725535
 20
113.834500896701
 40
3.747787213378
100
AcDbArc
 50
156.407056570446
 51
-156.407056570446
  0
ARC
  5
14E
100
AcDbEntity
  8
1
  6
CONTINUOUS
 62
           2
100
AcDbCircle
 10
482.015890496632
 20
113.834500896701
 40
5.466102732865
100
AcDbArc
 50
-15.927366696466
 51
15.927366696466
  0
ARC
  5
14D
100
AcDbEntity
  8
1
  6
CONTINUOUS
 62
           2
100
AcDbCircle
 10
489.769444719985
 20
113.834500896701
 40
3.711029048402
100
AcDbArc
 50
156.158960514294
 51
-156.158960514294
  0
ARC
  5
14C
100
AcDbEntity
  8
1
  6
CONTINUOUS
 62
           2
100
AcDbCircle
 10
480.923675714073
 20
113.834500896701
 40
5.654004682214
100
AcDbArc
 50
-15.384701383868
 51
15.384701383868
  0
ARC
  5
14B
100
AcDbEntity
  8
1
  6
CONTINUOUS
 62
           7
100
AcDbCircle
 10
463.501779166136
 20
112.545079846256
 40
2.5
100
AcDbArc
 50
180.0
 51
-90.0
  0
ARC
  5
14A
100
AcDbEntity
  8
1
  6
CONTINUOUS
 62
           7
100
AcDbCircle
 10
464.001779166136
 20
115.045079846256
 40
3.0
100
AcDbArc
 50
90.0
 51
180.0
  0
ARC
  5
149
100
AcDbEntity
  8
1
  6
CONTINUOUS
 62
           7
100
AcDbCircle
 10
466.001779166136
 20
118.045079846256
 40
2.0
100
AcDbArc
 50
90.0
 51
180.0
  0
ARC
  5
148
100
AcDbEntity
  8
1
  6
CONTINUOUS
 62
           7
100
AcDbCircle
 10
526.001779166136
 20
118.045079846256
 40
2.0
100
AcDbArc
 50
0.0
 51
90.0
  0
ARC
  5
147
100
AcDbEntity
  8
1
  6
CONTINUOUS
 62
           7
100
AcDbCircle
 10
528.001779166136
 20
115.045079846256
 40
3.0
100
AcDbArc
 50
0.0
 51
90.0
  0
ARC
  5
146
100
AcDbEntity
  8
1
  6
CONTINUOUS
 62
           7
100
AcDbCircle
 10
528.501779166136
 20
112.545079846256
 40
2.5
100
AcDbArc
 50
-90.0
 51
0.0
  0
ARC
  5
145
100
AcDbEntity
  8
1
  6
CONTINUOUS
 62
           2
100
AcDbCircle
 10
511.079882618199
 20
113.834500896701
 40
5.654004682214
100
AcDbArc
 50
164.615298616132
 51
-164.615298616132
  0
ARC
  5
144
100
AcDbEntity
  8
1
  6
CONTINUOUS
 62
           2
100
AcDbCircle
 10
502.234113612287
 20
113.834500896701
 40
3.711029048402
100
AcDbArc
 50
-23.841039485704
 51
23.841039485704
  0
ARC
  5
143
100
AcDbEntity
  8
1
  6
CONTINUOUS
 62
           2
100
AcDbCircle
 10
509.987667835641
 20
113.834500896701
 40
5.466102732865
100
AcDbArc
 50
164.072633303534
 51
-164.072633303534
  0
ARC
  5
142
100
AcDbEntity
  8
1
  6
CONTINUOUS
 62
           2
100
AcDbCircle
 10
501.296889606737
 20
113.834500896701
 40
3.747787213378
100
AcDbArc
 50
-23.592943429552
 51
23.592943429552
  0
ARC
  5
141
100
AcDbEntity
  8
1
  6
CONTINUOUS
 62
           2
100
AcDbCircle
 10
508.905619230464
 20
113.834500896701
 40
5.294512332415
100
AcDbArc
 50
163.542012244599
 51
-163.542012244599
  0
ARC
  5
140
100
AcDbEntity
  8
1
  6
CONTINUOUS
 62
           2
100
AcDbCircle
 10
500.349765115687
 20
113.834500896701
 40
3.787923167384
100
AcDbArc
 50
-23.328066611808
 51
23.328066611808
  0
ARC
  5
13F
100
AcDbEntity
  8
1
  6
CONTINUOUS
 62
           2
100
AcDbCircle
 10
507.832594254492
 20
113.834500896701
 40
5.137434213712
100
AcDbArc
 50
163.023794006763
 51
-163.023794006763
  0
ARC
  5
13E
100
AcDbEntity
  8
1
  6
CONTINUOUS
 62
           2
100
AcDbCircle
 10
499.3932076006
 20
113.834500896701
 40
3.831623665164
100
AcDbArc
 50
-23.046555184544
 51
23.046555184544
  0
ARC
  5
13D
100
AcDbEntity
  8
1
  6
CONTINUOUS
 62
           2
100
AcDbCircle
 10
506.767714814267
 20
113.834500896701
 40
4.993329605339
100
AcDbArc
 50
162.518324819923
 51
-162.518324819923
  0
ARC
  5
13C
100
AcDbEntity
  8
1
  6
CONTINUOUS
 62
           2
100
AcDbCircle
 10
498.427666690786
 20
113.834500896701
 40
3.879097526581
100
AcDbArc
 50
-22.748565977767
 51
22.748565977767
  0
ARC
  5
13B
100
AcDbEntity
  8
1
  6
CONTINUOUS
 62
           2
100
AcDbCircle
 10
505.710321715033
 20
113.834500896701
 40
4.860875152144
100
AcDbArc
 50
162.02593852488
 51
-162.02593852488
  0
ARC
  5
13A
100
AcDbEntity
  8
1
  6
CONTINUOUS
 62
           2
100
AcDbCircle
 10
497.453571194305
 20
113.834500896701
 40
3.93057815077
100
AcDbArc
 50
-22.434266668841
 51
22.434266668841
  0
ARC
  5
139
100
AcDbEntity
  8
1
  6
CONTINUOUS
 62
           2
100
AcDbCircle
 10
504.659938179892
 20
113.834500896701
 40
4.738926913463
100
AcDbArc
 50
161.546956549956
 51
-161.546956549956
  0
ARC
  5
138
100
AcDbEntity
  8
1
  6
CONTINUOUS
 62
           2
100
AcDbCircle
 10
496.471325697351
 20
113.834500896701
 40
3.986326439102
100
AcDbArc
 50
-22.103835952373
 51
22.103835952373
  0
ARC
  5
137
100
AcDbEntity
  8
1
  6
CONTINUOUS
 62
           2
100
AcDbCircle
 10
503.616240383335
 20
113.834500896701
 40
4.626491377872
100
AcDbArc
 50
161.081687914027
 51
-161.081687914027
  0
ARC
  5
136
100
AcDbEntity
  8
1
  6
CONTINUOUS
 62
           2
100
AcDbCircle
 10
495.481306678527
 20
113.834500896701
 40
4.04663420089
100
AcDbArc
 50
-21.757463708821
 51
21.757463708821
  0
ARC
  5
135
100
AcDbEntity
  8
1
  6
CONTINUOUS
 62
           2
100
AcDbCircle
 10
502.559136449075
 20
113.834500896701
 40
4.503935970311
100
AcDbArc
 50
160.546481006697
 51
-160.546481006697
  0
ARC
  5
134
100
AcDbEntity
  8
1
  6
CONTINUOUS
 62
           2
100
AcDbCircle
 10
494.483858048138
 20
113.834500896701
 40
4.111828132056
100
AcDbArc
 50
-21.395351170019
 51
21.395351170019
  0
ARC
  5
133
100
AcDbEntity
  8
1
  6
CONTINUOUS
 62
           2
100
AcDbCircle
 10
501.548231798317
 20
113.834500896701
 40
4.426799753689
100
AcDbArc
 50
160.193464876453
 51
-160.193464876453
  0
ARC
  5
132
100
AcDbEntity
  8
1
  6
CONTINUOUS
 62
           2
100
AcDbCircle
 10
493.479286002332
 20
113.834500896701
 40
4.182274477279
100
AcDbArc
 50
-21.017711079805
 51
21.017711079805
  0
ARC
  5
131
100
AcDbEntity
  8
1
  6
CONTINUOUS
 62
           2
100
AcDbCircle
 10
500.656127845914
 20
113.834500896701
 40
4.462477764082
100
AcDbArc
 50
160.358359845901
 51
-160.358359845901
  0
ARC
  5
130
100
AcDbEntity
  8
1
  6
CONTINUOUS
 62
           2
100
AcDbCircle
 10
492.467853056314
 20
113.834500896701
 40
4.258384511749
100
AcDbArc
 50
-20.62476784777
 51
20.62476784777
  0
ARC
  5
12F
100
AcDbEntity
  8
1
  6
CONTINUOUS
 62
           2
100
AcDbCircle
 10
519.299755362842
 20
113.834500896701
 40
3.564849209292
100
AcDbArc
 50
-24.883536317615
 51
24.883536317615
  0
ARC
  5
12E
100
AcDbEntity
  8
1
  6
CONTINUOUS
 62
           2
100
AcDbCircle
 10
590.323441587516
 20
113.834500896701
 40
67.806373326915
100
AcDbArc
 50
178.732410002594
 51
-178.732410002594
  0
ARC
  5
12D
100
AcDbEntity
  8
1
  6
CONTINUOUS
 62
           2
100
AcDbCircle
 10
518.712432868678
 20
113.834500896701
 40
3.546423564479
100
AcDbArc
 50
-25.021689820635
 51
25.021689820635
  0
ARC
  5
12C
100
AcDbEntity
  8
1
  6
CONTINUOUS
 62
           2
100
AcDbCircle
 10
565.704890856819
 20
113.834500896701
 40
43.804564091826
100
AcDbArc
 50
178.037636580969
 51
-178.037636580969
  0
ARC
  5
12B
100
AcDbEntity
  8
1
  6
CONTINUOUS
 62
           2
100
AcDbCircle
 10
518.103659264845
 20
113.834500896701
 40
3.530509640761
100
AcDbArc
 50
-25.14229831064
 51
25.14229831064
  0
ARC
  5
12A
100
AcDbEntity
  8
1
  6
CONTINUOUS
 62
           2
100
AcDbCircle
 10
553.639949547761
 20
113.834500896701
 40
32.375045058725
100
AcDbArc
 50
177.344422304671
 51
-177.344422304671
  0
ARC
  5
129
100
AcDbEntity
  8
1
  6
CONTINUOUS
 62
           2
100
AcDbCircle
 10
517.473948665886
 20
113.834500896701
 40
3.517043914628
100
AcDbArc
 50
-25.245299168628
 51
25.245299168628
  0
ARC
  5
128
100
AcDbEntity
  8
1
  6
CONTINUOUS
 62
           2
100
AcDbCircle
 10
546.306119301334
 20
113.834500896701
 40
25.694859534421
100
AcDbArc
 50
176.653316625579
 51
-176.653316625579
  0
ARC
  5
127
100
AcDbEntity
  8
1
  6
CONTINUOUS
 62
           2
100
AcDbCircle
 10
516.82381819884
 20
113.834500896701
 40
3.505973186145
100
AcDbArc
 50
-25.330639154872
 51
25.330639154872
  0
ARC
  5
126
100
AcDbEntity
  8
1
  6
CONTINUOUS
 62
           2
100
AcDbCircle
 10
541.256320560896
 20
113.834500896701
 40
21.316456484135
100
AcDbArc
 50
175.964866138765
 51
-175.964866138765
  0
ARC
  5
125
100
AcDbEntity
  8
1
  6
CONTINUOUS
 62
           2
100
AcDbCircle
 10
516.153788153159
 20
113.834500896701
 40
3.497254094398
100
AcDbArc
 50
-25.398274324568
 51
25.398274324568
  0
ARC
  5
124
100
AcDbEntity
  8
1
  6
CONTINUOUS
 62
           2
100
AcDbCircle
 10
537.478729593028
 20
113.834500896701
 40
18.227527892434
100
AcDbArc
 50
175.279613857382
 51
-175.279613857382
  0
ARC
  5
123
100
AcDbEntity
  8
1
  6
CONTINUOUS
 62
           2
100
AcDbCircle
 10
515.464382026335
 20
113.834500896701
 40
3.490852727858
100
AcDbArc
 50
-25.448169957084
 51
25.448169957084
  0
ARC
  5
122
100
AcDbEntity
  8
1
  6
CONTINUOUS
 62
           2
100
AcDbCircle
 10
534.479256056248
 20
113.834500896701
 40
15.933486681262
100
AcDbArc
 50
174.59809850289
 51
-174.59809850289
  0
ARC
  5
121
100
AcDbEntity
  8
1
  6
CONTINUOUS
 62
           2
100
AcDbCircle
 10
514.756126472162
 20
113.834500896701
 40
3.486744322977
100
AcDbArc
 50
-25.480300499329
 51
25.480300499329
  0
ARC
  5
120
100
AcDbEntity
  8
1
  6
CONTINUOUS
 62
           2
100
AcDbCircle
 10
531.988093331165
 20
113.834500896701
 40
14.164017398402
100
AcDbArc
 50
173.920853813494
 51
-173.920853813494
  0
ARC
  5
11F
100
AcDbEntity
  8
1
  6
CONTINUOUS
 62
           2
100
AcDbCircle
 10
514.029551156959
 20
113.834500896701
 40
3.484913045948
100
AcDbArc
 50
-25.49464952369
 51
25.49464952369
  0
ARC
  5
11E
100
AcDbEntity
  8
1
  6
CONTINUOUS
 62
           2
100
AcDbCircle
 10
529.845542066119
 20
113.834500896701
 40
12.758900130132
100
AcDbArc
 50
173.248407873555
 51
-173.248407873555
  0
ARC
  5
11D
100
AcDbEntity
  8
1
  6
CONTINUOUS
 62
           2
100
AcDbCircle
 10
513.285188527656
 20
113.834500896701
 40
3.485351853986
100
AcDbArc
 50
-25.491209700778
 51
25.491209700778
  0
ARC
  5
11C
100
AcDbEntity
  8
1
  6
CONTINUOUS
 62
           2
100
AcDbCircle
 10
527.951140033476
 20
113.834500896701
 40
11.61714073301
100
AcDbArc
 50
172.581282466506
 51
-172.581282466506
  0
ARC
  5
11B
100
AcDbEntity
  8
1
  6
CONTINUOUS
 62
           2
100
AcDbCircle
 10
512.523573494317
 20
113.834500896701
 40
3.488062433832
100
AcDbArc
 50
-25.469982787247
 51
25.469982787247
  0
ARC
  5
11A
100
AcDbEntity
  8
1
  6
CONTINUOUS
 62
           2
100
AcDbCircle
 10
526.238611365264
 20
113.834500896701
 40
10.671920453188
100
AcDbArc
 50
171.919992453658
 51
-171.919992453658
  0
ARC
  5
119
100
AcDbEntity
  8
1
  6
CONTINUOUS
 62
           2
100
AcDbCircle
 10
511.745243028366
 20
113.834500896701
 40
3.493055216473
100
AcDbArc
 50
-25.430979628698
 51
25.430979628698
  0
ARC
  5
118
100
AcDbEntity
  8
1
  6
CONTINUOUS
 62
           2
100
AcDbCircle
 10
524.662538647601
 20
113.834500896701
 40
9.877268412421
100
AcDbArc
 50
171.26504518102
 51
-171.26504518102
  0
ARC
  5
117
100
AcDbEntity
  8
1
  6
CONTINUOUS
 62
           2
100
AcDbCircle
 10
510.950735676579
 20
113.834500896701
 40
3.500349468308
100
AcDbArc
 50
-25.37422017773
 51
25.37422017773
  0
ARC
  5
116
100
AcDbEntity
  8
1
  6
CONTINUOUS
 62
           2
100
AcDbCircle
 10
523.190820656364
 20
113.834500896701
 40
9.200519742961
100
AcDbArc
 50
170.616939916073
 51
-170.616939916073
  0
ARC
  5
115
100
AcDbEntity
  8
1
  6
CONTINUOUS
 62
           2
100
AcDbCircle
 10
510.140590989597
 20
113.834500896701
 40
3.509973460276
100
AcDbArc
 50
-25.299733526934
 51
25.299733526934
  0
ARC
  5
114
100
AcDbEntity
  8
1
  6
CONTINUOUS
 62
           2
100
AcDbCircle
 10
521.800183211514
 20
113.834500896701
 40
8.617826848436
100
AcDbArc
 50
169.976167316159
 51
-169.976167316159
  0
ARC
  5
113
100
AcDbEntity
  8
1
  6
CONTINUOUS
 62
           2
100
AcDbCircle
 10
509.315348862466
 20
113.834500896701
 40
3.521964717751
100
AcDbArc
 50
-25.207557956645
 51
25.207557956645
  0
ARC
  5
112
100
AcDbEntity
  8
1
  6
CONTINUOUS
 62
           2
100
AcDbCircle
 10
520.473392320861
 20
113.834500896701
 40
8.11137296123
100
AcDbArc
 50
169.343208929924
 51
-169.343208929924
  0
ARC
  5
111
100
AcDbEntity
  8
1
  6
CONTINUOUS
 62
           2
100
AcDbCircle
 10
508.475548783298
 20
113.834500896701
 40
3.536370355379
100
AcDbArc
 50
-25.097740997079
 51
25.097740997079
  0
ARC
  5
110
100
AcDbEntity
  8
1
  6
CONTINUOUS
 62
           2
100
AcDbCircle
 10
519.197461221712
 20
113.834500896701
 40
7.667579604487
100
AcDbArc
 50
168.718536732984
 51
-168.718536732984
  0
ARC
  5
10F
100
AcDbEntity
  8
1
  6
CONTINUOUS
 62
           2
100
AcDbCircle
 10
507.621728984688
 20
113.834500896701
 40
3.553247502543
100
AcDbArc
 50
-24.970339504414
 51
24.970339504414
  0
ARC
  5
10E
100
AcDbEntity
  8
1
  6
CONTINUOUS
 62
           2
100
AcDbCircle
 10
517.962460926754
 20
113.834500896701
 40
7.275917564802
100
AcDbArc
 50
168.102612698737
 51
-168.102612698737
  0
ARC
  5
10D
100
AcDbEntity
  8
1
  6
CONTINUOUS
 62
           2
100
AcDbCircle
 10
506.75442549087
 20
113.834500896701
 40
3.572663826766
100
AcDbArc
 50
-24.825419750246
 51
24.825419750246
  0
ARC
  5
10C
100
AcDbEntity
  8
1
  6
CONTINUOUS
 62
           2
100
AcDbCircle
 10
516.760709817635
 20
113.834500896701
 40
6.92809691875
100
AcDbArc
 50
167.495888404975
 51
-167.495888404975
  0
ARC
  5
10B
100
AcDbEntity
  8
1
  6
CONTINUOUS
 62
           2
100
AcDbCircle
 10
505.874171051753
 20
113.834500896701
 40
3.594698164233
100
AcDbArc
 50
-24.663057523759
 51
24.663057523759
  0
ARC
  5
10A
100
AcDbEntity
  8
1
  6
CONTINUOUS
 62
           2
100
AcDbCircle
 10
515.586208421918
 20
113.834500896701
 40
6.617502248615
100
AcDbArc
 50
166.898804676691
 51
-166.898804676691
  0
ARC
  5
109
100
AcDbEntity
  8
1
  6
CONTINUOUS
 62
           2
100
AcDbCircle
 10
512.183727995618
 20
113.834500896701
 40
5.860334884235
100
AcDbArc
 50
165.169637358709
 51
-165.169637358709
  0
ARC
  5
108
100
AcDbEntity
  8
1
  6
CONTINUOUS
 62
           2
100
AcDbCircle
 10
503.160954476819
 20
113.834500896701
 40
3.677481816621
100
AcDbArc
 50
-24.072219138784
 51
24.072219138784
  0
ARC
  5
107
100
AcDbEntity
  8
1
  6
CONTINUOUS
 62
           2
100
AcDbCircle
 10
513.301063331847
 20
113.834500896701
 40
6.087600085997
100
AcDbArc
 50
165.735266563817
 51
-165.735266563817
  0
ARC
  5
106
100
AcDbEntity
  8
1
  6
CONTINUOUS
 62
           2
100
AcDbCircle
 10
504.076916687782
 20
113.834500896701
 40
3.646996692582
100
AcDbArc
 50
-24.286357094226
 51
24.286357094226
  0
ARC
  5
105
100
AcDbEntity
  8
1
  6
CONTINUOUS
 62
           2
100
AcDbCircle
 10
514.434236942865
 20
113.834500896701
 40
6.338790616457
100
AcDbArc
 50
166.31179126525
 51
-166.31179126525
  0
ARC
  5
104
100
AcDbEntity
  8
1
  6
CONTINUOUS
 62
           2
100
AcDbCircle
 10
504.981493952864
 20
113.834500896701
 40
3.619441268709
100
AcDbArc
 50
-24.483338245836
 51
24.483338245836
  0
ARC
  5
103
100
AcDbEntity
  8
1
  6
CONTINUOUS
 62
           2
100
AcDbCircle
 10
519.844500271576
 20
113.834500896701
 40
3.604596123776
100
AcDbArc
 50
-24.677155667191
 51
24.590837528831
  0
ARC
  5
102
100
AcDbEntity
  8
1
  6
CONTINUOUS
 62
           2
100
AcDbCircle
 10
520.400309064386
 20
113.831392734015
 40
3.620412090921
100
AcDbArc
 50
-24.459430925235
 51
24.530399701578
  0
ARC
  5
101
100
AcDbEntity
  8
1
  6
CONTINUOUS
 62
           2
100
AcDbCircle
 10
520.822034186399
 20
113.834500896701
 40
3.749816661957
100
AcDbArc
 50
-23.579401087122
 51
23.579401087122
  0
ARC
  5
100
100
AcDbEntity
  8
1
  6
CONTINUOUS
 62
           2
100
AcDbCircle
 10
521.217947536314
 20
113.834500896701
 40
3.886393884379
100
AcDbArc
 50
-22.703469693996
 51
22.703469693996
  0
ARC
  5
FF
100
AcDbEntity
  8
1
  6
CONTINUOUS
 62
           2
100
AcDbCircle
 10
521.578275787763
 20
113.834500896701
 40
4.037564339838
100
AcDbArc
 50
-21.808841425828
 51
21.808841425828
  0
ARC
  5
FE
100
AcDbEntity
  8
1
  6
CONTINUOUS
 62
           2
100
AcDbCircle
 10
521.900464484971
 20
113.834500896701
 40
4.205513536726
100
AcDbArc
 50
-20.896113764367
 51
20.896113764367
  0
ARC
  5
FD
100
AcDbEntity
  8
1
  6
CONTINUOUS
 62
           2
100
AcDbCircle
 10
522.181513748101
 20
113.834500896701
 40
4.392887815245
100
AcDbArc
 50
-19.965912957256
 51
19.965912957256
  0
ARC
  5
FC
100
AcDbEntity
  8
1
  6
CONTINUOUS
 62
           2
100
AcDbCircle
 10
522.417850608857
 20
113.834500896701
 40
4.602922266817
100
AcDbArc
 50
-19.018893981278
 51
19.018893981278
  0
ARC
  5
FB
100
AcDbEntity
  8
1
  6
CONTINUOUS
 62
           2
100
AcDbCircle
 10
522.605156180526
 20
113.834500896701
 40
4.839613807755
100
AcDbArc
 50
-18.055740372433
 51
18.055740372433
  0
ARC
  5
FA
100
AcDbEntity
  8
1
  6
CONTINUOUS
 62
           2
100
AcDbCircle
 10
522.738127907606
 20
113.834500896701
 40
5.107959161877
100
AcDbArc
 50
-17.077163917013
 51
17.077163917013
  0
ARC
  5
F9
100
AcDbEntity
  8
1
  6
CONTINUOUS
 62
           2
100
AcDbCircle
 10
522.810146604295
 20
113.834500896701
 40
5.414288042617
100
AcDbArc
 50
-16.083904198823
 51
16.083904198823
  0
ARC
  5
F8
100
AcDbEntity
  8
1
  6
CONTINUOUS
 62
           2
100
AcDbCircle
 10
522.812800682224
 20
113.834500896701
 40
5.766739134089
100
AcDbArc
 50
-15.076727998822
 51
15.076727998822
  0
ARC
  5
F7
100
AcDbEntity
  8
1
  6
CONTINUOUS
 62
           2
100
AcDbCircle
 10
522.735190675811
 20
113.834500896701
 40
6.17595576258
100
AcDbArc
 50
-14.056428544738
 51
14.056428544738
  0
ARC
  5
F6
100
AcDbEntity
  8
1
  6
CONTINUOUS
 62
           2
100
AcDbCircle
 10
522.562885912615
 20
113.834500896701
 40
6.65612941095
100
AcDbArc
 50
-13.023824609532
 51
13.023824609532
  0
ARC
  5
F5
100
AcDbEntity
  8
1
  6
CONTINUOUS
 62
           2
100
AcDbCircle
 10
522.276311974252
 20
113.834500896701
 40
7.22661243025
100
AcDbArc
 50
-11.979759459062
 51
11.979759459062
  0
ARC
  5
F4
100
AcDbEntity
  8
1
  6
CONTINUOUS
 62
           2
100
AcDbCircle
 10
521.848170509952
 20
113.834500896701
 40
7.91449838633
100
AcDbArc
 50
-10.925099650771
 51
10.925099650771
  0
ARC
  5
F3
100
AcDbEntity
  8
1
  6
CONTINUOUS
 62
           2
100
AcDbCircle
 10
521.239138797912
 20
113.834500896701
 40
8.758922646205
100
AcDbArc
 50
-9.860733686813
 51
9.860733686813
  0
ARC
  5
F2
100
AcDbEntity
  8
1
  6
CONTINUOUS
 62
           2
100
AcDbCircle
 10
520.390343844825
 20
113.834500896701
 40
9.818588413659
100
AcDbArc
 50
-8.787570526605
 51
8.787570526605
  0
ARC
  5
F1
100
AcDbEntity
  8
1
  6
CONTINUOUS
 62
           2
100
AcDbCircle
 10
519.209385574506
 20
113.834500896701
 40
11.185743663087
100
AcDbArc
 50
-7.706537965358
 51
7.706537965358
  0
ARC
  5
F0
100
AcDbEntity
  8
1
  6
CONTINUOUS
 62
           2
100
AcDbCircle
 10
517.542383057862
 20
113.834500896701
 40
13.014135019229
100
AcDbArc
 50
-6.618580886742
 51
6.618580886742
  0
ARC
  5
EF
100
AcDbEntity
  8
1
  6
CONTINUOUS
 62
           2
100
AcDbCircle
 10
511.983958363608
 20
113.834500896701
 40
18.718020116969
100
AcDbArc
 50
-4.596422182699
 51
4.596422182699
  0
ARC
  5
EE
100
AcDbEntity
  8
1
  6
CONTINUOUS
 62
           7
100
AcDbCircle
 10
525.562515589087
 20
-0.391862260863
 40
6.0
100
AcDbArc
 50
-58.644680567663
 51
0.597732010135
  0
ARC
  5
ED
100
AcDbEntity
  8
1
  6
CONTINUOUS
 62
           6
100
AcDbCircle
 10
526.806641848254
 20
-0.391862260863
 40
6.0
100
AcDbArc
 50
176.882918637988
 51
179.402267989865
  0
ARC
  5
EC
100
AcDbEntity
  8
1
  6
CONTINUOUS
 62
           7
100
AcDbCircle
 10
526.806641848254
 20
-0.391862260863
 40
6.0
100
AcDbArc
 50
179.402267989865
 51
-121.355319432336
  0
ARC
  5
EB
100
AcDbEntity
  8
1
  6
CONTINUOUS
 62
           7
100
AcDbCircle
 10
526.806641848254
 20
16.560655743077
 40
6.0
100
AcDbArc
 50
121.355319432336
 51
-179.402267989865
  0
ARC
  5
EA
100
AcDbEntity
  8
1
  6
CONTINUOUS
 62
           6
100
AcDbCircle
 10
526.806641848254
 20
16.560655743077
 40
6.0
100
AcDbArc
 50
-179.402267989865
 51
-176.882918637988
  0
ARC
  5
E9
100
AcDbEntity
  8
1
  6
CONTINUOUS
 62
           7
100
AcDbCircle
 10
525.562515589087
 20
16.560655743077
 40
6.0
100
AcDbArc
 50
-0.597732010135
 51
58.644680567663
  0
ARC
  5
E8
100
AcDbEntity
  8
1
  6
CONTINUOUS
 62
           7
100
AcDbCircle
 10
523.78724798632
 20
8.084396741107
 40
15.285468820184
100
AcDbArc
 50
164.2759487856
 51
-164.2759487856
  0
ARC
  5
E7
100
AcDbEntity
  8
1
  6
CONTINUOUS
 62
           7
100
AcDbCircle
 10
512.627342606725
 20
1.144978636663
 40
4.12557868374
100
AcDbArc
 50
153.446899855888
 51
-155.979322918957
  0
ARC
  5
E6
100
AcDbEntity
  8
1
  6
CONTINUOUS
 62
           7
100
AcDbCircle
 10
502.216310345952
 20
8.084396741107
 40
15.285468820184
100
AcDbArc
 50
-15.7240512144
 51
15.7240512144
  0
ARC
  5
E5
100
AcDbEntity
  8
1
  6
CONTINUOUS
 62
           7
100
AcDbCircle
 10
513.376215725547
 20
1.144978636663
 40
4.12557868374
100
AcDbArc
 50
-24.020677081031
 51
26.553100144113
  0
ARC
  5
E4
100
AcDbEntity
  8
1
  6
CONTINUOUS
 62
           7
100
AcDbCircle
 10
513.376215725547
 20
15.023814845551
 40
4.12557868374
100
AcDbArc
 50
-26.553100144113
 51
24.020677081031
  0
ARC
  5
E3
100
AcDbEntity
  8
1
  6
CONTINUOUS
 62
           7
100
AcDbCircle
 10
512.627342606725
 20
15.023814845551
 40
4.12557868374
100
AcDbArc
 50
155.979322918957
 51
-153.446899855888
  0
LINE
  5
E2
100
AcDbEntity
  8
1
  6
CONTINUOUS
 62
           7
100
AcDbLine
 10
499.651779166136
 20
-8.767896814111
 11
499.201779166136
 21
-22.147328933442
  0
LINE
  5
E1
100
AcDbEntity
  8
1
  6
CONTINUOUS
 62
           7
100
AcDbLine
 10
492.801779166136
 20
-22.147328933442
 11
492.351779166136
 21
-8.767896814111
  0
LINE
  5
E0
100
AcDbEntity
  8
1
  6
CONTINUOUS
 62
           7
100
AcDbLine
 10
494.788309611852
 20
-23.915603258893
 11
497.215248720421
 21
-23.915603258893
  0
LINE
  5
DF
100
AcDbEntity
  8
1
  6
DOT_CENTER
 62
           2
100
AcDbLine
 10
495.386610687213
 20
8.084396741107
 11
510.57550446065
 21
8.084396741107
  0
LINE
  5
DE
100
AcDbEntity
  8
1
  6
CONTINUOUS
 62
           7
100
AcDbLine
 10
487.001779166136
 20
20.484396741107
 11
487.001779166136
 21
0.084396741107
  0
LINE
  5
DD
100
AcDbEntity
  8
1
  6
CONTINUOUS
 62
           7
100
AcDbLine
 10
496.001779166136
 20
20.48681972235
 11
487.001779166136
 21
20.48681972235
  0
LINE
  5
DC
100
AcDbEntity
  8
1
  6
CONTINUOUS
 62
           7
100
AcDbLine
 10
496.001779166136
 20
20.48681972235
 11
505.001779166136
 21
20.48681972235
  0
LINE
  5
DB
100
AcDbEntity
  8
1
  6
CONTINUOUS
 62
           7
100
AcDbLine
 10
505.001779166136
 20
0.084396741107
 11
505.001779166136
 21
20.48681972235
  0
LINE
  5
DA
100
AcDbEntity
  8
1
  6
CONTINUOUS
 62
           7
100
AcDbLine
 10
488.001779166136
 20
20.715902515854
 11
488.251779166136
 21
20.48681972235
  0
LINE
  5
D9
100
AcDbEntity
  8
1
  6
CONTINUOUS
 62
           7
100
AcDbLine
 10
463.301779166136
 20
104.645079846256
 11
463.301779166136
 21
44.715902515854
  0
LINE
  5
D8
100
AcDbEntity
  8
1
  6
CONTINUOUS
 62
           7
100
AcDbLine
 10
496.001779166136
 20
104.645079846256
 11
529.601779166136
 21
104.645079846256
  0
LINE
  5
D7
100
AcDbEntity
  8
1
  6
CONTINUOUS
 62
           7
100
AcDbLine
 10
462.401779166136
 20
104.645079846256
 11
496.001779166136
 21
104.645079846256
  0
LINE
  5
D6
100
AcDbEntity
  8
1
  6
CONTINUOUS
 62
           7
100
AcDbLine
 10
487.301779166136
 20
20.715902515854
 11
496.001779166136
 21
20.715902515854
  0
LINE
  5
D5
100
AcDbEntity
  8
1
  6
CONTINUOUS
 62
           7
100
AcDbLine
 10
461.501779166136
 20
105.545079846256
 11
461.501779166136
 21
106.495079846256
  0
LINE
  5
D4
100
AcDbEntity
  8
1
  6
CONTINUOUS
 62
           7
100
AcDbLine
 10
496.001779166136
 20
107.645079846256
 11
462.651779166136
 21
107.645079846256
  0
LINE
  5
D3
100
AcDbEntity
  8
1
  6
CONTINUOUS
 62
           7
100
AcDbLine
 10
529.351779166136
 20
107.645079846256
 11
496.001779166136
 21
107.645079846256
  0
LINE
  5
D2
100
AcDbEntity
  8
1
  6
CONTINUOUS
 62
           7
100
AcDbLine
 10
530.501779166136
 20
106.495079846256
 11
530.501779166136
 21
105.545079846256
  0
LINE
  5
D1
100
AcDbEntity
  8
1
  6
CONTINUOUS
 62
           7
100
AcDbLine
 10
528.701779166136
 20
44.715902515854
 11
528.701779166136
 21
104.645079846256
  0
LINE
  5
D0
100
AcDbEntity
  8
1
  6
CONTINUOUS
 62
           7
100
AcDbLine
 10
496.001779166136
 20
20.715902515854
 11
504.701779166136
 21
20.715902515854
  0
LINE
  5
CF
100
AcDbEntity
  8
1
  6
CONTINUOUS
 62
           7
100
AcDbLine
 10
517.501779166136
 20
12.234396741107
 11
519.484578718671
 21
12.234396741107
  0
LINE
  5
CE
100
AcDbEntity
  8
1
  6
CONTINUOUS
 62
           7
100
AcDbLine
 10
519.484578718671
 20
3.934396741107
 11
517.501779166136
 21
3.934396741107
  0
LINE
  5
CD
100
AcDbEntity
  8
1
  6
DOT_CENTER
 62
           2
100
AcDbLine
 10
496.001779166136
 20
127.99197163278
 11
496.001779166136
 21
-26.155591483593
  0
LINE
  5
CC
100
AcDbEntity
  8
1
  6
CONTINUOUS
 62
           7
100
AcDbLine
 10
496.001779166136
 20
110.045079846256
 11
463.501779166136
 21
110.045079846256
  0
LINE
  5
CB
100
AcDbEntity
  8
1
  6
CONTINUOUS
 62
           7
100
AcDbLine
 10
464.001779166136
 20
118.045079846256
 11
496.001779166136
 21
118.045079846256
  0
LINE
  5
CA
100
AcDbEntity
  8
1
  6
CONTINUOUS
 62
           2
100
AcDbLine
 10
461.030178460646
 20
115.334500896701
 11
461.030178460646
 21
112.169327331131
  0
LINE
  5
C9
100
AcDbEntity
  8
1
  6
CONTINUOUS
 62
           2
100
AcDbLine
 10
461.080647128294
 20
111.922087346032
 11
461.080647128294
 21
115.334500896701
  0
LINE
  5
C8
100
AcDbEntity
  8
1
  6
CONTINUOUS
 62
           2
100
AcDbLine
 10
461.156304622284
 20
112.761637518406
 11
461.156304622284
 21
115.334500896701
  0
LINE
  5
C7
100
AcDbEntity
  8
1
  6
CONTINUOUS
 62
           2
100
AcDbLine
 10
461.257096370401
 20
115.334500896701
 11
461.257096370401
 21
112.526304658458
  0
LINE
  5
C6
100
AcDbEntity
  8
1
  6
CONTINUOUS
 62
           2
100
AcDbLine
 10
461.382949670942
 20
115.334500896701
 11
461.382949670942
 21
112.334500896701
  0
LINE
  5
C5
100
AcDbEntity
  8
1
  6
CONTINUOUS
 62
           2
100
AcDbLine
 10
461.53377374515
 20
115.334500896701
 11
461.53377374515
 21
112.334500896701
  0
LINE
  5
C4
100
AcDbEntity
  8
1
  6
CONTINUOUS
 62
           2
100
AcDbLine
 10
461.709459802696
 20
115.334500896701
 11
461.709459802696
 21
112.334500896701
  0
LINE
  5
C3
100
AcDbEntity
  8
1
  6
CONTINUOUS
 62
           2
100
AcDbLine
 10
461.909881120152
 20
115.334500896701
 11
461.909881120152
 21
112.334500896701
  0
LINE
  5
C2
100
AcDbEntity
  8
1
  6
CONTINUOUS
 62
           2
100
AcDbLine
 10
462.134893132395
 20
115.334500896701
 11
462.134893132395
 21
112.334500896701
  0
LINE
  5
C1
100
AcDbEntity
  8
1
  6
CONTINUOUS
 62
           2
100
AcDbLine
 10
462.384333536882
 20
115.334500896701
 11
462.384333536882
 21
112.334500896701
  0
LINE
  5
C0
100
AcDbEntity
  8
1
  6
CONTINUOUS
 62
           2
100
AcDbLine
 10
462.658022410723
 20
115.334500896701
 11
462.658022410723
 21
112.334500896701
  0
LINE
  5
BF
100
AcDbEntity
  8
1
  6
CONTINUOUS
 62
           2
100
AcDbLine
 10
462.955762340457
 20
112.334500896701
 11
462.955762340457
 21
115.334500896701
  0
LINE
  5
BE
100
AcDbEntity
  8
1
  6
CONTINUOUS
 62
           2
100
AcDbLine
 10
463.277338564449
 20
112.334500896701
 11
463.277338564449
 21
115.334500896701
  0
LINE
  5
BD
100
AcDbEntity
  8
1
  6
CONTINUOUS
 62
           2
100
AcDbLine
 10
463.622519127802
 20
112.334500896701
 11
463.622519127802
 21
115.334500896701
  0
LINE
  5
BC
100
AcDbEntity
  8
1
  6
CONTINUOUS
 62
           2
100
AcDbLine
 10
463.99105504966
 20
112.334500896701
 11
463.99105504966
 21
115.334500896701
  0
LINE
  5
BB
100
AcDbEntity
  8
1
  6
CONTINUOUS
 62
           2
100
AcDbLine
 10
464.382680502808
 20
112.334500896701
 11
464.382680502808
 21
115.334500896701
  0
LINE
  5
BA
100
AcDbEntity
  8
1
  6
CONTINUOUS
 62
           2
100
AcDbLine
 10
464.797113005407
 20
112.334500896701
 11
464.797113005407
 21
115.334500896701
  0
LINE
  5
B9
100
AcDbEntity
  8
1
  6
CONTINUOUS
 62
           2
100
AcDbLine
 10
465.234053624758
 20
112.334500896701
 11
465.234053624758
 21
115.334500896701
  0
LINE
  5
B8
100
AcDbEntity
  8
1
  6
CONTINUOUS
 62
           2
100
AcDbLine
 10
465.693187192915
 20
112.334500896701
 11
465.693187192915
 21
115.334500896701
  0
LINE
  5
B7
100
AcDbEntity
  8
1
  6
CONTINUOUS
 62
           2
100
AcDbLine
 10
466.174182534026
 20
112.334500896701
 11
466.174182534026
 21
115.334500896701
  0
LINE
  5
B6
100
AcDbEntity
  8
1
  6
CONTINUOUS
 62
           2
100
AcDbLine
 10
466.676692703205
 20
112.334500896701
 11
466.676692703205
 21
115.334500896701
  0
LINE
  5
B5
100
AcDbEntity
  8
1
  6
CONTINUOUS
 62
           2
100
AcDbLine
 10
467.200355236791
 20
112.334500896701
 11
467.200355236791
 21
115.334500896701
  0
LINE
  5
B4
100
AcDbEntity
  8
1
  6
CONTINUOUS
 62
           2
100
AcDbLine
 10
467.744792413792
 20
112.334500896701
 11
467.744792413792
 21
115.334500896701
  0
LINE
  5
B3
100
AcDbEntity
  8
1
  6
CONTINUOUS
 62
           2
100
AcDbLine
 10
468.312443805909
 20
112.334500896701
 11
468.309611528341
 21
115.32828457133
  0
LINE
  5
B2
100
AcDbEntity
  8
1
  6
CONTINUOUS
 62
           2
100
AcDbLine
 10
468.89440517295
 20
112.334500896701
 11
468.881389191585
 21
115.334500896701
  0
LINE
  5
B1
100
AcDbEntity
  8
1
  6
CONTINUOUS
 62
           2
100
AcDbLine
 10
469.469896680592
 20
112.334500896701
 11
469.469896680592
 21
115.334500896701
  0
LINE
  5
B0
100
AcDbEntity
  8
1
  6
CONTINUOUS
 62
           2
100
AcDbLine
 10
470.077541778876
 20
115.334500896701
 11
470.077541778876
 21
112.334500896701
  0
LINE
  5
AF
100
AcDbEntity
  8
1
  6
CONTINUOUS
 62
           2
100
AcDbLine
 10
470.703886188307
 20
112.334500896701
 11
470.703886188307
 21
115.334500896701
  0
LINE
  5
AE
100
AcDbEntity
  8
1
  6
CONTINUOUS
 62
           2
100
AcDbLine
 10
471.348478122828
 20
115.334500896701
 11
471.348478122828
 21
112.334500896701
  0
LINE
  5
AD
100
AcDbEntity
  8
1
  6
CONTINUOUS
 62
           2
100
AcDbLine
 10
471.983198922144
 20
112.393741111841
 11
472.01085263433
 21
115.334500896701
  0
LINE
  5
AC
100
AcDbEntity
  8
1
  6
CONTINUOUS
 62
           2
100
AcDbLine
 10
472.690531948023
 20
115.334500896701
 11
472.690531948023
 21
112.403014888829
  0
LINE
  5
AB
100
AcDbEntity
  8
1
  6
CONTINUOUS
 62
           2
100
AcDbLine
 10
473.387025807057
 20
112.334500896701
 11
473.387025807057
 21
115.334500896701
  0
LINE
  5
AA
100
AcDbEntity
  8
1
  6
CONTINUOUS
 62
           2
100
AcDbLine
 10
474.099831826145
 20
115.334500896701
 11
474.099831826145
 21
112.334500896701
  0
LINE
  5
A9
100
AcDbEntity
  8
1
  6
CONTINUOUS
 62
           2
100
AcDbLine
 10
474.828435853944
 20
112.334500896701
 11
474.828435853944
 21
115.334500896701
  0
LINE
  5
A8
100
AcDbEntity
  8
1
  6
CONTINUOUS
 62
           2
100
AcDbLine
 10
475.572312343907
 20
115.334500896701
 11
475.572312343907
 21
112.334500896701
  0
LINE
  5
A7
100
AcDbEntity
  8
1
  6
CONTINUOUS
 62
           2
100
AcDbLine
 10
476.330924733366
 20
112.334500896701
 11
476.330924733366
 21
115.334500896701
  0
LINE
  5
A6
100
AcDbEntity
  8
1
  6
CONTINUOUS
 62
           2
100
AcDbLine
 10
477.103725830562
 20
115.334500896701
 11
477.103725830562
 21
112.334500896701
  0
LINE
  5
A5
100
AcDbEntity
  8
1
  6
CONTINUOUS
 62
           2
100
AcDbLine
 10
477.890158209332
 20
115.334500896701
 11
477.853871217116
 21
112.412426202455
  0
LINE
  5
A4
100
AcDbEntity
  8
1
  6
CONTINUOUS
 62
           2
100
AcDbLine
 10
478.689654611185
 20
115.334500896701
 11
478.689654611185
 21
112.334500896701
  0
LINE
  5
A3
100
AcDbEntity
  8
1
  6
CONTINUOUS
 62
           2
100
AcDbLine
 10
479.501638354471
 20
115.334500896701
 11
479.501638354471
 21
112.334500896701
  0
LINE
  5
A2
100
AcDbEntity
  8
1
  6
CONTINUOUS
 62
           2
100
AcDbLine
 10
480.325523750347
 20
112.334500896701
 11
480.325523750347
 21
115.334500896701
  0
LINE
  5
A1
100
AcDbEntity
  8
1
  6
CONTINUOUS
 62
           2
100
AcDbLine
 10
481.160716525232
 20
115.334500896701
 11
481.160716525232
 21
112.334500896701
  0
LINE
  5
A0
100
AcDbEntity
  8
1
  6
CONTINUOUS
 62
           2
100
AcDbLine
 10
483.728076659694
 20
115.334500896701
 11
483.704108222595
 21
112.387789778789
  0
LINE
  5
9F
100
AcDbEntity
  8
1
  6
CONTINUOUS
 62
           2
100
AcDbLine
 10
484.602399644318
 20
112.334500896701
 11
484.602399644318
 21
115.334500896701
  0
LINE
  5
9E
100
AcDbEntity
  8
1
  6
CONTINUOUS
 62
           2
100
AcDbLine
 10
485.484945071184
 20
115.334500896701
 11
485.484945071184
 21
112.334500896701
  0
LINE
  5
9D
100
AcDbEntity
  8
1
  6
CONTINUOUS
 62
           2
100
AcDbLine
 10
482.862606771832
 20
112.334500896701
 11
482.862606771832
 21
115.334500896701
  0
LINE
  5
9C
100
AcDbEntity
  8
1
  6
CONTINUOUS
 62
           2
100
AcDbLine
 10
482.006614249462
 20
115.334500896701
 11
482.006614249462
 21
112.334500896701
  0
LINE
  5
9B
100
AcDbEntity
  8
1
  6
CONTINUOUS
 62
           2
100
AcDbLine
 10
486.375076354872
 20
115.334500896701
 11
486.375076354872
 21
112.334500896701
  0
LINE
  5
9A
100
AcDbEntity
  8
1
  6
CONTINUOUS
 62
           2
100
AcDbLine
 10
487.272151438236
 20
115.334500896701
 11
487.272151438236
 21
112.334500896701
  0
LINE
  5
99
100
AcDbEntity
  8
1
  6
CONTINUOUS
 62
           2
100
AcDbLine
 10
488.175523255527
 20
115.334500896701
 11
488.175523255527
 21
112.334500896701
  0
LINE
  5
98
100
AcDbEntity
  8
1
  6
CONTINUOUS
 62
           2
100
AcDbLine
 10
489.084540199122
 20
115.334500896701
 11
489.084540199122
 21
112.334500896701
  0
LINE
  5
97
100
AcDbEntity
  8
1
  6
CONTINUOUS
 62
           2
100
AcDbLine
 10
489.998546589535
 20
115.334500896701
 11
489.998546589535
 21
112.334500896701
  0
LINE
  5
96
100
AcDbEntity
  8
1
  6
CONTINUOUS
 62
           2
100
AcDbLine
 10
490.916883148359
 20
115.334500896701
 11
490.916883148359
 21
112.334500896701
  0
LINE
  5
95
100
AcDbEntity
  8
1
  6
CONTINUOUS
 62
           2
100
AcDbLine
 10
491.838887473813
 20
115.334500896701
 11
491.838887473813
 21
112.334500896701
  0
LINE
  5
94
100
AcDbEntity
  8
1
  6
CONTINUOUS
 62
           2
100
AcDbLine
 10
492.763894518532
 20
115.334500896701
 11
492.763894518532
 21
112.334500896701
  0
LINE
  5
93
100
AcDbEntity
  8
1
  6
CONTINUOUS
 62
           2
100
AcDbLine
 10
493.691237069271
 20
115.334500896701
 11
493.691237069271
 21
112.334500896701
  0
LINE
  5
92
100
AcDbEntity
  8
1
  6
CONTINUOUS
 62
           2
100
AcDbLine
 10
494.620246228171
 20
115.334500896701
 11
494.620246228171
 21
112.334500896701
  0
LINE
  5
91
100
AcDbEntity
  8
1
  6
CONTINUOUS
 62
           2
100
AcDbLine
 10
495.550251895237
 20
115.334500896701
 11
495.550251895237
 21
112.334500896701
  0
LINE
  5
90
100
AcDbEntity
  8
1
  6
CONTINUOUS
 62
           7
100
AcDbLine
 10
461.001779166136
 20
115.045079846256
 11
461.001779166136
 21
112.545079846256
  0
LINE
  5
8F
100
AcDbEntity
  8
1
  6
CONTINUOUS
 62
           7
100
AcDbLine
 10
463.501779166136
 20
110.045079846256
 11
463.701779166136
 21
107.645079846256
  0
LINE
  5
8E
100
AcDbEntity
  8
1
  6
CONTINUOUS
 62
           7
100
AcDbLine
 10
496.001779166136
 20
120.045079846256
 11
466.001779166136
 21
120.045079846256
  0
LINE
  5
8D
100
AcDbEntity
  8
1
  6
CONTINUOUS
 62
           7
100
AcDbLine
 10
526.001779166136
 20
120.045079846256
 11
496.001779166136
 21
120.045079846256
  0
LINE
  5
8C
100
AcDbEntity
  8
1
  6
CONTINUOUS
 62
           7
100
AcDbLine
 10
528.301779166136
 20
107.645079846256
 11
528.501779166136
 21
110.045079846256
  0
LINE
  5
8B
100
AcDbEntity
  8
1
  6
CONTINUOUS
 62
           7
100
AcDbLine
 10
531.001779166136
 20
112.545079846256
 11
531.001779166136
 21
115.045079846256
  0
LINE
  5
8A
100
AcDbEntity
  8
1
  6
CONTINUOUS
 62
           2
100
AcDbLine
 10
496.453306437035
 20
112.334500896701
 11
496.453306437035
 21
115.334500896701
  0
LINE
  5
89
100
AcDbEntity
  8
1
  6
CONTINUOUS
 62
           2
100
AcDbLine
 10
497.383312104102
 20
112.334500896701
 11
497.383312104102
 21
115.334500896701
  0
LINE
  5
88
100
AcDbEntity
  8
1
  6
CONTINUOUS
 62
           2
100
AcDbLine
 10
498.312321263001
 20
112.334500896701
 11
498.312321263001
 21
115.334500896701
  0
LINE
  5
87
100
AcDbEntity
  8
1
  6
CONTINUOUS
 62
           2
100
AcDbLine
 10
499.23966381374
 20
112.334500896701
 11
499.23966381374
 21
115.334500896701
  0
LINE
  5
86
100
AcDbEntity
  8
1
  6
CONTINUOUS
 62
           2
100
AcDbLine
 10
500.164670858459
 20
112.334500896701
 11
500.164670858459
 21
115.334500896701
  0
LINE
  5
85
100
AcDbEntity
  8
1
  6
CONTINUOUS
 62
           2
100
AcDbLine
 10
501.086675183913
 20
112.334500896701
 11
501.086675183913
 21
115.334500896701
  0
LINE
  5
84
100
AcDbEntity
  8
1
  6
CONTINUOUS
 62
           2
100
AcDbLine
 10
502.005011742738
 20
112.334500896701
 11
502.005011742738
 21
115.334500896701
  0
LINE
  5
83
100
AcDbEntity
  8
1
  6
CONTINUOUS
 62
           2
100
AcDbLine
 10
502.91901813315
 20
112.334500896701
 11
502.91901813315
 21
115.334500896701
  0
LINE
  5
82
100
AcDbEntity
  8
1
  6
CONTINUOUS
 62
           2
100
AcDbLine
 10
503.828035076745
 20
112.334500896701
 11
503.828035076745
 21
115.334500896701
  0
LINE
  5
81
100
AcDbEntity
  8
1
  6
CONTINUOUS
 62
           2
100
AcDbLine
 10
504.731406894036
 20
112.334500896701
 11
504.731406894036
 21
115.334500896701
  0
LINE
  5
80
100
AcDbEntity
  8
1
  6
CONTINUOUS
 62
           2
100
AcDbLine
 10
505.628481977401
 20
112.334500896701
 11
505.628481977401
 21
115.334500896701
  0
LINE
  5
7F
100
AcDbEntity
  8
1
  6
CONTINUOUS
 62
           2
100
AcDbLine
 10
509.99694408281
 20
112.334500896701
 11
509.99694408281
 21
115.334500896701
  0
LINE
  5
7E
100
AcDbEntity
  8
1
  6
CONTINUOUS
 62
           2
100
AcDbLine
 10
509.14095156044
 20
115.334500896701
 11
509.14095156044
 21
112.334500896701
  0
LINE
  5
7D
100
AcDbEntity
  8
1
  6
CONTINUOUS
 62
           2
100
AcDbLine
 10
506.518613261088
 20
112.334500896701
 11
506.518613261088
 21
115.334500896701
  0
LINE
  5
7C
100
AcDbEntity
  8
1
  6
CONTINUOUS
 62
           2
100
AcDbLine
 10
507.401158687954
 20
115.334500896701
 11
507.401158687954
 21
112.334500896701
  0
LINE
  5
7B
100
AcDbEntity
  8
1
  6
CONTINUOUS
 62
           2
100
AcDbLine
 10
508.299450109677
 20
112.387789778789
 11
508.275481672579
 21
115.334500896701
  0
LINE
  5
7A
100
AcDbEntity
  8
1
  6
CONTINUOUS
 62
           2
100
AcDbLine
 10
510.842841807041
 20
112.334500896701
 11
510.842841807041
 21
115.334500896701
  0
LINE
  5
79
100
AcDbEntity
  8
1
  6
CONTINUOUS
 62
           2
100
AcDbLine
 10
511.678034581925
 20
115.334500896701
 11
511.678034581925
 21
112.334500896701
  0
LINE
  5
78
100
AcDbEntity
  8
1
  6
CONTINUOUS
 62
           2
100
AcDbLine
 10
512.501919977801
 20
112.334500896701
 11
512.501919977801
 21
115.334500896701
  0
LINE
  5
77
100
AcDbEntity
  8
1
  6
CONTINUOUS
 62
           2
100
AcDbLine
 10
513.313903721088
 20
112.334500896701
 11
513.313903721088
 21
115.334500896701
  0
LINE
  5
76
100
AcDbEntity
  8
1
  6
CONTINUOUS
 62
           2
100
AcDbLine
 10
514.149687115156
 20
112.412426202455
 11
514.113400122941
 21
115.334500896701
  0
LINE
  5
75
100
AcDbEntity
  8
1
  6
CONTINUOUS
 62
           2
100
AcDbLine
 10
514.89983250171
 20
112.334500896701
 11
514.89983250171
 21
115.334500896701
  0
LINE
  5
74
100
AcDbEntity
  8
1
  6
CONTINUOUS
 62
           2
100
AcDbLine
 10
515.672633598906
 20
115.334500896701
 11
515.672633598906
 21
112.334500896701
  0
LINE
  5
73
100
AcDbEntity
  8
1
  6
CONTINUOUS
 62
           2
100
AcDbLine
 10
516.431245988366
 20
112.334500896701
 11
516.431245988366
 21
115.334500896701
  0
LINE
  5
72
100
AcDbEntity
  8
1
  6
CONTINUOUS
 62
           2
100
AcDbLine
 10
517.175122478328
 20
115.334500896701
 11
517.175122478328
 21
112.334500896701
  0
LINE
  5
71
100
AcDbEntity
  8
1
  6
CONTINUOUS
 62
           2
100
AcDbLine
 10
517.903726506127
 20
112.334500896701
 11
517.903726506127
 21
115.334500896701
  0
LINE
  5
70
100
AcDbEntity
  8
1
  6
CONTINUOUS
 62
           2
100
AcDbLine
 10
518.616532525216
 20
115.334500896701
 11
518.616532525216
 21
112.334500896701
  0
LINE
  5
6F
100
AcDbEntity
  8
1
  6
CONTINUOUS
 62
           2
100
AcDbLine
 10
519.313026384249
 20
112.403014888829
 11
519.313026384249
 21
115.334500896701
  0
LINE
  5
6E
100
AcDbEntity
  8
1
  6
CONTINUOUS
 62
           2
100
AcDbLine
 10
519.992705697942
 20
115.334500896701
 11
520.020359410128
 21
112.393741111841
  0
LINE
  5
6D
100
AcDbEntity
  8
1
  6
CONTINUOUS
 62
           2
100
AcDbLine
 10
520.655080209444
 20
112.334500896701
 11
520.655080209444
 21
115.334500896701
  0
LINE
  5
6C
100
AcDbEntity
  8
1
  6
CONTINUOUS
 62
           2
100
AcDbLine
 10
521.299672143965
 20
115.334500896701
 11
521.299672143965
 21
112.334500896701
  0
LINE
  5
6B
100
AcDbEntity
  8
1
  6
CONTINUOUS
 62
           2
100
AcDbLine
 10
521.926016553396
 20
112.334500896701
 11
521.926016553396
 21
115.334500896701
  0
LINE
  5
6A
100
AcDbEntity
  8
1
  6
CONTINUOUS
 62
           2
100
AcDbLine
 10
522.533661651681
 20
115.334500896701
 11
522.533661651681
 21
112.334500896701
  0
LINE
  5
69
100
AcDbEntity
  8
1
  6
CONTINUOUS
 62
           2
100
AcDbLine
 10
523.122169140688
 20
115.334500896701
 11
523.109153159322
 21
112.334500896701
  0
LINE
  5
68
100
AcDbEntity
  8
1
  6
CONTINUOUS
 62
           2
100
AcDbLine
 10
523.693946803932
 20
115.32828457133
 11
523.691114526363
 21
112.334500896701
  0
LINE
  5
67
100
AcDbEntity
  8
1
  6
CONTINUOUS
 62
           2
100
AcDbLine
 10
524.25876591848
 20
115.334500896701
 11
524.25876591848
 21
112.334500896701
  0
LINE
  5
66
100
AcDbEntity
  8
1
  6
CONTINUOUS
 62
           2
100
AcDbLine
 10
524.803203095481
 20
115.334500896701
 11
524.803203095481
 21
112.334500896701
  0
LINE
  5
65
100
AcDbEntity
  8
1
  6
CONTINUOUS
 62
           2
100
AcDbLine
 10
525.326865629067
 20
115.334500896701
 11
525.326865629067
 21
112.334500896701
  0
LINE
  5
64
100
AcDbEntity
  8
1
  6
CONTINUOUS
 62
           2
100
AcDbLine
 10
525.829375798246
 20
115.334500896701
 11
525.829375798246
 21
112.334500896701
  0
LINE
  5
63
100
AcDbEntity
  8
1
  6
CONTINUOUS
 62
           2
100
AcDbLine
 10
526.310371139357
 20
115.334500896701
 11
526.310371139357
 21
112.334500896701
  0
LINE
  5
62
100
AcDbEntity
  8
1
  6
CONTINUOUS
 62
           2
100
AcDbLine
 10
526.769504707514
 20
115.334500896701
 11
526.769504707514
 21
112.334500896701
  0
LINE
  5
61
100
AcDbEntity
  8
1
  6
CONTINUOUS
 62
           2
100
AcDbLine
 10
527.206445326865
 20
115.334500896701
 11
527.206445326865
 21
112.334500896701
  0
LINE
  5
60
100
AcDbEntity
  8
1
  6
CONTINUOUS
 62
           2
100
AcDbLine
 10
527.620877829465
 20
115.334500896701
 11
527.620877829465
 21
112.334500896701
  0
LINE
  5
5F
100
AcDbEntity
  8
1
  6
CONTINUOUS
 62
           2
100
AcDbLine
 10
528.012503282612
 20
115.334500896701
 11
528.012503282612
 21
112.334500896701
  0
LINE
  5
5E
100
AcDbEntity
  8
1
  6
CONTINUOUS
 62
           2
100
AcDbLine
 10
528.381039204471
 20
115.334500896701
 11
528.381039204471
 21
112.334500896701
  0
LINE
  5
5D
100
AcDbEntity
  8
1
  6
CONTINUOUS
 62
           2
100
AcDbLine
 10
528.726219767823
 20
115.334500896701
 11
528.726219767823
 21
112.334500896701
  0
LINE
  5
5C
100
AcDbEntity
  8
1
  6
CONTINUOUS
 62
           2
100
AcDbLine
 10
529.047795991816
 20
115.334500896701
 11
529.047795991816
 21
112.334500896701
  0
LINE
  5
5B
100
AcDbEntity
  8
1
  6
CONTINUOUS
 62
           2
100
AcDbLine
 10
529.345535921549
 20
112.334500896701
 11
529.345535921549
 21
115.334500896701
  0
LINE
  5
5A
100
AcDbEntity
  8
1
  6
CONTINUOUS
 62
           2
100
AcDbLine
 10
529.61922479539
 20
112.334500896701
 11
529.61922479539
 21
115.334500896701
  0
LINE
  5
59
100
AcDbEntity
  8
1
  6
CONTINUOUS
 62
           2
100
AcDbLine
 10
529.868665199877
 20
112.334500896701
 11
529.868665199877
 21
115.334500896701
  0
LINE
  5
58
100
AcDbEntity
  8
1
  6
CONTINUOUS
 62
           2
100
AcDbLine
 10
530.09367721212
 20
112.334500896701
 11
530.09367721212
 21
115.334500896701
  0
LINE
  5
57
100
AcDbEntity
  8
1
  6
CONTINUOUS
 62
           2
100
AcDbLine
 10
530.294098529576
 20
112.334500896701
 11
530.294098529576
 21
115.334500896701
  0
LINE
  5
56
100
AcDbEntity
  8
1
  6
CONTINUOUS
 62
           2
100
AcDbLine
 10
530.469784587122
 20
112.334500896701
 11
530.469784587122
 21
115.334500896701
  0
LINE
  5
55
100
AcDbEntity
  8
1
  6
CONTINUOUS
 62
           2
100
AcDbLine
 10
530.62060866133
 20
112.334500896701
 11
530.62060866133
 21
115.334500896701
  0
LINE
  5
54
100
AcDbEntity
  8
1
  6
CONTINUOUS
 62
           2
100
AcDbLine
 10
530.746461961871
 20
112.526304658458
 11
530.746461961871
 21
115.334500896701
  0
LINE
  5
53
100
AcDbEntity
  8
1
  6
CONTINUOUS
 62
           2
100
AcDbLine
 10
530.847253709988
 20
115.334500896701
 11
530.847253709988
 21
112.761637518406
  0
LINE
  5
52
100
AcDbEntity
  8
1
  6
CONTINUOUS
 62
           2
100
AcDbLine
 10
530.922911203978
 20
115.334500896701
 11
530.922911203978
 21
111.922087346032
  0
LINE
  5
51
100
AcDbEntity
  8
1
  6
CONTINUOUS
 62
           2
100
AcDbLine
 10
530.973379871626
 20
112.169327331131
 11
530.973379871626
 21
115.334500896701
  0
LINE
  5
50
100
AcDbEntity
  8
1
  6
CONTINUOUS
 62
           7
100
AcDbLine
 10
496.001779166136
 20
118.045079846256
 11
528.001779166136
 21
118.045079846256
  0
LINE
  5
4F
100
AcDbEntity
  8
1
  6
CONTINUOUS
 62
           7
100
AcDbLine
 10
528.501779166136
 20
110.045079846256
 11
496.001779166136
 21
110.045079846256
  0
LINE
  5
4E
100
AcDbEntity
  8
1
  6
CONTINUOUS
 62
           7
100
AcDbLine
 10
532.384578718671
 20
0.334396741107
 11
532.884578718671
 21
0.834396741107
  0
LINE
  5
4D
100
AcDbEntity
  8
1
  6
CONTINUOUS
 62
           6
100
AcDbLine
 10
520.673048170367
 20
0.181163155853
 11
520.815518826347
 21
-0.065603258893
  0
LINE
  5
4C
100
AcDbEntity
  8
1
  6
CONTINUOUS
 62
           7
100
AcDbLine
 10
528.684578718671
 20
-5.515603258893
 11
523.684578718671
 21
-5.515603258893
  0
LINE
  5
4B
100
AcDbEntity
  8
1
  6
CONTINUOUS
 62
           7
100
AcDbLine
 10
519.984578718671
 20
0.334396741107
 11
519.484578718671
 21
0.834396741107
  0
LINE
  5
4A
100
AcDbEntity
  8
1
  6
CONTINUOUS
 62
           7
100
AcDbLine
 10
532.884578718671
 20
0.834396741107
 11
532.884578718671
 21
8.084396741107
  0
LINE
  5
49
100
AcDbEntity
  8
1
  6
CONTINUOUS
 62
           7
100
AcDbLine
 10
520.673048170367
 20
0.181163155853
 11
520.584578718671
 21
0.334396741107
  0
LINE
  5
48
100
AcDbEntity
  8
1
  6
CONTINUOUS
 62
           7
100
AcDbLine
 10
519.484578718671
 20
8.084396741107
 11
519.484578718671
 21
0.834396741107
  0
LINE
  5
47
100
AcDbEntity
  8
1
  6
CONTINUOUS
 62
           7
100
AcDbLine
 10
519.984578718671
 20
0.334396741107
 11
532.384578718671
 21
0.334396741107
  0
LINE
  5
46
100
AcDbEntity
  8
1
  6
CONTINUOUS
 62
           7
100
AcDbLine
 10
532.384578718671
 20
15.834396741107
 11
519.984578718671
 21
15.834396741107
  0
LINE
  5
45
100
AcDbEntity
  8
1
  6
CONTINUOUS
 62
           7
100
AcDbLine
 10
519.484578718671
 20
15.334396741107
 11
519.484578718671
 21
8.084396741107
  0
LINE
  5
44
100
AcDbEntity
  8
1
  6
CONTINUOUS
 62
           7
100
AcDbLine
 10
520.584578718671
 20
15.834396741107
 11
520.673048170367
 21
15.987630326362
  0
LINE
  5
43
100
AcDbEntity
  8
1
  6
CONTINUOUS
 62
           7
100
AcDbLine
 10
532.884578718671
 20
8.084396741107
 11
532.884578718671
 21
15.334396741107
  0
LINE
  5
42
100
AcDbEntity
  8
1
  6
CONTINUOUS
 62
           7
100
AcDbLine
 10
519.484578718671
 20
15.334396741107
 11
519.984578718671
 21
15.834396741107
  0
LINE
  5
41
100
AcDbEntity
  8
1
  6
CONTINUOUS
 62
           7
100
AcDbLine
 10
523.684578718671
 20
21.684396741107
 11
528.684578718671
 21
21.684396741107
  0
LINE
  5
40
100
AcDbEntity
  8
1
  6
CONTINUOUS
 62
           6
100
AcDbLine
 10
520.815518826347
 20
16.234396741107
 11
520.673048170367
 21
15.987630326362
  0
LINE
  5
3F
100
AcDbEntity
  8
1
  6
CONTINUOUS
 62
           7
100
AcDbLine
 10
532.884578718671
 20
15.334396741107
 11
532.384578718671
 21
15.834396741107
  0
LINE
  5
3E
100
AcDbEntity
  8
1
  6
CONTINUOUS
 62
           7
100
AcDbLine
 10
531.696109266975
 20
15.987630326362
 11
531.784578718671
 21
15.834396741107
  0
LINE
  5
3D
100
AcDbEntity
  8
1
  6
CONTINUOUS
 62
           7
100
AcDbLine
 10
463.843825901674
 20
63.366636067844
 11
463.843825901674
 21
63.365399272417
  0
LINE
  5
3C
100
AcDbEntity
  8
1
  6
DOT_CENTER
 62
           2
100
AcDbLine
 10
495.526689241952
 20
8.084396741107
 11
538.662583830899
 21
8.084396741107
  0
LINE
  5
3B
100
AcDbEntity
  8
1
  6
CONTINUOUS
 62
           7
100
AcDbLine
 10
505.001779166136
 20
2.084396741107
 11
508.501779166136
 21
2.084396741107
  0
LINE
  5
3A
100
AcDbEntity
  8
1
  6
CONTINUOUS
 62
           7
100
AcDbLine
 10
508.501779166136
 20
14.084396741107
 11
505.001779166136
 21
14.084396741107
  0
LINE
  5
39
100
AcDbEntity
  8
1
  6
CONTINUOUS
 62
           7
100
AcDbLine
 10
503.751779166136
 20
20.48681972235
 11
504.001779166136
 21
20.715902515854
  0
LINE
  5
38
100
AcDbEntity
  8
1
  6
CONTINUOUS
 62
           7
100
AcDbLine
 10
508.501779166136
 20
16.084396741107
 11
508.501779166136
 21
0.084396741107
  0
LINE
  5
37
100
AcDbEntity
  8
1
  6
CONTINUOUS
 62
           7
100
AcDbLine
 10
517.501779166136
 20
0.084396741107
 11
517.062280795227
 21
-0.676836767151
  0
LINE
  5
36
100
AcDbEntity
  8
1
  6
CONTINUOUS
 62
           7
100
AcDbLine
 10
508.941277537045
 20
-0.676836767151
 11
508.501779166136
 21
0.084396741107
  0
LINE
  5
35
100
AcDbEntity
  8
1
  6
CONTINUOUS
 62
           7
100
AcDbLine
 10
517.501779166136
 20
16.084396741107
 11
517.501779166136
 21
0.084396741107
  0
LINE
  5
34
100
AcDbEntity
  8
1
  6
CONTINUOUS
 62
           7
100
AcDbLine
 10
509.073790896836
 20
3.941965386366
 11
516.929767435436
 21
3.941965386366
  0
LINE
  5
33
100
AcDbEntity
  8
1
  6
CONTINUOUS
 62
           7
100
AcDbLine
 10
517.066630240814
 20
2.989223788814
 11
508.936928091458
 21
2.989223788814
  0
LINE
  5
32
100
AcDbEntity
  8
1
  6
CONTINUOUS
 62
           7
100
AcDbLine
 10
508.941277537045
 20
-0.676836767151
 11
517.062280795227
 21
-0.676836767151
  0
LINE
  5
31
100
AcDbEntity
  8
1
  6
CONTINUOUS
 62
           7
100
AcDbLine
 10
517.062280795227
 20
16.845630249365
 11
508.941277537045
 21
16.845630249365
  0
LINE
  5
30
100
AcDbEntity
  8
1
  6
CONTINUOUS
 62
           7
100
AcDbLine
 10
508.936928091458
 20
13.1795696934
 11
517.066630240814
 21
13.1795696934
  0
LINE
  5
2F
100
AcDbEntity
  8
1
  6
CONTINUOUS
 62
           7
100
AcDbLine
 10
516.929767435436
 20
12.226828095848
 11
509.073790896836
 21
12.226828095848
  0
LINE
  5
2E
100
AcDbEntity
  8
1
  6
CONTINUOUS
 62
           7
100
AcDbLine
 10
508.501779166136
 20
16.084396741107
 11
508.941277537045
 21
16.845630249365
  0
LINE
  5
2D
100
AcDbEntity
  8
1
  6
CONTINUOUS
 62
           7
100
AcDbLine
 10
517.062280795227
 20
16.845630249365
 11
517.501779166136
 21
16.084396741107
  0
LINE
  5
2C
100
AcDbEntity
  8
1
  6
CONTINUOUS
 62
           7
100
AcDbLine
 10
508.936928091458
 20
13.1795696934
 11
509.073790896836
 21
12.226828095848
  0
LINE
  5
2B
100
AcDbEntity
  8
1
  6
CONTINUOUS
 62
           7
100
AcDbLine
 10
517.066630240814
 20
13.1795696934
 11
516.929767435436
 21
12.226828095848
  0
LINE
  5
2A
100
AcDbEntity
  8
1
  6
CONTINUOUS
 62
           7
100
AcDbLine
 10
509.073790896836
 20
3.941965386366
 11
508.936928091458
 21
2.989223788814
  0
LINE
  5
29
100
AcDbEntity
  8
1
  6
CONTINUOUS
 62
           7
100
AcDbLine
 10
516.929767435436
 20
3.941965386366
 11
517.066630240814
 21
2.989223788814
  0
ENDSEC
  0
SECTION
  2
OBJECTS
  0
DICTIONARY
  5
19
100
AcDbDictionary
  3
ACAD_GROUP
350
1A
  3
ACAD_MLINESTYLE
350
1B
  0
DICTIONARY
  5
1A
102
{ACAD_REACTORS
330
19
102
}
100
AcDbDictionary
  0
DICTIONARY
  5
1B
102
{ACAD_REACTORS
330
19
102
}
100
AcDbDictionary
  3
STANDARD
350
1C
  0
MLINESTYLE
  5
1C
102
{ACAD_REACTORS
330
1B
102
}
100
AcDbMlineStyle
  2
STANDARD
 70
           0
  3

 62
           0
 51
90.0
 52
90.0
 71
           2
 49
0.5
 62
         256
  6
BYLAYER
 49
-0.5
 62
         256
  6
BYLAYER
  0
ENDSEC
  0
EOF
