  0
SECTION
  2
HEADER
  9
$ACADVER
  1
AC1014
  9
$ACADMAINTVER
 70
           0
  9
$DWGCODEPAGE
  3
DOS932
  9
$INSBASE
 10
0.0
 20
0.0
 30
0.0
  9
$EXTMIN
 10
1.000000000000E+20
 20
1.000000000000E+20
 30
1.000000000000E+20
  9
$EXTMAX
 10
-1.000000000000E+20
 20
-1.000000000000E+20
 30
-1.000000000000E+20
  9
$LIMMIN
 10
0.0
 20
0.0
  9
$LIMMAX
 10
0.0
 20
0.0
  9
$ORTHOMODE
 70
           0
  9
$REGENMODE
 70
           1
  9
$FILLMODE
 70
           1
  9
$QTEXTMODE
 70
           0
  9
$MIRRTEXT
 70
           1
  9
$DRAGMODE
 70
           2
  9
$LTSCALE
 40
1.0
  9
$OSMODE
 70
           0
  9
$ATTMODE
 70
           1
  9
$TEXTSIZE
 40
0.2
  9
$TRACEWID
 40
0.05
  9
$TEXTSTYLE
  7
STANDARD
  9
$CLAYER
  8
0
  9
$CELTYPE
  6
CONTINUOUS
  9
$CECOLOR
 62
         256
  9
$CELTSCALE
 40
1.0
  9
$DELOBJ
 70
           1
  9
$DISPSILH
 70
           0
  9
$DIMSCALE
 40
1.0
  9
$DIMASZ
 40
0.18
  9
$DIMEXO
 40
0.0625
  9
$DIMDLI
 40
0.38
  9
$DIMRND
 40
0.0
  9
$DIMDLE
 40
0.0
  9
$DIMEXE
 40
0.18
  9
$DIMTP
 40
0.0
  9
$DIMTM
 40
0.0
  9
$DIMTXT
 40
0.18
  9
$DIMCEN
 40
0.09
  9
$DIMTSZ
 40
0.0
  9
$DIMTOL
 70
           0
  9
$DIMLIM
 70
           0
  9
$DIMTIH
 70
           1
  9
$DIMTOH
 70
           1
  9
$DIMSE1
 70
           0
  9
$DIMSE2
 70
           0
  9
$DIMTAD
 70
           0
  9
$DIMZIN
 70
           0
  9
$DIMBLK
  1

  9
$DIMASO
 70
           1
  9
$DIMSHO
 70
           1
  9
$DIMPOST
  1

  9
$DIMAPOST
  1

  9
$DIMALT
 70
           0
  9
$DIMALTD
 70
           2
  9
$DIMALTF
 40
25.4
  9
$DIMLFAC
 40
1.0
  9
$DIMTOFL
 70
           0
  9
$DIMTVP
 40
0.0
  9
$DIMTIX
 70
           0
  9
$DIMSOXD
 70
           0
  9
$DIMSAH
 70
           0
  9
$DIMBLK1
  1

  9
$DIMBLK2
  1

  9
$DIMSTYLE
  2
STANDARD
  9
$DIMCLRD
 70
           0
  9
$DIMCLRE
 70
           0
  9
$DIMCLRT
 70
           0
  9
$DIMTFAC
 40
1.0
  9
$DIMGAP
 40
0.09
  9
$DIMJUST
 70
           0
  9
$DIMSD1
 70
           0
  9
$DIMSD2
 70
           0
  9
$DIMTOLJ
 70
           1
  9
$DIMTZIN
 70
           0
  9
$DIMALTZ
 70
           0
  9
$DIMALTTZ
 70
           0
  9
$DIMFIT
 70
           3
  9
$DIMUPT
 70
           0
  9
$DIMUNIT
 70
           2
  9
$DIMDEC
 70
           4
  9
$DIMTDEC
 70
           4
  9
$DIMALTU
 70
           2
  9
$DIMALTTD
 70
           2
  9
$DIMTXSTY
  7
STANDARD
  9
$DIMAUNIT
 70
           0
  9
$LUNITS
 70
           2
  9
$LUPREC
 70
           4
  9
$SKETCHINC
 40
0.1
  9
$FILLETRAD
 40
0.0
  9
$AUNITS
 70
           0
  9
$AUPREC
 70
           0
  9
$MENU
  1
acad
  9
$ELEVATION
 40
0.0
  9
$PELEVATION
 40
0.0
  9
$THICKNESS
 40
0.0
  9
$LIMCHECK
 70
           0
  9
$BLIPMODE
 70
           1
  9
$CHAMFERA
 40
0.0
  9
$CHAMFERB
 40
0.0
  9
$CHAMFERC
 40
0.0
  9
$CHAMFERD
 40
0.0
  9
$SKPOLY
 70
           0
  9
$TDCREATE
 40
0.000000000
  9
$TDUPDATE
 40
0.000000000
  9
$TDINDWG
 40
0.0000000000
  9
$TDUSRTIMER
 40
0.0000000000
  9
$USRTIMER
 70
           1
  9
$ANGBASE
 50
0.0
  9
$ANGDIR
 70
           0
  9
$PDMODE
 70
           0
  9
$PDSIZE
 40
0.0
  9
$PLINEWID
 40
0.0
  9
$COORDS
 70
           0
  9
$SPLFRAME
 70
           0
  9
$SPLINETYPE
 70
           6
  9
$SPLINESEGS
 70
           8
  9
$ATTDIA
 70
           0
  9
$ATTREQ
 70
           1
  9
$HANDLING
 70
           1
  9
$HANDSEED
  5
1D6
  9
$SURFTAB1
 70
           6
  9
$SURFTAB2
 70
           6
  9
$SURFTYPE
 70
           6
  9
$SURFU
 70
           6
  9
$SURFV
 70
           6
  9
$UCSNAME
  2

  9
$UCSORG
 10
0.0
 20
0.0
 30
0.0
  9
$UCSXDIR
 10
1.0
 20
0.0
 30
0.0
  9
$UCSYDIR
 10
0.0
 20
1.0
 30
0.0
  9
$PUCSNAME
  2

  9
$PUCSORG
 10
0.0
 20
0.0
 30
0.0
  9
$PUCSXDIR
 10
1.0
 20
0.0
 30
0.0
  9
$PUCSYDIR
 10
0.0
 20
1.0
 30
0.0
  9
$USERI1
 70
           0
  9
$USERI2
 70
           0
  9
$USERI3
 70
           0
  9
$USERI4
 70
           0
  9
$USERI5
 70
           0
  9
$USERR1
 40
0.0
  9
$USERR2
 40
0.0
  9
$USERR3
 40
0.0
  9
$USERR4
 40
0.0
  9
$USERR5
 40
0.0
  9
$WORLDVIEW
 70
           1
  9
$SHADEDGE
 70
           3
  9
$SHADEDIF
 70
          70
  9
$TILEMODE
 70
           1
  9
$MAXACTVP
 70
          16
  9
$PINSBASE
 10
0.0
 20
0.0
 30
0.0
  9
$PLIMCHECK
 70
           0
  9
$PEXTMIN
 10
1.000000000000E+20
 20
1.000000000000E+20
 30
1.000000000000E+20
  9
$PEXTMAX
 10
-1.000000000000E+20
 20
-1.000000000000E+20
 30
-1.000000000000E+20
  9
$PLIMMIN
 10
0.0
 20
0.0
  9
$PLIMMAX
 10
12.0
 20
9.0
  9
$UNITMODE
 70
           0
  9
$VISRETAIN
 70
           0
  9
$PLINEGEN
 70
           1
  9
$PSLTSCALE
 70
           0
  9
$TREEDEPTH
 70
        3020
  9
$PICKSTYLE
 70
           1
  9
$CMLSTYLE
  2
STANDARD
  9
$CMLJUST
 70
           0
  9
$CMLSCALE
 40
1.0
  9
$PROXYGRAPHICS
 70
           0
  9
$MEASUREMENT
 70
           0
  0
ENDSEC
  0
SECTION
  2
CLASSES
  0
CLASS
  1
LWPOLYLINE
  2
AcDbPolyline
  3
"AutoCAD"
 90
        0
280
           0
281
           1
  0
CLASS
  1
IMAGE
  2
AcDbRasterImage
  3
ISM
 90
      127
280
           0
281
           1
  0
CLASS
  1
OLE2FRAME
  2
AcDbOle2Frame
  3
""
 90
        0
280
           0
281
           1
  0
CLASS
  1
HATCH
  2
AcDbHatch
  3
"ACAD_SEDONA"
 90
        0
280
           0
281
           1
  0
CLASS
  1
DICTIONARYVAR
  2
AcDbDictionaryVar
  3
"AutoCAD"
 90
        0
280
           0
281
           0
  0
CLASS
  1
RASTERVARIABLES
  2
AcDbRasterVariables
  3
ISM
 90
        0
280
           0
281
           0
  0
CLASS
  1
IMAGEDEF
  2
AcDbRasterImageDef
  3
ISM
 90
        0
280
           0
281
           0
  0
CLASS
  1
IMAGEDEF_REACTOR
  2
AcDbRasterImageDefReactor
  3
ISM
 90
        1
280
           0
281
           0
  0
CLASS
  1
IDBUFFER
  2
AcDbIdBuffer
  3
"Acad"
 90
        0
280
           0
281
           0
  0
CLASS
  1
SPATIAL_FILTER
  2
AcDbSpatialFilter
  3
"Acad"
 90
        0
280
           0
281
           0
  0
CLASS
  1
XRECORD
  2
AcDbXrecord
  3
"<Built In>"
 90
        0
280
           0
281
           0
  0
CLASS
  1
SORTENTSTABLE
  2
AcDbSortentsTable
  3
"AutoCAD"
 90
        0
280
           0
281
           0
  0
CLASS
  1
LAYER_INDEX
  2
AcDbLayerIndex
  3
"Acad"
 90
        0
280
           0
281
           0
  0
CLASS
  1
SPATIAL_INDEX
  2
AcDbSpatialIndex
  3
"Acad"
 90
        0
280
           0
281
           0
  0
CLASS
  1
OBJECT_PTR
  2
CAseDLPNTableRecord
  3
"ASE-LPNTableRecord"
 90
        1
280
           0
281
           0
  0
CLASS
  1
LAYOUT
  2
AcDbLayout
  3
"AutoCAD 2000"
 90
        1
280
           0
281
           0
  0
CLASS
  1
PLOTSETTINGS
  2
AcDbPlotSettings
  3
"AutoCAD 2000"
 90
        1
280
           0
281
           0
  0
CLASS
  1
ACDBDICTIONARYWDFLT
  2
AcDbDictionaryWithDefault
  3
"AutoCAD 2000"
 90
        1
280
           0
281
           0
  0
CLASS
  1
ACDBPLACEHOLDER
  2
AcDbPlaceHolder
  3
"AutoCAD 2000"
 90
        1
280
           0
281
           0
  0
CLASS
  1
VBA_PROJECT
  2
AcDbVbaProject
  3
"acadvba"
 90
        1
280
           0
281
           0
  0
CLASS
  1
WIPEOUT
  2
AcDbWipeout
  3
WipeOut|AutoCAD Express Tool|expresstools@autodesk.com
 90
      127
280
           0
281
           1
  0
CLASS
  1
WIPEOUTVARIABLES
  2
AcDbWipeoutVariables
  3
WipeOut|AutoCAD Express Tool|expresstools@autodesk.com
 90
        0
280
           0
281
           0
  0
CLASS
  1
RTEXT
  2
RText
  3
RText|AutoCAD Express Tool|expresstools@autodesk.com
 90
        0
280
           0
281
           1
  0
CLASS
  1
ARCALIGNEDTEXT
  2
AcDbArcAlignedText
  3
ATEXT|AutoCAD Express Tool|expresstools@autodesk.com
 90
        0
280
           0
281
           1
  0
ENDSEC
  0
SECTION
  2
TABLES
  0
TABLE
  2
VPORT
  5
7
100
AcDbSymbolTable
 70
           1
  0
VPORT
  5
15
100
AcDbSymbolTableRecord
100
AcDbViewportTableRecord
  2
*ACTIVE
 70
           0
 10
0.0
 20
0.0
 11
1.0
 21
1.0
 12
6.591288
 22
4.579184
 13
0.0
 23
0.0
 14
1.0
 24
1.0
 15
0.0
 25
0.0
 16
0.0
 26
0.0
 36
1.0
 17
0.0
 27
0.0
 37
0.0
 40
9.158369
 41
0.688564
 42
50.0
 43
0.0
 44
0.0
 50
0.0
 51
0.0
 71
           0
 72
         100
 73
           1
 74
           1
 75
           0
 76
           0
 77
           0
 78
           0
  0
ENDTAB
  0
TABLE
  2
LTYPE
  5
4
100
AcDbSymbolTable
 70
          10
  0
LTYPE
  5
11
100
AcDbSymbolTableRecord
100
AcDbLinetypeTableRecord
  2
BYBLOCK
 70
          64
  3

 72
          65
 73
           0
 40
0.0
  0
LTYPE
  5
12
100
AcDbSymbolTableRecord
100
AcDbLinetypeTableRecord
  2
BYLAYER
 70
          64
  3

 72
          65
 73
           0
 40
0.0
  0
LTYPE
  5
13
100
AcDbSymbolTableRecord
100
AcDbLinetypeTableRecord
  2
CONTINUOUS
 70
          64
  3
Solid line
 72
          65
 73
           0
 40
0.0
  0
LTYPE
  5
1D
100
AcDbSymbolTableRecord
100
AcDbLinetypeTableRecord
  2
DASHED
 70
          64
  3
Dashed
 72
          65
 73
           2
 40
15.0
 49
12.0
 74
           0
 49
-3.0
 74
           0
  0
LTYPE
  5
1E
100
AcDbSymbolTableRecord
100
AcDbLinetypeTableRecord
  2
DOTTED
 70
          64
  3
Dotted
 72
          65
 73
           2
 40
3.5
 49
0.5
 74
           0
 49
-3.0
 74
           0
  0
LTYPE
  5
1F
100
AcDbSymbolTableRecord
100
AcDbLinetypeTableRecord
  2
DOT_CENTER
 70
          64
  3
Dot_Center
 72
          65
 73
           4
 40
2.0
 49
1.25
 74
           0
 49
-0.25
 74
           0
 49
0.25
 74
           0
 49
-0.25
 74
           0
  0
LTYPE
  5
20
100
AcDbSymbolTableRecord
100
AcDbLinetypeTableRecord
  2
LONG_DASHED
 70
          64
  3
Long_Dashed
 72
          65
 73
           2
 40
2.0
 49
1.5
 74
           0
 49
-0.5
 74
           0
  0
LTYPE
  5
21
100
AcDbSymbolTableRecord
100
AcDbLinetypeTableRecord
  2
DASH_CENTER
 70
          64
  3
Dash_Center
 72
          65
 73
           4
 40
36.0
 49
24.0
 74
           0
 49
-3.0
 74
           0
 49
6.0
 74
           0
 49
-3.0
 74
           0
  0
LTYPE
  5
22
100
AcDbSymbolTableRecord
100
AcDbLinetypeTableRecord
  2
PHANTOM
 70
          64
  3
Phantom
 72
          65
 73
           6
 40
2.5
 49
1.25
 74
           0
 49
-0.25
 74
           0
 49
0.25
 74
           0
 49
-0.25
 74
           0
 49
0.25
 74
           0
 49
-0.25
 74
           0
  0
LTYPE
  5
23
100
AcDbSymbolTableRecord
100
AcDbLinetypeTableRecord
  2
CENTER_DASH_DASH
 70
          64
  3
Center_Dash_Dash
 72
          65
 73
           6
 40
22.0
 49
12.0
 74
           0
 49
-3.0
 74
           0
 49
0.5
 74
           0
 49
-3.0
 74
           0
 49
0.5
 74
           0
 49
-3.0
 74
           0
  0
ENDTAB
  0
TABLE
  2
LAYER
  5
2
100
AcDbSymbolTable
 70
           2
  0
LAYER
  5
14
100
AcDbSymbolTableRecord
100
AcDbLayerTableRecord
  2
0
 70
           0
 62
           7
  6
CONTINUOUS
  0
LAYER
  5
24
100
AcDbSymbolTableRecord
100
AcDbLayerTableRecord
  2
1
 70
           0
 62
           7
  6
CONTINUOUS
  0
ENDTAB
  0
TABLE
  2
STYLE
  5
3
100
AcDbSymbolTable
 70
           3
  0
STYLE
  5
17
100
AcDbSymbolTableRecord
100
AcDbTextStyleTableRecord
  2
STANDARD
 70
           0
 40
0.0
 41
1.0
 50
0.0
 71
           0
 42
0.0
  3
txt
  4

  0
STYLE
  5
1C4
100
AcDbSymbolTableRecord
100
AcDbTextStyleTableRecord
  2
CONVERTER_1
 70
           0
 40
0.0
 41
0.9
 50
0.0
 71
           0
 42
0.0
  3
txt.shx
  4

  0
STYLE
  5
1D0
100
AcDbSymbolTableRecord
100
AcDbTextStyleTableRecord
  2
CONVERTER_2
 70
           0
 40
0.0
 41
0.89
 50
0.0
 71
           0
 42
0.0
  3
MS Mincho.ttf
  4

1001
ACAD
1000
MS Mincho
1071
    32785
  0
ENDTAB
  0
TABLE
  2
VIEW
  5
5
100
AcDbSymbolTable
 70
           0
  0
ENDTAB
  0
TABLE
  2
UCS
  5
6
100
AcDbSymbolTable
 70
           0
  0
ENDTAB
  0
TABLE
  2
APPID
  5
8
100
AcDbSymbolTable
 70
           1
  0
APPID
  5
16
100
AcDbSymbolTableRecord
100
AcDbRegAppTableRecord
  2
ACAD
 70
           0
  0
ENDTAB
  0
TABLE
  2
DIMSTYLE
  5
9
100
AcDbSymbolTable
 70
           3
  0
DIMSTYLE
105
18
100
AcDbSymbolTableRecord
100
AcDbDimStyleTableRecord
  2
STANDARD
 70
           0
  3

  4

  5

  6

  7

 40
1.0
 41
0.18
 42
0.0625
 43
0.38
 44
0.18
 45
0.0
 46
0.0
 47
0.0
 48
0.0
 71
           0
 72
           0
 73
           1
 74
           1
 75
           0
 76
           0
 77
           0
 78
           0
140
0.18
141
0.09
142
0.0
143
25.4
144
1.0
145
0.0
146
1.0
147
0.09
170
           0
171
           2
172
           0
173
           0
174
           0
175
           0
176
           0
177
           0
178
           0
270
           2
271
           4
272
           4
273
           2
274
           2
275
           0
280
           0
281
           0
282
           0
283
           1
284
           0
285
           0
286
           0
287
           0
288
           0
340
17
  0
DIMSTYLE
105
1C7
100
AcDbSymbolTableRecord
100
AcDbDimStyleTableRecord
  2
ME10_DIM_0
 70
           0
  3

  4

  5

  6

  7

 40
1.0
 41
2.8
 42
0.8
 43
0.38
 44
1.0
 45
0.0
 46
0.0
 47
0.0
 48
0.0
 71
           0
 72
           0
 73
           0
 74
           0
 75
           0
 76
           0
 77
           1
 78
           8
140
2.8
141
0.09
142
0.0
143
25.4
144
1.0
145
0.0
146
1.0
147
0.09
170
           0
171
           2
172
           0
173
           1
174
           0
175
           0
176
           2
177
           2
178
           2
270
           2
271
           3
272
           4
273
           2
274
           2
275
           0
280
           0
281
           0
282
           0
283
           1
284
           0
285
           0
286
           0
287
           3
288
           0
340
17
  0
DIMSTYLE
105
1D3
100
AcDbSymbolTableRecord
100
AcDbDimStyleTableRecord
  2
ME10_DIM_1
 70
           0
  3
ó<>
  4

  5

  6

  7

 40
1.0
 41
2.8
 42
0.8
 43
0.38
 44
1.0
 45
0.0
 46
0.0
 47
0.0
 48
0.0
 71
           0
 72
           0
 73
           0
 74
           0
 75
           0
 76
           0
 77
           1
 78
           8
140
2.8
141
0.09
142
0.0
143
25.4
144
1.0
145
0.0
146
1.0
147
0.09
170
           0
171
           2
172
           0
173
           1
174
           0
175
           0
176
           2
177
           2
178
           2
270
           2
271
           0
272
           4
273
           2
274
           2
275
           0
280
           0
281
           0
282
           0
283
           1
284
           0
285
           0
286
           0
287
           3
288
           0
340
17
  0
ENDTAB
  0
TABLE
  2
BLOCK_RECORD
  5
1
100
AcDbSymbolTable
 70
           2
  0
BLOCK_RECORD
  5
A
100
AcDbSymbolTableRecord
100
AcDbBlockTableRecord
  2
*MODEL_SPACE
  0
BLOCK_RECORD
  5
B
100
AcDbSymbolTableRecord
100
AcDbBlockTableRecord
  2
*PAPER_SPACE
  0
BLOCK_RECORD
  5
1BD
100
AcDbSymbolTableRecord
100
AcDbBlockTableRecord
  2
*D0
  0
BLOCK_RECORD
  5
1C9
100
AcDbSymbolTableRecord
100
AcDbBlockTableRecord
  2
*D1
  0
ENDTAB
  0
ENDSEC
  0
SECTION
  2
BLOCKS
  0
BLOCK
  5
D
100
AcDbEntity
  8
0
100
AcDbBlockBegin
  2
*MODEL_SPACE
 70
           0
 10
0.0
 20
0.0
 30
0.0
  3
*MODEL_SPACE
  1

  0
ENDBLK
  5
E
100
AcDbEntity
  8
0
100
AcDbBlockEnd
  0
BLOCK
  5
F
100
AcDbEntity
 67
           1
  8
0
100
AcDbBlockBegin
  2
*PAPER_SPACE
 70
           0
 10
0.0
 20
0.0
 30
0.0
  3
*PAPER_SPACE
  1

  0
ENDBLK
  5
10
100
AcDbEntity
 67
           1
  8
0
100
AcDbBlockEnd
  0
BLOCK
  5
1BE
100
AcDbEntity
  8
0
100
AcDbBlockBegin
  2
*D0
 70
           1
 10
0.0
 20
0.0
 30
0.0
  3
*D0
  1

  0
LINE
  5
1BF
100
AcDbEntity
  8
0
  6
CONTINUOUS
 62
           2
100
AcDbLine
 10
949.623410871134
 20
-297.751202982106
 11
949.623410871134
 21
-125.012704365779
  0
LINE
  5
1C0
100
AcDbEntity
  8
0
  6
CONTINUOUS
 62
           2
100
AcDbLine
 10
995.928045737103
 20
-125.012704365779
 11
948.623410871134
 21
-125.012704365779
  0
LINE
  5
1C1
100
AcDbEntity
  8
0
  6
CONTINUOUS
 62
           2
100
AcDbLine
 10
1030.339576182818
 20
-297.751202982106
 11
948.623410871134
 21
-297.751202982106
  0
SOLID
  5
1C2
100
AcDbEntity
  8
0
 62
           2
100
AcDbTrace
 10
949.254783877889
 20
-294.951202982106
 11
949.992037864379
 21
-294.951202982106
 12
949.623410871134
 22
-297.751202982106
 13
949.623410871134
 23
-297.751202982106
  0
SOLID
  5
1C3
100
AcDbEntity
  8
0
 62
           2
100
AcDbTrace
 10
949.992037864379
 20
-127.812704365779
 11
949.254783877889
 21
-127.812704365779
 12
949.623410871134
 22
-125.012704365779
 13
949.623410871134
 23
-125.012704365779
  0
MTEXT
  5
1C5
100
AcDbEntity
  8
0
 62
           2
100
AcDbMText
 10
948.623410871134
 20
-212.27439299757
 30
0.0
 40
2.8
 41
0.0
 71
           7
 72
           1
  1
173
  7
CONVERTER_1
 11
0.0
 21
1.0
 31
0.0
  0
ENDBLK
  5
1C6
100
AcDbEntity
  8
0
100
AcDbBlockEnd
  0
BLOCK
  5
1CA
100
AcDbEntity
  8
0
100
AcDbBlockBegin
  2
*D1
 70
           1
 10
0.0
 20
0.0
 30
0.0
  3
*D1
  1

  0
LINE
  5
1CB
100
AcDbEntity
  8
0
  6
CONTINUOUS
 62
           2
100
AcDbLine
 10
990.790545737102
 20
-98.075395069818
 11
1073.915545737103
 21
-98.075395069818
  0
LINE
  5
1CC
100
AcDbEntity
  8
0
  6
CONTINUOUS
 62
           2
100
AcDbLine
 10
1073.915545737103
 20
-130.150204365779
 11
1073.915545737103
 21
-97.075395069818
  0
LINE
  5
1CD
100
AcDbEntity
  8
0
  6
CONTINUOUS
 62
           2
100
AcDbLine
 10
990.790545737102
 20
-130.150204365779
 11
990.790545737102
 21
-97.075395069818
  0
SOLID
  5
1CE
100
AcDbEntity
  8
0
 62
           2
100
AcDbTrace
 10
993.590545737102
 20
-97.706768076573
 11
993.590545737102
 21
-98.444022063062
 12
990.790545737102
 22
-98.075395069818
 13
990.790545737102
 23
-98.075395069818
  0
SOLID
  5
1CF
100
AcDbEntity
  8
0
 62
           2
100
AcDbTrace
 10
1071.115545737103
 20
-98.444022063062
 11
1071.115545737103
 21
-97.706768076573
 12
1073.915545737103
 22
-98.075395069818
 13
1073.915545737103
 23
-98.075395069818
  0
MTEXT
  5
1D1
100
AcDbEntity
  8
0
 62
           2
100
AcDbMText
 10
1027.55507147029
 20
-97.075395069818
 30
0.0
 40
2.8
 41
0.0
 71
           7
 72
           1
  1
\C2;ó\C2;83\C2;
  7
CONVERTER_2
  0
ENDBLK
  5
1D2
100
AcDbEntity
  8
0
100
AcDbBlockEnd
  0
ENDSEC
  0
SECTION
  2
ENTITIES
  0
DIMENSION
  5
1D4
100
AcDbEntity
  8
0
100
AcDbDimension
  2
*D1
 10
990.790545737102
 20
-98.075395069818
 11
1030.27107147029
 21
-95.675395069818
 31
0.0
  1
<>
  3
ME10_DIM_1
100
AcDbAlignedDimension
 13
1073.915545737103
 23
-130.950204365779
 14
990.790545737102
 24
-130.950204365779
100
AcDbRotatedDimension
  0
DIMENSION
  5
1C8
100
AcDbEntity
  8
0
100
AcDbDimension
  2
*D0
 10
949.623410871134
 20
-297.751202982106
 11
947.223410871134
 21
-209.33439299757
 31
0.0
 53
90.0
  1
<>
  3
ME10_DIM_0
100
AcDbAlignedDimension
 13
996.728045737103
 23
-125.012704365779
 14
1031.139576182818
 24
-297.751202982106
 50
90.0
100
AcDbRotatedDimension
  0
ARC
  5
1BC
100
AcDbEntity
  8
1
  6
CONTINUOUS
 62
           7
100
AcDbCircle
 10
1071.853045737103
 20
-140.324509196741
 40
1.0
100
AcDbArc
 50
0.0
 51
90.0
  0
ARC
  5
1BB
100
AcDbEntity
  8
1
  6
CONTINUOUS
 62
           7
100
AcDbCircle
 10
1071.353045737103
 20
-140.824509196741
 40
1.5
100
AcDbArc
 50
-90.0
 51
0.0
  0
ARC
  5
1BA
100
AcDbEntity
  8
1
  6
CONTINUOUS
 62
           7
100
AcDbCircle
 10
1071.353045737103
 20
-140.824509196741
 40
1.5
100
AcDbArc
 50
-90.0
 51
0.0
  0
ARC
  5
1B9
100
AcDbEntity
  8
1
  6
CONTINUOUS
 62
           7
100
AcDbCircle
 10
1071.853045737103
 20
-140.324509196741
 40
1.0
100
AcDbArc
 50
0.0
 51
90.0
  0
ARC
  5
1B8
100
AcDbEntity
  8
1
  6
CONTINUOUS
 62
           7
100
AcDbCircle
 10
1017.853045737103
 20
-215.861922622361
 40
24.0
100
AcDbArc
 50
-179.999999999999
 51
-131.999220623631
  0
ARC
  5
1B7
100
AcDbEntity
  8
1
  6
CONTINUOUS
 62
           7
100
AcDbCircle
 10
992.853045737102
 20
-140.324509196741
 40
1.0
100
AcDbArc
 50
90.0
 51
180.0
  0
ARC
  5
1B6
100
AcDbEntity
  8
1
  6
CONTINUOUS
 62
           7
100
AcDbCircle
 10
993.353045737102
 20
-140.824509196741
 40
1.5
100
AcDbArc
 50
180.0
 51
-90.0
  0
ARC
  5
1B5
100
AcDbEntity
  8
1
  6
CONTINUOUS
 62
           7
100
AcDbCircle
 10
993.353045737102
 20
-140.824509196741
 40
1.5
100
AcDbArc
 50
180.0
 51
-90.0
  0
ARC
  5
1B4
100
AcDbEntity
  8
1
  6
CONTINUOUS
 62
           7
100
AcDbCircle
 10
992.853045737102
 20
-140.324509196741
 40
1.0
100
AcDbArc
 50
90.0
 51
180.0
  0
ARC
  5
1B3
100
AcDbEntity
  8
1
  6
CONTINUOUS
 62
           7
100
AcDbCircle
 10
1046.853045737102
 20
-215.861922622361
 40
24.0
100
AcDbArc
 50
-48.000779376368
 51
-0.000000000001
  0
ARC
  5
1B2
100
AcDbEntity
  8
1
  6
CONTINUOUS
 62
           7
100
AcDbCircle
 10
1040.951741496252
 20
-252.124509196741
 40
1.0
100
AcDbArc
 50
-90.0
 51
-48.000779376406
  0
ARC
  5
1B1
100
AcDbEntity
  8
1
  6
CONTINUOUS
 62
           7
100
AcDbCircle
 10
1023.754349977954
 20
-252.124509196741
 40
1.0
100
AcDbArc
 50
-131.999220623632
 51
-90.0
  0
ARC
  5
1B0
100
AcDbEntity
  8
1
  6
CONTINUOUS
 62
           7
100
AcDbCircle
 10
1023.754349977954
 20
-252.124509196741
 40
1.0
100
AcDbArc
 50
-131.999220623632
 51
-90.0
  0
ARC
  5
1AF
100
AcDbEntity
  8
1
  6
CONTINUOUS
 62
           7
100
AcDbCircle
 10
1040.734111672377
 20
-254.124509196741
 40
1.0
100
AcDbArc
 50
90.0
 51
129.128809163315
  0
ARC
  5
1AE
100
AcDbEntity
  8
1
  6
CONTINUOUS
 62
           7
100
AcDbCircle
 10
1023.971979801828
 20
-254.124509196741
 40
1.000000000001
100
AcDbArc
 50
50.871190836642
 51
90.0
  0
ARC
  5
1AD
100
AcDbEntity
  8
1
  6
CONTINUOUS
 62
           7
100
AcDbCircle
 10
1033.566515291387
 20
-295.751202982106
 40
2.0
100
AcDbArc
 50
-90.0
 51
-6.653394672008
  0
ARC
  5
1AC
100
AcDbEntity
  8
1
  6
CONTINUOUS
 62
           7
100
AcDbCircle
 10
1031.139576182818
 20
-295.751202982106
 40
2.0
100
AcDbArc
 50
-173.346605327989
 51
-90.0
  0
ARC
  5
1AB
100
AcDbEntity
  8
1
  6
CONTINUOUS
 62
           7
100
AcDbCircle
 10
1063.743580844992
 20
-275.051609248384
 40
6.0
100
AcDbArc
 50
-178.304326425656
 51
-128.776878340405
  0
ARC
  5
1AA
100
AcDbEntity
  8
1
  6
CONTINUOUS
 62
           7
100
AcDbCircle
 10
1070.247052914105
 20
-275.705146637351
 40
3.0
100
AcDbArc
 50
132.09814075192
 51
170.035854747605
  0
ARC
  5
1A9
100
AcDbEntity
  8
1
  6
CONTINUOUS
 62
           7
100
AcDbCircle
 10
1061.295237314836
 20
-274.9984654455
 40
6.0
100
AcDbArc
 50
-52.040716587004
 51
-7.235851773492
  0
ARC
  5
1A8
100
AcDbEntity
  8
1
  6
CONTINUOUS
 62
           7
100
AcDbCircle
 10
1070.247052914105
 20
-275.705146637351
 40
3.0
100
AcDbArc
 50
170.035854747605
 51
-179.063308901974
  0
ARC
  5
1A7
100
AcDbEntity
  8
1
  6
CONTINUOUS
 62
           7
100
AcDbCircle
 10
1054.724637665169
 20
-275.705146637351
 40
3.0
100
AcDbArc
 50
12.09814075192
 51
47.901859248083
  0
ARC
  5
1A6
100
AcDbEntity
  8
1
  6
CONTINUOUS
 62
           7
100
AcDbCircle
 10
1054.724637665169
 20
-255.753161061776
 40
3.0
100
AcDbArc
 50
-47.901859248081
 51
-12.098140751917
  0
ARC
  5
1A5
100
AcDbEntity
  8
1
  6
CONTINUOUS
 62
           7
100
AcDbCircle
 10
1070.247052914105
 20
-255.753161061776
 40
3.000000000001
100
AcDbArc
 50
179.063308901971
 51
-170.035854747607
  0
ARC
  5
1A4
100
AcDbEntity
  8
1
  6
CONTINUOUS
 62
           7
100
AcDbCircle
 10
1061.295237314836
 20
-256.459842253626
 40
6.0
100
AcDbArc
 50
7.235851773493
 51
52.040716587004
  0
ARC
  5
1A3
100
AcDbEntity
  8
1
  6
CONTINUOUS
 62
           7
100
AcDbCircle
 10
1070.247052914105
 20
-255.753161061776
 40
3.0
100
AcDbArc
 50
-170.035854747607
 51
-132.098140751922
  0
ARC
  5
1A2
100
AcDbEntity
  8
1
  6
CONTINUOUS
 62
           7
100
AcDbCircle
 10
1063.743580844992
 20
-256.406698450742
 40
6.0
100
AcDbArc
 50
128.776878340405
 51
178.304326425656
  0
ARC
  5
1A1
100
AcDbEntity
  8
1
  6
CONTINUOUS
 62
           2
100
AcDbCircle
 10
1051.3318835341
 20
-132.387766868376
 40
22.227648888901
100
AcDbArc
 50
-4.596422182699
 51
4.596422182699
  0
ARC
  5
1A0
100
AcDbEntity
  8
1
  6
CONTINUOUS
 62
           2
100
AcDbCircle
 10
1057.932512858527
 20
-132.387766868376
 40
15.454285335335
100
AcDbArc
 50
-6.618580886742
 51
6.618580886742
  0
ARC
  5
19F
100
AcDbEntity
  8
1
  6
CONTINUOUS
 62
           2
100
AcDbCircle
 10
1059.912078347042
 20
-132.387766868376
 40
13.283070599916
100
AcDbArc
 50
-7.706537965358
 51
7.706537965358
  0
ARC
  5
19E
100
AcDbEntity
  8
1
  6
CONTINUOUS
 62
           2
100
AcDbCircle
 10
1061.314466293046
 20
-132.387766868376
 40
11.659573741221
100
AcDbArc
 50
-8.787570526605
 51
8.787570526605
  0
ARC
  5
19D
100
AcDbEntity
  8
1
  6
CONTINUOUS
 62
           2
100
AcDbCircle
 10
1062.322410299837
 20
-132.387766868376
 40
10.401220642369
100
AcDbArc
 50
-9.860733686813
 51
9.860733686813
  0
ARC
  5
19C
100
AcDbEntity
  8
1
  6
CONTINUOUS
 62
           2
100
AcDbCircle
 10
1063.045635457884
 20
-132.387766868376
 40
9.398466833768
100
AcDbArc
 50
-10.92509965077
 51
10.92509965077
  0
ARC
  5
19B
100
AcDbEntity
  8
1
  6
CONTINUOUS
 62
           2
100
AcDbCircle
 10
1063.554053446741
 20
-132.387766868376
 40
8.581602260921
100
AcDbArc
 50
-11.979759459063
 51
11.979759459063
  0
ARC
  5
19A
100
AcDbEntity
  8
1
  6
CONTINUOUS
 62
           2
100
AcDbCircle
 10
1063.894359998546
 20
-132.387766868376
 40
7.904153675504
100
AcDbArc
 50
-13.023824609532
 51
13.023824609532
  0
ARC
  5
199
100
AcDbEntity
  8
1
  6
CONTINUOUS
 62
           2
100
AcDbCircle
 10
1064.098971904841
 20
-132.387766868376
 40
7.333947468063
100
AcDbArc
 50
-14.056428544737
 51
14.056428544737
  0
ARC
  5
198
100
AcDbEntity
  8
1
  6
CONTINUOUS
 62
           2
100
AcDbCircle
 10
1064.191133787457
 20
-132.387766868376
 40
6.848002721731
100
AcDbArc
 50
-15.076727998822
 51
15.076727998822
  0
ARC
  5
197
100
AcDbEntity
  8
1
  6
CONTINUOUS
 62
           2
100
AcDbCircle
 10
1064.187982069917
 20
-132.387766868376
 40
6.429467050608
100
AcDbArc
 50
-16.083904198824
 51
16.083904198824
  0
ARC
  5
196
100
AcDbEntity
  8
1
  6
CONTINUOUS
 62
           2
100
AcDbCircle
 10
1064.102459867599
 20
-132.387766868376
 40
6.065701504729
100
AcDbArc
 50
-17.077163917015
 51
17.077163917015
  0
ARC
  5
195
100
AcDbEntity
  8
1
  6
CONTINUOUS
 62
           2
100
AcDbCircle
 10
1063.944555941691
 20
-132.387766868376
 40
5.747041396709
100
AcDbArc
 50
-18.055740372432
 51
18.055740372432
  0
ARC
  5
194
100
AcDbEntity
  8
1
  6
CONTINUOUS
 62
           2
100
AcDbCircle
 10
1063.722130575334
 20
-132.387766868376
 40
5.465970191845
100
AcDbArc
 50
-19.018893981278
 51
19.018893981278
  0
ARC
  5
193
100
AcDbEntity
  8
1
  6
CONTINUOUS
 62
           2
100
AcDbCircle
 10
1063.441480553187
 20
-132.387766868376
 40
5.216554280602
100
AcDbArc
 50
-19.965912957259
 51
19.965912957259
  0
ARC
  5
192
100
AcDbEntity
  8
1
  6
CONTINUOUS
 62
           2
100
AcDbCircle
 10
1063.107734553219
 20
-132.387766868376
 40
4.994047324862
100
AcDbArc
 50
-20.896113764364
 51
20.896113764364
  0
ARC
  5
191
100
AcDbEntity
  8
1
  6
CONTINUOUS
 62
           2
100
AcDbCircle
 10
1062.725135475285
 20
-132.387766868376
 40
4.794607653558
100
AcDbArc
 50
-21.808841425826
 51
21.808841425826
  0
ARC
  5
190
100
AcDbEntity
  8
1
  6
CONTINUOUS
 62
           2
100
AcDbCircle
 10
1062.297245676689
 20
-132.387766868376
 40
4.6150927377
100
AcDbArc
 50
-22.703469693995
 51
22.703469693995
  0
ARC
  5
18F
100
AcDbEntity
  8
1
  6
CONTINUOUS
 62
           2
100
AcDbCircle
 10
1061.827098573665
 20
-132.387766868376
 40
4.452907286074
100
AcDbArc
 50
-23.57940108712
 51
23.57940108712
  0
ARC
  5
18E
100
AcDbEntity
  8
1
  6
CONTINUOUS
 62
           2
100
AcDbCircle
 10
1061.326299991275
 20
-132.391457811565
 40
4.299239357969
100
AcDbArc
 50
-24.459430925234
 51
24.530399701571
  0
ARC
  5
18D
100
AcDbEntity
  8
1
  6
CONTINUOUS
 62
           2
100
AcDbCircle
 10
1060.666277049813
 20
-132.387766868376
 40
4.280457896984
100
AcDbArc
 50
-24.677155667189
 51
24.590837528829
  0
ARC
  5
18C
100
AcDbEntity
  8
1
  6
CONTINUOUS
 62
           2
100
AcDbCircle
 10
1043.016457046342
 20
-132.387766868376
 40
4.298086506591
100
AcDbArc
 50
-24.48333824584
 51
24.48333824584
  0
ARC
  5
18B
100
AcDbEntity
  8
1
  6
CONTINUOUS
 62
           2
100
AcDbCircle
 10
1054.241589346969
 20
-132.387766868376
 40
7.527313857043
100
AcDbArc
 50
166.311791265251
 51
-166.311791265251
  0
ARC
  5
18A
100
AcDbEntity
  8
1
  6
CONTINUOUS
 62
           2
100
AcDbCircle
 10
1041.942271544057
 20
-132.387766868376
 40
4.330808572442
100
AcDbArc
 50
-24.286357094226
 51
24.286357094226
  0
ARC
  5
189
100
AcDbEntity
  8
1
  6
CONTINUOUS
 62
           2
100
AcDbCircle
 10
1052.895945683885
 20
-132.387766868376
 40
7.229025102122
100
AcDbArc
 50
165.735266563818
 51
-165.735266563818
  0
ARC
  5
188
100
AcDbEntity
  8
1
  6
CONTINUOUS
 62
           2
100
AcDbCircle
 10
1040.854566418538
 20
-132.387766868376
 40
4.367009657238
100
AcDbArc
 50
-24.072219138784
 51
24.072219138784
  0
ARC
  5
187
100
AcDbEntity
  8
1
  6
CONTINUOUS
 62
           2
100
AcDbCircle
 10
1051.569109972112
 20
-132.387766868376
 40
6.95914767503
100
AcDbArc
 50
165.169637358709
 51
-165.169637358709
  0
ARC
  5
186
100
AcDbEntity
  8
1
  6
CONTINUOUS
 62
           2
100
AcDbCircle
 10
1055.609555478344
 20
-132.387766868376
 40
7.858283920231
100
AcDbArc
 50
166.898804676691
 51
-166.898804676691
  0
ARC
  5
185
100
AcDbEntity
  8
1
  6
CONTINUOUS
 62
           2
100
AcDbCircle
 10
1044.076511101273
 20
-132.387766868376
 40
4.268704070027
100
AcDbArc
 50
-24.663057523759
 51
24.663057523759
  0
ARC
  5
184
100
AcDbEntity
  8
1
  6
CONTINUOUS
 62
           2
100
AcDbCircle
 10
1057.004275885758
 20
-132.387766868376
 40
8.227115091016
100
AcDbArc
 50
167.495888404976
 51
-167.495888404976
  0
ARC
  5
183
100
AcDbEntity
  8
1
  6
CONTINUOUS
 62
           2
100
AcDbCircle
 10
1045.121813247723
 20
-132.387766868376
 40
4.242538294285
100
AcDbArc
 50
-24.825419750242
 51
24.825419750242
  0
ARC
  5
182
100
AcDbEntity
  8
1
  6
CONTINUOUS
 62
           2
100
AcDbCircle
 10
1058.431355327837
 20
-132.387766868376
 40
8.640152108202
100
AcDbArc
 50
168.102612698738
 51
-168.102612698738
  0
ARC
  5
181
100
AcDbEntity
  8
1
  6
CONTINUOUS
 62
           2
100
AcDbCircle
 10
1046.151736146633
 20
-132.387766868376
 40
4.219481409269
100
AcDbArc
 50
-24.970339504418
 51
24.970339504418
  0
ARC
  5
180
100
AcDbEntity
  8
1
  6
CONTINUOUS
 62
           2
100
AcDbCircle
 10
1059.897918178099
 20
-132.387766868376
 40
9.105250780328
100
AcDbArc
 50
168.718536732984
 51
-168.718536732984
  0
ARC
  5
17F
100
AcDbEntity
  8
1
  6
CONTINUOUS
 62
           2
100
AcDbCircle
 10
1047.165647157483
 20
-132.387766868376
 40
4.199439797013
100
AcDbArc
 50
-25.097740997081
 51
25.097740997081
  0
ARC
  5
17E
100
AcDbEntity
  8
1
  6
CONTINUOUS
 62
           2
100
AcDbCircle
 10
1061.413086358338
 20
-132.387766868376
 40
9.63225539146
100
AcDbArc
 50
169.343208929923
 51
-169.343208929923
  0
ARC
  5
17D
100
AcDbEntity
  8
1
  6
CONTINUOUS
 62
           2
100
AcDbCircle
 10
1048.162909751495
 20
-132.387766868376
 40
4.18233310233
100
AcDbArc
 50
-25.207557956643
 51
25.207557956643
  0
ARC
  5
17C
100
AcDbEntity
  8
1
  6
CONTINUOUS
 62
           2
100
AcDbCircle
 10
1062.988650540988
 20
-132.387766868376
 40
10.233669382517
100
AcDbArc
 50
169.976167316158
 51
-169.976167316158
  0
ARC
  5
17B
100
AcDbEntity
  8
1
  6
CONTINUOUS
 62
           2
100
AcDbCircle
 10
1049.142884777462
 20
-132.387766868376
 40
4.168093484078
100
AcDbArc
 50
-25.299733526932
 51
25.299733526932
  0
ARC
  5
17A
100
AcDbEntity
  8
1
  6
CONTINUOUS
 62
           2
100
AcDbCircle
 10
1064.640032506748
 20
-132.387766868376
 40
10.925617194766
100
AcDbArc
 50
170.616939916073
 51
-170.616939916073
  0
ARC
  5
179
100
AcDbEntity
  8
1
  6
CONTINUOUS
 62
           2
100
AcDbCircle
 10
1050.104931593253
 20
-132.387766868376
 40
4.156664993616
100
AcDbArc
 50
-25.37422017773
 51
25.37422017773
  0
ARC
  5
178
100
AcDbEntity
  8
1
  6
CONTINUOUS
 62
           2
100
AcDbCircle
 10
1066.387697621342
 20
-132.387766868376
 40
11.72925623975
100
AcDbArc
 50
171.265045181022
 51
-171.26504518102
  0
ARC
  5
177
100
AcDbEntity
  8
1
  6
CONTINUOUS
 62
           2
100
AcDbCircle
 10
1051.048409073501
 20
-132.387766868376
 40
4.148003069562
100
AcDbArc
 50
-25.430979628697
 51
25.430979628692
  0
ARC
  5
176
100
AcDbEntity
  8
1
  6
CONTINUOUS
 62
           2
100
AcDbCircle
 10
1068.259283973567
 20
-132.387766868376
 40
12.672905538161
100
AcDbArc
 50
171.919992453658
 51
-171.919992453658
  0
ARC
  5
175
100
AcDbEntity
  8
1
  6
CONTINUOUS
 62
           2
100
AcDbCircle
 10
1051.972676501818
 20
-132.387766868376
 40
4.142074140176
100
AcDbArc
 50
-25.469982787247
 51
25.469982787247
  0
ARC
  5
174
100
AcDbEntity
  8
1
  6
CONTINUOUS
 62
           2
100
AcDbCircle
 10
1070.292911767069
 20
-132.387766868376
 40
13.79535462045
100
AcDbArc
 50
172.581282466506
 51
-172.581282466506
  0
ARC
  5
173
100
AcDbEntity
  8
1
  6
CONTINUOUS
 62
           2
100
AcDbCircle
 10
1052.877094353908
 20
-132.387766868376
 40
4.138855326608
100
AcDbArc
 50
-25.491209700779
 51
25.491209700779
  0
ARC
  5
172
100
AcDbEntity
  8
1
  6
CONTINUOUS
 62
           2
100
AcDbCircle
 10
1072.542514180833
 20
-132.387766868376
 40
15.151193904532
100
AcDbArc
 50
173.248407873555
 51
-173.248407873555
  0
ARC
  5
171
100
AcDbEntity
  8
1
  6
CONTINUOUS
 62
           2
100
AcDbCircle
 10
1053.761024976205
 20
-132.387766868376
 40
4.138334242064
100
AcDbArc
 50
-25.49464952369
 51
25.49464952369
  0
ARC
  5
170
100
AcDbEntity
  8
1
  6
CONTINUOUS
 62
           2
100
AcDbCircle
 10
1075.086793808075
 20
-132.387766868376
 40
16.819770660603
100
AcDbArc
 50
173.920853813494
 51
-173.920853813494
  0
ARC
  5
16F
100
AcDbEntity
  8
1
  6
CONTINUOUS
 62
           2
100
AcDbCircle
 10
1054.623833163008
 20
-132.387766868376
 40
4.140508883536
100
AcDbArc
 50
-25.480300499324
 51
25.480300499324
  0
ARC
  5
16E
100
AcDbEntity
  8
1
  6
CONTINUOUS
 62
           2
100
AcDbCircle
 10
1078.04504954411
 20
-132.387766868376
 40
18.921015433998
100
AcDbArc
 50
174.598098502891
 51
-174.59809850289
  0
ARC
  5
16D
100
AcDbEntity
  8
1
  6
CONTINUOUS
 62
           2
100
AcDbCircle
 10
1055.464886633589
 20
-132.387766868376
 40
4.145387614332
100
AcDbArc
 50
-25.448169957085
 51
25.44816995708
  0
ARC
  5
16C
100
AcDbEntity
  8
1
  6
CONTINUOUS
 62
           2
100
AcDbCircle
 10
1081.606924369037
 20
-132.387766868376
 40
21.645189372265
100
AcDbArc
 50
175.279613857381
 51
-175.279613857383
  0
ARC
  5
16B
100
AcDbEntity
  8
1
  6
CONTINUOUS
 62
           2
100
AcDbCircle
 10
1056.283556409192
 20
-132.387766868376
 40
4.152989237098
100
AcDbArc
 50
-25.398274324568
 51
25.398274324568
  0
ARC
  5
16A
100
AcDbEntity
  8
1
  6
CONTINUOUS
 62
           2
100
AcDbCircle
 10
1086.09281364338
 20
-132.387766868376
 40
25.313292074911
100
AcDbArc
 50
175.964866138765
 51
-175.964866138764
  0
ARC
  5
169
100
AcDbEntity
  8
1
  6
CONTINUOUS
 62
           2
100
AcDbCircle
 10
1057.079217088438
 20
-132.387766868376
 40
4.163343158547
100
AcDbArc
 50
-25.330639154876
 51
25.330639154871
  0
ARC
  5
168
100
AcDbEntity
  8
1
  6
CONTINUOUS
 62
           2
100
AcDbCircle
 10
1092.08944964765
 20
-132.387766868375
 40
30.512645697126
100
AcDbArc
 50
176.653316625579
 51
-176.653316625579
  0
ARC
  5
167
100
AcDbEntity
  8
1
  6
CONTINUOUS
 62
           2
100
AcDbCircle
 10
1057.851247018055
 20
-132.387766868376
 40
4.176489648621
100
AcDbArc
 50
-25.24529916862
 51
25.24529916863
  0
ARC
  5
166
100
AcDbEntity
  8
1
  6
CONTINUOUS
 62
           2
100
AcDbCircle
 10
1100.798373065283
 20
-132.387766868376
 40
38.445366007236
100
AcDbArc
 50
177.344422304671
 51
-177.344422304671
  0
ARC
  5
165
100
AcDbEntity
  8
1
  6
CONTINUOUS
 62
           2
100
AcDbCircle
 10
1058.599028354319
 20
-132.387766868376
 40
4.192480198404
100
AcDbArc
 50
-25.142298310637
 51
25.142298310637
  0
ARC
  5
164
100
AcDbEntity
  8
1
  6
CONTINUOUS
 62
           2
100
AcDbCircle
 10
1115.125490869788
 20
-132.387766868376
 40
52.017919859042
100
AcDbArc
 50
178.037636580969
 51
-178.037636580969
  0
ARC
  5
163
100
AcDbEntity
  8
1
  6
CONTINUOUS
 62
           2
100
AcDbCircle
 10
1059.321947008871
 20
-132.387766868376
 40
4.211377982819
100
AcDbArc
 50
-25.021689820631
 51
25.021689820626
  0
ARC
  5
162
100
AcDbEntity
  8
1
  6
CONTINUOUS
 62
           2
100
AcDbCircle
 10
1144.360019862491
 20
-132.387766868376
 40
80.520068325711
100
AcDbArc
 50
178.732410002594
 51
-178.732410002594
  0
ARC
  5
161
100
AcDbEntity
  8
1
  6
CONTINUOUS
 62
           2
100
AcDbCircle
 10
1060.019392470691
 20
-132.387766868376
 40
4.233258436034
100
AcDbArc
 50
-24.883536317614
 51
24.883536317614
  0
ARC
  5
160
100
AcDbEntity
  8
1
  6
CONTINUOUS
 62
           2
100
AcDbCircle
 10
1028.156508481689
 20
-132.387766868376
 40
5.056831607702
100
AcDbArc
 50
-20.624767847767
 51
20.624767847767
  0
ARC
  5
15F
100
AcDbEntity
  8
1
  6
CONTINUOUS
 62
           2
100
AcDbCircle
 10
1037.880084794339
 20
-132.387766868376
 40
5.299192344847
100
AcDbArc
 50
160.358359845898
 51
-160.358359845898
  0
ARC
  5
15E
100
AcDbEntity
  8
1
  6
CONTINUOUS
 62
           2
100
AcDbCircle
 10
1029.357585105085
 20
-132.387766868376
 40
4.966450941769
100
AcDbArc
 50
-21.017711079804
 51
21.017711079804
  0
ARC
  5
15D
100
AcDbEntity
  8
1
  6
CONTINUOUS
 62
           2
100
AcDbCircle
 10
1038.939458237818
 20
-132.387766868376
 40
5.256824707506
100
AcDbArc
 50
160.193464876453
 51
-160.193464876453
  0
ARC
  5
15C
100
AcDbEntity
  8
1
  6
CONTINUOUS
 62
           2
100
AcDbCircle
 10
1030.55051440948
 20
-132.387766868376
 40
4.882795906816
100
AcDbArc
 50
-21.395351170021
 51
21.395351170021
  0
ARC
  5
15B
100
AcDbEntity
  8
1
  6
CONTINUOUS
 62
           2
100
AcDbCircle
 10
1040.139907510592
 20
-132.387766868376
 40
5.348423964744
100
AcDbArc
 50
160.546481006697
 51
-160.546481006697
  0
ARC
  5
15A
100
AcDbEntity
  8
1
  6
CONTINUOUS
 62
           2
100
AcDbCircle
 10
1031.734984658066
 20
-132.387766868376
 40
4.805378113558
100
AcDbArc
 50
-21.757463708816
 51
21.757463708816
  0
ARC
  5
159
100
AcDbEntity
  8
1
  6
CONTINUOUS
 62
           2
100
AcDbCircle
 10
1041.395218432527
 20
-132.387766868376
 40
5.493958511223
100
AcDbArc
 50
161.081687914027
 51
-161.081687914027
  0
ARC
  5
158
100
AcDbEntity
  8
1
  6
CONTINUOUS
 62
           2
100
AcDbCircle
 10
1032.91063224292
 20
-132.387766868376
 40
4.733762646433
100
AcDbArc
 50
-22.103835952375
 51
22.103835952375
  0
ARC
  5
157
100
AcDbEntity
  8
1
  6
CONTINUOUS
 62
           2
100
AcDbCircle
 10
1042.634609565938
 20
-132.387766868376
 40
5.627475709738
100
AcDbArc
 50
161.546956549957
 51
-161.546956549957
  0
ARC
  5
156
100
AcDbEntity
  8
1
  6
CONTINUOUS
 62
           2
100
AcDbCircle
 10
1034.077048770552
 20
-132.387766868376
 40
4.66756155404
100
AcDbArc
 50
-22.434266668839
 51
22.434266668839
  0
ARC
  5
155
100
AcDbEntity
  8
1
  6
CONTINUOUS
 62
           2
100
AcDbCircle
 10
1043.881940013918
 20
-132.387766868376
 40
5.772289243172
100
AcDbArc
 50
162.025938524882
 51
-162.025938524882
  0
ARC
  5
154
100
AcDbEntity
  8
1
  6
CONTINUOUS
 62
           2
100
AcDbCircle
 10
1035.233787172624
 20
-132.387766868376
 40
4.606428312815
100
AcDbArc
 50
-22.748565977767
 51
22.748565977767
  0
ARC
  5
153
100
AcDbEntity
  8
1
  6
CONTINUOUS
 62
           2
100
AcDbCircle
 10
1045.137594319258
 20
-132.387766868376
 40
5.92957890634
100
AcDbArc
 50
162.518324819922
 51
-162.518324819922
  0
ARC
  5
152
100
AcDbEntity
  8
1
  6
CONTINUOUS
 62
           2
100
AcDbCircle
 10
1036.380367003028
 20
-132.387766868376
 40
4.550053102383
100
AcDbArc
 50
-23.046555184542
 51
23.046555184542
  0
ARC
  5
151
100
AcDbEntity
  8
1
  6
CONTINUOUS
 62
           2
100
AcDbCircle
 10
1046.402138654526
 20
-132.387766868376
 40
6.100703128784
100
AcDbArc
 50
163.023794006765
 51
-163.023794006765
  0
ARC
  5
150
100
AcDbEntity
  8
1
  6
CONTINUOUS
 62
           2
100
AcDbCircle
 10
1037.516279052194
 20
-132.387766868376
 40
4.498158761268
100
AcDbArc
 50
-23.328066611808
 51
23.328066611808
  0
ARC
  5
14F
100
AcDbEntity
  8
1
  6
CONTINUOUS
 62
           2
100
AcDbCircle
 10
1047.676355813492
 20
-132.387766868376
 40
6.287233394743
100
AcDbArc
 50
163.542012244599
 51
-163.542012244599
  0
ARC
  5
14E
100
AcDbEntity
  8
1
  6
CONTINUOUS
 62
           2
100
AcDbCircle
 10
1038.640989385316
 20
-132.387766868376
 40
4.450497315886
100
AcDbArc
 50
-23.592943429553
 51
23.592943429553
  0
ARC
  5
14D
100
AcDbEntity
  8
1
  6
CONTINUOUS
 62
           2
100
AcDbCircle
 10
1048.961288532139
 20
-132.387766868376
 40
6.490996995277
100
AcDbArc
 50
164.072633303533
 51
-164.072633303533
  0
ARC
  5
14C
100
AcDbEntity
  8
1
  6
CONTINUOUS
 62
           2
100
AcDbCircle
 10
1039.753942891907
 20
-132.387766868376
 40
4.406846994977
100
AcDbArc
 50
-23.841039485707
 51
23.841039485707
  0
ARC
  5
14B
100
AcDbEntity
  8
1
  6
CONTINUOUS
 62
           2
100
AcDbCircle
 10
1050.258293586427
 20
-132.387766868376
 40
6.714130560129
100
AcDbArc
 50
164.615298616132
 51
-164.615298616132
  0
ARC
  5
14A
100
AcDbEntity
  8
1
  6
CONTINUOUS
 62
           7
100
AcDbCircle
 10
1070.946795737103
 20
-133.918954365779
 40
2.96875
100
AcDbArc
 50
-90.0
 51
0.0
  0
ARC
  5
149
100
AcDbEntity
  8
1
  6
CONTINUOUS
 62
           7
100
AcDbCircle
 10
1070.353045737103
 20
-130.950204365779
 40
3.5625
100
AcDbArc
 50
0.0
 51
90.0
  0
ARC
  5
148
100
AcDbEntity
  8
1
  6
CONTINUOUS
 62
           7
100
AcDbCircle
 10
1067.978045737103
 20
-127.387704365779
 40
2.375
100
AcDbArc
 50
0.0
 51
90.0
  0
ARC
  5
147
100
AcDbEntity
  8
1
  6
CONTINUOUS
 62
           7
100
AcDbCircle
 10
996.728045737103
 20
-127.387704365779
 40
2.375
100
AcDbArc
 50
90.0
 51
180.0
  0
ARC
  5
146
100
AcDbEntity
  8
1
  6
CONTINUOUS
 62
           7
100
AcDbCircle
 10
994.353045737103
 20
-130.950204365779
 40
3.5625
100
AcDbArc
 50
90.0
 51
180.0
  0
ARC
  5
145
100
AcDbEntity
  8
1
  6
CONTINUOUS
 62
           7
100
AcDbCircle
 10
993.759295737102
 20
-133.918954365779
 40
2.96875
100
AcDbArc
 50
180.0
 51
-90.0
  0
ARC
  5
144
100
AcDbEntity
  8
1
  6
CONTINUOUS
 62
           2
100
AcDbCircle
 10
1014.447797887778
 20
-132.387766868376
 40
6.714130560129
100
AcDbArc
 50
-15.384701383868
 51
15.384701383868
  0
ARC
  5
143
100
AcDbEntity
  8
1
  6
CONTINUOUS
 62
           2
100
AcDbCircle
 10
1024.952148582298
 20
-132.387766868376
 40
4.406846994977
100
AcDbArc
 50
156.158960514292
 51
-156.158960514292
  0
ARC
  5
142
100
AcDbEntity
  8
1
  6
CONTINUOUS
 62
           2
100
AcDbCircle
 10
1015.744802942066
 20
-132.387766868376
 40
6.490996995277
100
AcDbArc
 50
-15.927366696466
 51
15.927366696466
  0
ARC
  5
141
100
AcDbEntity
  8
1
  6
CONTINUOUS
 62
           2
100
AcDbCircle
 10
1026.065102088889
 20
-132.387766868376
 40
4.450497315886
100
AcDbArc
 50
156.407056570446
 51
-156.407056570446
  0
ARC
  5
140
100
AcDbEntity
  8
1
  6
CONTINUOUS
 62
           2
100
AcDbCircle
 10
1017.029735660713
 20
-132.387766868376
 40
6.287233394743
100
AcDbArc
 50
-16.4579877554
 51
16.4579877554
  0
ARC
  5
13F
100
AcDbEntity
  8
1
  6
CONTINUOUS
 62
           2
100
AcDbCircle
 10
1027.189812422011
 20
-132.387766868376
 40
4.498158761268
100
AcDbArc
 50
156.671933388192
 51
-156.671933388192
  0
ARC
  5
13E
100
AcDbEntity
  8
1
  6
CONTINUOUS
 62
           2
100
AcDbCircle
 10
1018.30395281968
 20
-132.387766868376
 40
6.100703128783
100
AcDbArc
 50
-16.976205993237
 51
16.976205993237
  0
ARC
  5
13D
100
AcDbEntity
  8
1
  6
CONTINUOUS
 62
           2
100
AcDbCircle
 10
1028.325724471177
 20
-132.387766868376
 40
4.550053102382
100
AcDbArc
 50
156.953444815456
 51
-156.953444815456
  0
ARC
  5
13C
100
AcDbEntity
  8
1
  6
CONTINUOUS
 62
           2
100
AcDbCircle
 10
1019.568497154947
 20
-132.387766868376
 40
5.92957890634
100
AcDbArc
 50
-17.481675180076
 51
17.481675180076
  0
ARC
  5
13B
100
AcDbEntity
  8
1
  6
CONTINUOUS
 62
           2
100
AcDbCircle
 10
1029.472304301581
 20
-132.387766868376
 40
4.606428312815
100
AcDbArc
 50
157.251434022233
 51
-157.251434022233
  0
ARC
  5
13A
100
AcDbEntity
  8
1
  6
CONTINUOUS
 62
           2
100
AcDbCircle
 10
1020.824151460288
 20
-132.387766868376
 40
5.772289243171
100
AcDbArc
 50
-17.974061475121
 51
17.974061475121
  0
ARC
  5
139
100
AcDbEntity
  8
1
  6
CONTINUOUS
 62
           2
100
AcDbCircle
 10
1030.629042703653
 20
-132.387766868376
 40
4.66756155404
100
AcDbArc
 50
157.565733331161
 51
-157.565733331161
  0
ARC
  5
138
100
AcDbEntity
  8
1
  6
CONTINUOUS
 62
           2
100
AcDbCircle
 10
1022.071481908267
 20
-132.387766868376
 40
5.627475709738
100
AcDbArc
 50
-18.453043450043
 51
18.453043450043
  0
ARC
  5
137
100
AcDbEntity
  8
1
  6
CONTINUOUS
 62
           2
100
AcDbCircle
 10
1031.795459231285
 20
-132.387766868376
 40
4.733762646433
100
AcDbArc
 50
157.896164047624
 51
-157.896164047624
  0
ARC
  5
136
100
AcDbEntity
  8
1
  6
CONTINUOUS
 62
           2
100
AcDbCircle
 10
1023.310873041679
 20
-132.387766868376
 40
5.493958511223
100
AcDbArc
 50
-18.918312085972
 51
18.918312085972
  0
ARC
  5
135
100
AcDbEntity
  8
1
  6
CONTINUOUS
 62
           2
100
AcDbCircle
 10
1032.971106816139
 20
-132.387766868376
 40
4.805378113556
100
AcDbArc
 50
158.242536291178
 51
-158.242536291178
  0
ARC
  5
134
100
AcDbEntity
  8
1
  6
CONTINUOUS
 62
           2
100
AcDbCircle
 10
1024.566183963613
 20
-132.387766868376
 40
5.348423964745
100
AcDbArc
 50
-19.453518993302
 51
19.453518993302
  0
ARC
  5
133
100
AcDbEntity
  8
1
  6
CONTINUOUS
 62
           2
100
AcDbCircle
 10
1034.155577064726
 20
-132.387766868376
 40
4.882795906816
100
AcDbArc
 50
158.604648829983
 51
-158.604648829983
  0
ARC
  5
132
100
AcDbEntity
  8
1
  6
CONTINUOUS
 62
           2
100
AcDbCircle
 10
1025.766633236388
 20
-132.387766868376
 40
5.256824707506
100
AcDbArc
 50
-19.806535123546
 51
19.806535123546
  0
ARC
  5
131
100
AcDbEntity
  8
1
  6
CONTINUOUS
 62
           2
100
AcDbCircle
 10
1035.348506369121
 20
-132.387766868376
 40
4.966450941769
100
AcDbArc
 50
158.982288920195
 51
-158.982288920195
  0
ARC
  5
130
100
AcDbEntity
  8
1
  6
CONTINUOUS
 62
           2
100
AcDbCircle
 10
1026.826006679866
 20
-132.387766868376
 40
5.299192344848
100
AcDbArc
 50
-19.641640154097
 51
19.641640154097
  0
ARC
  5
12F
100
AcDbEntity
  8
1
  6
CONTINUOUS
 62
           2
100
AcDbCircle
 10
1036.549582992516
 20
-132.387766868376
 40
5.056831607701
100
AcDbArc
 50
159.375232152228
 51
-159.375232152228
  0
ARC
  5
12E
100
AcDbEntity
  8
1
  6
CONTINUOUS
 62
           2
100
AcDbCircle
 10
1004.686699003514
 20
-132.387766868376
 40
4.233258436034
100
AcDbArc
 50
155.11646368238
 51
-155.11646368238
  0
ARC
  5
12D
100
AcDbEntity
  8
1
  6
CONTINUOUS
 62
           2
100
AcDbCircle
 10
920.346071611714
 20
-132.387766868376
 40
80.520068325712
100
AcDbArc
 50
-1.267589997405
 51
1.267589997405
  0
ARC
  5
12C
100
AcDbEntity
  8
1
  6
CONTINUOUS
 62
           2
100
AcDbCircle
 10
1005.384144465334
 20
-132.387766868376
 40
4.211377982818
100
AcDbArc
 50
154.978310179368
 51
-154.978310179363
  0
ARC
  5
12B
100
AcDbEntity
  8
1
  6
CONTINUOUS
 62
           2
100
AcDbCircle
 10
949.580600604417
 20
-132.387766868376
 40
52.017919859043
100
AcDbArc
 50
-1.962363419031
 51
1.96236341903
  0
ARC
  5
12A
100
AcDbEntity
  8
1
  6
CONTINUOUS
 62
           2
100
AcDbCircle
 10
1006.107063119886
 20
-132.387766868376
 40
4.192480198404
100
AcDbArc
 50
154.857701689363
 51
-154.857701689363
  0
ARC
  5
129
100
AcDbEntity
  8
1
  6
CONTINUOUS
 62
           2
100
AcDbCircle
 10
963.907718408923
 20
-132.387766868376
 40
38.445366007236
100
AcDbArc
 50
-2.655577695328
 51
2.655577695328
  0
ARC
  5
128
100
AcDbEntity
  8
1
  6
CONTINUOUS
 62
           2
100
AcDbCircle
 10
1006.85484445615
 20
-132.387766868376
 40
4.176489648621
100
AcDbArc
 50
154.754700831368
 51
-154.754700831378
  0
ARC
  5
127
100
AcDbEntity
  8
1
  6
CONTINUOUS
 62
           2
100
AcDbCircle
 10
972.616641826555
 20
-132.387766868375
 40
30.512645697125
100
AcDbArc
 50
-3.346683374421
 51
3.346683374421
  0
ARC
  5
126
100
AcDbEntity
  8
1
  6
CONTINUOUS
 62
           2
100
AcDbCircle
 10
1007.626874385767
 20
-132.387766868376
 40
4.163343158547
100
AcDbArc
 50
154.66936084513
 51
-154.669360845125
  0
ARC
  5
125
100
AcDbEntity
  8
1
  6
CONTINUOUS
 62
           2
100
AcDbCircle
 10
978.613277830825
 20
-132.387766868376
 40
25.313292074911
100
AcDbArc
 50
-4.035133861235
 51
4.035133861235
  0
ARC
  5
124
100
AcDbEntity
  8
1
  6
CONTINUOUS
 62
           2
100
AcDbCircle
 10
1008.422535065013
 20
-132.387766868376
 40
4.152989237098
100
AcDbArc
 50
154.601725675431
 51
-154.601725675431
  0
ARC
  5
123
100
AcDbEntity
  8
1
  6
CONTINUOUS
 62
           2
100
AcDbCircle
 10
983.099167105168
 20
-132.387766868376
 40
21.645189372265
100
AcDbArc
 50
-4.720386142616
 51
4.720386142618
  0
ARC
  5
122
100
AcDbEntity
  8
1
  6
CONTINUOUS
 62
           2
100
AcDbCircle
 10
1009.241204840617
 20
-132.387766868376
 40
4.145387614332
100
AcDbArc
 50
154.551830042925
 51
-154.55183004292
  0
ARC
  5
121
100
AcDbEntity
  8
1
  6
CONTINUOUS
 62
           2
100
AcDbCircle
 10
986.661041930095
 20
-132.387766868376
 40
18.921015433998
100
AcDbArc
 50
-5.40190149711
 51
5.401901497109
  0
ARC
  5
120
100
AcDbEntity
  8
1
  6
CONTINUOUS
 62
           2
100
AcDbCircle
 10
1010.082258311197
 20
-132.387766868376
 40
4.140508883536
100
AcDbArc
 50
154.519699500669
 51
-154.519699500669
  0
ARC
  5
11F
100
AcDbEntity
  8
1
  6
CONTINUOUS
 62
           2
100
AcDbCircle
 10
989.61929766613
 20
-132.387766868376
 40
16.819770660603
100
AcDbArc
 50
-6.079146186505
 51
6.079146186505
  0
ARC
  5
11E
100
AcDbEntity
  8
1
  6
CONTINUOUS
 62
           2
100
AcDbCircle
 10
1010.945066498
 20
-132.387766868376
 40
4.138334242064
100
AcDbArc
 50
154.50535047631
 51
-154.50535047631
  0
ARC
  5
11D
100
AcDbEntity
  8
1
  6
CONTINUOUS
 62
           2
100
AcDbCircle
 10
992.163577293373
 20
-132.387766868376
 40
15.151193904531
100
AcDbArc
 50
-6.751592126445
 51
6.751592126445
  0
ARC
  5
11C
100
AcDbEntity
  8
1
  6
CONTINUOUS
 62
           2
100
AcDbCircle
 10
1011.828997120297
 20
-132.387766868376
 40
4.138855326608
100
AcDbArc
 50
154.50879029922
 51
-154.50879029922
  0
ARC
  5
11B
100
AcDbEntity
  8
1
  6
CONTINUOUS
 62
           2
100
AcDbCircle
 10
994.413179707136
 20
-132.387766868376
 40
13.79535462045
100
AcDbArc
 50
-7.418717533493
 51
7.418717533493
  0
ARC
  5
11A
100
AcDbEntity
  8
1
  6
CONTINUOUS
 62
           2
100
AcDbCircle
 10
1012.733414972387
 20
-132.387766868376
 40
4.142074140175
100
AcDbArc
 50
154.530017212746
 51
-154.530017212746
  0
ARC
  5
119
100
AcDbEntity
  8
1
  6
CONTINUOUS
 62
           2
100
AcDbCircle
 10
996.446807500638
 20
-132.387766868376
 40
12.672905538161
100
AcDbArc
 50
-8.080007546341
 51
8.080007546341
  0
ARC
  5
118
100
AcDbEntity
  8
1
  6
CONTINUOUS
 62
           2
100
AcDbCircle
 10
1013.657682400704
 20
-132.387766868376
 40
4.148003069561
100
AcDbArc
 50
154.569020371302
 51
-154.569020371297
  0
ARC
  5
117
100
AcDbEntity
  8
1
  6
CONTINUOUS
 62
           2
100
AcDbCircle
 10
998.318393852863
 20
-132.387766868376
 40
11.729256239751
100
AcDbArc
 50
-8.73495481898
 51
8.734954818978
  0
ARC
  5
116
100
AcDbEntity
  8
1
  6
CONTINUOUS
 62
           2
100
AcDbCircle
 10
1014.601159880952
 20
-132.387766868376
 40
4.156664993616
100
AcDbArc
 50
154.625779822269
 51
-154.625779822269
  0
ARC
  5
115
100
AcDbEntity
  8
1
  6
CONTINUOUS
 62
           2
100
AcDbCircle
 10
1000.066058967457
 20
-132.387766868376
 40
10.925617194766
100
AcDbArc
 50
-9.383060083926
 51
9.383060083926
  0
ARC
  5
114
100
AcDbEntity
  8
1
  6
CONTINUOUS
 62
           2
100
AcDbCircle
 10
1015.563206696743
 20
-132.387766868376
 40
4.168093484078
100
AcDbArc
 50
154.700266473069
 51
-154.700266473069
  0
ARC
  5
113
100
AcDbEntity
  8
1
  6
CONTINUOUS
 62
           2
100
AcDbCircle
 10
1001.717440933217
 20
-132.387766868376
 40
10.233669382517
100
AcDbArc
 50
-10.023832683842
 51
10.023832683842
  0
ARC
  5
112
100
AcDbEntity
  8
1
  6
CONTINUOUS
 62
           2
100
AcDbCircle
 10
1016.54318172271
 20
-132.387766868376
 40
4.182333102329
100
AcDbArc
 50
154.79244204335
 51
-154.79244204335
  0
ARC
  5
111
100
AcDbEntity
  8
1
  6
CONTINUOUS
 62
           2
100
AcDbCircle
 10
1003.293005115867
 20
-132.387766868376
 40
9.632255391461
100
AcDbArc
 50
-10.656791070076
 51
10.656791070076
  0
ARC
  5
110
100
AcDbEntity
  8
1
  6
CONTINUOUS
 62
           2
100
AcDbCircle
 10
1017.540444316723
 20
-132.387766868376
 40
4.199439797014
100
AcDbArc
 50
154.902259002924
 51
-154.902259002924
  0
ARC
  5
10F
100
AcDbEntity
  8
1
  6
CONTINUOUS
 62
           2
100
AcDbCircle
 10
1004.808173296106
 20
-132.387766868376
 40
9.105250780328
100
AcDbArc
 50
-11.281463267016
 51
11.281463267016
  0
ARC
  5
10E
100
AcDbEntity
  8
1
  6
CONTINUOUS
 62
           2
100
AcDbCircle
 10
1018.554355327573
 20
-132.387766868376
 40
4.21948140927
100
AcDbArc
 50
155.029660495589
 51
-155.029660495589
  0
ARC
  5
10D
100
AcDbEntity
  8
1
  6
CONTINUOUS
 62
           2
100
AcDbCircle
 10
1006.274736146368
 20
-132.387766868376
 40
8.640152108202
100
AcDbArc
 50
-11.897387301262
 51
11.897387301262
  0
ARC
  5
10C
100
AcDbEntity
  8
1
  6
CONTINUOUS
 62
           2
100
AcDbCircle
 10
1019.584278226482
 20
-132.387766868376
 40
4.242538294285
100
AcDbArc
 50
155.174580249757
 51
-155.174580249757
  0
ARC
  5
10B
100
AcDbEntity
  8
1
  6
CONTINUOUS
 62
           2
100
AcDbCircle
 10
1007.701815588448
 20
-132.387766868376
 40
8.227115091015
100
AcDbArc
 50
-12.504111595025
 51
12.504111595025
  0
ARC
  5
10A
100
AcDbEntity
  8
1
  6
CONTINUOUS
 62
           2
100
AcDbCircle
 10
1020.629580372932
 20
-132.387766868376
 40
4.268704070026
100
AcDbArc
 50
155.336942476239
 51
-155.336942476239
  0
ARC
  5
109
100
AcDbEntity
  8
1
  6
CONTINUOUS
 62
           2
100
AcDbCircle
 10
1009.096535995861
 20
-132.387766868376
 40
7.858283920231
100
AcDbArc
 50
-13.101195323309
 51
13.101195323309
  0
ARC
  5
108
100
AcDbEntity
  8
1
  6
CONTINUOUS
 62
           2
100
AcDbCircle
 10
1013.136981502093
 20
-132.387766868376
 40
6.959147675029
100
AcDbArc
 50
-14.830362641291
 51
14.830362641291
  0
ARC
  5
107
100
AcDbEntity
  8
1
  6
CONTINUOUS
 62
           2
100
AcDbCircle
 10
1023.851525055667
 20
-132.387766868376
 40
4.367009657238
100
AcDbArc
 50
155.927780861216
 51
-155.927780861216
  0
ARC
  5
106
100
AcDbEntity
  8
1
  6
CONTINUOUS
 62
           2
100
AcDbCircle
 10
1011.81014579032
 20
-132.387766868376
 40
7.229025102122
100
AcDbArc
 50
-14.264733436182
 51
14.264733436182
  0
ARC
  5
105
100
AcDbEntity
  8
1
  6
CONTINUOUS
 62
           2
100
AcDbCircle
 10
1022.763819930148
 20
-132.387766868376
 40
4.330808572441
100
AcDbArc
 50
155.713642905773
 51
-155.713642905773
  0
ARC
  5
104
100
AcDbEntity
  8
1
  6
CONTINUOUS
 62
           2
100
AcDbCircle
 10
1010.464502127236
 20
-132.387766868376
 40
7.527313857043
100
AcDbArc
 50
-13.688208734749
 51
13.688208734749
  0
ARC
  5
103
100
AcDbEntity
  8
1
  6
CONTINUOUS
 62
           2
100
AcDbCircle
 10
1021.689634427863
 20
-132.387766868376
 40
4.298086506591
100
AcDbArc
 50
155.51666175416
 51
-155.51666175416
  0
ARC
  5
102
100
AcDbEntity
  8
1
  6
CONTINUOUS
 62
           2
100
AcDbCircle
 10
1004.039814424392
 20
-132.387766868376
 40
4.280457896984
100
AcDbArc
 50
155.409162471166
 51
-155.322844332811
  0
ARC
  5
101
100
AcDbEntity
  8
1
  6
CONTINUOUS
 62
           2
100
AcDbCircle
 10
1003.37979148293
 20
-132.391457811565
 40
4.299239357969
100
AcDbArc
 50
155.469600298425
 51
-155.540569074764
  0
ARC
  5
100
100
AcDbEntity
  8
1
  6
CONTINUOUS
 62
           2
100
AcDbCircle
 10
1002.87899290054
 20
-132.387766868376
 40
4.452907286074
100
AcDbArc
 50
156.420598912876
 51
-156.420598912876
  0
ARC
  5
FF
100
AcDbEntity
  8
1
  6
CONTINUOUS
 62
           2
100
AcDbCircle
 10
1002.408845797516
 20
-132.387766868376
 40
4.6150927377
100
AcDbArc
 50
157.296530306005
 51
-157.296530306005
  0
ARC
  5
FE
100
AcDbEntity
  8
1
  6
CONTINUOUS
 62
           2
100
AcDbCircle
 10
1001.98095599892
 20
-132.387766868376
 40
4.794607653557
100
AcDbArc
 50
158.191158574171
 51
-158.191158574171
  0
ARC
  5
FD
100
AcDbEntity
  8
1
  6
CONTINUOUS
 62
           2
100
AcDbCircle
 10
1001.598356920986
 20
-132.387766868376
 40
4.994047324862
100
AcDbArc
 50
159.103886235635
 51
-159.103886235635
  0
ARC
  5
FC
100
AcDbEntity
  8
1
  6
CONTINUOUS
 62
           2
100
AcDbCircle
 10
1001.264610921019
 20
-132.387766868376
 40
5.216554280603
100
AcDbArc
 50
160.034087042745
 51
-160.034087042745
  0
ARC
  5
FB
100
AcDbEntity
  8
1
  6
CONTINUOUS
 62
           2
100
AcDbCircle
 10
1000.983960898871
 20
-132.387766868376
 40
5.465970191845
100
AcDbArc
 50
160.981106018722
 51
-160.981106018722
  0
ARC
  5
FA
100
AcDbEntity
  8
1
  6
CONTINUOUS
 62
           2
100
AcDbCircle
 10
1000.761535532514
 20
-132.387766868376
 40
5.747041396709
100
AcDbArc
 50
161.944259627567
 51
-161.944259627567
  0
ARC
  5
F9
100
AcDbEntity
  8
1
  6
CONTINUOUS
 62
           2
100
AcDbCircle
 10
1000.603631606607
 20
-132.387766868376
 40
6.06570150473
100
AcDbArc
 50
162.922836082988
 51
-162.922836082988
  0
ARC
  5
F8
100
AcDbEntity
  8
1
  6
CONTINUOUS
 62
           2
100
AcDbCircle
 10
1000.518109404288
 20
-132.387766868376
 40
6.429467050608
100
AcDbArc
 50
163.916095801175
 51
-163.916095801175
  0
ARC
  5
F7
100
AcDbEntity
  8
1
  6
CONTINUOUS
 62
           2
100
AcDbCircle
 10
1000.514957686748
 20
-132.387766868376
 40
6.84800272173
100
AcDbArc
 50
164.923272001177
 51
-164.923272001177
  0
ARC
  5
F6
100
AcDbEntity
  8
1
  6
CONTINUOUS
 62
           2
100
AcDbCircle
 10
1000.607119569364
 20
-132.387766868376
 40
7.333947468063
100
AcDbArc
 50
165.943571455262
 51
-165.943571455262
  0
ARC
  5
F5
100
AcDbEntity
  8
1
  6
CONTINUOUS
 62
           2
100
AcDbCircle
 10
1000.811731475659
 20
-132.387766868376
 40
7.904153675504
100
AcDbArc
 50
166.976175390468
 51
-166.976175390468
  0
ARC
  5
F4
100
AcDbEntity
  8
1
  6
CONTINUOUS
 62
           2
100
AcDbCircle
 10
1001.152038027465
 20
-132.387766868376
 40
8.581602260922
100
AcDbArc
 50
168.020240540938
 51
-168.020240540938
  0
ARC
  5
F3
100
AcDbEntity
  8
1
  6
CONTINUOUS
 62
           2
100
AcDbCircle
 10
1001.660456016321
 20
-132.387766868376
 40
9.398466833767
100
AcDbArc
 50
169.074900349229
 51
-169.074900349229
  0
ARC
  5
F2
100
AcDbEntity
  8
1
  6
CONTINUOUS
 62
           2
100
AcDbCircle
 10
1002.383681174368
 20
-132.387766868376
 40
10.401220642369
100
AcDbArc
 50
170.139266313186
 51
-170.139266313186
  0
ARC
  5
F1
100
AcDbEntity
  8
1
  6
CONTINUOUS
 62
           2
100
AcDbCircle
 10
1003.391625181159
 20
-132.387766868376
 40
11.659573741221
100
AcDbArc
 50
171.212429473395
 51
-171.212429473395
  0
ARC
  5
F0
100
AcDbEntity
  8
1
  6
CONTINUOUS
 62
           2
100
AcDbCircle
 10
1004.794013127163
 20
-132.387766868376
 40
13.283070599916
100
AcDbArc
 50
172.293462034641
 51
-172.293462034641
  0
ARC
  5
EF
100
AcDbEntity
  8
1
  6
CONTINUOUS
 62
           2
100
AcDbCircle
 10
1006.773578615678
 20
-132.387766868376
 40
15.454285335335
100
AcDbArc
 50
173.381419113257
 51
-173.381419113257
  0
ARC
  5
EE
100
AcDbEntity
  8
1
  6
CONTINUOUS
 62
           2
100
AcDbCircle
 10
1013.374207940105
 20
-132.387766868376
 40
22.227648888901
100
AcDbArc
 50
175.4035778173
 51
-175.4035778173
  0
ARC
  5
ED
100
AcDbEntity
  8
1
  6
CONTINUOUS
 62
           7
100
AcDbCircle
 10
1046.003045704033
 20
-282.604309798786
 40
10.0
100
AcDbArc
 50
117.710221835228
 51
179.995340355052
  0
ARC
  5
EC
100
AcDbEntity
  8
1
  6
CONTINUOUS
 62
           7
100
AcDbCircle
 10
1018.703045770172
 20
-282.604309798786
 40
10.000000000001
100
AcDbArc
 50
0.004659644947
 51
62.289778164767
  0
LINE
  5
EB
100
AcDbEntity
  8
1
  6
CONTINUOUS
 62
           7
100
AcDbLine
 10
1066.235845289637
 20
-273.479153849563
 11
1058.735845289637
 21
-273.479153849563
  0
LINE
  5
EA
100
AcDbEntity
  8
1
  6
CONTINUOUS
 62
           7
100
AcDbLine
 10
1055.735845289637
 20
-272.979153849563
 11
1056.235845289637
 21
-273.479153849563
  0
LINE
  5
E9
100
AcDbEntity
  8
1
  6
CONTINUOUS
 62
           7
100
AcDbLine
 10
1056.235845289637
 20
-273.479153849563
 11
1056.735845289637
 21
-273.479153849563
  0
LINE
  5
E8
100
AcDbEntity
  8
1
  6
CONTINUOUS
 62
           7
100
AcDbLine
 10
1055.735845289637
 20
-272.979153849563
 11
1056.235845289637
 21
-273.479153849563
  0
LINE
  5
E7
100
AcDbEntity
  8
1
  6
CONTINUOUS
 62
           7
100
AcDbLine
 10
1055.735845289637
 20
-272.979153849563
 11
1056.235845289637
 21
-273.479153849563
  0
LINE
  5
E6
100
AcDbEntity
  8
1
  6
CONTINUOUS
 62
           7
100
AcDbLine
 10
1068.735845289637
 20
-273.479153849563
 11
1069.235845289637
 21
-272.979153849563
  0
LINE
  5
E5
100
AcDbEntity
  8
1
  6
CONTINUOUS
 62
           6
100
AcDbLine
 10
1069.235845289637
 20
-259.150653849563
 11
1069.235845289637
 21
-265.729153849563
  0
LINE
  5
E4
100
AcDbEntity
  8
1
  6
CONTINUOUS
 62
           2
100
AcDbLine
 10
1057.677492522986
 20
-275.11013470053
 11
1057.746208260719
 21
-275.229153849563
  0
LINE
  5
E3
100
AcDbEntity
  8
1
  6
CONTINUOUS
 62
           7
100
AcDbLine
 10
1064.985845289637
 20
-279.729153849563
 11
1059.985845289637
 21
-279.729153849563
  0
LINE
  5
E2
100
AcDbEntity
  8
1
  6
CONTINUOUS
 62
           7
100
AcDbLine
 10
1068.735845289637
 20
-273.479153849563
 11
1068.235845289637
 21
-273.479153849563
  0
LINE
  5
E1
100
AcDbEntity
  8
1
  6
CONTINUOUS
 62
           7
100
AcDbLine
 10
1057.658007780268
 20
-275.07638613617
 11
1057.677492522986
 21
-275.11013470053
  0
LINE
  5
E0
100
AcDbEntity
  8
1
  6
CONTINUOUS
 62
           7
100
AcDbLine
 10
1068.235845289637
 20
-272.434019287741
 11
1068.235845289637
 21
-273.479153849563
  0
LINE
  5
DF
100
AcDbEntity
  8
1
  6
CONTINUOUS
 62
           7
100
AcDbLine
 10
1056.735845289637
 20
-272.434019287741
 11
1056.735845289637
 21
-273.479153849563
  0
LINE
  5
DE
100
AcDbEntity
  8
1
  6
CONTINUOUS
 62
           7
100
AcDbLine
 10
1056.235845289637
 20
-273.479153849563
 11
1056.235845289637
 21
-265.729153849563
  0
LINE
  5
DD
100
AcDbEntity
  8
1
  6
CONTINUOUS
 62
           7
100
AcDbLine
 10
1068.735845289637
 20
-273.479153849563
 11
1068.735845289637
 21
-265.729153849563
  0
LINE
  5
DC
100
AcDbEntity
  8
1
  6
CONTINUOUS
 62
           7
100
AcDbLine
 10
1055.735845289637
 20
-265.729153849563
 11
1055.735845289637
 21
-272.979153849563
  0
LINE
  5
DB
100
AcDbEntity
  8
1
  6
CONTINUOUS
 62
           7
100
AcDbLine
 10
1069.235845289637
 20
-272.979153849563
 11
1069.235845289637
 21
-265.729153849563
  0
LINE
  5
DA
100
AcDbEntity
  8
1
  6
CONTINUOUS
 62
           7
100
AcDbLine
 10
1069.235845289637
 20
-265.729153849563
 11
1069.235845289637
 21
-258.479153849563
  0
LINE
  5
D9
100
AcDbEntity
  8
1
  6
CONTINUOUS
 62
           7
100
AcDbLine
 10
1055.735845289637
 20
-258.479153849563
 11
1055.735845289637
 21
-265.729153849563
  0
LINE
  5
D8
100
AcDbEntity
  8
1
  6
CONTINUOUS
 62
           7
100
AcDbLine
 10
1068.735845289637
 20
-265.729153849563
 11
1068.735845289637
 21
-257.979153849563
  0
LINE
  5
D7
100
AcDbEntity
  8
1
  6
CONTINUOUS
 62
           7
100
AcDbLine
 10
1056.235845289637
 20
-265.729153849563
 11
1056.235845289637
 21
-257.979153849563
  0
LINE
  5
D6
100
AcDbEntity
  8
1
  6
CONTINUOUS
 62
           7
100
AcDbLine
 10
1056.735845289637
 20
-257.979153849563
 11
1056.735845289637
 21
-259.024288411385
  0
LINE
  5
D5
100
AcDbEntity
  8
1
  6
CONTINUOUS
 62
           7
100
AcDbLine
 10
1068.235845289637
 20
-257.979153849563
 11
1068.235845289637
 21
-259.024288411385
  0
LINE
  5
D4
100
AcDbEntity
  8
1
  6
CONTINUOUS
 62
           7
100
AcDbLine
 10
1057.677492522986
 20
-256.348172998596
 11
1057.658007780268
 21
-256.381921562956
  0
LINE
  5
D3
100
AcDbEntity
  8
1
  6
CONTINUOUS
 62
           7
100
AcDbLine
 10
1068.235845289637
 20
-257.979153849563
 11
1068.735845289637
 21
-257.979153849563
  0
LINE
  5
D2
100
AcDbEntity
  8
1
  6
CONTINUOUS
 62
           7
100
AcDbLine
 10
1059.985845289637
 20
-251.729153849563
 11
1064.985845289637
 21
-251.729153849563
  0
LINE
  5
D1
100
AcDbEntity
  8
1
  6
CONTINUOUS
 62
           2
100
AcDbLine
 10
1057.746208260719
 20
-256.229153849563
 11
1057.677492522986
 21
-256.348172998596
  0
LINE
  5
D0
100
AcDbEntity
  8
1
  6
CONTINUOUS
 62
           7
100
AcDbLine
 10
1069.235845289637
 20
-258.479153849563
 11
1068.735845289637
 21
-257.979153849563
  0
LINE
  5
CF
100
AcDbEntity
  8
1
  6
CONTINUOUS
 62
           7
100
AcDbLine
 10
1056.235845289637
 20
-257.979153849563
 11
1055.735845289637
 21
-258.479153849563
  0
LINE
  5
CE
100
AcDbEntity
  8
1
  6
CONTINUOUS
 62
           7
100
AcDbLine
 10
1056.235845289637
 20
-257.979153849563
 11
1055.735845289637
 21
-258.479153849563
  0
LINE
  5
CD
100
AcDbEntity
  8
1
  6
CONTINUOUS
 62
           7
100
AcDbLine
 10
1056.735845289637
 20
-257.979153849563
 11
1056.235845289637
 21
-257.979153849563
  0
LINE
  5
CC
100
AcDbEntity
  8
1
  6
CONTINUOUS
 62
           7
100
AcDbLine
 10
1056.235845289637
 20
-257.979153849563
 11
1055.735845289637
 21
-258.479153849563
  0
LINE
  5
CB
100
AcDbEntity
  8
1
  6
CONTINUOUS
 62
           7
100
AcDbLine
 10
1058.735845289637
 20
-257.979153849563
 11
1066.235845289637
 21
-257.979153849563
  0
LINE
  5
CA
100
AcDbEntity
  8
1
  6
CONTINUOUS
 62
           7
100
AcDbLine
 10
1055.835845289637
 20
-269.901202982106
 11
1053.853045737103
 21
-269.901202982106
  0
LINE
  5
C9
100
AcDbEntity
  8
1
  6
CONTINUOUS
 62
           7
100
AcDbLine
 10
1070.853045737103
 20
-139.324509196741
 11
1032.353045737103
 21
-139.324509196741
  0
LINE
  5
C8
100
AcDbEntity
  8
1
  6
CONTINUOUS
 62
           7
100
AcDbLine
 10
1072.853045737103
 20
-140.324509196741
 11
1072.853045737103
 21
-140.824509196741
  0
LINE
  5
C7
100
AcDbEntity
  8
1
  6
CONTINUOUS
 62
           7
100
AcDbLine
 10
1071.353045737103
 20
-142.324509196741
 11
1032.353045737103
 21
-142.324509196741
  0
LINE
  5
C6
100
AcDbEntity
  8
1
  6
CONTINUOUS
 62
           7
100
AcDbLine
 10
1071.853045737103
 20
-139.324509196741
 11
1070.653045737103
 21
-139.324509196741
  0
LINE
  5
C5
100
AcDbEntity
  8
1
  6
CONTINUOUS
 62
           7
100
AcDbLine
 10
1070.946795737103
 20
-136.887704365779
 11
1032.353045737102
 21
-136.887704365779
  0
LINE
  5
C4
100
AcDbEntity
  8
1
  6
CONTINUOUS
 62
           7
100
AcDbLine
 10
1032.353045737102
 20
-127.387704365779
 11
1070.353045737103
 21
-127.387704365779
  0
LINE
  5
C3
100
AcDbEntity
  8
1
  6
CONTINUOUS
 62
           2
100
AcDbLine
 10
1073.881821574872
 20
-134.36516047749
 11
1073.881821574872
 21
-130.606516868376
  0
LINE
  5
C2
100
AcDbEntity
  8
1
  6
CONTINUOUS
 62
           2
100
AcDbLine
 10
1073.82189003204
 20
-130.606516868376
 11
1073.82189003204
 21
-134.658757959795
  0
LINE
  5
C1
100
AcDbEntity
  8
1
  6
CONTINUOUS
 62
           2
100
AcDbLine
 10
1073.732046757928
 20
-130.606516868376
 11
1073.732046757928
 21
-133.661792130101
  0
LINE
  5
C0
100
AcDbEntity
  8
1
  6
CONTINUOUS
 62
           2
100
AcDbLine
 10
1073.612356557038
 20
-133.941249901289
 11
1073.612356557038
 21
-130.606516868376
  0
LINE
  5
BF
100
AcDbEntity
  8
1
  6
CONTINUOUS
 62
           2
100
AcDbLine
 10
1073.462905762646
 20
-134.169016868376
 11
1073.462905762646
 21
-130.606516868376
  0
LINE
  5
BE
100
AcDbEntity
  8
1
  6
CONTINUOUS
 62
           2
100
AcDbLine
 10
1073.283802174524
 20
-134.169016868376
 11
1073.283802174524
 21
-130.606516868376
  0
LINE
  5
BD
100
AcDbEntity
  8
1
  6
CONTINUOUS
 62
           2
100
AcDbLine
 10
1073.075174981188
 20
-134.169016868376
 11
1073.075174981188
 21
-130.606516868376
  0
LINE
  5
BC
100
AcDbEntity
  8
1
  6
CONTINUOUS
 62
           2
100
AcDbLine
 10
1072.837174666708
 20
-134.169016868376
 11
1072.837174666708
 21
-130.606516868376
  0
LINE
  5
BB
100
AcDbEntity
  8
1
  6
CONTINUOUS
 62
           2
100
AcDbLine
 10
1072.56997290217
 20
-134.169016868376
 11
1072.56997290217
 21
-130.606516868376
  0
LINE
  5
BA
100
AcDbEntity
  8
1
  6
CONTINUOUS
 62
           2
100
AcDbLine
 10
1072.273762421842
 20
-134.169016868376
 11
1072.273762421842
 21
-130.606516868376
  0
LINE
  5
B9
100
AcDbEntity
  8
1
  6
CONTINUOUS
 62
           2
100
AcDbLine
 10
1071.948756884156
 20
-134.169016868376
 11
1071.948756884156
 21
-130.606516868376
  0
LINE
  5
B8
100
AcDbEntity
  8
1
  6
CONTINUOUS
 62
           2
100
AcDbLine
 10
1071.595190717597
 20
-130.606516868376
 11
1071.595190717597
 21
-134.169016868376
  0
LINE
  5
B7
100
AcDbEntity
  8
1
  6
CONTINUOUS
 62
           2
100
AcDbLine
 10
1071.213318951606
 20
-130.606516868376
 11
1071.213318951606
 21
-134.169016868376
  0
LINE
  5
B6
100
AcDbEntity
  8
1
  6
CONTINUOUS
 62
           2
100
AcDbLine
 10
1070.803417032625
 20
-130.606516868376
 11
1070.803417032625
 21
-134.169016868376
  0
LINE
  5
B5
100
AcDbEntity
  8
1
  6
CONTINUOUS
 62
           2
100
AcDbLine
 10
1070.365780625418
 20
-130.606516868376
 11
1070.365780625418
 21
-134.169016868376
  0
LINE
  5
B4
100
AcDbEntity
  8
1
  6
CONTINUOUS
 62
           2
100
AcDbLine
 10
1069.900725399805
 20
-130.606516868376
 11
1069.900725399805
 21
-134.169016868376
  0
LINE
  5
B3
100
AcDbEntity
  8
1
  6
CONTINUOUS
 62
           2
100
AcDbLine
 10
1069.408586802968
 20
-130.606516868376
 11
1069.408586802968
 21
-134.169016868376
  0
LINE
  5
B2
100
AcDbEntity
  8
1
  6
CONTINUOUS
 62
           2
100
AcDbLine
 10
1068.889719817489
 20
-130.606516868376
 11
1068.889719817489
 21
-134.169016868376
  0
LINE
  5
B1
100
AcDbEntity
  8
1
  6
CONTINUOUS
 62
           2
100
AcDbLine
 10
1068.344498705302
 20
-130.606516868376
 11
1068.344498705302
 21
-134.169016868376
  0
LINE
  5
B0
100
AcDbEntity
  8
1
  6
CONTINUOUS
 62
           2
100
AcDbLine
 10
1067.773316737734
 20
-130.606516868376
 11
1067.773316737734
 21
-134.169016868376
  0
LINE
  5
AF
100
AcDbEntity
  8
1
  6
CONTINUOUS
 62
           2
100
AcDbLine
 10
1067.176585911834
 20
-130.606516868376
 11
1067.176585911834
 21
-134.169016868376
  0
LINE
  5
AE
100
AcDbEntity
  8
1
  6
CONTINUOUS
 62
           2
100
AcDbLine
 10
1066.5547366532
 20
-130.606516868376
 11
1066.5547366532
 21
-134.169016868376
  0
LINE
  5
AD
100
AcDbEntity
  8
1
  6
CONTINUOUS
 62
           2
100
AcDbLine
 10
1065.908217505511
 20
-130.606516868376
 11
1065.908217505511
 21
-134.169016868376
  0
LINE
  5
AC
100
AcDbEntity
  8
1
  6
CONTINUOUS
 62
           2
100
AcDbLine
 10
1065.237494806985
 20
-130.613898754754
 11
1065.234131477372
 21
-134.169016868376
  0
LINE
  5
AB
100
AcDbEntity
  8
1
  6
CONTINUOUS
 62
           2
100
AcDbLine
 10
1064.558508831883
 20
-130.606516868376
 11
1064.543052354011
 21
-134.169016868376
  0
LINE
  5
AA
100
AcDbEntity
  8
1
  6
CONTINUOUS
 62
           2
100
AcDbLine
 10
1063.859656188687
 20
-130.606516868376
 11
1063.859656188687
 21
-134.169016868376
  0
LINE
  5
A9
100
AcDbEntity
  8
1
  6
CONTINUOUS
 62
           2
100
AcDbLine
 10
1063.138077634475
 20
-134.169016868376
 11
1063.138077634475
 21
-130.606516868376
  0
LINE
  5
A8
100
AcDbEntity
  8
1
  6
CONTINUOUS
 62
           2
100
AcDbLine
 10
1062.394293648275
 20
-130.606516868376
 11
1062.394293648275
 21
-134.169016868376
  0
LINE
  5
A7
100
AcDbEntity
  8
1
  6
CONTINUOUS
 62
           2
100
AcDbLine
 10
1061.628840726031
 20
-134.169016868376
 11
1061.628840726031
 21
-130.606516868376
  0
LINE
  5
A6
100
AcDbEntity
  8
1
  6
CONTINUOUS
 62
           2
100
AcDbLine
 10
1060.842270993622
 20
-130.606516868376
 11
1060.875109776843
 21
-134.098669112897
  0
LINE
  5
A5
100
AcDbEntity
  8
1
  6
CONTINUOUS
 62
           2
100
AcDbLine
 10
1060.035151808612
 20
-134.087656502723
 11
1060.035151808612
 21
-130.606516868376
  0
LINE
  5
A4
100
AcDbEntity
  8
1
  6
CONTINUOUS
 62
           2
100
AcDbLine
 10
1059.20806535101
 20
-130.606516868376
 11
1059.20806535101
 21
-134.169016868376
  0
LINE
  5
A3
100
AcDbEntity
  8
1
  6
CONTINUOUS
 62
           2
100
AcDbLine
 10
1058.361608203342
 20
-134.169016868376
 11
1058.361608203342
 21
-130.606516868376
  0
LINE
  5
A2
100
AcDbEntity
  8
1
  6
CONTINUOUS
 62
           2
100
AcDbLine
 10
1057.496390920331
 20
-130.606516868376
 11
1057.496390920331
 21
-134.169016868376
  0
LINE
  5
A1
100
AcDbEntity
  8
1
  6
CONTINUOUS
 62
           2
100
AcDbLine
 10
1056.6130375885
 20
-134.169016868376
 11
1056.6130375885
 21
-130.606516868376
  0
LINE
  5
A0
100
AcDbEntity
  8
1
  6
CONTINUOUS
 62
           2
100
AcDbLine
 10
1055.712185376017
 20
-130.606516868376
 11
1055.712185376017
 21
-134.169016868376
  0
LINE
  5
9F
100
AcDbEntity
  8
1
  6
CONTINUOUS
 62
           2
100
AcDbLine
 10
1054.794484073097
 20
-134.169016868376
 11
1054.794484073097
 21
-130.606516868376
  0
LINE
  5
9E
100
AcDbEntity
  8
1
  6
CONTINUOUS
 62
           2
100
AcDbLine
 10
1053.903686426564
 20
-134.076480567793
 11
1053.860595623308
 21
-130.606516868376
  0
LINE
  5
9D
100
AcDbEntity
  8
1
  6
CONTINUOUS
 62
           2
100
AcDbLine
 10
1052.911193646108
 20
-134.169016868376
 11
1052.911193646108
 21
-130.606516868376
  0
LINE
  5
9C
100
AcDbEntity
  8
1
  6
CONTINUOUS
 62
           2
100
AcDbLine
 10
1051.946962950955
 20
-134.169016868376
 11
1051.946962950955
 21
-130.606516868376
  0
LINE
  5
9B
100
AcDbEntity
  8
1
  6
CONTINUOUS
 62
           2
100
AcDbLine
 10
1050.968599043352
 20
-130.606516868376
 11
1050.968599043352
 21
-134.169016868376
  0
LINE
  5
9A
100
AcDbEntity
  8
1
  6
CONTINUOUS
 62
           2
100
AcDbLine
 10
1049.976807623177
 20
-134.169016868376
 11
1049.976807623177
 21
-130.606516868376
  0
LINE
  5
99
100
AcDbEntity
  8
1
  6
CONTINUOUS
 62
           2
100
AcDbLine
 10
1046.956529982558
 20
-134.105736320896
 11
1046.928067463503
 21
-130.606516868376
  0
LINE
  5
98
100
AcDbEntity
  8
1
  6
CONTINUOUS
 62
           2
100
AcDbLine
 10
1045.889808919261
 20
-130.606516868376
 11
1045.889808919261
 21
-134.169016868376
  0
LINE
  5
97
100
AcDbEntity
  8
1
  6
CONTINUOUS
 62
           2
100
AcDbLine
 10
1044.841786224858
 20
-134.169016868376
 11
1044.841786224858
 21
-130.606516868376
  0
LINE
  5
96
100
AcDbEntity
  8
1
  6
CONTINUOUS
 62
           2
100
AcDbLine
 10
1047.955812955339
 20
-130.606516868376
 11
1047.955812955339
 21
-134.169016868376
  0
LINE
  5
95
100
AcDbEntity
  8
1
  6
CONTINUOUS
 62
           2
100
AcDbLine
 10
1048.972304075653
 20
-134.169016868376
 11
1048.972304075653
 21
-130.606516868376
  0
LINE
  5
94
100
AcDbEntity
  8
1
  6
CONTINUOUS
 62
           2
100
AcDbLine
 10
1043.784755325479
 20
-134.169016868376
 11
1043.784755325479
 21
-130.606516868376
  0
LINE
  5
93
100
AcDbEntity
  8
1
  6
CONTINUOUS
 62
           2
100
AcDbLine
 10
1042.719478663984
 20
-134.169016868376
 11
1042.719478663984
 21
-130.606516868376
  0
LINE
  5
92
100
AcDbEntity
  8
1
  6
CONTINUOUS
 62
           2
100
AcDbLine
 10
1041.646724630951
 20
-134.169016868376
 11
1041.646724630951
 21
-130.606516868376
  0
LINE
  5
91
100
AcDbEntity
  8
1
  6
CONTINUOUS
 62
           2
100
AcDbLine
 10
1040.567267010432
 20
-134.169016868376
 11
1040.567267010432
 21
-130.606516868376
  0
LINE
  5
90
100
AcDbEntity
  8
1
  6
CONTINUOUS
 62
           2
100
AcDbLine
 10
1039.481884421817
 20
-134.169016868376
 11
1039.481884421817
 21
-130.606516868376
  0
LINE
  5
8F
100
AcDbEntity
  8
1
  6
CONTINUOUS
 62
           2
100
AcDbLine
 10
1038.391359758213
 20
-134.169016868376
 11
1038.391359758213
 21
-130.606516868376
  0
LINE
  5
8E
100
AcDbEntity
  8
1
  6
CONTINUOUS
 62
           2
100
AcDbLine
 10
1037.296479621736
 20
-134.169016868376
 11
1037.296479621736
 21
-130.606516868376
  0
LINE
  5
8D
100
AcDbEntity
  8
1
  6
CONTINUOUS
 62
           2
100
AcDbLine
 10
1036.198033756133
 20
-134.169016868376
 11
1036.198033756133
 21
-130.606516868376
  0
LINE
  5
8C
100
AcDbEntity
  8
1
  6
CONTINUOUS
 62
           2
100
AcDbLine
 10
1035.09681447713
 20
-134.169016868376
 11
1035.09681447713
 21
-130.606516868376
  0
LINE
  5
8B
100
AcDbEntity
  8
1
  6
CONTINUOUS
 62
           2
100
AcDbLine
 10
1033.993616100937
 20
-134.169016868376
 11
1033.993616100937
 21
-130.606516868376
  0
LINE
  5
8A
100
AcDbEntity
  8
1
  6
CONTINUOUS
 62
           2
100
AcDbLine
 10
1032.889234371296
 20
-134.169016868376
 11
1032.889234371296
 21
-130.606516868376
  0
LINE
  5
89
100
AcDbEntity
  8
1
  6
CONTINUOUS
 62
           7
100
AcDbLine
 10
1073.915545737103
 20
-133.918954365779
 11
1073.915545737103
 21
-130.950204365779
  0
LINE
  5
88
100
AcDbEntity
  8
1
  6
CONTINUOUS
 62
           7
100
AcDbLine
 10
1070.742909023946
 20
-139.334344923657
 11
1070.946795737103
 21
-136.887704365779
  0
LINE
  5
87
100
AcDbEntity
  8
1
  6
CONTINUOUS
 62
           7
100
AcDbLine
 10
1067.978045737103
 20
-125.012704365779
 11
1032.353045737102
 21
-125.012704365779
  0
LINE
  5
86
100
AcDbEntity
  8
1
  6
CONTINUOUS
 62
           7
100
AcDbLine
 10
1032.353045737102
 20
-125.012704365779
 11
996.728045737103
 21
-125.012704365779
  0
LINE
  5
85
100
AcDbEntity
  8
1
  6
CONTINUOUS
 62
           7
100
AcDbLine
 10
993.759295737102
 20
-136.887704365779
 11
993.963182450259
 21
-139.334344923657
  0
LINE
  5
84
100
AcDbEntity
  8
1
  6
CONTINUOUS
 62
           7
100
AcDbLine
 10
990.790545737102
 20
-130.950204365779
 11
990.790545737102
 21
-133.918954365779
  0
LINE
  5
83
100
AcDbEntity
  8
1
  6
CONTINUOUS
 62
           2
100
AcDbLine
 10
1031.81685710291
 20
-130.606516868376
 11
1031.81685710291
 21
-134.169016868376
  0
LINE
  5
82
100
AcDbEntity
  8
1
  6
CONTINUOUS
 62
           2
100
AcDbLine
 10
1030.712475373269
 20
-130.606516868376
 11
1030.712475373269
 21
-134.169016868376
  0
LINE
  5
81
100
AcDbEntity
  8
1
  6
CONTINUOUS
 62
           2
100
AcDbLine
 10
1029.609276997075
 20
-130.606516868376
 11
1029.609276997075
 21
-134.169016868376
  0
LINE
  5
80
100
AcDbEntity
  8
1
  6
CONTINUOUS
 62
           2
100
AcDbLine
 10
1028.508057718073
 20
-130.606516868376
 11
1028.508057718073
 21
-134.169016868376
  0
LINE
  5
7F
100
AcDbEntity
  8
1
  6
CONTINUOUS
 62
           2
100
AcDbLine
 10
1027.409611852469
 20
-130.606516868376
 11
1027.409611852469
 21
-134.169016868376
  0
LINE
  5
7E
100
AcDbEntity
  8
1
  6
CONTINUOUS
 62
           2
100
AcDbLine
 10
1026.314731715992
 20
-130.606516868376
 11
1026.314731715992
 21
-134.169016868376
  0
LINE
  5
7D
100
AcDbEntity
  8
1
  6
CONTINUOUS
 62
           2
100
AcDbLine
 10
1025.224207052388
 20
-130.606516868376
 11
1025.224207052388
 21
-134.169016868376
  0
LINE
  5
7C
100
AcDbEntity
  8
1
  6
CONTINUOUS
 62
           2
100
AcDbLine
 10
1024.138824463773
 20
-130.606516868376
 11
1024.138824463773
 21
-134.169016868376
  0
LINE
  5
7B
100
AcDbEntity
  8
1
  6
CONTINUOUS
 62
           2
100
AcDbLine
 10
1023.059366843254
 20
-130.606516868376
 11
1023.059366843254
 21
-134.169016868376
  0
LINE
  5
7A
100
AcDbEntity
  8
1
  6
CONTINUOUS
 62
           2
100
AcDbLine
 10
1021.986612810221
 20
-130.606516868376
 11
1021.986612810221
 21
-134.169016868376
  0
LINE
  5
79
100
AcDbEntity
  8
1
  6
CONTINUOUS
 62
           2
100
AcDbLine
 10
1020.921336148726
 20
-130.606516868376
 11
1020.921336148726
 21
-134.169016868376
  0
LINE
  5
78
100
AcDbEntity
  8
1
  6
CONTINUOUS
 62
           2
100
AcDbLine
 10
1015.733787398552
 20
-130.606516868376
 11
1015.733787398552
 21
-134.169016868376
  0
LINE
  5
77
100
AcDbEntity
  8
1
  6
CONTINUOUS
 62
           2
100
AcDbLine
 10
1016.750278518866
 20
-134.169016868376
 11
1016.750278518866
 21
-130.606516868376
  0
LINE
  5
76
100
AcDbEntity
  8
1
  6
CONTINUOUS
 62
           2
100
AcDbLine
 10
1019.864305249347
 20
-130.606516868376
 11
1019.864305249347
 21
-134.169016868376
  0
LINE
  5
75
100
AcDbEntity
  8
1
  6
CONTINUOUS
 62
           2
100
AcDbLine
 10
1018.816282554944
 20
-134.169016868376
 11
1018.816282554944
 21
-130.606516868376
  0
LINE
  5
74
100
AcDbEntity
  8
1
  6
CONTINUOUS
 62
           2
100
AcDbLine
 10
1017.778024010702
 20
-130.606516868376
 11
1017.749561491647
 21
-134.105736320896
  0
LINE
  5
73
100
AcDbEntity
  8
1
  6
CONTINUOUS
 62
           2
100
AcDbLine
 10
1014.729283851028
 20
-130.606516868376
 11
1014.729283851028
 21
-134.169016868376
  0
LINE
  5
72
100
AcDbEntity
  8
1
  6
CONTINUOUS
 62
           2
100
AcDbLine
 10
1013.737492430853
 20
-134.169016868376
 11
1013.737492430853
 21
-130.606516868376
  0
LINE
  5
71
100
AcDbEntity
  8
1
  6
CONTINUOUS
 62
           2
100
AcDbLine
 10
1012.759128523251
 20
-130.606516868376
 11
1012.759128523251
 21
-134.169016868376
  0
LINE
  5
70
100
AcDbEntity
  8
1
  6
CONTINUOUS
 62
           2
100
AcDbLine
 10
1011.794897828097
 20
-130.606516868376
 11
1011.794897828097
 21
-134.169016868376
  0
LINE
  5
6F
100
AcDbEntity
  8
1
  6
CONTINUOUS
 62
           2
100
AcDbLine
 10
1010.845495850897
 20
-130.606516868376
 11
1010.802405047642
 21
-134.076480567793
  0
LINE
  5
6E
100
AcDbEntity
  8
1
  6
CONTINUOUS
 62
           2
100
AcDbLine
 10
1009.911607401109
 20
-130.606516868376
 11
1009.911607401109
 21
-134.169016868376
  0
LINE
  5
6D
100
AcDbEntity
  8
1
  6
CONTINUOUS
 62
           2
100
AcDbLine
 10
1008.993906098189
 20
-134.169016868376
 11
1008.993906098189
 21
-130.606516868376
  0
LINE
  5
6C
100
AcDbEntity
  8
1
  6
CONTINUOUS
 62
           2
100
AcDbLine
 10
1008.093053885705
 20
-130.606516868376
 11
1008.093053885705
 21
-134.169016868376
  0
LINE
  5
6B
100
AcDbEntity
  8
1
  6
CONTINUOUS
 62
           2
100
AcDbLine
 10
1007.209700553874
 20
-134.169016868376
 11
1007.209700553874
 21
-130.606516868376
  0
LINE
  5
6A
100
AcDbEntity
  8
1
  6
CONTINUOUS
 62
           2
100
AcDbLine
 10
1006.344483270864
 20
-130.606516868376
 11
1006.344483270864
 21
-134.169016868376
  0
LINE
  5
69
100
AcDbEntity
  8
1
  6
CONTINUOUS
 62
           2
100
AcDbLine
 10
1005.498026123195
 20
-134.169016868376
 11
1005.498026123195
 21
-130.606516868376
  0
LINE
  5
68
100
AcDbEntity
  8
1
  6
CONTINUOUS
 62
           2
100
AcDbLine
 10
1004.670939665593
 20
-130.606516868376
 11
1004.670939665593
 21
-134.087656502723
  0
LINE
  5
67
100
AcDbEntity
  8
1
  6
CONTINUOUS
 62
           2
100
AcDbLine
 10
1003.830981697362
 20
-134.098669112897
 11
1003.863820480583
 21
-130.606516868376
  0
LINE
  5
66
100
AcDbEntity
  8
1
  6
CONTINUOUS
 62
           2
100
AcDbLine
 10
1003.077250748174
 20
-130.606516868376
 11
1003.077250748174
 21
-134.169016868376
  0
LINE
  5
65
100
AcDbEntity
  8
1
  6
CONTINUOUS
 62
           2
100
AcDbLine
 10
1002.31179782593
 20
-134.169016868376
 11
1002.31179782593
 21
-130.606516868376
  0
LINE
  5
64
100
AcDbEntity
  8
1
  6
CONTINUOUS
 62
           2
100
AcDbLine
 10
1001.568013839731
 20
-130.606516868376
 11
1001.568013839731
 21
-134.169016868376
  0
LINE
  5
63
100
AcDbEntity
  8
1
  6
CONTINUOUS
 62
           2
100
AcDbLine
 10
1000.846435285519
 20
-134.169016868376
 11
1000.846435285519
 21
-130.606516868376
  0
LINE
  5
62
100
AcDbEntity
  8
1
  6
CONTINUOUS
 62
           2
100
AcDbLine
 10
1000.163039120194
 20
-134.169016868376
 11
1000.147582642323
 21
-130.606516868376
  0
LINE
  5
61
100
AcDbEntity
  8
1
  6
CONTINUOUS
 62
           2
100
AcDbLine
 10
999.471959996833
 20
-134.169016868376
 11
999.46859666722
 21
-130.613898754754
  0
LINE
  5
60
100
AcDbEntity
  8
1
  6
CONTINUOUS
 62
           2
100
AcDbLine
 10
998.797873968695
 20
-134.169016868376
 11
998.797873968695
 21
-130.606516868376
  0
LINE
  5
5F
100
AcDbEntity
  8
1
  6
CONTINUOUS
 62
           2
100
AcDbLine
 10
998.151354821005
 20
-134.169016868376
 11
998.151354821005
 21
-130.606516868376
  0
LINE
  5
5E
100
AcDbEntity
  8
1
  6
CONTINUOUS
 62
           2
100
AcDbLine
 10
997.529505562371
 20
-134.169016868376
 11
997.529505562371
 21
-130.606516868376
  0
LINE
  5
5D
100
AcDbEntity
  8
1
  6
CONTINUOUS
 62
           2
100
AcDbLine
 10
996.932774736471
 20
-134.169016868376
 11
996.932774736471
 21
-130.606516868376
  0
LINE
  5
5C
100
AcDbEntity
  8
1
  6
CONTINUOUS
 62
           2
100
AcDbLine
 10
996.361592768903
 20
-134.169016868376
 11
996.361592768903
 21
-130.606516868376
  0
LINE
  5
5B
100
AcDbEntity
  8
1
  6
CONTINUOUS
 62
           2
100
AcDbLine
 10
995.816371656716
 20
-134.169016868376
 11
995.816371656716
 21
-130.606516868376
  0
LINE
  5
5A
100
AcDbEntity
  8
1
  6
CONTINUOUS
 62
           2
100
AcDbLine
 10
995.297504671237
 20
-134.169016868376
 11
995.297504671237
 21
-130.606516868376
  0
LINE
  5
59
100
AcDbEntity
  8
1
  6
CONTINUOUS
 62
           2
100
AcDbLine
 10
994.8053660744
 20
-134.169016868376
 11
994.8053660744
 21
-130.606516868376
  0
LINE
  5
58
100
AcDbEntity
  8
1
  6
CONTINUOUS
 62
           2
100
AcDbLine
 10
994.340310848787
 20
-134.169016868376
 11
994.340310848787
 21
-130.606516868376
  0
LINE
  5
57
100
AcDbEntity
  8
1
  6
CONTINUOUS
 62
           2
100
AcDbLine
 10
993.90267444158
 20
-134.169016868376
 11
993.90267444158
 21
-130.606516868376
  0
LINE
  5
56
100
AcDbEntity
  8
1
  6
CONTINUOUS
 62
           2
100
AcDbLine
 10
993.492772522599
 20
-134.169016868376
 11
993.492772522599
 21
-130.606516868376
  0
LINE
  5
55
100
AcDbEntity
  8
1
  6
CONTINUOUS
 62
           2
100
AcDbLine
 10
993.110900756608
 20
-134.169016868376
 11
993.110900756608
 21
-130.606516868376
  0
LINE
  5
54
100
AcDbEntity
  8
1
  6
CONTINUOUS
 62
           2
100
AcDbLine
 10
992.757334590049
 20
-130.606516868376
 11
992.757334590049
 21
-134.169016868376
  0
LINE
  5
53
100
AcDbEntity
  8
1
  6
CONTINUOUS
 62
           2
100
AcDbLine
 10
992.432329052363
 20
-130.606516868376
 11
992.432329052363
 21
-134.169016868376
  0
LINE
  5
52
100
AcDbEntity
  8
1
  6
CONTINUOUS
 62
           2
100
AcDbLine
 10
992.136118572035
 20
-130.606516868376
 11
992.136118572035
 21
-134.169016868376
  0
LINE
  5
51
100
AcDbEntity
  8
1
  6
CONTINUOUS
 62
           2
100
AcDbLine
 10
991.868916807497
 20
-130.606516868376
 11
991.868916807497
 21
-134.169016868376
  0
LINE
  5
50
100
AcDbEntity
  8
1
  6
CONTINUOUS
 62
           2
100
AcDbLine
 10
991.630916493018
 20
-130.606516868376
 11
991.630916493018
 21
-134.169016868376
  0
LINE
  5
4F
100
AcDbEntity
  8
1
  6
CONTINUOUS
 62
           2
100
AcDbLine
 10
991.422289299681
 20
-130.606516868376
 11
991.422289299681
 21
-134.169016868376
  0
LINE
  5
4E
100
AcDbEntity
  8
1
  6
CONTINUOUS
 62
           2
100
AcDbLine
 10
991.24318571156
 20
-130.606516868376
 11
991.24318571156
 21
-134.169016868376
  0
LINE
  5
4D
100
AcDbEntity
  8
1
  6
CONTINUOUS
 62
           2
100
AcDbLine
 10
991.093734917167
 20
-130.606516868376
 11
991.093734917167
 21
-133.941249901289
  0
LINE
  5
4C
100
AcDbEntity
  8
1
  6
CONTINUOUS
 62
           2
100
AcDbLine
 10
990.974044716278
 20
-133.661792130101
 11
990.974044716278
 21
-130.606516868376
  0
LINE
  5
4B
100
AcDbEntity
  8
1
  6
CONTINUOUS
 62
           2
100
AcDbLine
 10
990.884201442165
 20
-134.658757959795
 11
990.884201442165
 21
-130.606516868376
  0
LINE
  5
4A
100
AcDbEntity
  8
1
  6
CONTINUOUS
 62
           2
100
AcDbLine
 10
990.824269899334
 20
-130.606516868376
 11
990.824269899334
 21
-134.36516047749
  0
LINE
  5
49
100
AcDbEntity
  8
1
  6
CONTINUOUS
 62
           7
100
AcDbLine
 10
994.353045737103
 20
-127.387704365779
 11
1032.353045737102
 21
-127.387704365779
  0
LINE
  5
48
100
AcDbEntity
  8
1
  6
CONTINUOUS
 62
           7
100
AcDbLine
 10
1032.353045737102
 20
-136.887704365779
 11
993.759295737102
 21
-136.887704365779
  0
LINE
  5
47
100
AcDbEntity
  8
1
  6
CONTINUOUS
 62
           7
100
AcDbLine
 10
1000.195092472641
 20
-210.468963655369
 11
1000.195092472641
 21
-210.470200450796
  0
LINE
  5
46
100
AcDbEntity
  8
1
  6
CONTINUOUS
 62
           7
100
AcDbLine
 10
993.853045737103
 20
-215.838928430565
 11
993.853045737102
 21
-142.324509196741
  0
LINE
  5
45
100
AcDbEntity
  8
1
  6
CONTINUOUS
 62
           7
100
AcDbLine
 10
994.053045737102
 20
-139.324509196741
 11
992.853045737102
 21
-139.324509196741
  0
LINE
  5
44
100
AcDbEntity
  8
1
  6
CONTINUOUS
 62
           7
100
AcDbLine
 10
1032.353045737103
 20
-142.324509196741
 11
993.353045737102
 21
-142.324509196741
  0
LINE
  5
43
100
AcDbEntity
  8
1
  6
CONTINUOUS
 62
           7
100
AcDbLine
 10
991.853045737102
 20
-140.824509196741
 11
991.853045737102
 21
-140.324509196741
  0
LINE
  5
42
100
AcDbEntity
  8
1
  6
CONTINUOUS
 62
           7
100
AcDbLine
 10
1032.353045737103
 20
-139.324509196741
 11
993.853045737102
 21
-139.324509196741
  0
LINE
  5
41
100
AcDbEntity
  8
1
  6
CONTINUOUS
 62
           7
100
AcDbLine
 10
1070.853045737102
 20
-215.861922622361
 11
1070.853045737103
 21
-142.324509196741
  0
LINE
  5
40
100
AcDbEntity
  8
1
  6
CONTINUOUS
 62
           7
100
AcDbLine
 10
1041.620861993784
 20
-252.867663124121
 11
1062.911937677892
 21
-233.697616879497
  0
LINE
  5
3F
100
AcDbEntity
  8
1
  6
CONTINUOUS
 62
           7
100
AcDbLine
 10
1023.754349977954
 20
-253.124509196741
 11
1040.951741496252
 21
-253.124509196741
  0
LINE
  5
3E
100
AcDbEntity
  8
1
  6
CONTINUOUS
 62
           7
100
AcDbLine
 10
1001.794153796313
 20
-233.697616879497
 11
1023.085229480421
 21
-252.867663124121
  0
LINE
  5
3D
100
AcDbEntity
  8
1
  6
CONTINUOUS
 62
           7
100
AcDbLine
 10
1036.003045737103
 20
-282.603496537324
 11
1035.553045737103
 21
-295.982928656655
  0
LINE
  5
3C
100
AcDbEntity
  8
1
  6
CONTINUOUS
 62
           7
100
AcDbLine
 10
1029.153045737103
 20
-295.982928656655
 11
1028.703045737103
 21
-282.603496537324
  0
LINE
  5
3B
100
AcDbEntity
  8
1
  6
DOT_CENTER
 62
           2
100
AcDbLine
 10
1032.353045737103
 20
-299.207688343366
 11
1032.353045737103
 21
-118.203129876448
  0
LINE
  5
3A
100
AcDbEntity
  8
1
  6
CONTINUOUS
 62
           7
100
AcDbLine
 10
1031.139576182818
 20
-297.751202982106
 11
1033.566515291387
 21
-297.751202982106
  0
LINE
  5
39
100
AcDbEntity
  8
1
  6
CONTINUOUS
 62
           7
100
AcDbLine
 10
1023.353045737103
 20
-253.351202982106
 11
1023.353045737103
 21
-273.751202982106
  0
LINE
  5
38
100
AcDbEntity
  8
1
  6
CONTINUOUS
 62
           7
100
AcDbLine
 10
1023.353045737103
 20
-253.348780000863
 11
1041.353045737103
 21
-253.348780000863
  0
LINE
  5
37
100
AcDbEntity
  8
1
  6
CONTINUOUS
 62
           7
100
AcDbLine
 10
1041.353045737103
 20
-265.751202982106
 11
1041.353045737103
 21
-253.348780000863
  0
LINE
  5
36
100
AcDbEntity
  8
1
  6
CONTINUOUS
 62
           7
100
AcDbLine
 10
1041.353045737103
 20
-265.751202982106
 11
1041.353045737103
 21
-273.751202982106
  0
LINE
  5
35
100
AcDbEntity
  8
1
  6
DOT_CENTER
 62
           2
100
AcDbLine
 10
1031.877955812919
 20
-265.751202982106
 11
1076.206013136448
 21
-265.751202982106
  0
LINE
  5
34
100
AcDbEntity
  8
1
  6
CONTINUOUS
 62
           7
100
AcDbLine
 10
1041.353045737103
 20
-271.751202982106
 11
1044.853045737103
 21
-271.751202982106
  0
LINE
  5
33
100
AcDbEntity
  8
1
  6
CONTINUOUS
 62
           7
100
AcDbLine
 10
1044.853045737103
 20
-259.751202982106
 11
1041.353045737103
 21
-259.751202982106
  0
LINE
  5
32
100
AcDbEntity
  8
1
  6
CONTINUOUS
 62
           7
100
AcDbLine
 10
1053.853045737103
 20
-261.601202982106
 11
1055.835845289637
 21
-261.601202982106
  0
LINE
  5
31
100
AcDbEntity
  8
1
  6
CONTINUOUS
 62
           7
100
AcDbLine
 10
1053.853045737103
 20
-258.251202982106
 11
1053.853045737103
 21
-265.751202982106
  0
LINE
  5
30
100
AcDbEntity
  8
1
  6
CONTINUOUS
 62
           7
100
AcDbLine
 10
1044.853045737103
 20
-258.251202982106
 11
1045.314925952454
 21
-257.451202982106
  0
LINE
  5
2F
100
AcDbEntity
  8
1
  6
CONTINUOUS
 62
           7
100
AcDbLine
 10
1053.853045737103
 20
-258.251202982106
 11
1053.391165521751
 21
-257.451202982106
  0
LINE
  5
2E
100
AcDbEntity
  8
1
  6
CONTINUOUS
 62
           7
100
AcDbLine
 10
1044.853045737103
 20
-265.751202982106
 11
1044.853045737103
 21
-258.251202982106
  0
LINE
  5
2D
100
AcDbEntity
  8
1
  6
CONTINUOUS
 62
           7
100
AcDbLine
 10
1053.391165521751
 20
-257.451202982106
 11
1045.314925952454
 21
-257.451202982106
  0
LINE
  5
2C
100
AcDbEntity
  8
1
  6
CONTINUOUS
 62
           7
100
AcDbLine
 10
1045.314925952454
 20
-274.051202982106
 11
1053.391165521751
 21
-274.051202982106
  0
LINE
  5
2B
100
AcDbEntity
  8
1
  6
CONTINUOUS
 62
           7
100
AcDbLine
 10
1044.853045737103
 20
-273.251202982106
 11
1044.853045737103
 21
-265.751202982106
  0
LINE
  5
2A
100
AcDbEntity
  8
1
  6
CONTINUOUS
 62
           7
100
AcDbLine
 10
1053.391165521751
 20
-274.051202982106
 11
1053.853045737103
 21
-273.251202982106
  0
LINE
  5
29
100
AcDbEntity
  8
1
  6
CONTINUOUS
 62
           7
100
AcDbLine
 10
1045.314925952454
 20
-274.051202982106
 11
1044.853045737103
 21
-273.251202982106
  0
LINE
  5
28
100
AcDbEntity
  8
1
  6
CONTINUOUS
 62
           7
100
AcDbLine
 10
1053.853045737103
 20
-265.751202982106
 11
1053.853045737103
 21
-273.251202982106
  0
ENDSEC
  0
SECTION
  2
OBJECTS
  0
DICTIONARY
  5
19
100
AcDbDictionary
  3
ACAD_GROUP
350
1A
  3
ACAD_MLINESTYLE
350
1B
  0
DICTIONARY
  5
1A
102
{ACAD_REACTORS
330
19
102
}
100
AcDbDictionary
  0
DICTIONARY
  5
1B
102
{ACAD_REACTORS
330
19
102
}
100
AcDbDictionary
  3
STANDARD
350
1C
  0
MLINESTYLE
  5
1C
102
{ACAD_REACTORS
330
1B
102
}
100
AcDbMlineStyle
  2
STANDARD
 70
           0
  3

 62
           0
 51
90.0
 52
90.0
 71
           2
 49
0.5
 62
         256
  6
BYLAYER
 49
-0.5
 62
         256
  6
BYLAYER
  0
ENDSEC
  0
EOF
