  0
SECTION
  2
HEADER
  9
$ACADVER
  1
AC1014
  9
$ACADMAINTVER
 70
           0
  9
$DWGCODEPAGE
  3
DOS932
  9
$INSBASE
 10
0.0
 20
0.0
 30
0.0
  9
$EXTMIN
 10
1.000000000000E+20
 20
1.000000000000E+20
 30
1.000000000000E+20
  9
$EXTMAX
 10
-1.000000000000E+20
 20
-1.000000000000E+20
 30
-1.000000000000E+20
  9
$LIMMIN
 10
0.0
 20
0.0
  9
$LIMMAX
 10
0.0
 20
0.0
  9
$ORTHOMODE
 70
           0
  9
$REGENMODE
 70
           1
  9
$FILLMODE
 70
           1
  9
$QTEXTMODE
 70
           0
  9
$MIRRTEXT
 70
           1
  9
$DRAGMODE
 70
           2
  9
$LTSCALE
 40
1.0
  9
$OSMODE
 70
           0
  9
$ATTMODE
 70
           1
  9
$TEXTSIZE
 40
0.2
  9
$TRACEWID
 40
0.05
  9
$TEXTSTYLE
  7
STANDARD
  9
$CLAYER
  8
0
  9
$CELTYPE
  6
CONTINUOUS
  9
$CECOLOR
 62
         256
  9
$CELTSCALE
 40
1.0
  9
$DELOBJ
 70
           1
  9
$DISPSILH
 70
           0
  9
$DIMSCALE
 40
1.0
  9
$DIMASZ
 40
0.18
  9
$DIMEXO
 40
0.0625
  9
$DIMDLI
 40
0.38
  9
$DIMRND
 40
0.0
  9
$DIMDLE
 40
0.0
  9
$DIMEXE
 40
0.18
  9
$DIMTP
 40
0.0
  9
$DIMTM
 40
0.0
  9
$DIMTXT
 40
0.18
  9
$DIMCEN
 40
0.09
  9
$DIMTSZ
 40
0.0
  9
$DIMTOL
 70
           0
  9
$DIMLIM
 70
           0
  9
$DIMTIH
 70
           1
  9
$DIMTOH
 70
           1
  9
$DIMSE1
 70
           0
  9
$DIMSE2
 70
           0
  9
$DIMTAD
 70
           0
  9
$DIMZIN
 70
           0
  9
$DIMBLK
  1

  9
$DIMASO
 70
           1
  9
$DIMSHO
 70
           1
  9
$DIMPOST
  1

  9
$DIMAPOST
  1

  9
$DIMALT
 70
           0
  9
$DIMALTD
 70
           2
  9
$DIMALTF
 40
25.4
  9
$DIMLFAC
 40
1.0
  9
$DIMTOFL
 70
           0
  9
$DIMTVP
 40
0.0
  9
$DIMTIX
 70
           0
  9
$DIMSOXD
 70
           0
  9
$DIMSAH
 70
           0
  9
$DIMBLK1
  1

  9
$DIMBLK2
  1

  9
$DIMSTYLE
  2
STANDARD
  9
$DIMCLRD
 70
           0
  9
$DIMCLRE
 70
           0
  9
$DIMCLRT
 70
           0
  9
$DIMTFAC
 40
1.0
  9
$DIMGAP
 40
0.09
  9
$DIMJUST
 70
           0
  9
$DIMSD1
 70
           0
  9
$DIMSD2
 70
           0
  9
$DIMTOLJ
 70
           1
  9
$DIMTZIN
 70
           0
  9
$DIMALTZ
 70
           0
  9
$DIMALTTZ
 70
           0
  9
$DIMFIT
 70
           3
  9
$DIMUPT
 70
           0
  9
$DIMUNIT
 70
           2
  9
$DIMDEC
 70
           4
  9
$DIMTDEC
 70
           4
  9
$DIMALTU
 70
           2
  9
$DIMALTTD
 70
           2
  9
$DIMTXSTY
  7
STANDARD
  9
$DIMAUNIT
 70
           0
  9
$LUNITS
 70
           2
  9
$LUPREC
 70
           4
  9
$SKETCHINC
 40
0.1
  9
$FILLETRAD
 40
0.0
  9
$AUNITS
 70
           0
  9
$AUPREC
 70
           0
  9
$MENU
  1
acad
  9
$ELEVATION
 40
0.0
  9
$PELEVATION
 40
0.0
  9
$THICKNESS
 40
0.0
  9
$LIMCHECK
 70
           0
  9
$BLIPMODE
 70
           1
  9
$CHAMFERA
 40
0.0
  9
$CHAMFERB
 40
0.0
  9
$CHAMFERC
 40
0.0
  9
$CHAMFERD
 40
0.0
  9
$SKPOLY
 70
           0
  9
$TDCREATE
 40
0.000000000
  9
$TDUPDATE
 40
0.000000000
  9
$TDINDWG
 40
0.0000000000
  9
$TDUSRTIMER
 40
0.0000000000
  9
$USRTIMER
 70
           1
  9
$ANGBASE
 50
0.0
  9
$ANGDIR
 70
           0
  9
$PDMODE
 70
           0
  9
$PDSIZE
 40
0.0
  9
$PLINEWID
 40
0.0
  9
$COORDS
 70
           0
  9
$SPLFRAME
 70
           0
  9
$SPLINETYPE
 70
           6
  9
$SPLINESEGS
 70
           8
  9
$ATTDIA
 70
           0
  9
$ATTREQ
 70
           1
  9
$HANDLING
 70
           1
  9
$HANDSEED
  5
BE
  9
$SURFTAB1
 70
           6
  9
$SURFTAB2
 70
           6
  9
$SURFTYPE
 70
           6
  9
$SURFU
 70
           6
  9
$SURFV
 70
           6
  9
$UCSNAME
  2

  9
$UCSORG
 10
0.0
 20
0.0
 30
0.0
  9
$UCSXDIR
 10
1.0
 20
0.0
 30
0.0
  9
$UCSYDIR
 10
0.0
 20
1.0
 30
0.0
  9
$PUCSNAME
  2

  9
$PUCSORG
 10
0.0
 20
0.0
 30
0.0
  9
$PUCSXDIR
 10
1.0
 20
0.0
 30
0.0
  9
$PUCSYDIR
 10
0.0
 20
1.0
 30
0.0
  9
$USERI1
 70
           0
  9
$USERI2
 70
           0
  9
$USERI3
 70
           0
  9
$USERI4
 70
           0
  9
$USERI5
 70
           0
  9
$USERR1
 40
0.0
  9
$USERR2
 40
0.0
  9
$USERR3
 40
0.0
  9
$USERR4
 40
0.0
  9
$USERR5
 40
0.0
  9
$WORLDVIEW
 70
           1
  9
$SHADEDGE
 70
           3
  9
$SHADEDIF
 70
          70
  9
$TILEMODE
 70
           1
  9
$MAXACTVP
 70
          16
  9
$PINSBASE
 10
0.0
 20
0.0
 30
0.0
  9
$PLIMCHECK
 70
           0
  9
$PEXTMIN
 10
1.000000000000E+20
 20
1.000000000000E+20
 30
1.000000000000E+20
  9
$PEXTMAX
 10
-1.000000000000E+20
 20
-1.000000000000E+20
 30
-1.000000000000E+20
  9
$PLIMMIN
 10
0.0
 20
0.0
  9
$PLIMMAX
 10
12.0
 20
9.0
  9
$UNITMODE
 70
           0
  9
$VISRETAIN
 70
           0
  9
$PLINEGEN
 70
           1
  9
$PSLTSCALE
 70
           0
  9
$TREEDEPTH
 70
        3020
  9
$PICKSTYLE
 70
           1
  9
$CMLSTYLE
  2
STANDARD
  9
$CMLJUST
 70
           0
  9
$CMLSCALE
 40
1.0
  9
$PROXYGRAPHICS
 70
           0
  9
$MEASUREMENT
 70
           0
  0
ENDSEC
  0
SECTION
  2
CLASSES
  0
CLASS
  1
LWPOLYLINE
  2
AcDbPolyline
  3
"AutoCAD"
 90
        0
280
           0
281
           1
  0
CLASS
  1
IMAGE
  2
AcDbRasterImage
  3
ISM
 90
      127
280
           0
281
           1
  0
CLASS
  1
OLE2FRAME
  2
AcDbOle2Frame
  3
""
 90
        0
280
           0
281
           1
  0
CLASS
  1
HATCH
  2
AcDbHatch
  3
"ACAD_SEDONA"
 90
        0
280
           0
281
           1
  0
CLASS
  1
DICTIONARYVAR
  2
AcDbDictionaryVar
  3
"AutoCAD"
 90
        0
280
           0
281
           0
  0
CLASS
  1
RASTERVARIABLES
  2
AcDbRasterVariables
  3
ISM
 90
        0
280
           0
281
           0
  0
CLASS
  1
IMAGEDEF
  2
AcDbRasterImageDef
  3
ISM
 90
        0
280
           0
281
           0
  0
CLASS
  1
IMAGEDEF_REACTOR
  2
AcDbRasterImageDefReactor
  3
ISM
 90
        1
280
           0
281
           0
  0
CLASS
  1
IDBUFFER
  2
AcDbIdBuffer
  3
"Acad"
 90
        0
280
           0
281
           0
  0
CLASS
  1
SPATIAL_FILTER
  2
AcDbSpatialFilter
  3
"Acad"
 90
        0
280
           0
281
           0
  0
CLASS
  1
XRECORD
  2
AcDbXrecord
  3
"<Built In>"
 90
        0
280
           0
281
           0
  0
CLASS
  1
SORTENTSTABLE
  2
AcDbSortentsTable
  3
"AutoCAD"
 90
        0
280
           0
281
           0
  0
CLASS
  1
LAYER_INDEX
  2
AcDbLayerIndex
  3
"Acad"
 90
        0
280
           0
281
           0
  0
CLASS
  1
SPATIAL_INDEX
  2
AcDbSpatialIndex
  3
"Acad"
 90
        0
280
           0
281
           0
  0
CLASS
  1
OBJECT_PTR
  2
CAseDLPNTableRecord
  3
"ASE-LPNTableRecord"
 90
        1
280
           0
281
           0
  0
CLASS
  1
LAYOUT
  2
AcDbLayout
  3
"AutoCAD 2000"
 90
        1
280
           0
281
           0
  0
CLASS
  1
PLOTSETTINGS
  2
AcDbPlotSettings
  3
"AutoCAD 2000"
 90
        1
280
           0
281
           0
  0
CLASS
  1
ACDBDICTIONARYWDFLT
  2
AcDbDictionaryWithDefault
  3
"AutoCAD 2000"
 90
        1
280
           0
281
           0
  0
CLASS
  1
ACDBPLACEHOLDER
  2
AcDbPlaceHolder
  3
"AutoCAD 2000"
 90
        1
280
           0
281
           0
  0
CLASS
  1
VBA_PROJECT
  2
AcDbVbaProject
  3
"acadvba"
 90
        1
280
           0
281
           0
  0
CLASS
  1
WIPEOUT
  2
AcDbWipeout
  3
WipeOut|AutoCAD Express Tool|expresstools@autodesk.com
 90
      127
280
           0
281
           1
  0
CLASS
  1
WIPEOUTVARIABLES
  2
AcDbWipeoutVariables
  3
WipeOut|AutoCAD Express Tool|expresstools@autodesk.com
 90
        0
280
           0
281
           0
  0
CLASS
  1
RTEXT
  2
RText
  3
RText|AutoCAD Express Tool|expresstools@autodesk.com
 90
        0
280
           0
281
           1
  0
CLASS
  1
ARCALIGNEDTEXT
  2
AcDbArcAlignedText
  3
ATEXT|AutoCAD Express Tool|expresstools@autodesk.com
 90
        0
280
           0
281
           1
  0
ENDSEC
  0
SECTION
  2
TABLES
  0
TABLE
  2
VPORT
  5
7
100
AcDbSymbolTable
 70
           1
  0
VPORT
  5
15
100
AcDbSymbolTableRecord
100
AcDbViewportTableRecord
  2
*ACTIVE
 70
           0
 10
0.0
 20
0.0
 11
1.0
 21
1.0
 12
6.591288
 22
4.579184
 13
0.0
 23
0.0
 14
1.0
 24
1.0
 15
0.0
 25
0.0
 16
0.0
 26
0.0
 36
1.0
 17
0.0
 27
0.0
 37
0.0
 40
9.158369
 41
0.688564
 42
50.0
 43
0.0
 44
0.0
 50
0.0
 51
0.0
 71
           0
 72
         100
 73
           1
 74
           1
 75
           0
 76
           0
 77
           0
 78
           0
  0
ENDTAB
  0
TABLE
  2
LTYPE
  5
4
100
AcDbSymbolTable
 70
          10
  0
LTYPE
  5
11
100
AcDbSymbolTableRecord
100
AcDbLinetypeTableRecord
  2
BYBLOCK
 70
          64
  3

 72
          65
 73
           0
 40
0.0
  0
LTYPE
  5
12
100
AcDbSymbolTableRecord
100
AcDbLinetypeTableRecord
  2
BYLAYER
 70
          64
  3

 72
          65
 73
           0
 40
0.0
  0
LTYPE
  5
13
100
AcDbSymbolTableRecord
100
AcDbLinetypeTableRecord
  2
CONTINUOUS
 70
          64
  3
Solid line
 72
          65
 73
           0
 40
0.0
  0
LTYPE
  5
1D
100
AcDbSymbolTableRecord
100
AcDbLinetypeTableRecord
  2
DASHED
 70
          64
  3
Dashed
 72
          65
 73
           2
 40
15.0
 49
12.0
 74
           0
 49
-3.0
 74
           0
  0
LTYPE
  5
1E
100
AcDbSymbolTableRecord
100
AcDbLinetypeTableRecord
  2
DOTTED
 70
          64
  3
Dotted
 72
          65
 73
           2
 40
3.5
 49
0.5
 74
           0
 49
-3.0
 74
           0
  0
LTYPE
  5
1F
100
AcDbSymbolTableRecord
100
AcDbLinetypeTableRecord
  2
DOT_CENTER
 70
          64
  3
Dot_Center
 72
          65
 73
           4
 40
2.0
 49
1.25
 74
           0
 49
-0.25
 74
           0
 49
0.25
 74
           0
 49
-0.25
 74
           0
  0
LTYPE
  5
20
100
AcDbSymbolTableRecord
100
AcDbLinetypeTableRecord
  2
LONG_DASHED
 70
          64
  3
Long_Dashed
 72
          65
 73
           2
 40
2.0
 49
1.5
 74
           0
 49
-0.5
 74
           0
  0
LTYPE
  5
21
100
AcDbSymbolTableRecord
100
AcDbLinetypeTableRecord
  2
DASH_CENTER
 70
          64
  3
Dash_Center
 72
          65
 73
           4
 40
36.0
 49
24.0
 74
           0
 49
-3.0
 74
           0
 49
6.0
 74
           0
 49
-3.0
 74
           0
  0
LTYPE
  5
22
100
AcDbSymbolTableRecord
100
AcDbLinetypeTableRecord
  2
PHANTOM
 70
          64
  3
Phantom
 72
          65
 73
           6
 40
2.5
 49
1.25
 74
           0
 49
-0.25
 74
           0
 49
0.25
 74
           0
 49
-0.25
 74
           0
 49
0.25
 74
           0
 49
-0.25
 74
           0
  0
LTYPE
  5
23
100
AcDbSymbolTableRecord
100
AcDbLinetypeTableRecord
  2
CENTER_DASH_DASH
 70
          64
  3
Center_Dash_Dash
 72
          65
 73
           6
 40
22.0
 49
12.0
 74
           0
 49
-3.0
 74
           0
 49
0.5
 74
           0
 49
-3.0
 74
           0
 49
0.5
 74
           0
 49
-3.0
 74
           0
  0
ENDTAB
  0
TABLE
  2
LAYER
  5
2
100
AcDbSymbolTable
 70
           2
  0
LAYER
  5
14
100
AcDbSymbolTableRecord
100
AcDbLayerTableRecord
  2
0
 70
           0
 62
           7
  6
CONTINUOUS
  0
LAYER
  5
24
100
AcDbSymbolTableRecord
100
AcDbLayerTableRecord
  2
1
 70
           0
 62
           7
  6
CONTINUOUS
  0
ENDTAB
  0
TABLE
  2
STYLE
  5
3
100
AcDbSymbolTable
 70
           3
  0
STYLE
  5
17
100
AcDbSymbolTableRecord
100
AcDbTextStyleTableRecord
  2
STANDARD
 70
           0
 40
0.0
 41
1.0
 50
0.0
 71
           0
 42
0.0
  3
txt
  4

  0
STYLE
  5
AC
100
AcDbSymbolTableRecord
100
AcDbTextStyleTableRecord
  2
CONVERTER_1
 70
           0
 40
0.0
 41
0.89
 50
0.0
 71
           0
 42
0.0
  3
MS Mincho.ttf
  4

1001
ACAD
1000
MS Mincho
1071
    32785
  0
STYLE
  5
B8
100
AcDbSymbolTableRecord
100
AcDbTextStyleTableRecord
  2
CONVERTER_2
 70
           0
 40
0.0
 41
0.9
 50
0.0
 71
           0
 42
0.0
  3
txt.shx
  4

  0
ENDTAB
  0
TABLE
  2
VIEW
  5
5
100
AcDbSymbolTable
 70
           0
  0
ENDTAB
  0
TABLE
  2
UCS
  5
6
100
AcDbSymbolTable
 70
           0
  0
ENDTAB
  0
TABLE
  2
APPID
  5
8
100
AcDbSymbolTable
 70
           1
  0
APPID
  5
16
100
AcDbSymbolTableRecord
100
AcDbRegAppTableRecord
  2
ACAD
 70
           0
  0
ENDTAB
  0
TABLE
  2
DIMSTYLE
  5
9
100
AcDbSymbolTable
 70
           3
  0
DIMSTYLE
105
18
100
AcDbSymbolTableRecord
100
AcDbDimStyleTableRecord
  2
STANDARD
 70
           0
  3

  4

  5

  6

  7

 40
1.0
 41
0.18
 42
0.0625
 43
0.38
 44
0.18
 45
0.0
 46
0.0
 47
0.0
 48
0.0
 71
           0
 72
           0
 73
           1
 74
           1
 75
           0
 76
           0
 77
           0
 78
           0
140
0.18
141
0.09
142
0.0
143
25.4
144
1.0
145
0.0
146
1.0
147
0.09
170
           0
171
           2
172
           0
173
           0
174
           0
175
           0
176
           0
177
           0
178
           0
270
           2
271
           4
272
           4
273
           2
274
           2
275
           0
280
           0
281
           0
282
           0
283
           1
284
           0
285
           0
286
           0
287
           0
288
           0
340
17
  0
DIMSTYLE
105
AF
100
AcDbSymbolTableRecord
100
AcDbDimStyleTableRecord
  2
ME10_DIM_0
 70
           0
  3
ó<>
  4

  5

  6

  7

 40
1.0
 41
2.8
 42
0.8
 43
0.38
 44
1.0
 45
0.0
 46
0.0
 47
0.0
 48
0.0
 71
           0
 72
           0
 73
           0
 74
           0
 75
           0
 76
           0
 77
           1
 78
           8
140
2.8
141
0.09
142
0.0
143
25.4
144
1.0
145
0.0
146
1.0
147
0.09
170
           0
171
           2
172
           0
173
           1
174
           0
175
           0
176
           2
177
           2
178
           2
270
           2
271
           3
272
           4
273
           2
274
           2
275
           0
280
           0
281
           0
282
           0
283
           1
284
           0
285
           0
286
           0
287
           3
288
           0
340
17
  0
DIMSTYLE
105
BB
100
AcDbSymbolTableRecord
100
AcDbDimStyleTableRecord
  2
ME10_DIM_1
 70
           0
  3

  4

  5

  6

  7

 40
1.0
 41
2.8
 42
0.8
 43
0.38
 44
1.0
 45
0.0
 46
0.0
 47
0.0
 48
0.0
 71
           0
 72
           0
 73
           0
 74
           0
 75
           0
 76
           0
 77
           1
 78
           8
140
2.8
141
0.09
142
0.0
143
25.4
144
1.0
145
0.0
146
1.0
147
0.09
170
           0
171
           2
172
           0
173
           1
174
           0
175
           0
176
           2
177
           2
178
           2
270
           2
271
           3
272
           4
273
           2
274
           2
275
           0
280
           0
281
           0
282
           0
283
           1
284
           0
285
           0
286
           0
287
           3
288
           0
340
17
  0
ENDTAB
  0
TABLE
  2
BLOCK_RECORD
  5
1
100
AcDbSymbolTable
 70
           2
  0
BLOCK_RECORD
  5
A
100
AcDbSymbolTableRecord
100
AcDbBlockTableRecord
  2
*MODEL_SPACE
  0
BLOCK_RECORD
  5
B
100
AcDbSymbolTableRecord
100
AcDbBlockTableRecord
  2
*PAPER_SPACE
  0
BLOCK_RECORD
  5
A5
100
AcDbSymbolTableRecord
100
AcDbBlockTableRecord
  2
*D0
  0
BLOCK_RECORD
  5
B1
100
AcDbSymbolTableRecord
100
AcDbBlockTableRecord
  2
*D1
  0
ENDTAB
  0
ENDSEC
  0
SECTION
  2
BLOCKS
  0
BLOCK
  5
D
100
AcDbEntity
  8
0
100
AcDbBlockBegin
  2
*MODEL_SPACE
 70
           0
 10
0.0
 20
0.0
 30
0.0
  3
*MODEL_SPACE
  1

  0
ENDBLK
  5
E
100
AcDbEntity
  8
0
100
AcDbBlockEnd
  0
BLOCK
  5
F
100
AcDbEntity
 67
           1
  8
0
100
AcDbBlockBegin
  2
*PAPER_SPACE
 70
           0
 10
0.0
 20
0.0
 30
0.0
  3
*PAPER_SPACE
  1

  0
ENDBLK
  5
10
100
AcDbEntity
 67
           1
  8
0
100
AcDbBlockEnd
  0
BLOCK
  5
A6
100
AcDbEntity
  8
0
100
AcDbBlockBegin
  2
*D0
 70
           1
 10
0.0
 20
0.0
 30
0.0
  3
*D0
  1

  0
LINE
  5
A7
100
AcDbEntity
  8
0
  6
CONTINUOUS
 62
           2
100
AcDbLine
 10
-161.793175237873
 20
-143.529605335957
 11
-79.793175237873
 21
-143.529605335957
  0
LINE
  5
A8
100
AcDbEntity
  8
0
  6
CONTINUOUS
 62
           2
100
AcDbLine
 10
-79.793175237873
 20
-164.435433275621
 11
-79.793175237873
 21
-142.529605335957
  0
LINE
  5
A9
100
AcDbEntity
  8
0
  6
CONTINUOUS
 62
           2
100
AcDbLine
 10
-161.793175237873
 20
-164.435433275621
 11
-161.793175237873
 21
-142.529605335957
  0
SOLID
  5
AA
100
AcDbEntity
  8
0
 62
           2
100
AcDbTrace
 10
-82.593175237873
 20
-143.898232329202
 11
-82.593175237873
 21
-143.160978342712
 12
-79.793175237873
 22
-143.529605335957
 13
-79.793175237873
 23
-143.529605335957
  0
SOLID
  5
AB
100
AcDbEntity
  8
0
 62
           2
100
AcDbTrace
 10
-158.993175237873
 20
-143.160978342712
 11
-158.993175237873
 21
-143.898232329202
 12
-161.793175237873
 22
-143.529605335957
 13
-161.793175237873
 23
-143.529605335957
  0
MTEXT
  5
AD
100
AcDbEntity
  8
0
 62
           2
100
AcDbMText
 10
-124.053512154412
 20
-142.529605335957
 30
0.0
 40
2.8
 41
0.0
 71
           7
 72
           1
  1
\C2;ó\C2;82\C2;
  7
CONVERTER_1
  0
ENDBLK
  5
AE
100
AcDbEntity
  8
0
100
AcDbBlockEnd
  0
BLOCK
  5
B2
100
AcDbEntity
  8
0
100
AcDbBlockBegin
  2
*D1
 70
           1
 10
0.0
 20
0.0
 30
0.0
  3
*D1
  1

  0
LINE
  5
B3
100
AcDbEntity
  8
0
  6
CONTINUOUS
 62
           2
100
AcDbLine
 10
-192.899237103912
 20
-312.957479485413
 11
-192.899237103912
 21
-157.957479485413
  0
LINE
  5
B4
100
AcDbEntity
  8
0
  6
CONTINUOUS
 62
           2
100
AcDbLine
 10
-121.593175237873
 20
-157.957479485413
 11
-193.899237103912
 21
-157.957479485413
  0
LINE
  5
B5
100
AcDbEntity
  8
0
  6
CONTINUOUS
 62
           2
100
AcDbLine
 10
-97.343175237873
 20
-312.957479485413
 11
-193.899237103912
 21
-312.957479485413
  0
SOLID
  5
B6
100
AcDbEntity
  8
0
 62
           2
100
AcDbTrace
 10
-192.530610110667
 20
-160.757479485413
 11
-193.267864097157
 21
-160.757479485413
 12
-192.899237103912
 22
-157.957479485413
 13
-192.899237103912
 23
-157.957479485413
  0
SOLID
  5
B7
100
AcDbEntity
  8
0
 62
           2
100
AcDbTrace
 10
-193.267864097157
 20
-310.157479485413
 11
-192.530610110667
 21
-310.157479485413
 12
-192.899237103912
 22
-312.957479485413
 13
-192.899237103912
 23
-312.957479485413
  0
MTEXT
  5
B9
100
AcDbEntity
  8
0
 62
           2
100
AcDbMText
 10
-193.899237103912
 20
-237.664907809883
 30
0.0
 40
2.8
 41
0.0
 71
           7
 72
           1
  1
155
  7
CONVERTER_2
 11
0.0
 21
1.0
 31
0.0
  0
ENDBLK
  5
BA
100
AcDbEntity
  8
0
100
AcDbBlockEnd
  0
ENDSEC
  0
SECTION
  2
ENTITIES
  0
DIMENSION
  5
BC
100
AcDbEntity
  8
0
100
AcDbDimension
  2
*D1
 10
-192.899237103912
 20
-157.957479485413
 11
-195.299237103912
 21
-234.724907809883
 31
0.0
 53
90.0
  1
<>
  3
ME10_DIM_1
100
AcDbAlignedDimension
 13
-96.543175237873
 23
-312.957479485413
 14
-120.793175237873
 24
-157.957479485413
 50
90.0
100
AcDbRotatedDimension
  0
DIMENSION
  5
B0
100
AcDbEntity
  8
0
100
AcDbDimension
  2
*D0
 10
-79.793175237873
 20
-143.529605335957
 11
-121.337512154412
 21
-141.129605335957
 31
0.0
  1
<>
  3
ME10_DIM_0
100
AcDbAlignedDimension
 13
-161.793175237873
 23
-165.235433275621
 14
-79.793175237873
 24
-165.235433275621
100
AcDbRotatedDimension
  0
ARC
  5
A4
100
AcDbEntity
  8
1
  6
CONTINUOUS
 62
           7
100
AcDbCircle
 10
-101.715937934093
 20
-309.377156804662
 40
3.0
100
AcDbArc
 50
6.989005647903
 51
17.85198809629
  0
ARC
  5
A3
100
AcDbEntity
  8
1
  6
CONTINUOUS
 62
           7
100
AcDbCircle
 10
-101.715937934093
 20
-288.537802166163
 40
3.0
100
AcDbArc
 50
-29.999999999999
 51
-17.851988096292
  0
ARC
  5
A2
100
AcDbEntity
  8
1
  6
CONTINUOUS
 62
           7
100
AcDbCircle
 10
-86.370412541653
 20
-288.537802166163
 40
3.0
100
AcDbArc
 50
-173.010994352092
 51
-150.0
  0
ARC
  5
A1
100
AcDbEntity
  8
1
  6
CONTINUOUS
 62
           7
100
AcDbCircle
 10
-101.715937934093
 20
-288.537802166163
 40
3.0
100
AcDbArc
 50
-17.851988096292
 51
-6.989005647908
  0
ARC
  5
A0
100
AcDbEntity
  8
1
  6
CONTINUOUS
 62
           7
100
AcDbCircle
 10
-86.370412541653
 20
-309.377156804662
 40
3.0
100
AcDbArc
 50
150.0
 51
173.010994352096
  0
ARC
  5
9F
100
AcDbEntity
  8
1
  6
CONTINUOUS
 62
           7
100
AcDbCircle
 10
-101.715937934093
 20
-309.377156804662
 40
3.0
100
AcDbArc
 50
17.85198809629
 51
29.999999999999
  0
ARC
  5
9E
100
AcDbEntity
  8
1
  6
CONTINUOUS
 62
           7
100
AcDbCircle
 10
-81.193175237873
 20
-175.457435154675
 40
0.5
100
AcDbArc
 50
-90.0
 51
0.0
  0
ARC
  5
9D
100
AcDbEntity
  8
1
  6
CONTINUOUS
 62
           7
100
AcDbCircle
 10
-81.693175237873
 20
-169.957435154675
 40
1.0
100
AcDbArc
 50
0.0
 51
90.0
  0
ARC
  5
9C
100
AcDbEntity
  8
1
  6
CONTINUOUS
 62
           7
100
AcDbCircle
 10
-112.462678116693
 20
-290.08050107369
 40
1.0
100
AcDbArc
 50
155.685651335137
 51
-88.936996321922
  0
ARC
  5
9B
100
AcDbEntity
  8
1
  6
CONTINUOUS
 62
           7
100
AcDbCircle
 10
-128.369888489662
 20
-292.137319662864
 40
1.0
100
AcDbArc
 50
-76.982729229265
 51
15.939450400191
  0
ARC
  5
9A
100
AcDbEntity
  8
1
  6
CONTINUOUS
 62
           7
100
AcDbCircle
 10
-159.893175237873
 20
-169.957435154675
 40
1.0
100
AcDbArc
 50
90.0
 51
180.0
  0
ARC
  5
99
100
AcDbEntity
  8
1
  6
CONTINUOUS
 62
           7
100
AcDbCircle
 10
-160.393175237873
 20
-175.457435154675
 40
0.5
100
AcDbArc
 50
180.0
 51
-90.0
  0
ARC
  5
98
100
AcDbEntity
  8
1
  6
CONTINUOUS
 62
           7
100
AcDbCircle
 10
-159.952850850536
 20
-168.672703716838
 40
1.0
100
AcDbArc
 50
1.841016206921
 51
79.135981119199
  0
ARC
  5
97
100
AcDbEntity
  8
1
  6
CONTINUOUS
 62
           7
100
AcDbCircle
 10
-81.63349962521
 20
-168.672703716838
 40
1.0
100
AcDbArc
 50
100.864018880801
 51
178.158983793079
  0
ARC
  5
96
100
AcDbEntity
  8
1
  6
CONTINUOUS
 62
           2
100
AcDbCircle
 10
-106.722044836618
 20
-298.900651360772
 40
10.501955785852
100
AcDbArc
 50
139.144996332763
 51
-139.144996332763
  0
ARC
  5
95
100
AcDbEntity
  8
1
  6
CONTINUOUS
 62
           2
100
AcDbCircle
 10
-120.292423073725
 20
-259.937132513018
 40
25.787298859751
100
AcDbArc
 50
-109.146460171205
 51
-70.853539828795
  0
ARC
  5
94
100
AcDbEntity
  8
1
  6
CONTINUOUS
 62
           2
100
AcDbCircle
 10
-94.021391316658
 20
-297.242192458689
 40
11.344721795116
100
AcDbArc
 50
-112.168339204125
 51
-67.831660795875
  0
ARC
  5
93
100
AcDbEntity
  8
1
  6
CONTINUOUS
 62
           2
100
AcDbCircle
 10
-94.021391316658
 20
-300.672766512136
 40
11.344721795116
100
AcDbArc
 50
67.831660795875
 51
112.168339204125
  0
ARC
  5
92
100
AcDbEntity
  8
1
  6
CONTINUOUS
 62
           7
100
AcDbCircle
 10
-92.782812266791
 20
-289.632912120551
 40
6.0
100
AcDbArc
 50
128.809069122956
 51
173.010994352096
  0
ARC
  5
91
100
AcDbEntity
  8
1
  6
CONTINUOUS
 62
           7
100
AcDbCircle
 10
-95.303538208955
 20
-289.632912120551
 40
6.0
100
AcDbArc
 50
6.989005647904
 51
51.190930877044
  0
ARC
  5
90
100
AcDbEntity
  8
1
  6
CONTINUOUS
 62
           7
100
AcDbCircle
 10
-92.782812266791
 20
-308.282046850274
 40
6.0
100
AcDbArc
 50
-173.010994352095
 51
-128.809069122956
  0
ARC
  5
8F
100
AcDbEntity
  8
1
  6
CONTINUOUS
 62
           7
100
AcDbCircle
 10
-95.303538208955
 20
-308.282046850274
 40
6.0
100
AcDbArc
 50
-51.190930877044
 51
-6.989005647905
  0
ARC
  5
8E
100
AcDbEntity
  8
1
  6
CONTINUOUS
 62
           7
100
AcDbCircle
 10
-98.793175237873
 20
-296.25663991976
 40
16.0
100
AcDbArc
 50
113.623734526123
 51
155.685651335142
  0
ARC
  5
8D
100
AcDbEntity
  8
1
  6
CONTINUOUS
 62
           7
100
AcDbCircle
 10
-126.793175237873
 20
-298.957435154675
 40
6.0
100
AcDbArc
 50
180.0
 51
-146.35918505768
  0
ARC
  5
8C
100
AcDbEntity
  8
1
  6
CONTINUOUS
 62
           7
100
AcDbCircle
 10
-122.504885464151
 20
-294.677558812219
 40
12.0
100
AcDbArc
 50
-125.863581547754
 51
-95.232192439324
  0
ARC
  5
8B
100
AcDbEntity
  8
1
  6
CONTINUOUS
 62
           7
100
AcDbCircle
 10
-122.504885464151
 20
-294.677558812219
 40
12.0
100
AcDbArc
 50
-140.68016449919
 51
-125.863581547754
  0
ARC
  5
8A
100
AcDbEntity
  8
1
  6
CONTINUOUS
 62
           7
100
AcDbCircle
 10
-120.793175237873
 20
-245.957435154675
 40
38.9
100
AcDbArc
 50
180.0
 51
-113.623734526124
  0
ARC
  5
89
100
AcDbEntity
  8
1
  6
CONTINUOUS
 62
           7
100
AcDbCircle
 10
-142.793175237873
 20
-296.25663991976
 40
16.0
100
AcDbArc
 50
15.939450400193
 51
66.376265473876
  0
ARC
  5
88
100
AcDbEntity
  8
1
  6
CONTINUOUS
 62
           7
100
AcDbCircle
 10
-126.793175237873
 20
-298.957435154675
 40
6.0
100
AcDbArc
 50
103.017270770732
 51
180.0
  0
ARC
  5
87
100
AcDbEntity
  8
1
  6
CONTINUOUS
 62
           7
100
AcDbCircle
 10
-120.793175237873
 20
-245.957435154675
 40
38.9
100
AcDbArc
 50
180.0
 51
-179.98438173829
  0
ARC
  5
86
100
AcDbEntity
  8
1
  6
CONTINUOUS
 62
           7
100
AcDbCircle
 10
-120.793175237873
 20
-245.957435154675
 40
38.9
100
AcDbArc
 50
-66.376265473876
 51
0.0
  0
ARC
  5
85
100
AcDbEntity
  8
1
  6
CONTINUOUS
 62
           7
100
AcDbCircle
 10
-120.793175237873
 20
-245.957435154675
 40
38.9
100
AcDbArc
 50
-0.015618261709
 51
0.0
  0
ARC
  5
84
100
AcDbEntity
  8
1
  6
CONTINUOUS
 62
           7
100
AcDbCircle
 10
-159.293175237873
 20
-165.235433275621
 40
2.5
100
AcDbArc
 50
90.0
 51
180.0
  0
ARC
  5
83
100
AcDbEntity
  8
1
  6
CONTINUOUS
 62
           7
100
AcDbCircle
 10
-159.293175237873
 20
-165.235433275621
 40
2.5
100
AcDbArc
 50
180.0
 51
-100.864018880806
  0
ARC
  5
82
100
AcDbEntity
  8
1
  6
CONTINUOUS
 62
           7
100
AcDbCircle
 10
-120.793175237873
 20
-317.957479485413
 40
160.0
100
AcDbArc
 50
90.0
 51
104.155953427718
  0
ARC
  5
81
100
AcDbEntity
  8
1
  6
CONTINUOUS
 62
           7
100
AcDbCircle
 10
-158.293175237873
 20
-165.235433275621
 40
2.5
100
AcDbArc
 50
90.0
 51
-100.864018880806
  0
ARC
  5
80
100
AcDbEntity
  8
1
  6
CONTINUOUS
 62
           7
100
AcDbCircle
 10
-157.293175237873
 20
-165.235433275621
 40
2.5
100
AcDbArc
 50
90.0
 51
-100.864018880806
  0
ARC
  5
7F
100
AcDbEntity
  8
1
  6
CONTINUOUS
 62
           7
100
AcDbCircle
 10
-156.293175237873
 20
-165.235433275621
 40
2.5
100
AcDbArc
 50
90.0
 51
-100.864018880806
  0
ARC
  5
7E
100
AcDbEntity
  8
1
  6
CONTINUOUS
 62
           7
100
AcDbCircle
 10
-155.293175237873
 20
-165.235433275621
 40
2.5
100
AcDbArc
 50
90.0
 51
-100.864018880806
  0
ARC
  5
7D
100
AcDbEntity
  8
1
  6
CONTINUOUS
 62
           7
100
AcDbCircle
 10
-153.5096364179
 20
-165.282654874104
 40
2.891324675999
100
AcDbArc
 50
118.23825532854
 51
-121.970220472278
  0
ARC
  5
7C
100
AcDbEntity
  8
1
  6
CONTINUOUS
 62
           7
100
AcDbCircle
 10
-152.0096364179
 20
-165.282654874104
 40
2.891324675999
100
AcDbArc
 50
118.238255328542
 51
-121.970220472279
  0
ARC
  5
7B
100
AcDbEntity
  8
1
  6
CONTINUOUS
 62
           7
100
AcDbCircle
 10
-150.5096364179
 20
-165.282654874104
 40
2.891324675999
100
AcDbArc
 50
118.238255328542
 51
-121.970220472279
  0
ARC
  5
7A
100
AcDbEntity
  8
1
  6
CONTINUOUS
 62
           7
100
AcDbCircle
 10
-149.0096364179
 20
-165.282654874104
 40
2.891324675999
100
AcDbArc
 50
118.238255328542
 51
-121.970220472279
  0
ARC
  5
79
100
AcDbEntity
  8
1
  6
CONTINUOUS
 62
           7
100
AcDbCircle
 10
-147.5096364179
 20
-165.282654874104
 40
2.891324675999
100
AcDbArc
 50
118.238255328542
 51
-121.970220472279
  0
ARC
  5
78
100
AcDbEntity
  8
1
  6
CONTINUOUS
 62
           7
100
AcDbCircle
 10
-143.955287511991
 20
-165.192634698764
 40
4.667381645526
100
AcDbArc
 50
148.233249492833
 51
-146.98887003122
  0
ARC
  5
77
100
AcDbEntity
  8
1
  6
CONTINUOUS
 62
           7
100
AcDbCircle
 10
-141.955287511991
 20
-165.192634698764
 40
4.667381645526
100
AcDbArc
 50
148.233249492833
 51
-146.98887003122
  0
ARC
  5
76
100
AcDbEntity
  8
1
  6
CONTINUOUS
 62
           7
100
AcDbCircle
 10
-139.955287511991
 20
-165.192634698764
 40
4.667381645526
100
AcDbArc
 50
148.233249492833
 51
-146.98887003122
  0
ARC
  5
75
100
AcDbEntity
  8
1
  6
CONTINUOUS
 62
           7
100
AcDbCircle
 10
-137.955287511991
 20
-165.192634698764
 40
4.667381645526
100
AcDbArc
 50
148.233249492833
 51
-146.98887003122
  0
ARC
  5
74
100
AcDbEntity
  8
1
  6
CONTINUOUS
 62
           7
100
AcDbCircle
 10
-135.955287511991
 20
-165.192634698764
 40
4.667381645526
100
AcDbArc
 50
148.233249492833
 51
-146.98887003122
  0
ARC
  5
73
100
AcDbEntity
  8
1
  6
CONTINUOUS
 62
           7
100
AcDbCircle
 10
-133.955287511991
 20
-165.192634698764
 40
4.667381645526
100
AcDbArc
 50
148.233249492833
 51
-146.98887003122
  0
ARC
  5
72
100
AcDbEntity
  8
1
  6
CONTINUOUS
 62
           7
100
AcDbCircle
 10
-127.642546189152
 20
-164.95083439334
 40
9.091150176626
100
AcDbArc
 50
165.895708193139
 51
-162.163743049402
  0
ARC
  5
71
100
AcDbEntity
  8
1
  6
CONTINUOUS
 62
           7
100
AcDbCircle
 10
-125.142546189152
 20
-164.95083439334
 40
9.091150176626
100
AcDbArc
 50
165.895708193139
 51
-162.163743049402
  0
ARC
  5
70
100
AcDbEntity
  8
1
  6
CONTINUOUS
 62
           7
100
AcDbCircle
 10
-122.642546189152
 20
-164.95083439334
 40
9.091150176626
100
AcDbArc
 50
165.895708193139
 51
-162.163743049402
  0
ARC
  5
6F
100
AcDbEntity
  8
1
  6
CONTINUOUS
 62
           7
100
AcDbCircle
 10
-120.142546189152
 20
-164.95083439334
 40
9.091150176626
100
AcDbArc
 50
165.895708193139
 51
-162.163743049402
  0
ARC
  5
6E
100
AcDbEntity
  8
1
  6
CONTINUOUS
 62
           7
100
AcDbCircle
 10
-118.025717442041
 20
-164.95083439334
 40
9.091150176626
100
AcDbArc
 50
165.895708193139
 51
-162.163743049402
  0
ARC
  5
6D
100
AcDbEntity
  8
1
  6
CONTINUOUS
 62
           7
100
AcDbCircle
 10
-115.518792266893
 20
-164.95083439334
 40
9.091150176626
100
AcDbArc
 50
165.895708193139
 51
-162.163743049402
  0
ARC
  5
6C
100
AcDbEntity
  8
1
  6
CONTINUOUS
 62
           7
100
AcDbCircle
 10
-113.070167677213
 20
-164.95083439334
 40
9.091150176626
100
AcDbArc
 50
165.895708193139
 51
-162.163743049402
  0
ARC
  5
6B
100
AcDbEntity
  8
1
  6
CONTINUOUS
 62
           7
100
AcDbCircle
 10
-128.516182798533
 20
-164.95083439334
 40
9.091150176626
100
AcDbArc
 50
-17.836256950598
 51
14.104291806861
  0
ARC
  5
6A
100
AcDbEntity
  8
1
  6
CONTINUOUS
 62
           7
100
AcDbCircle
 10
-126.067558208853
 20
-164.95083439334
 40
9.091150176626
100
AcDbArc
 50
-17.836256950598
 51
14.104291806861
  0
ARC
  5
69
100
AcDbEntity
  8
1
  6
CONTINUOUS
 62
           7
100
AcDbCircle
 10
-123.560633033705
 20
-164.95083439334
 40
9.091150176626
100
AcDbArc
 50
-17.836256950598
 51
14.104291806861
  0
ARC
  5
68
100
AcDbEntity
  8
1
  6
CONTINUOUS
 62
           7
100
AcDbCircle
 10
-121.443804286594
 20
-164.95083439334
 40
9.091150176626
100
AcDbArc
 50
-17.836256950598
 51
14.104291806861
  0
ARC
  5
67
100
AcDbEntity
  8
1
  6
CONTINUOUS
 62
           7
100
AcDbCircle
 10
-118.943804286594
 20
-164.95083439334
 40
9.091150176626
100
AcDbArc
 50
-17.836256950598
 51
14.104291806861
  0
ARC
  5
66
100
AcDbEntity
  8
1
  6
CONTINUOUS
 62
           7
100
AcDbCircle
 10
-116.443804286594
 20
-164.95083439334
 40
9.091150176626
100
AcDbArc
 50
-17.836256950598
 51
14.104291806861
  0
ARC
  5
65
100
AcDbEntity
  8
1
  6
CONTINUOUS
 62
           7
100
AcDbCircle
 10
-113.943804286594
 20
-164.95083439334
 40
9.091150176626
100
AcDbArc
 50
-17.836256950598
 51
14.104291806861
  0
ARC
  5
64
100
AcDbEntity
  8
1
  6
CONTINUOUS
 62
           7
100
AcDbCircle
 10
-107.631062963756
 20
-165.192634698764
 40
4.667381645526
100
AcDbArc
 50
-33.01112996878
 51
31.766750507166
  0
ARC
  5
63
100
AcDbEntity
  8
1
  6
CONTINUOUS
 62
           7
100
AcDbCircle
 10
-105.631062963756
 20
-165.192634698764
 40
4.667381645526
100
AcDbArc
 50
-33.01112996878
 51
31.766750507166
  0
ARC
  5
62
100
AcDbEntity
  8
1
  6
CONTINUOUS
 62
           7
100
AcDbCircle
 10
-103.631062963756
 20
-165.192634698764
 40
4.667381645526
100
AcDbArc
 50
-33.01112996878
 51
31.766750507166
  0
ARC
  5
61
100
AcDbEntity
  8
1
  6
CONTINUOUS
 62
           7
100
AcDbCircle
 10
-101.631062963756
 20
-165.192634698764
 40
4.667381645526
100
AcDbArc
 50
-33.01112996878
 51
31.766750507166
  0
ARC
  5
60
100
AcDbEntity
  8
1
  6
CONTINUOUS
 62
           7
100
AcDbCircle
 10
-99.631062963756
 20
-165.192634698764
 40
4.667381645527
100
AcDbArc
 50
-33.01112996878
 51
31.766750507166
  0
ARC
  5
5F
100
AcDbEntity
  8
1
  6
CONTINUOUS
 62
           7
100
AcDbCircle
 10
-97.631062963756
 20
-165.192634698764
 40
4.667381645527
100
AcDbArc
 50
-33.01112996878
 51
31.766750507166
  0
ARC
  5
5E
100
AcDbEntity
  8
1
  6
CONTINUOUS
 62
           7
100
AcDbCircle
 10
-94.076714057846
 20
-165.282654874104
 40
2.891324675999
100
AcDbArc
 50
-58.02977952772
 51
61.761744671458
  0
ARC
  5
5D
100
AcDbEntity
  8
1
  6
CONTINUOUS
 62
           7
100
AcDbCircle
 10
-92.576714057846
 20
-165.282654874104
 40
2.891324675999
100
AcDbArc
 50
-58.02977952772
 51
61.761744671458
  0
ARC
  5
5C
100
AcDbEntity
  8
1
  6
CONTINUOUS
 62
           7
100
AcDbCircle
 10
-91.076714057846
 20
-165.282654874104
 40
2.891324675999
100
AcDbArc
 50
-58.02977952772
 51
61.761744671458
  0
ARC
  5
5B
100
AcDbEntity
  8
1
  6
CONTINUOUS
 62
           7
100
AcDbCircle
 10
-89.576714057846
 20
-165.282654874104
 40
2.891324675999
100
AcDbArc
 50
-58.02977952772
 51
61.761744671458
  0
ARC
  5
5A
100
AcDbEntity
  8
1
  6
CONTINUOUS
 62
           7
100
AcDbCircle
 10
-88.076714057846
 20
-165.282654874104
 40
2.891324675999
100
AcDbArc
 50
-58.029779527722
 51
61.761744671459
  0
ARC
  5
59
100
AcDbEntity
  8
1
  6
CONTINUOUS
 62
           7
100
AcDbCircle
 10
-86.293175237873
 20
-165.235433275621
 40
2.5
100
AcDbArc
 50
-79.135981119193
 51
90.0
  0
ARC
  5
58
100
AcDbEntity
  8
1
  6
CONTINUOUS
 62
           7
100
AcDbCircle
 10
-85.293175237873
 20
-165.235433275621
 40
2.5
100
AcDbArc
 50
-79.135981119193
 51
90.0
  0
ARC
  5
57
100
AcDbEntity
  8
1
  6
CONTINUOUS
 62
           7
100
AcDbCircle
 10
-84.293175237873
 20
-165.235433275621
 40
2.5
100
AcDbArc
 50
-79.135981119193
 51
90.0
  0
ARC
  5
56
100
AcDbEntity
  8
1
  6
CONTINUOUS
 62
           7
100
AcDbCircle
 10
-83.293175237873
 20
-165.235433275621
 40
2.5
100
AcDbArc
 50
-79.135981119193
 51
90.0
  0
ARC
  5
55
100
AcDbEntity
  8
1
  6
CONTINUOUS
 62
           7
100
AcDbCircle
 10
-120.793175237873
 20
-317.957479485413
 40
160.0
100
AcDbArc
 50
75.844046572282
 51
90.0
  0
ARC
  5
54
100
AcDbEntity
  8
1
  6
CONTINUOUS
 62
           7
100
AcDbCircle
 10
-82.293175237873
 20
-165.235433275621
 40
2.5
100
AcDbArc
 50
-79.135981119193
 51
0.0
  0
ARC
  5
53
100
AcDbEntity
  8
1
  6
CONTINUOUS
 62
           7
100
AcDbCircle
 10
-82.293175237873
 20
-165.235433275621
 40
2.5
100
AcDbArc
 50
0.0
 51
90.0
  0
LINE
  5
52
100
AcDbEntity
  8
1
  6
CONTINUOUS
 62
           7
100
AcDbLine
 10
-100.293175237873
 20
-306.707479485413
 11
-100.293175237873
 21
-291.207479485413
  0
LINE
  5
51
100
AcDbEntity
  8
1
  6
CONTINUOUS
 62
           7
100
AcDbLine
 10
-87.793175237873
 20
-291.207479485413
 11
-87.793175237873
 21
-306.707479485413
  0
LINE
  5
50
100
AcDbEntity
  8
1
  6
CONTINUOUS
 62
           7
100
AcDbLine
 10
-100.793175237873
 20
-291.707479485413
 11
-100.793175237873
 21
-306.207479485413
  0
LINE
  5
4F
100
AcDbEntity
  8
1
  6
CONTINUOUS
 62
           7
100
AcDbLine
 10
-100.293175237873
 20
-291.207479485413
 11
-100.793175237873
 21
-291.707479485413
  0
LINE
  5
4E
100
AcDbEntity
  8
1
  6
CONTINUOUS
 62
           7
100
AcDbLine
 10
-99.793175237873
 20
-291.207479485413
 11
-100.293175237873
 21
-291.207479485413
  0
LINE
  5
4D
100
AcDbEntity
  8
1
  6
CONTINUOUS
 62
           7
100
AcDbLine
 10
-99.793175237873
 20
-291.207479485413
 11
-99.117861722739
 21
-290.037802166163
  0
LINE
  5
4C
100
AcDbEntity
  8
1
  6
CONTINUOUS
 62
           7
100
AcDbLine
 10
-88.968488753007
 20
-290.037802166163
 11
-88.293175237873
 21
-291.207479485413
  0
LINE
  5
4B
100
AcDbEntity
  8
1
  6
CONTINUOUS
 62
           7
100
AcDbLine
 10
-87.293175237873
 20
-291.707479485413
 11
-87.793175237873
 21
-291.207479485413
  0
LINE
  5
4A
100
AcDbEntity
  8
1
  6
CONTINUOUS
 62
           7
100
AcDbLine
 10
-87.793175237873
 20
-291.207479485413
 11
-88.293175237873
 21
-291.207479485413
  0
LINE
  5
49
100
AcDbEntity
  8
1
  6
CONTINUOUS
 62
           7
100
AcDbLine
 10
-87.293175237873
 20
-298.957479485413
 11
-87.293175237873
 21
-291.707479485413
  0
LINE
  5
48
100
AcDbEntity
  8
1
  6
CONTINUOUS
 62
           7
100
AcDbLine
 10
-96.543175237873
 20
-284.957479485413
 11
-91.543175237873
 21
-284.957479485413
  0
LINE
  5
47
100
AcDbEntity
  8
1
  6
CONTINUOUS
 62
           7
100
AcDbLine
 10
-100.793175237873
 20
-306.207479485413
 11
-100.293175237873
 21
-306.707479485413
  0
LINE
  5
46
100
AcDbEntity
  8
1
  6
CONTINUOUS
 62
           7
100
AcDbLine
 10
-100.293175237873
 20
-306.707479485413
 11
-99.793175237873
 21
-306.707479485413
  0
LINE
  5
45
100
AcDbEntity
  8
1
  6
CONTINUOUS
 62
           7
100
AcDbLine
 10
-99.117861722739
 20
-307.877156804662
 11
-99.793175237873
 21
-306.707479485413
  0
LINE
  5
44
100
AcDbEntity
  8
1
  6
CONTINUOUS
 62
           7
100
AcDbLine
 10
-88.293175237873
 20
-306.707479485413
 11
-88.968488753007
 21
-307.877156804662
  0
LINE
  5
43
100
AcDbEntity
  8
1
  6
CONTINUOUS
 62
           7
100
AcDbLine
 10
-87.793175237873
 20
-306.707479485413
 11
-87.293175237873
 21
-306.207479485413
  0
LINE
  5
42
100
AcDbEntity
  8
1
  6
CONTINUOUS
 62
           7
100
AcDbLine
 10
-88.293175237873
 20
-306.707479485413
 11
-87.793175237873
 21
-306.707479485413
  0
LINE
  5
41
100
AcDbEntity
  8
1
  6
CONTINUOUS
 62
           7
100
AcDbLine
 10
-87.293175237873
 20
-306.207479485413
 11
-87.293175237873
 21
-298.957479485413
  0
LINE
  5
40
100
AcDbEntity
  8
1
  6
CONTINUOUS
 62
           7
100
AcDbLine
 10
-91.543175237873
 20
-312.957479485413
 11
-96.543175237873
 21
-312.957479485413
  0
LINE
  5
3F
100
AcDbEntity
  8
1
  6
CONTINUOUS
 62
           7
100
AcDbLine
 10
-100.793175237873
 20
-303.457479485413
 11
-105.793175237873
 21
-303.457479485413
  0
LINE
  5
3E
100
AcDbEntity
  8
1
  6
CONTINUOUS
 62
           7
100
AcDbLine
 10
-105.793175237873
 20
-294.457479485413
 11
-100.793175237873
 21
-294.457479485413
  0
LINE
  5
3D
100
AcDbEntity
  8
1
  6
DOT_CENTER
 62
           2
100
AcDbLine
 10
-83.198705554029
 20
-298.957479485413
 11
-117.793175237873
 21
-298.957479485413
  0
LINE
  5
3C
100
AcDbEntity
  8
1
  6
DOT_CENTER
 62
           2
100
AcDbLine
 10
-117.793175237873
 20
-298.957479485413
 11
-140.087256279207
 21
-298.957479485413
  0
LINE
  5
3B
100
AcDbEntity
  8
1
  6
CONTINUOUS
 62
           7
100
AcDbLine
 10
-80.693175237873
 20
-175.457435154675
 11
-80.693175237873
 21
-169.957435154675
  0
LINE
  5
3A
100
AcDbEntity
  8
1
  6
CONTINUOUS
 62
           7
100
AcDbLine
 10
-81.193175237873
 20
-175.957435154675
 11
-120.793175237873
 21
-175.957435154675
  0
LINE
  5
39
100
AcDbEntity
  8
1
  6
CONTINUOUS
 62
           7
100
AcDbLine
 10
-81.693175237873
 20
-168.957435154675
 11
-120.793175237873
 21
-168.957435154675
  0
LINE
  5
38
100
AcDbEntity
  8
1
  6
CONTINUOUS
 62
           7
100
AcDbLine
 10
-105.820923199452
 20
-290.957435154675
 11
-112.444126266883
 21
-291.080328973315
  0
LINE
  5
37
100
AcDbEntity
  8
1
  6
CONTINUOUS
 62
           7
100
AcDbLine
 10
-123.599190874323
 20
-306.627558631017
 11
-105.793175237873
 21
-306.957950019299
  0
LINE
  5
36
100
AcDbEntity
  8
1
  6
CONTINUOUS
 62
           7
100
AcDbLine
 10
-105.793175237873
 20
-290.957435154675
 11
-105.793175237873
 21
-306.957950019299
  0
LINE
  5
35
100
AcDbEntity
  8
1
  6
CONTINUOUS
 62
           7
100
AcDbLine
 10
-120.793175237873
 20
-168.957435154675
 11
-159.893175237873
 21
-168.957435154675
  0
LINE
  5
34
100
AcDbEntity
  8
1
  6
DOT_CENTER
 62
           2
100
AcDbLine
 10
-120.793175237873
 20
-153.527225432857
 11
-120.793175237873
 21
-308.63003383555
  0
LINE
  5
33
100
AcDbEntity
  8
1
  6
CONTINUOUS
 62
           7
100
AcDbLine
 10
-159.688957812331
 20
-245.957435154675
 11
-160.352578954755
 21
-175.957435154675
  0
LINE
  5
32
100
AcDbEntity
  8
1
  6
CONTINUOUS
 62
           7
100
AcDbLine
 10
-120.793175237873
 20
-175.957435154675
 11
-160.393175237873
 21
-175.957435154675
  0
LINE
  5
31
100
AcDbEntity
  8
1
  6
CONTINUOUS
 62
           7
100
AcDbLine
 10
-160.893175237873
 20
-169.957435154675
 11
-160.893175237873
 21
-175.457435154675
  0
LINE
  5
30
100
AcDbEntity
  8
1
  6
CONTINUOUS
 62
           7
100
AcDbLine
 10
-81.233771520991
 20
-175.957435154675
 11
-81.897392663416
 21
-245.957435154675
  0
LINE
  5
2F
100
AcDbEntity
  8
1
  6
CONTINUOUS
 62
           7
100
AcDbLine
 10
-120.793175237873
 20
-162.735433275621
 11
-159.293175237873
 21
-162.735433275621
  0
LINE
  5
2E
100
AcDbEntity
  8
1
  6
CONTINUOUS
 62
           7
100
AcDbLine
 10
-120.793175237873
 20
-167.735433275621
 11
-159.604247752411
 21
-167.735433275621
  0
LINE
  5
2D
100
AcDbEntity
  8
1
  6
CONTINUOUS
 62
           7
100
AcDbLine
 10
-158.941791771096
 20
-169.000696686478
 11
-158.953367032228
 21
-168.640577451249
  0
LINE
  5
2C
100
AcDbEntity
  8
1
  6
CONTINUOUS
 62
           7
100
AcDbLine
 10
-82.632983443518
 20
-168.640577451249
 11
-82.644558704651
 21
-169.000696686478
  0
LINE
  5
2B
100
AcDbEntity
  8
1
  6
CONTINUOUS
 62
           7
100
AcDbLine
 10
-81.982102723336
 20
-167.735433275621
 11
-120.793175237873
 21
-167.735433275621
  0
LINE
  5
2A
100
AcDbEntity
  8
1
  6
CONTINUOUS
 62
           7
100
AcDbLine
 10
-82.293175237873
 20
-162.735433275621
 11
-120.793175237873
 21
-162.735433275621
  0
POINT
  5
29
100
AcDbEntity
  8
1
 62
           6
100
AcDbPoint
 10
-159.043175237873
 20
-167.886514247571
  0
POINT
  5
28
100
AcDbEntity
  8
1
 62
           6
100
AcDbPoint
 10
-82.543175237873
 20
-167.886514247571
  0
ENDSEC
  0
SECTION
  2
OBJECTS
  0
DICTIONARY
  5
19
100
AcDbDictionary
  3
ACAD_GROUP
350
1A
  3
ACAD_MLINESTYLE
350
1B
  0
DICTIONARY
  5
1A
102
{ACAD_REACTORS
330
19
102
}
100
AcDbDictionary
  0
DICTIONARY
  5
1B
102
{ACAD_REACTORS
330
19
102
}
100
AcDbDictionary
  3
STANDARD
350
1C
  0
MLINESTYLE
  5
1C
102
{ACAD_REACTORS
330
1B
102
}
100
AcDbMlineStyle
  2
STANDARD
 70
           0
  3

 62
           0
 51
90.0
 52
90.0
 71
           2
 49
0.5
 62
         256
  6
BYLAYER
 49
-0.5
 62
         256
  6
BYLAYER
  0
ENDSEC
  0
EOF
