  0
SECTION
  2
HEADER
  9
$ACADVER
  1
AC1014
  9
$ACADMAINTVER
 70
           0
  9
$DWGCODEPAGE
  3
DOS932
  9
$INSBASE
 10
0.0
 20
0.0
 30
0.0
  9
$EXTMIN
 10
1.000000000000E+20
 20
1.000000000000E+20
 30
1.000000000000E+20
  9
$EXTMAX
 10
-1.000000000000E+20
 20
-1.000000000000E+20
 30
-1.000000000000E+20
  9
$LIMMIN
 10
0.0
 20
0.0
  9
$LIMMAX
 10
0.0
 20
0.0
  9
$ORTHOMODE
 70
           0
  9
$REGENMODE
 70
           1
  9
$FILLMODE
 70
           1
  9
$QTEXTMODE
 70
           0
  9
$MIRRTEXT
 70
           1
  9
$DRAGMODE
 70
           2
  9
$LTSCALE
 40
1.0
  9
$OSMODE
 70
           0
  9
$ATTMODE
 70
           1
  9
$TEXTSIZE
 40
0.2
  9
$TRACEWID
 40
0.05
  9
$TEXTSTYLE
  7
STANDARD
  9
$CLAYER
  8
0
  9
$CELTYPE
  6
CONTINUOUS
  9
$CECOLOR
 62
         256
  9
$CELTSCALE
 40
1.0
  9
$DELOBJ
 70
           1
  9
$DISPSILH
 70
           0
  9
$DIMSCALE
 40
1.0
  9
$DIMASZ
 40
0.18
  9
$DIMEXO
 40
0.0625
  9
$DIMDLI
 40
0.38
  9
$DIMRND
 40
0.0
  9
$DIMDLE
 40
0.0
  9
$DIMEXE
 40
0.18
  9
$DIMTP
 40
0.0
  9
$DIMTM
 40
0.0
  9
$DIMTXT
 40
0.18
  9
$DIMCEN
 40
0.09
  9
$DIMTSZ
 40
0.0
  9
$DIMTOL
 70
           0
  9
$DIMLIM
 70
           0
  9
$DIMTIH
 70
           1
  9
$DIMTOH
 70
           1
  9
$DIMSE1
 70
           0
  9
$DIMSE2
 70
           0
  9
$DIMTAD
 70
           0
  9
$DIMZIN
 70
           0
  9
$DIMBLK
  1

  9
$DIMASO
 70
           1
  9
$DIMSHO
 70
           1
  9
$DIMPOST
  1

  9
$DIMAPOST
  1

  9
$DIMALT
 70
           0
  9
$DIMALTD
 70
           2
  9
$DIMALTF
 40
25.4
  9
$DIMLFAC
 40
1.0
  9
$DIMTOFL
 70
           0
  9
$DIMTVP
 40
0.0
  9
$DIMTIX
 70
           0
  9
$DIMSOXD
 70
           0
  9
$DIMSAH
 70
           0
  9
$DIMBLK1
  1

  9
$DIMBLK2
  1

  9
$DIMSTYLE
  2
STANDARD
  9
$DIMCLRD
 70
           0
  9
$DIMCLRE
 70
           0
  9
$DIMCLRT
 70
           0
  9
$DIMTFAC
 40
1.0
  9
$DIMGAP
 40
0.09
  9
$DIMJUST
 70
           0
  9
$DIMSD1
 70
           0
  9
$DIMSD2
 70
           0
  9
$DIMTOLJ
 70
           1
  9
$DIMTZIN
 70
           0
  9
$DIMALTZ
 70
           0
  9
$DIMALTTZ
 70
           0
  9
$DIMFIT
 70
           3
  9
$DIMUPT
 70
           0
  9
$DIMUNIT
 70
           2
  9
$DIMDEC
 70
           4
  9
$DIMTDEC
 70
           4
  9
$DIMALTU
 70
           2
  9
$DIMALTTD
 70
           2
  9
$DIMTXSTY
  7
STANDARD
  9
$DIMAUNIT
 70
           0
  9
$LUNITS
 70
           2
  9
$LUPREC
 70
           4
  9
$SKETCHINC
 40
0.1
  9
$FILLETRAD
 40
0.0
  9
$AUNITS
 70
           0
  9
$AUPREC
 70
           0
  9
$MENU
  1
acad
  9
$ELEVATION
 40
0.0
  9
$PELEVATION
 40
0.0
  9
$THICKNESS
 40
0.0
  9
$LIMCHECK
 70
           0
  9
$BLIPMODE
 70
           1
  9
$CHAMFERA
 40
0.0
  9
$CHAMFERB
 40
0.0
  9
$CHAMFERC
 40
0.0
  9
$CHAMFERD
 40
0.0
  9
$SKPOLY
 70
           0
  9
$TDCREATE
 40
0.000000000
  9
$TDUPDATE
 40
0.000000000
  9
$TDINDWG
 40
0.0000000000
  9
$TDUSRTIMER
 40
0.0000000000
  9
$USRTIMER
 70
           1
  9
$ANGBASE
 50
0.0
  9
$ANGDIR
 70
           0
  9
$PDMODE
 70
           0
  9
$PDSIZE
 40
0.0
  9
$PLINEWID
 40
0.0
  9
$COORDS
 70
           0
  9
$SPLFRAME
 70
           0
  9
$SPLINETYPE
 70
           6
  9
$SPLINESEGS
 70
           8
  9
$ATTDIA
 70
           0
  9
$ATTREQ
 70
           1
  9
$HANDLING
 70
           1
  9
$HANDSEED
  5
1B4
  9
$SURFTAB1
 70
           6
  9
$SURFTAB2
 70
           6
  9
$SURFTYPE
 70
           6
  9
$SURFU
 70
           6
  9
$SURFV
 70
           6
  9
$UCSNAME
  2

  9
$UCSORG
 10
0.0
 20
0.0
 30
0.0
  9
$UCSXDIR
 10
1.0
 20
0.0
 30
0.0
  9
$UCSYDIR
 10
0.0
 20
1.0
 30
0.0
  9
$PUCSNAME
  2

  9
$PUCSORG
 10
0.0
 20
0.0
 30
0.0
  9
$PUCSXDIR
 10
1.0
 20
0.0
 30
0.0
  9
$PUCSYDIR
 10
0.0
 20
1.0
 30
0.0
  9
$USERI1
 70
           0
  9
$USERI2
 70
           0
  9
$USERI3
 70
           0
  9
$USERI4
 70
           0
  9
$USERI5
 70
           0
  9
$USERR1
 40
0.0
  9
$USERR2
 40
0.0
  9
$USERR3
 40
0.0
  9
$USERR4
 40
0.0
  9
$USERR5
 40
0.0
  9
$WORLDVIEW
 70
           1
  9
$SHADEDGE
 70
           3
  9
$SHADEDIF
 70
          70
  9
$TILEMODE
 70
           1
  9
$MAXACTVP
 70
          16
  9
$PINSBASE
 10
0.0
 20
0.0
 30
0.0
  9
$PLIMCHECK
 70
           0
  9
$PEXTMIN
 10
1.000000000000E+20
 20
1.000000000000E+20
 30
1.000000000000E+20
  9
$PEXTMAX
 10
-1.000000000000E+20
 20
-1.000000000000E+20
 30
-1.000000000000E+20
  9
$PLIMMIN
 10
0.0
 20
0.0
  9
$PLIMMAX
 10
12.0
 20
9.0
  9
$UNITMODE
 70
           0
  9
$VISRETAIN
 70
           0
  9
$PLINEGEN
 70
           1
  9
$PSLTSCALE
 70
           0
  9
$TREEDEPTH
 70
        3020
  9
$PICKSTYLE
 70
           1
  9
$CMLSTYLE
  2
STANDARD
  9
$CMLJUST
 70
           0
  9
$CMLSCALE
 40
1.0
  9
$PROXYGRAPHICS
 70
           0
  9
$MEASUREMENT
 70
           0
  0
ENDSEC
  0
SECTION
  2
CLASSES
  0
CLASS
  1
LWPOLYLINE
  2
AcDbPolyline
  3
"AutoCAD"
 90
        0
280
           0
281
           1
  0
CLASS
  1
IMAGE
  2
AcDbRasterImage
  3
ISM
 90
      127
280
           0
281
           1
  0
CLASS
  1
OLE2FRAME
  2
AcDbOle2Frame
  3
""
 90
        0
280
           0
281
           1
  0
CLASS
  1
HATCH
  2
AcDbHatch
  3
"ACAD_SEDONA"
 90
        0
280
           0
281
           1
  0
CLASS
  1
DICTIONARYVAR
  2
AcDbDictionaryVar
  3
"AutoCAD"
 90
        0
280
           0
281
           0
  0
CLASS
  1
RASTERVARIABLES
  2
AcDbRasterVariables
  3
ISM
 90
        0
280
           0
281
           0
  0
CLASS
  1
IMAGEDEF
  2
AcDbRasterImageDef
  3
ISM
 90
        0
280
           0
281
           0
  0
CLASS
  1
IMAGEDEF_REACTOR
  2
AcDbRasterImageDefReactor
  3
ISM
 90
        1
280
           0
281
           0
  0
CLASS
  1
IDBUFFER
  2
AcDbIdBuffer
  3
"Acad"
 90
        0
280
           0
281
           0
  0
CLASS
  1
SPATIAL_FILTER
  2
AcDbSpatialFilter
  3
"Acad"
 90
        0
280
           0
281
           0
  0
CLASS
  1
XRECORD
  2
AcDbXrecord
  3
"<Built In>"
 90
        0
280
           0
281
           0
  0
CLASS
  1
SORTENTSTABLE
  2
AcDbSortentsTable
  3
"AutoCAD"
 90
        0
280
           0
281
           0
  0
CLASS
  1
LAYER_INDEX
  2
AcDbLayerIndex
  3
"Acad"
 90
        0
280
           0
281
           0
  0
CLASS
  1
SPATIAL_INDEX
  2
AcDbSpatialIndex
  3
"Acad"
 90
        0
280
           0
281
           0
  0
CLASS
  1
OBJECT_PTR
  2
CAseDLPNTableRecord
  3
"ASE-LPNTableRecord"
 90
        1
280
           0
281
           0
  0
CLASS
  1
LAYOUT
  2
AcDbLayout
  3
"AutoCAD 2000"
 90
        1
280
           0
281
           0
  0
CLASS
  1
PLOTSETTINGS
  2
AcDbPlotSettings
  3
"AutoCAD 2000"
 90
        1
280
           0
281
           0
  0
CLASS
  1
ACDBDICTIONARYWDFLT
  2
AcDbDictionaryWithDefault
  3
"AutoCAD 2000"
 90
        1
280
           0
281
           0
  0
CLASS
  1
ACDBPLACEHOLDER
  2
AcDbPlaceHolder
  3
"AutoCAD 2000"
 90
        1
280
           0
281
           0
  0
CLASS
  1
VBA_PROJECT
  2
AcDbVbaProject
  3
"acadvba"
 90
        1
280
           0
281
           0
  0
CLASS
  1
WIPEOUT
  2
AcDbWipeout
  3
WipeOut|AutoCAD Express Tool|expresstools@autodesk.com
 90
      127
280
           0
281
           1
  0
CLASS
  1
WIPEOUTVARIABLES
  2
AcDbWipeoutVariables
  3
WipeOut|AutoCAD Express Tool|expresstools@autodesk.com
 90
        0
280
           0
281
           0
  0
CLASS
  1
RTEXT
  2
RText
  3
RText|AutoCAD Express Tool|expresstools@autodesk.com
 90
        0
280
           0
281
           1
  0
CLASS
  1
ARCALIGNEDTEXT
  2
AcDbArcAlignedText
  3
ATEXT|AutoCAD Express Tool|expresstools@autodesk.com
 90
        0
280
           0
281
           1
  0
ENDSEC
  0
SECTION
  2
TABLES
  0
TABLE
  2
VPORT
  5
7
100
AcDbSymbolTable
 70
           1
  0
VPORT
  5
15
100
AcDbSymbolTableRecord
100
AcDbViewportTableRecord
  2
*ACTIVE
 70
           0
 10
0.0
 20
0.0
 11
1.0
 21
1.0
 12
6.591288
 22
4.579184
 13
0.0
 23
0.0
 14
1.0
 24
1.0
 15
0.0
 25
0.0
 16
0.0
 26
0.0
 36
1.0
 17
0.0
 27
0.0
 37
0.0
 40
9.158369
 41
0.688564
 42
50.0
 43
0.0
 44
0.0
 50
0.0
 51
0.0
 71
           0
 72
         100
 73
           1
 74
           1
 75
           0
 76
           0
 77
           0
 78
           0
  0
ENDTAB
  0
TABLE
  2
LTYPE
  5
4
100
AcDbSymbolTable
 70
          10
  0
LTYPE
  5
11
100
AcDbSymbolTableRecord
100
AcDbLinetypeTableRecord
  2
BYBLOCK
 70
          64
  3

 72
          65
 73
           0
 40
0.0
  0
LTYPE
  5
12
100
AcDbSymbolTableRecord
100
AcDbLinetypeTableRecord
  2
BYLAYER
 70
          64
  3

 72
          65
 73
           0
 40
0.0
  0
LTYPE
  5
13
100
AcDbSymbolTableRecord
100
AcDbLinetypeTableRecord
  2
CONTINUOUS
 70
          64
  3
Solid line
 72
          65
 73
           0
 40
0.0
  0
LTYPE
  5
1D
100
AcDbSymbolTableRecord
100
AcDbLinetypeTableRecord
  2
DASHED
 70
          64
  3
Dashed
 72
          65
 73
           2
 40
15.0
 49
12.0
 74
           0
 49
-3.0
 74
           0
  0
LTYPE
  5
1E
100
AcDbSymbolTableRecord
100
AcDbLinetypeTableRecord
  2
DOTTED
 70
          64
  3
Dotted
 72
          65
 73
           2
 40
3.5
 49
0.5
 74
           0
 49
-3.0
 74
           0
  0
LTYPE
  5
1F
100
AcDbSymbolTableRecord
100
AcDbLinetypeTableRecord
  2
DOT_CENTER
 70
          64
  3
Dot_Center
 72
          65
 73
           4
 40
2.0
 49
1.25
 74
           0
 49
-0.25
 74
           0
 49
0.25
 74
           0
 49
-0.25
 74
           0
  0
LTYPE
  5
20
100
AcDbSymbolTableRecord
100
AcDbLinetypeTableRecord
  2
LONG_DASHED
 70
          64
  3
Long_Dashed
 72
          65
 73
           2
 40
2.0
 49
1.5
 74
           0
 49
-0.5
 74
           0
  0
LTYPE
  5
21
100
AcDbSymbolTableRecord
100
AcDbLinetypeTableRecord
  2
DASH_CENTER
 70
          64
  3
Dash_Center
 72
          65
 73
           4
 40
36.0
 49
24.0
 74
           0
 49
-3.0
 74
           0
 49
6.0
 74
           0
 49
-3.0
 74
           0
  0
LTYPE
  5
22
100
AcDbSymbolTableRecord
100
AcDbLinetypeTableRecord
  2
PHANTOM
 70
          64
  3
Phantom
 72
          65
 73
           6
 40
2.5
 49
1.25
 74
           0
 49
-0.25
 74
           0
 49
0.25
 74
           0
 49
-0.25
 74
           0
 49
0.25
 74
           0
 49
-0.25
 74
           0
  0
LTYPE
  5
23
100
AcDbSymbolTableRecord
100
AcDbLinetypeTableRecord
  2
CENTER_DASH_DASH
 70
          64
  3
Center_Dash_Dash
 72
          65
 73
           6
 40
22.0
 49
12.0
 74
           0
 49
-3.0
 74
           0
 49
0.5
 74
           0
 49
-3.0
 74
           0
 49
0.5
 74
           0
 49
-3.0
 74
           0
  0
ENDTAB
  0
TABLE
  2
LAYER
  5
2
100
AcDbSymbolTable
 70
           2
  0
LAYER
  5
14
100
AcDbSymbolTableRecord
100
AcDbLayerTableRecord
  2
0
 70
           0
 62
           7
  6
CONTINUOUS
  0
LAYER
  5
24
100
AcDbSymbolTableRecord
100
AcDbLayerTableRecord
  2
1
 70
           0
 62
           7
  6
CONTINUOUS
  0
ENDTAB
  0
TABLE
  2
STYLE
  5
3
100
AcDbSymbolTable
 70
           3
  0
STYLE
  5
17
100
AcDbSymbolTableRecord
100
AcDbTextStyleTableRecord
  2
STANDARD
 70
           0
 40
0.0
 41
1.0
 50
0.0
 71
           0
 42
0.0
  3
txt
  4

  0
STYLE
  5
1A2
100
AcDbSymbolTableRecord
100
AcDbTextStyleTableRecord
  2
CONVERTER_1
 70
           0
 40
0.0
 41
0.9
 50
0.0
 71
           0
 42
0.0
  3
txt.shx
  4

  0
STYLE
  5
1AE
100
AcDbSymbolTableRecord
100
AcDbTextStyleTableRecord
  2
CONVERTER_2
 70
           0
 40
0.0
 41
0.89
 50
0.0
 71
           0
 42
0.0
  3
MS Mincho.ttf
  4

1001
ACAD
1000
MS Mincho
1071
    32785
  0
ENDTAB
  0
TABLE
  2
VIEW
  5
5
100
AcDbSymbolTable
 70
           0
  0
ENDTAB
  0
TABLE
  2
UCS
  5
6
100
AcDbSymbolTable
 70
           0
  0
ENDTAB
  0
TABLE
  2
APPID
  5
8
100
AcDbSymbolTable
 70
           1
  0
APPID
  5
16
100
AcDbSymbolTableRecord
100
AcDbRegAppTableRecord
  2
ACAD
 70
           0
  0
ENDTAB
  0
TABLE
  2
DIMSTYLE
  5
9
100
AcDbSymbolTable
 70
           3
  0
DIMSTYLE
105
18
100
AcDbSymbolTableRecord
100
AcDbDimStyleTableRecord
  2
STANDARD
 70
           0
  3

  4

  5

  6

  7

 40
1.0
 41
0.18
 42
0.0625
 43
0.38
 44
0.18
 45
0.0
 46
0.0
 47
0.0
 48
0.0
 71
           0
 72
           0
 73
           1
 74
           1
 75
           0
 76
           0
 77
           0
 78
           0
140
0.18
141
0.09
142
0.0
143
25.4
144
1.0
145
0.0
146
1.0
147
0.09
170
           0
171
           2
172
           0
173
           0
174
           0
175
           0
176
           0
177
           0
178
           0
270
           2
271
           4
272
           4
273
           2
274
           2
275
           0
280
           0
281
           0
282
           0
283
           1
284
           0
285
           0
286
           0
287
           0
288
           0
340
17
  0
DIMSTYLE
105
1A5
100
AcDbSymbolTableRecord
100
AcDbDimStyleTableRecord
  2
ME10_DIM_0
 70
           0
  3

  4

  5

  6

  7

 40
1.0
 41
2.8
 42
0.8
 43
0.38
 44
1.0
 45
0.0
 46
0.0
 47
0.0
 48
0.0
 71
           0
 72
           0
 73
           0
 74
           0
 75
           0
 76
           0
 77
           1
 78
           8
140
2.8
141
0.09
142
0.0
143
25.4
144
1.0
145
0.0
146
1.0
147
0.09
170
           0
171
           2
172
           0
173
           1
174
           0
175
           0
176
           2
177
           2
178
           2
270
           2
271
           3
272
           4
273
           2
274
           2
275
           0
280
           0
281
           0
282
           0
283
           1
284
           0
285
           0
286
           0
287
           3
288
           0
340
17
  0
DIMSTYLE
105
1B1
100
AcDbSymbolTableRecord
100
AcDbDimStyleTableRecord
  2
ME10_DIM_1
 70
           0
  3
ó<>
  4

  5

  6

  7

 40
1.0
 41
2.8
 42
0.8
 43
0.38
 44
1.0
 45
0.0
 46
0.0
 47
0.0
 48
0.0
 71
           0
 72
           0
 73
           0
 74
           0
 75
           0
 76
           0
 77
           1
 78
           8
140
2.8
141
0.09
142
0.0
143
25.4
144
1.0
145
0.0
146
1.0
147
0.09
170
           0
171
           2
172
           0
173
           1
174
           0
175
           0
176
           2
177
           2
178
           2
270
           2
271
           3
272
           4
273
           2
274
           2
275
           0
280
           0
281
           0
282
           0
283
           1
284
           0
285
           0
286
           0
287
           3
288
           0
340
17
  0
ENDTAB
  0
TABLE
  2
BLOCK_RECORD
  5
1
100
AcDbSymbolTable
 70
           2
  0
BLOCK_RECORD
  5
A
100
AcDbSymbolTableRecord
100
AcDbBlockTableRecord
  2
*MODEL_SPACE
  0
BLOCK_RECORD
  5
B
100
AcDbSymbolTableRecord
100
AcDbBlockTableRecord
  2
*PAPER_SPACE
  0
BLOCK_RECORD
  5
19B
100
AcDbSymbolTableRecord
100
AcDbBlockTableRecord
  2
*D0
  0
BLOCK_RECORD
  5
1A7
100
AcDbSymbolTableRecord
100
AcDbBlockTableRecord
  2
*D1
  0
ENDTAB
  0
ENDSEC
  0
SECTION
  2
BLOCKS
  0
BLOCK
  5
D
100
AcDbEntity
  8
0
100
AcDbBlockBegin
  2
*MODEL_SPACE
 70
           0
 10
0.0
 20
0.0
 30
0.0
  3
*MODEL_SPACE
  1

  0
ENDBLK
  5
E
100
AcDbEntity
  8
0
100
AcDbBlockEnd
  0
BLOCK
  5
F
100
AcDbEntity
 67
           1
  8
0
100
AcDbBlockBegin
  2
*PAPER_SPACE
 70
           0
 10
0.0
 20
0.0
 30
0.0
  3
*PAPER_SPACE
  1

  0
ENDBLK
  5
10
100
AcDbEntity
 67
           1
  8
0
100
AcDbBlockEnd
  0
BLOCK
  5
19C
100
AcDbEntity
  8
0
100
AcDbBlockBegin
  2
*D0
 70
           1
 10
0.0
 20
0.0
 30
0.0
  3
*D0
  1

  0
LINE
  5
19D
100
AcDbEntity
  8
0
  6
CONTINUOUS
 62
           2
100
AcDbLine
 10
1.628553135207
 20
-57.856844781895
 11
1.628553135207
 21
69.888663722525
  0
LINE
  5
19E
100
AcDbEntity
  8
0
  6
CONTINUOUS
 62
           2
100
AcDbLine
 10
46.09728007384
 20
-57.856844781895
 11
0.628553135207
 21
-57.856844781895
  0
LINE
  5
19F
100
AcDbEntity
  8
0
  6
CONTINUOUS
 62
           2
100
AcDbLine
 10
39.496799126678
 20
69.888663722525
 11
0.628553135207
 21
69.888663722525
  0
SOLID
  5
1A0
100
AcDbEntity
  8
0
 62
           2
100
AcDbTrace
 10
1.997180128452
 20
67.088663722525
 11
1.259926141962
 21
67.088663722525
 12
1.628553135207
 22
69.888663722525
 13
1.628553135207
 23
69.888663722525
  0
SOLID
  5
1A1
100
AcDbEntity
  8
0
 62
           2
100
AcDbTrace
 10
1.259926141962
 20
-55.056844781895
 11
1.997180128452
 21
-55.056844781895
 12
1.628553135207
 22
-57.856844781895
 13
1.628553135207
 23
-57.856844781895
  0
MTEXT
  5
1A3
100
AcDbEntity
  8
0
 62
           2
100
AcDbMText
 10
0.628553135207
 20
5.421017642672
 30
0.0
 40
2.8
 41
0.0
 71
           7
 72
           1
  1
122
  7
CONVERTER_1
 11
0.0
 21
1.0
 31
0.0
  0
ENDBLK
  5
1A4
100
AcDbEntity
  8
0
100
AcDbBlockEnd
  0
BLOCK
  5
1A8
100
AcDbEntity
  8
0
100
AcDbBlockBegin
  2
*D1
 70
           1
 10
0.0
 20
0.0
 30
0.0
  3
*D1
  1

  0
LINE
  5
1A9
100
AcDbEntity
  8
0
  6
CONTINUOUS
 62
           2
100
AcDbLine
 10
35.296799126678
 20
81.375019989631
 11
105.296799126678
 21
81.375019989631
  0
LINE
  5
1AA
100
AcDbEntity
  8
0
  6
CONTINUOUS
 62
           2
100
AcDbLine
 10
35.296799126678
 20
65.688663722525
 11
35.296799126678
 21
82.375019989631
  0
LINE
  5
1AB
100
AcDbEntity
  8
0
  6
CONTINUOUS
 62
           2
100
AcDbLine
 10
105.296799126678
 20
65.688663722525
 11
105.296799126678
 21
82.375019989631
  0
SOLID
  5
1AC
100
AcDbEntity
  8
0
 62
           2
100
AcDbTrace
 10
38.096799126678
 20
81.743646982876
 11
38.096799126678
 21
81.006392996387
 12
35.296799126678
 22
81.375019989631
 13
35.296799126678
 23
81.375019989631
  0
SOLID
  5
1AD
100
AcDbEntity
  8
0
 62
           2
100
AcDbTrace
 10
102.496799126678
 20
81.006392996387
 11
102.496799126678
 21
81.743646982876
 12
105.296799126678
 22
81.375019989631
 13
105.296799126678
 23
81.375019989631
  0
MTEXT
  5
1AF
100
AcDbEntity
  8
0
 62
           2
100
AcDbMText
 10
67.792357676848
 20
82.375019989631
 30
0.0
 40
2.8
 41
0.0
 71
           7
 72
           1
  1
\C2;ó\C2;70\C2;
  7
CONVERTER_2
  0
ENDBLK
  5
1B0
100
AcDbEntity
  8
0
100
AcDbBlockEnd
  0
ENDSEC
  0
SECTION
  2
ENTITIES
  0
DIMENSION
  5
1B2
100
AcDbEntity
  8
0
100
AcDbDimension
  2
*D1
 10
35.296799126678
 20
81.375019989631
 11
70.508357676848
 21
83.775019989631
 31
0.0
  1
<>
  3
ME10_DIM_1
100
AcDbAlignedDimension
 13
105.296799126678
 23
64.888663722525
 14
35.296799126678
 24
64.888663722525
100
AcDbRotatedDimension
  0
DIMENSION
  5
1A6
100
AcDbEntity
  8
0
100
AcDbDimension
  2
*D0
 10
1.628553135207
 20
69.888663722525
 11
-0.771446864793
 21
8.361017642672
 31
0.0
 53
90.0
  1
<>
  3
ME10_DIM_0
100
AcDbAlignedDimension
 13
46.89728007384
 23
-57.856844781895
 14
40.296799126678
 24
69.888663722525
 50
90.0
100
AcDbRotatedDimension
  0
ARC
  5
19A
100
AcDbEntity
  8
1
  6
CONTINUOUS
 62
           7
100
AcDbCircle
 10
78.996799126678
 20
-5.440513607877
 40
24.0
100
AcDbArc
 50
-90.0
 51
0.0
  0
ARC
  5
199
100
AcDbEntity
  8
1
  6
CONTINUOUS
 62
           7
100
AcDbCircle
 10
103.896799126678
 20
55.388663722525
 40
0.9
100
AcDbArc
 50
-90.0
 51
0.0
  0
ARC
  5
198
100
AcDbEntity
  8
1
  6
CONTINUOUS
 62
           7
100
AcDbCircle
 10
103.646799126678
 20
56.338663722525
 40
1.15
100
AcDbArc
 50
0.0
 51
90.0
  0
ARC
  5
197
100
AcDbEntity
  8
1
  6
CONTINUOUS
 62
           7
100
AcDbCircle
 10
36.946799126678
 20
56.338663722525
 40
1.15
100
AcDbArc
 50
90.0
 51
180.0
  0
ARC
  5
196
100
AcDbEntity
  8
1
  6
CONTINUOUS
 62
           7
100
AcDbCircle
 10
36.696799126678
 20
55.388663722525
 40
0.9
100
AcDbArc
 50
180.0
 51
-90.0
  0
ARC
  5
195
100
AcDbEntity
  8
1
  6
CONTINUOUS
 62
           7
100
AcDbCircle
 10
61.596799126678
 20
-5.440513607877
 40
24.0
100
AcDbArc
 50
180.0
 51
-90.0
  0
ARC
  5
194
100
AcDbEntity
  8
1
  6
CONTINUOUS
 62
           7
100
AcDbCircle
 10
57.158487698308
 20
-33.880851994107
 40
3.0
100
AcDbArc
 50
-170.035854747606
 51
-132.098140751918
  0
ARC
  5
193
100
AcDbEntity
  8
1
  6
CONTINUOUS
 62
           7
100
AcDbCircle
 10
48.206672099039
 20
-34.587533185958
 40
6.0
100
AcDbArc
 50
7.235851773494
 51
52.040716587005
  0
ARC
  5
192
100
AcDbEntity
  8
1
  6
CONTINUOUS
 62
           7
100
AcDbCircle
 10
57.158487698308
 20
-33.880851994107
 40
3.0
100
AcDbArc
 50
179.06330890197
 51
-170.035854747606
  0
ARC
  5
191
100
AcDbEntity
  8
1
  6
CONTINUOUS
 62
           7
100
AcDbCircle
 10
57.158487698308
 20
-53.832837569682
 40
3.0
100
AcDbArc
 50
170.035854747606
 51
-179.06330890197
  0
ARC
  5
190
100
AcDbEntity
  8
1
  6
CONTINUOUS
 62
           7
100
AcDbCircle
 10
48.206672099039
 20
-53.126156377832
 40
6.0
100
AcDbArc
 50
-52.040716587005
 51
-7.235851773494
  0
ARC
  5
18F
100
AcDbEntity
  8
1
  6
CONTINUOUS
 62
           7
100
AcDbCircle
 10
57.158487698308
 20
-53.832837569682
 40
3.0
100
AcDbArc
 50
132.098140751918
 51
170.035854747606
  0
ARC
  5
18E
100
AcDbEntity
  8
1
  6
CONTINUOUS
 62
           7
100
AcDbCircle
 10
41.636072449372
 20
-33.880851994107
 40
3.0
100
AcDbArc
 50
-9.964145252393
 51
0.93669109803
  0
ARC
  5
18D
100
AcDbEntity
  8
1
  6
CONTINUOUS
 62
           7
100
AcDbCircle
 10
50.587888048641
 20
-34.587533185958
 40
6.0
100
AcDbArc
 50
127.959283412995
 51
172.764148226506
  0
ARC
  5
18C
100
AcDbEntity
  8
1
  6
CONTINUOUS
 62
           7
100
AcDbCircle
 10
41.636072449372
 20
-33.880851994107
 40
3.0
100
AcDbArc
 50
-47.901859248081
 51
-9.964145252393
  0
ARC
  5
18B
100
AcDbEntity
  8
1
  6
CONTINUOUS
 62
           7
100
AcDbCircle
 10
41.636072449372
 20
-53.832837569682
 40
3.0
100
AcDbArc
 50
9.964145252393
 51
47.901859248081
  0
ARC
  5
18A
100
AcDbEntity
  8
1
  6
CONTINUOUS
 62
           7
100
AcDbCircle
 10
50.587888048641
 20
-53.126156377832
 40
6.0
100
AcDbArc
 50
-172.764148226506
 51
-127.959283412995
  0
ARC
  5
189
100
AcDbEntity
  8
1
  6
CONTINUOUS
 62
           7
100
AcDbCircle
 10
41.636072449372
 20
-53.832837569682
 40
3.0
100
AcDbArc
 50
-0.93669109803
 51
9.964145252393
  0
ARC
  5
188
100
AcDbEntity
  8
1
  6
CONTINUOUS
 62
           2
100
AcDbCircle
 10
54.314619929207
 20
63.67808477297
 40
18.718020116969
100
AcDbArc
 50
175.4035778173
 51
-175.4035778173
  0
ARC
  5
187
100
AcDbEntity
  8
1
  6
CONTINUOUS
 62
           2
100
AcDbCircle
 10
48.756195234952
 20
63.67808477297
 40
13.014135019229
100
AcDbArc
 50
173.381419113258
 51
-173.381419113257
  0
ARC
  5
186
100
AcDbEntity
  8
1
  6
CONTINUOUS
 62
           2
100
AcDbCircle
 10
47.089192718308
 20
63.67808477297
 40
11.185743663087
100
AcDbArc
 50
172.293462034641
 51
-172.293462034641
  0
ARC
  5
185
100
AcDbEntity
  8
1
  6
CONTINUOUS
 62
           2
100
AcDbCircle
 10
45.908234447989
 20
63.67808477297
 40
9.81858841366
100
AcDbArc
 50
171.212429473395
 51
-171.212429473395
  0
ARC
  5
184
100
AcDbEntity
  8
1
  6
CONTINUOUS
 62
           2
100
AcDbCircle
 10
45.059439494902
 20
63.67808477297
 40
8.758922646205
100
AcDbArc
 50
170.139266313186
 51
-170.139266313187
  0
ARC
  5
183
100
AcDbEntity
  8
1
  6
CONTINUOUS
 62
           2
100
AcDbCircle
 10
44.450407782862
 20
63.67808477297
 40
7.91449838633
100
AcDbArc
 50
169.074900349229
 51
-169.074900349229
  0
ARC
  5
182
100
AcDbEntity
  8
1
  6
CONTINUOUS
 62
           2
100
AcDbCircle
 10
44.022266318562
 20
63.67808477297
 40
7.22661243025
100
AcDbArc
 50
168.020240540938
 51
-168.020240540938
  0
ARC
  5
181
100
AcDbEntity
  8
1
  6
CONTINUOUS
 62
           2
100
AcDbCircle
 10
43.735692380199
 20
63.67808477297
 40
6.65612941095
100
AcDbArc
 50
166.976175390468
 51
-166.976175390467
  0
ARC
  5
180
100
AcDbEntity
  8
1
  6
CONTINUOUS
 62
           2
100
AcDbCircle
 10
43.563387617004
 20
63.67808477297
 40
6.175955762579
100
AcDbArc
 50
165.943571455262
 51
-165.943571455262
  0
ARC
  5
17F
100
AcDbEntity
  8
1
  6
CONTINUOUS
 62
           2
100
AcDbCircle
 10
43.48577761059
 20
63.67808477297
 40
5.766739134089
100
AcDbArc
 50
164.923272001177
 51
-164.923272001178
  0
ARC
  5
17E
100
AcDbEntity
  8
1
  6
CONTINUOUS
 62
           2
100
AcDbCircle
 10
43.488431688519
 20
63.67808477297
 40
5.414288042617
100
AcDbArc
 50
163.916095801176
 51
-163.916095801177
  0
ARC
  5
17D
100
AcDbEntity
  8
1
  6
CONTINUOUS
 62
           2
100
AcDbCircle
 10
43.560450385208
 20
63.67808477297
 40
5.107959161877
100
AcDbArc
 50
162.922836082987
 51
-162.922836082987
  0
ARC
  5
17C
100
AcDbEntity
  8
1
  6
CONTINUOUS
 62
           2
100
AcDbCircle
 10
43.693422112288
 20
63.67808477297
 40
4.839613807755
100
AcDbArc
 50
161.944259627567
 51
-161.944259627568
  0
ARC
  5
17B
100
AcDbEntity
  8
1
  6
CONTINUOUS
 62
           2
100
AcDbCircle
 10
43.880727683957
 20
63.67808477297
 40
4.602922266817
100
AcDbArc
 50
160.981106018722
 51
-160.981106018723
  0
ARC
  5
17A
100
AcDbEntity
  8
1
  6
CONTINUOUS
 62
           2
100
AcDbCircle
 10
44.117064544713
 20
63.67808477297
 40
4.392887815245
100
AcDbArc
 50
160.034087042744
 51
-160.034087042745
  0
ARC
  5
179
100
AcDbEntity
  8
1
  6
CONTINUOUS
 62
           2
100
AcDbCircle
 10
44.398113807843
 20
63.67808477297
 40
4.205513536726
100
AcDbArc
 50
159.103886235634
 51
-159.103886235635
  0
ARC
  5
178
100
AcDbEntity
  8
1
  6
CONTINUOUS
 62
           2
100
AcDbCircle
 10
44.720302505051
 20
63.67808477297
 40
4.037564339837
100
AcDbArc
 50
158.191158574171
 51
-158.191158574172
  0
ARC
  5
177
100
AcDbEntity
  8
1
  6
CONTINUOUS
 62
           2
100
AcDbCircle
 10
45.0806307565
 20
63.67808477297
 40
3.886393884379
100
AcDbArc
 50
157.296530306003
 51
-157.296530306004
  0
ARC
  5
176
100
AcDbEntity
  8
1
  6
CONTINUOUS
 62
           2
100
AcDbCircle
 10
45.476544106415
 20
63.67808477297
 40
3.749816661957
100
AcDbArc
 50
156.420598912877
 51
-156.420598912878
  0
ARC
  5
175
100
AcDbEntity
  8
1
  6
CONTINUOUS
 62
           2
100
AcDbCircle
 10
45.898269228428
 20
63.674976610284
 40
3.620412090921
100
AcDbArc
 50
155.469600298428
 51
-155.540569074766
  0
ARC
  5
174
100
AcDbEntity
  8
1
  6
CONTINUOUS
 62
           2
100
AcDbCircle
 10
46.454078021238
 20
63.67808477297
 40
3.604596123776
100
AcDbArc
 50
155.409162471169
 51
-155.322844332812
  0
ARC
  5
173
100
AcDbEntity
  8
1
  6
CONTINUOUS
 62
           2
100
AcDbCircle
 10
61.31708433995
 20
63.67808477297
 40
3.619441268709
100
AcDbArc
 50
155.516661754162
 51
-155.516661754163
  0
ARC
  5
172
100
AcDbEntity
  8
1
  6
CONTINUOUS
 62
           2
100
AcDbCircle
 10
51.864341349949
 20
63.67808477297
 40
6.338790616457
100
AcDbArc
 50
-13.688208734749
 51
13.68820873475
  0
ARC
  5
171
100
AcDbEntity
  8
1
  6
CONTINUOUS
 62
           2
100
AcDbCircle
 10
62.221661605032
 20
63.67808477297
 40
3.646996692582
100
AcDbArc
 50
155.713642905773
 51
-155.713642905773
  0
ARC
  5
170
100
AcDbEntity
  8
1
  6
CONTINUOUS
 62
           2
100
AcDbCircle
 10
52.997514960967
 20
63.67808477297
 40
6.087600085997
100
AcDbArc
 50
-14.264733436182
 51
14.264733436183
  0
ARC
  5
16F
100
AcDbEntity
  8
1
  6
CONTINUOUS
 62
           2
100
AcDbCircle
 10
63.137623815996
 20
63.67808477297
 40
3.677481816622
100
AcDbArc
 50
155.927780861216
 51
-155.927780861216
  0
ARC
  5
16E
100
AcDbEntity
  8
1
  6
CONTINUOUS
 62
           2
100
AcDbCircle
 10
54.114850297197
 20
63.67808477297
 40
5.860334884235
100
AcDbArc
 50
-14.830362641291
 51
14.830362641291
  0
ARC
  5
16D
100
AcDbEntity
  8
1
  6
CONTINUOUS
 62
           2
100
AcDbCircle
 10
50.712369870896
 20
63.67808477297
 40
6.617502248615
100
AcDbArc
 50
-13.101195323309
 51
13.101195323309
  0
ARC
  5
16C
100
AcDbEntity
  8
1
  6
CONTINUOUS
 62
           2
100
AcDbCircle
 10
60.424407241061
 20
63.67808477297
 40
3.594698164233
100
AcDbArc
 50
155.33694247624
 51
-155.33694247624
  0
ARC
  5
16B
100
AcDbEntity
  8
1
  6
CONTINUOUS
 62
           2
100
AcDbCircle
 10
49.537868475179
 20
63.67808477297
 40
6.92809691875
100
AcDbArc
 50
-12.504111595024
 51
12.504111595025
  0
ARC
  5
16A
100
AcDbEntity
  8
1
  6
CONTINUOUS
 62
           2
100
AcDbCircle
 10
59.544152801945
 20
63.67808477297
 40
3.572663826766
100
AcDbArc
 50
155.174580249754
 51
-155.174580249754
  0
ARC
  5
169
100
AcDbEntity
  8
1
  6
CONTINUOUS
 62
           2
100
AcDbCircle
 10
48.33611736606
 20
63.67808477297
 40
7.275917564802
100
AcDbArc
 50
-11.897387301262
 51
11.897387301262
  0
ARC
  5
168
100
AcDbEntity
  8
1
  6
CONTINUOUS
 62
           2
100
AcDbCircle
 10
58.676849308126
 20
63.67808477297
 40
3.553247502543
100
AcDbArc
 50
155.029660495586
 51
-155.029660495585
  0
ARC
  5
167
100
AcDbEntity
  8
1
  6
CONTINUOUS
 62
           2
100
AcDbCircle
 10
47.101117071102
 20
63.67808477297
 40
7.667579604487
100
AcDbArc
 50
-11.281463267016
 51
11.281463267016
  0
ARC
  5
166
100
AcDbEntity
  8
1
  6
CONTINUOUS
 62
           2
100
AcDbCircle
 10
57.823029509516
 20
63.67808477297
 40
3.53637035538
100
AcDbArc
 50
154.902259002922
 51
-154.902259002922
  0
ARC
  5
165
100
AcDbEntity
  8
1
  6
CONTINUOUS
 62
           2
100
AcDbCircle
 10
45.825185971953
 20
63.67808477297
 40
8.11137296123
100
AcDbArc
 50
-10.656791070076
 51
10.656791070076
  0
ARC
  5
164
100
AcDbEntity
  8
1
  6
CONTINUOUS
 62
           2
100
AcDbCircle
 10
56.983229430348
 20
63.67808477297
 40
3.521964717751
100
AcDbArc
 50
154.792442043356
 51
-154.792442043355
  0
ARC
  5
163
100
AcDbEntity
  8
1
  6
CONTINUOUS
 62
           2
100
AcDbCircle
 10
44.498395081301
 20
63.67808477297
 40
8.617826848436
100
AcDbArc
 50
-10.023832683841
 51
10.023832683841
  0
ARC
  5
162
100
AcDbEntity
  8
1
  6
CONTINUOUS
 62
           2
100
AcDbCircle
 10
56.157987303218
 20
63.67808477297
 40
3.509973460276
100
AcDbArc
 50
154.700266473067
 51
-154.700266473066
  0
ARC
  5
161
100
AcDbEntity
  8
1
  6
CONTINUOUS
 62
           2
100
AcDbCircle
 10
43.10775763645
 20
63.67808477297
 40
9.200519742961
100
AcDbArc
 50
-9.383060083926
 51
9.383060083926
  0
ARC
  5
160
100
AcDbEntity
  8
1
  6
CONTINUOUS
 62
           2
100
AcDbCircle
 10
55.347842616236
 20
63.67808477297
 40
3.500349468308
100
AcDbArc
 50
154.62577982227
 51
-154.62577982227
  0
ARC
  5
15F
100
AcDbEntity
  8
1
  6
CONTINUOUS
 62
           2
100
AcDbCircle
 10
41.636039645213
 20
63.67808477297
 40
9.877268412421
100
AcDbArc
 50
-8.73495481898
 51
8.73495481898
  0
ARC
  5
15E
100
AcDbEntity
  8
1
  6
CONTINUOUS
 62
           2
100
AcDbCircle
 10
54.553335264448
 20
63.67808477297
 40
3.493055216473
100
AcDbArc
 50
154.569020371301
 51
-154.569020371301
  0
ARC
  5
15D
100
AcDbEntity
  8
1
  6
CONTINUOUS
 62
           2
100
AcDbCircle
 10
40.059966927551
 20
63.67808477297
 40
10.671920453188
100
AcDbArc
 50
-8.080007546342
 51
8.080007546342
  0
ARC
  5
15C
100
AcDbEntity
  8
1
  6
CONTINUOUS
 62
           2
100
AcDbCircle
 10
53.775004798497
 20
63.67808477297
 40
3.488062433832
100
AcDbArc
 50
154.530017212752
 51
-154.530017212752
  0
ARC
  5
15B
100
AcDbEntity
  8
1
  6
CONTINUOUS
 62
           2
100
AcDbCircle
 10
38.347438259338
 20
63.67808477297
 40
11.617140733011
100
AcDbArc
 50
-7.418717533493
 51
7.418717533493
  0
ARC
  5
15A
100
AcDbEntity
  8
1
  6
CONTINUOUS
 62
           2
100
AcDbCircle
 10
53.013389765158
 20
63.67808477297
 40
3.485351853986
100
AcDbArc
 50
154.50879029922
 51
-154.50879029922
  0
ARC
  5
159
100
AcDbEntity
  8
1
  6
CONTINUOUS
 62
           2
100
AcDbCircle
 10
36.453036226695
 20
63.67808477297
 40
12.758900130132
100
AcDbArc
 50
-6.751592126445
 51
6.751592126444
  0
ARC
  5
158
100
AcDbEntity
  8
1
  6
CONTINUOUS
 62
           2
100
AcDbCircle
 10
52.269027135855
 20
63.67808477297
 40
3.484913045948
100
AcDbArc
 50
154.505350476309
 51
-154.50535047631
  0
ARC
  5
157
100
AcDbEntity
  8
1
  6
CONTINUOUS
 62
           2
100
AcDbCircle
 10
34.310484961649
 20
63.67808477297
 40
14.164017398402
100
AcDbArc
 50
-6.079146186505
 51
6.079146186505
  0
ARC
  5
156
100
AcDbEntity
  8
1
  6
CONTINUOUS
 62
           2
100
AcDbCircle
 10
51.542451820652
 20
63.67808477297
 40
3.486744322978
100
AcDbArc
 50
154.519699500671
 51
-154.519699500671
  0
ARC
  5
155
100
AcDbEntity
  8
1
  6
CONTINUOUS
 62
           2
100
AcDbCircle
 10
31.819322236567
 20
63.67808477297
 40
15.933486681262
100
AcDbArc
 50
-5.40190149711
 51
5.40190149711
  0
ARC
  5
154
100
AcDbEntity
  8
1
  6
CONTINUOUS
 62
           2
100
AcDbCircle
 10
50.834196266479
 20
63.67808477297
 40
3.490852727858
100
AcDbArc
 50
154.551830042916
 51
-154.551830042916
  0
ARC
  5
153
100
AcDbEntity
  8
1
  6
CONTINUOUS
 62
           2
100
AcDbCircle
 10
28.819848699786
 20
63.67808477297
 40
18.227527892434
100
AcDbArc
 50
-4.720386142617
 51
4.720386142617
  0
ARC
  5
152
100
AcDbEntity
  8
1
  6
CONTINUOUS
 62
           2
100
AcDbCircle
 10
50.144790139656
 20
63.67808477297
 40
3.497254094398
100
AcDbArc
 50
154.601725675431
 51
-154.60172567543
  0
ARC
  5
151
100
AcDbEntity
  8
1
  6
CONTINUOUS
 62
           2
100
AcDbCircle
 10
25.042257731918
 20
63.67808477297
 40
21.316456484135
100
AcDbArc
 50
-4.035133861235
 51
4.035133861235
  0
ARC
  5
150
100
AcDbEntity
  8
1
  6
CONTINUOUS
 62
           2
100
AcDbCircle
 10
49.474760093974
 20
63.67808477297
 40
3.505973186145
100
AcDbArc
 50
154.669360845127
 51
-154.669360845128
  0
ARC
  5
14F
100
AcDbEntity
  8
1
  6
CONTINUOUS
 62
           2
100
AcDbCircle
 10
19.992458991481
 20
63.67808477297
 40
25.694859534421
100
AcDbArc
 50
-3.346683374421
 51
3.34668337442
  0
ARC
  5
14E
100
AcDbEntity
  8
1
  6
CONTINUOUS
 62
           2
100
AcDbCircle
 10
48.824629626928
 20
63.67808477297
 40
3.517043914628
100
AcDbArc
 50
154.75470083137
 51
-154.754700831374
  0
ARC
  5
14D
100
AcDbEntity
  8
1
  6
CONTINUOUS
 62
           2
100
AcDbCircle
 10
12.658628745053
 20
63.67808477297
 40
32.375045058725
100
AcDbArc
 50
-2.655577695329
 51
2.655577695328
  0
ARC
  5
14C
100
AcDbEntity
  8
1
  6
CONTINUOUS
 62
           2
100
AcDbCircle
 10
48.194919027969
 20
63.67808477297
 40
3.530509640761
100
AcDbArc
 50
154.85770168936
 51
-154.857701689359
  0
ARC
  5
14B
100
AcDbEntity
  8
1
  6
CONTINUOUS
 62
           2
100
AcDbCircle
 10
0.593687435995
 20
63.67808477297
 40
43.804564091825
100
AcDbArc
 50
-1.962363419031
 51
1.962363419031
  0
ARC
  5
14A
100
AcDbEntity
  8
1
  6
CONTINUOUS
 62
           2
100
AcDbCircle
 10
47.586145424136
 20
63.67808477297
 40
3.546423564479
100
AcDbArc
 50
154.978310179365
 51
-154.978310179366
  0
ARC
  5
149
100
AcDbEntity
  8
1
  6
CONTINUOUS
 62
           2
100
AcDbCircle
 10
-24.024863294702
 20
63.67808477297
 40
67.806373326915
100
AcDbArc
 50
-1.267589997405
 51
1.267589997405
  0
ARC
  5
148
100
AcDbEntity
  8
1
  6
CONTINUOUS
 62
           2
100
AcDbCircle
 10
46.998822929972
 20
63.67808477297
 40
3.564849209292
100
AcDbArc
 50
155.116463682385
 51
-155.116463682384
  0
ARC
  5
147
100
AcDbEntity
  8
1
  6
CONTINUOUS
 62
           2
100
AcDbCircle
 10
73.8307252365
 20
63.67808477297
 40
4.258384511749
100
AcDbArc
 50
159.37523215223
 51
-159.375232152231
  0
ARC
  5
146
100
AcDbEntity
  8
1
  6
CONTINUOUS
 62
           2
100
AcDbCircle
 10
65.6424504469
 20
63.67808477297
 40
4.462477764082
100
AcDbArc
 50
-19.641640154099
 51
19.641640154099
  0
ARC
  5
145
100
AcDbEntity
  8
1
  6
CONTINUOUS
 62
           2
100
AcDbCircle
 10
72.819292290483
 20
63.67808477297
 40
4.182274477279
100
AcDbArc
 50
158.982288920195
 51
-158.982288920195
  0
ARC
  5
144
100
AcDbEntity
  8
1
  6
CONTINUOUS
 62
           2
100
AcDbCircle
 10
64.750346494497
 20
63.67808477297
 40
4.426799753689
100
AcDbArc
 50
-19.806535123546
 51
19.806535123547
  0
ARC
  5
143
100
AcDbEntity
  8
1
  6
CONTINUOUS
 62
           2
100
AcDbCircle
 10
71.814720244676
 20
63.67808477297
 40
4.111828132055
100
AcDbArc
 50
158.60464882998
 51
-158.604648829981
  0
ARC
  5
142
100
AcDbEntity
  8
1
  6
CONTINUOUS
 62
           2
100
AcDbCircle
 10
63.73944184374
 20
63.67808477297
 40
4.503935970311
100
AcDbArc
 50
-19.453518993302
 51
19.453518993302
  0
ARC
  5
141
100
AcDbEntity
  8
1
  6
CONTINUOUS
 62
           2
100
AcDbCircle
 10
70.817271614288
 20
63.67808477297
 40
4.04663420089
100
AcDbArc
 50
158.242536291179
 51
-158.24253629118
  0
ARC
  5
140
100
AcDbEntity
  8
1
  6
CONTINUOUS
 62
           2
100
AcDbCircle
 10
62.682337909479
 20
63.67808477297
 40
4.626491377872
100
AcDbArc
 50
-18.918312085972
 51
18.918312085973
  0
ARC
  5
13F
100
AcDbEntity
  8
1
  6
CONTINUOUS
 62
           2
100
AcDbCircle
 10
69.827252595464
 20
63.67808477297
 40
3.986326439102
100
AcDbArc
 50
157.896164047626
 51
-157.896164047627
  0
ARC
  5
13E
100
AcDbEntity
  8
1
  6
CONTINUOUS
 62
           2
100
AcDbCircle
 10
61.638640112922
 20
63.67808477297
 40
4.738926913463
100
AcDbArc
 50
-18.453043450043
 51
18.453043450044
  0
ARC
  5
13D
100
AcDbEntity
  8
1
  6
CONTINUOUS
 62
           2
100
AcDbCircle
 10
68.84500709851
 20
63.67808477297
 40
3.93057815077
100
AcDbArc
 50
157.565733331159
 51
-157.565733331159
  0
ARC
  5
13C
100
AcDbEntity
  8
1
  6
CONTINUOUS
 62
           2
100
AcDbCircle
 10
60.588256577781
 20
63.67808477297
 40
4.860875152144
100
AcDbArc
 50
-17.974061475118
 51
17.974061475119
  0
ARC
  5
13B
100
AcDbEntity
  8
1
  6
CONTINUOUS
 62
           2
100
AcDbCircle
 10
67.870911602028
 20
63.67808477297
 40
3.879097526581
100
AcDbArc
 50
157.251434022232
 51
-157.251434022233
  0
ARC
  5
13A
100
AcDbEntity
  8
1
  6
CONTINUOUS
 62
           2
100
AcDbCircle
 10
59.530863478547
 20
63.67808477297
 40
4.993329605339
100
AcDbArc
 50
-17.481675180076
 51
17.481675180077
  0
ARC
  5
139
100
AcDbEntity
  8
1
  6
CONTINUOUS
 62
           2
100
AcDbCircle
 10
66.905370692215
 20
63.67808477297
 40
3.831623665164
100
AcDbArc
 50
156.953444815456
 51
-156.953444815456
  0
ARC
  5
138
100
AcDbEntity
  8
1
  6
CONTINUOUS
 62
           2
100
AcDbCircle
 10
58.465984038322
 20
63.67808477297
 40
5.137434213712
100
AcDbArc
 50
-16.976205993235
 51
16.976205993236
  0
ARC
  5
137
100
AcDbEntity
  8
1
  6
CONTINUOUS
 62
           2
100
AcDbCircle
 10
65.948813177127
 20
63.67808477297
 40
3.787923167384
100
AcDbArc
 50
156.671933388193
 51
-156.671933388193
  0
ARC
  5
136
100
AcDbEntity
  8
1
  6
CONTINUOUS
 62
           2
100
AcDbCircle
 10
57.39295906235
 20
63.67808477297
 40
5.294512332415
100
AcDbArc
 50
-16.4579877554
 51
16.457987755401
  0
ARC
  5
135
100
AcDbEntity
  8
1
  6
CONTINUOUS
 62
           2
100
AcDbCircle
 10
65.001688686077
 20
63.67808477297
 40
3.747787213378
100
AcDbArc
 50
156.407056570448
 51
-156.407056570448
  0
ARC
  5
134
100
AcDbEntity
  8
1
  6
CONTINUOUS
 62
           2
100
AcDbCircle
 10
56.310910457173
 20
63.67808477297
 40
5.466102732865
100
AcDbArc
 50
-15.927366696465
 51
15.927366696466
  0
ARC
  5
133
100
AcDbEntity
  8
1
  6
CONTINUOUS
 62
           2
100
AcDbCircle
 10
64.064464680527
 20
63.67808477297
 40
3.711029048402
100
AcDbArc
 50
156.158960514295
 51
-156.158960514296
  0
ARC
  5
132
100
AcDbEntity
  8
1
  6
CONTINUOUS
 62
           2
100
AcDbCircle
 10
55.218695674615
 20
63.67808477297
 40
5.654004682214
100
AcDbArc
 50
-15.384701383867
 51
15.384701383868
  0
ARC
  5
131
100
AcDbEntity
  8
1
  6
CONTINUOUS
 62
           7
100
AcDbCircle
 10
37.796799126678
 20
62.388663722525
 40
2.5
100
AcDbArc
 50
180.0
 51
-90.0
  0
ARC
  5
130
100
AcDbEntity
  8
1
  6
CONTINUOUS
 62
           7
100
AcDbCircle
 10
38.296799126678
 20
64.888663722525
 40
3.0
100
AcDbArc
 50
90.0
 51
180.0
  0
ARC
  5
12F
100
AcDbEntity
  8
1
  6
CONTINUOUS
 62
           7
100
AcDbCircle
 10
40.296799126678
 20
67.888663722525
 40
2.0
100
AcDbArc
 50
90.0
 51
180.0
  0
ARC
  5
12E
100
AcDbEntity
  8
1
  6
CONTINUOUS
 62
           7
100
AcDbCircle
 10
100.296799126678
 20
67.888663722525
 40
2.0
100
AcDbArc
 50
0.0
 51
90.0
  0
ARC
  5
12D
100
AcDbEntity
  8
1
  6
CONTINUOUS
 62
           7
100
AcDbCircle
 10
102.296799126678
 20
64.888663722525
 40
3.0
100
AcDbArc
 50
0.0
 51
90.0
  0
ARC
  5
12C
100
AcDbEntity
  8
1
  6
CONTINUOUS
 62
           7
100
AcDbCircle
 10
102.796799126678
 20
62.388663722525
 40
2.5
100
AcDbArc
 50
-90.0
 51
0.0
  0
ARC
  5
12B
100
AcDbEntity
  8
1
  6
CONTINUOUS
 62
           2
100
AcDbCircle
 10
85.374902578741
 20
63.67808477297
 40
5.654004682214
100
AcDbArc
 50
164.615298616132
 51
-164.615298616132
  0
ARC
  5
12A
100
AcDbEntity
  8
1
  6
CONTINUOUS
 62
           2
100
AcDbCircle
 10
76.529133572829
 20
63.67808477297
 40
3.711029048402
100
AcDbArc
 50
-23.841039485704
 51
23.841039485704
  0
ARC
  5
129
100
AcDbEntity
  8
1
  6
CONTINUOUS
 62
           2
100
AcDbCircle
 10
84.282687796183
 20
63.67808477297
 40
5.466102732865
100
AcDbArc
 50
164.072633303534
 51
-164.072633303534
  0
ARC
  5
128
100
AcDbEntity
  8
1
  6
CONTINUOUS
 62
           2
100
AcDbCircle
 10
75.591909567279
 20
63.67808477297
 40
3.747787213378
100
AcDbArc
 50
-23.592943429551
 51
23.592943429552
  0
ARC
  5
127
100
AcDbEntity
  8
1
  6
CONTINUOUS
 62
           2
100
AcDbCircle
 10
83.200639191006
 20
63.67808477297
 40
5.294512332415
100
AcDbArc
 50
163.542012244599
 51
-163.542012244599
  0
ARC
  5
126
100
AcDbEntity
  8
1
  6
CONTINUOUS
 62
           2
100
AcDbCircle
 10
74.644785076229
 20
63.67808477297
 40
3.787923167384
100
AcDbArc
 50
-23.328066611806
 51
23.328066611807
  0
ARC
  5
125
100
AcDbEntity
  8
1
  6
CONTINUOUS
 62
           2
100
AcDbCircle
 10
82.127614215034
 20
63.67808477297
 40
5.137434213712
100
AcDbArc
 50
163.023794006764
 51
-163.023794006764
  0
ARC
  5
124
100
AcDbEntity
  8
1
  6
CONTINUOUS
 62
           2
100
AcDbCircle
 10
73.688227561142
 20
63.67808477297
 40
3.831623665164
100
AcDbArc
 50
-23.046555184543
 51
23.046555184544
  0
ARC
  5
123
100
AcDbEntity
  8
1
  6
CONTINUOUS
 62
           2
100
AcDbCircle
 10
81.062734774809
 20
63.67808477297
 40
4.993329605339
100
AcDbArc
 50
162.518324819923
 51
-162.518324819924
  0
ARC
  5
122
100
AcDbEntity
  8
1
  6
CONTINUOUS
 62
           2
100
AcDbCircle
 10
72.722686651328
 20
63.67808477297
 40
3.879097526581
100
AcDbArc
 50
-22.748565977766
 51
22.748565977767
  0
ARC
  5
121
100
AcDbEntity
  8
1
  6
CONTINUOUS
 62
           2
100
AcDbCircle
 10
80.005341675575
 20
63.67808477297
 40
4.860875152144
100
AcDbArc
 50
162.025938524881
 51
-162.025938524881
  0
ARC
  5
120
100
AcDbEntity
  8
1
  6
CONTINUOUS
 62
           2
100
AcDbCircle
 10
71.748591154846
 20
63.67808477297
 40
3.93057815077
100
AcDbArc
 50
-22.43426666884
 51
22.434266668841
  0
ARC
  5
11F
100
AcDbEntity
  8
1
  6
CONTINUOUS
 62
           2
100
AcDbCircle
 10
78.954958140434
 20
63.67808477297
 40
4.738926913463
100
AcDbArc
 50
161.546956549956
 51
-161.546956549957
  0
ARC
  5
11E
100
AcDbEntity
  8
1
  6
CONTINUOUS
 62
           2
100
AcDbCircle
 10
70.766345657893
 20
63.67808477297
 40
3.986326439102
100
AcDbArc
 50
-22.103835952373
 51
22.103835952374
  0
ARC
  5
11D
100
AcDbEntity
  8
1
  6
CONTINUOUS
 62
           2
100
AcDbCircle
 10
77.911260343877
 20
63.67808477297
 40
4.626491377872
100
AcDbArc
 50
161.081687914027
 51
-161.081687914028
  0
ARC
  5
11C
100
AcDbEntity
  8
1
  6
CONTINUOUS
 62
           2
100
AcDbCircle
 10
69.776326639069
 20
63.67808477297
 40
4.04663420089
100
AcDbArc
 50
-21.75746370882
 51
21.75746370882
  0
ARC
  5
11B
100
AcDbEntity
  8
1
  6
CONTINUOUS
 62
           2
100
AcDbCircle
 10
76.854156409616
 20
63.67808477297
 40
4.503935970311
100
AcDbArc
 50
160.546481006697
 51
-160.546481006698
  0
ARC
  5
11A
100
AcDbEntity
  8
1
  6
CONTINUOUS
 62
           2
100
AcDbCircle
 10
68.77887800868
 20
63.67808477297
 40
4.111828132055
100
AcDbArc
 50
-21.395351170019
 51
21.395351170019
  0
ARC
  5
119
100
AcDbEntity
  8
1
  6
CONTINUOUS
 62
           2
100
AcDbCircle
 10
75.843251758859
 20
63.67808477297
 40
4.426799753689
100
AcDbArc
 50
160.193464876453
 51
-160.193464876453
  0
ARC
  5
118
100
AcDbEntity
  8
1
  6
CONTINUOUS
 62
           2
100
AcDbCircle
 10
67.774305962873
 20
63.67808477297
 40
4.182274477279
100
AcDbArc
 50
-21.017711079804
 51
21.017711079805
  0
ARC
  5
117
100
AcDbEntity
  8
1
  6
CONTINUOUS
 62
           2
100
AcDbCircle
 10
74.951147806456
 20
63.67808477297
 40
4.462477764082
100
AcDbArc
 50
160.3583598459
 51
-160.358359845901
  0
ARC
  5
116
100
AcDbEntity
  8
1
  6
CONTINUOUS
 62
           2
100
AcDbCircle
 10
66.762873016856
 20
63.67808477297
 40
4.258384511749
100
AcDbArc
 50
-20.624767847769
 51
20.62476784777
  0
ARC
  5
115
100
AcDbEntity
  8
1
  6
CONTINUOUS
 62
           2
100
AcDbCircle
 10
93.594775323384
 20
63.67808477297
 40
3.564849209292
100
AcDbArc
 50
-24.883536317616
 51
24.883536317615
  0
ARC
  5
114
100
AcDbEntity
  8
1
  6
CONTINUOUS
 62
           2
100
AcDbCircle
 10
164.618461548058
 20
63.67808477297
 40
67.806373326915
100
AcDbArc
 50
178.732410002594
 51
-178.732410002594
  0
ARC
  5
113
100
AcDbEntity
  8
1
  6
CONTINUOUS
 62
           2
100
AcDbCircle
 10
93.00745282922
 20
63.67808477297
 40
3.546423564479
100
AcDbArc
 50
-25.021689820634
 51
25.021689820634
  0
ARC
  5
112
100
AcDbEntity
  8
1
  6
CONTINUOUS
 62
           2
100
AcDbCircle
 10
139.999910817361
 20
63.67808477297
 40
43.804564091825
100
AcDbArc
 50
178.037636580969
 51
-178.037636580969
  0
ARC
  5
111
100
AcDbEntity
  8
1
  6
CONTINUOUS
 62
           2
100
AcDbCircle
 10
92.398679225387
 20
63.67808477297
 40
3.530509640761
100
AcDbArc
 50
-25.14229831064
 51
25.14229831064
  0
ARC
  5
110
100
AcDbEntity
  8
1
  6
CONTINUOUS
 62
           2
100
AcDbCircle
 10
127.934969508303
 20
63.67808477297
 40
32.375045058725
100
AcDbArc
 50
177.344422304671
 51
-177.344422304671
  0
ARC
  5
10F
100
AcDbEntity
  8
1
  6
CONTINUOUS
 62
           2
100
AcDbCircle
 10
91.768968626428
 20
63.67808477297
 40
3.517043914628
100
AcDbArc
 50
-25.245299168625
 51
25.24529916863
  0
ARC
  5
10E
100
AcDbEntity
  8
1
  6
CONTINUOUS
 62
           2
100
AcDbCircle
 10
120.601139261876
 20
63.67808477297
 40
25.694859534421
100
AcDbArc
 50
176.653316625579
 51
-176.653316625579
  0
ARC
  5
10D
100
AcDbEntity
  8
1
  6
CONTINUOUS
 62
           2
100
AcDbCircle
 10
91.118838159382
 20
63.67808477297
 40
3.505973186145
100
AcDbArc
 50
-25.330639154872
 51
25.330639154873
  0
ARC
  5
10C
100
AcDbEntity
  8
1
  6
CONTINUOUS
 62
           2
100
AcDbCircle
 10
115.551340521438
 20
63.67808477297
 40
21.316456484135
100
AcDbArc
 50
175.964866138765
 51
-175.964866138765
  0
ARC
  5
10B
100
AcDbEntity
  8
1
  6
CONTINUOUS
 62
           2
100
AcDbCircle
 10
90.448808113701
 20
63.67808477297
 40
3.497254094398
100
AcDbArc
 50
-25.39827432457
 51
25.398274324569
  0
ARC
  5
10A
100
AcDbEntity
  8
1
  6
CONTINUOUS
 62
           2
100
AcDbCircle
 10
111.77374955357
 20
63.67808477297
 40
18.227527892434
100
AcDbArc
 50
175.279613857382
 51
-175.279613857382
  0
ARC
  5
109
100
AcDbEntity
  8
1
  6
CONTINUOUS
 62
           2
100
AcDbCircle
 10
89.759401986877
 20
63.67808477297
 40
3.490852727858
100
AcDbArc
 50
-25.448169957084
 51
25.448169957084
  0
ARC
  5
108
100
AcDbEntity
  8
1
  6
CONTINUOUS
 62
           2
100
AcDbCircle
 10
108.77427601679
 20
63.67808477297
 40
15.933486681262
100
AcDbArc
 50
174.59809850289
 51
-174.59809850289
  0
ARC
  5
107
100
AcDbEntity
  8
1
  6
CONTINUOUS
 62
           2
100
AcDbCircle
 10
89.051146432704
 20
63.67808477297
 40
3.486744322978
100
AcDbArc
 50
-25.480300499328
 51
25.480300499328
  0
ARC
  5
106
100
AcDbEntity
  8
1
  6
CONTINUOUS
 62
           2
100
AcDbCircle
 10
106.283113291707
 20
63.67808477297
 40
14.164017398402
100
AcDbArc
 50
173.920853813494
 51
-173.920853813494
  0
ARC
  5
105
100
AcDbEntity
  8
1
  6
CONTINUOUS
 62
           2
100
AcDbCircle
 10
88.324571117501
 20
63.67808477297
 40
3.484913045948
100
AcDbArc
 50
-25.49464952369
 51
25.49464952369
  0
ARC
  5
104
100
AcDbEntity
  8
1
  6
CONTINUOUS
 62
           2
100
AcDbCircle
 10
104.140562026661
 20
63.67808477297
 40
12.758900130132
100
AcDbArc
 50
173.248407873555
 51
-173.248407873555
  0
ARC
  5
103
100
AcDbEntity
  8
1
  6
CONTINUOUS
 62
           2
100
AcDbCircle
 10
87.580208488198
 20
63.67808477297
 40
3.485351853986
100
AcDbArc
 50
-25.491209700779
 51
25.491209700779
  0
ARC
  5
102
100
AcDbEntity
  8
1
  6
CONTINUOUS
 62
           2
100
AcDbCircle
 10
102.246159994018
 20
63.67808477297
 40
11.617140733011
100
AcDbArc
 50
172.581282466506
 51
-172.581282466506
  0
ARC
  5
101
100
AcDbEntity
  8
1
  6
CONTINUOUS
 62
           2
100
AcDbCircle
 10
86.818593454859
 20
63.67808477297
 40
3.488062433832
100
AcDbArc
 50
-25.469982787248
 51
25.469982787248
  0
ARC
  5
100
100
AcDbEntity
  8
1
  6
CONTINUOUS
 62
           2
100
AcDbCircle
 10
100.533631325806
 20
63.67808477297
 40
10.671920453188
100
AcDbArc
 50
171.919992453658
 51
-171.919992453658
  0
ARC
  5
FF
100
AcDbEntity
  8
1
  6
CONTINUOUS
 62
           2
100
AcDbCircle
 10
86.040262988908
 20
63.67808477297
 40
3.493055216473
100
AcDbArc
 50
-25.430979628699
 51
25.430979628699
  0
ARC
  5
FE
100
AcDbEntity
  8
1
  6
CONTINUOUS
 62
           2
100
AcDbCircle
 10
98.957558608143
 20
63.67808477297
 40
9.877268412421
100
AcDbArc
 50
171.26504518102
 51
-171.26504518102
  0
ARC
  5
FD
100
AcDbEntity
  8
1
  6
CONTINUOUS
 62
           2
100
AcDbCircle
 10
85.24575563712
 20
63.67808477297
 40
3.500349468308
100
AcDbArc
 50
-25.37422017773
 51
25.37422017773
  0
ARC
  5
FC
100
AcDbEntity
  8
1
  6
CONTINUOUS
 62
           2
100
AcDbCircle
 10
97.485840616906
 20
63.67808477297
 40
9.200519742961
100
AcDbArc
 50
170.616939916074
 51
-170.616939916074
  0
ARC
  5
FB
100
AcDbEntity
  8
1
  6
CONTINUOUS
 62
           2
100
AcDbCircle
 10
84.435610950139
 20
63.67808477297
 40
3.509973460276
100
AcDbArc
 50
-25.299733526933
 51
25.299733526932
  0
ARC
  5
FA
100
AcDbEntity
  8
1
  6
CONTINUOUS
 62
           2
100
AcDbCircle
 10
96.095203172056
 20
63.67808477297
 40
8.617826848436
100
AcDbArc
 50
169.976167316159
 51
-169.976167316159
  0
ARC
  5
F9
100
AcDbEntity
  8
1
  6
CONTINUOUS
 62
           2
100
AcDbCircle
 10
83.610368823008
 20
63.67808477297
 40
3.521964717751
100
AcDbArc
 50
-25.207557956644
 51
25.207557956643
  0
ARC
  5
F8
100
AcDbEntity
  8
1
  6
CONTINUOUS
 62
           2
100
AcDbCircle
 10
94.768412281403
 20
63.67808477297
 40
8.11137296123
100
AcDbArc
 50
169.343208929924
 51
-169.343208929924
  0
ARC
  5
F7
100
AcDbEntity
  8
1
  6
CONTINUOUS
 62
           2
100
AcDbCircle
 10
82.77056874384
 20
63.67808477297
 40
3.53637035538
100
AcDbArc
 50
-25.097740997078
 51
25.097740997078
  0
ARC
  5
F6
100
AcDbEntity
  8
1
  6
CONTINUOUS
 62
           2
100
AcDbCircle
 10
93.492481182254
 20
63.67808477297
 40
7.667579604487
100
AcDbArc
 50
168.718536732984
 51
-168.718536732984
  0
ARC
  5
F5
100
AcDbEntity
  8
1
  6
CONTINUOUS
 62
           2
100
AcDbCircle
 10
81.91674894523
 20
63.67808477297
 40
3.553247502543
100
AcDbArc
 50
-24.970339504415
 51
24.970339504414
  0
ARC
  5
F4
100
AcDbEntity
  8
1
  6
CONTINUOUS
 62
           2
100
AcDbCircle
 10
92.257480887296
 20
63.67808477297
 40
7.275917564802
100
AcDbArc
 50
168.102612698738
 51
-168.102612698738
  0
ARC
  5
F3
100
AcDbEntity
  8
1
  6
CONTINUOUS
 62
           2
100
AcDbCircle
 10
81.049445451412
 20
63.67808477297
 40
3.572663826766
100
AcDbArc
 50
-24.825419750246
 51
24.825419750246
  0
ARC
  5
F2
100
AcDbEntity
  8
1
  6
CONTINUOUS
 62
           2
100
AcDbCircle
 10
91.055729778177
 20
63.67808477297
 40
6.92809691875
100
AcDbArc
 50
167.495888404975
 51
-167.495888404975
  0
ARC
  5
F1
100
AcDbEntity
  8
1
  6
CONTINUOUS
 62
           2
100
AcDbCircle
 10
80.169191012295
 20
63.67808477297
 40
3.594698164233
100
AcDbArc
 50
-24.663057523759
 51
24.663057523759
  0
ARC
  5
F0
100
AcDbEntity
  8
1
  6
CONTINUOUS
 62
           2
100
AcDbCircle
 10
89.88122838246
 20
63.67808477297
 40
6.617502248615
100
AcDbArc
 50
166.898804676691
 51
-166.898804676691
  0
ARC
  5
EF
100
AcDbEntity
  8
1
  6
CONTINUOUS
 62
           2
100
AcDbCircle
 10
86.478747956159
 20
63.67808477297
 40
5.860334884235
100
AcDbArc
 50
165.169637358708
 51
-165.169637358708
  0
ARC
  5
EE
100
AcDbEntity
  8
1
  6
CONTINUOUS
 62
           2
100
AcDbCircle
 10
77.455974437361
 20
63.67808477297
 40
3.677481816622
100
AcDbArc
 50
-24.072219138784
 51
24.072219138784
  0
ARC
  5
ED
100
AcDbEntity
  8
1
  6
CONTINUOUS
 62
           2
100
AcDbCircle
 10
87.596083292389
 20
63.67808477297
 40
6.087600085997
100
AcDbArc
 50
165.735266563817
 51
-165.735266563817
  0
ARC
  5
EC
100
AcDbEntity
  8
1
  6
CONTINUOUS
 62
           2
100
AcDbCircle
 10
78.371936648324
 20
63.67808477297
 40
3.646996692582
100
AcDbArc
 50
-24.286357094226
 51
24.286357094227
  0
ARC
  5
EB
100
AcDbEntity
  8
1
  6
CONTINUOUS
 62
           2
100
AcDbCircle
 10
88.729256903407
 20
63.67808477297
 40
6.338790616457
100
AcDbArc
 50
166.31179126525
 51
-166.31179126525
  0
ARC
  5
EA
100
AcDbEntity
  8
1
  6
CONTINUOUS
 62
           2
100
AcDbCircle
 10
79.276513913406
 20
63.67808477297
 40
3.619441268709
100
AcDbArc
 50
-24.483338245836
 51
24.483338245837
  0
ARC
  5
E9
100
AcDbEntity
  8
1
  6
CONTINUOUS
 62
           2
100
AcDbCircle
 10
94.139520232118
 20
63.67808477297
 40
3.604596123776
100
AcDbArc
 50
-24.677155667188
 51
24.590837528831
  0
ARC
  5
E8
100
AcDbEntity
  8
1
  6
CONTINUOUS
 62
           2
100
AcDbCircle
 10
94.695329024928
 20
63.674976610284
 40
3.620412090921
100
AcDbArc
 50
-24.459430925234
 51
24.530399701572
  0
ARC
  5
E7
100
AcDbEntity
  8
1
  6
CONTINUOUS
 62
           2
100
AcDbCircle
 10
95.117054146941
 20
63.67808477297
 40
3.749816661957
100
AcDbArc
 50
-23.579401087122
 51
23.579401087122
  0
ARC
  5
E6
100
AcDbEntity
  8
1
  6
CONTINUOUS
 62
           2
100
AcDbCircle
 10
95.512967496856
 20
63.67808477297
 40
3.886393884379
100
AcDbArc
 50
-22.703469693996
 51
22.703469693996
  0
ARC
  5
E5
100
AcDbEntity
  8
1
  6
CONTINUOUS
 62
           2
100
AcDbCircle
 10
95.873295748305
 20
63.67808477297
 40
4.037564339837
100
AcDbArc
 50
-21.808841425828
 51
21.808841425829
  0
ARC
  5
E4
100
AcDbEntity
  8
1
  6
CONTINUOUS
 62
           2
100
AcDbCircle
 10
96.195484445513
 20
63.67808477297
 40
4.205513536726
100
AcDbArc
 50
-20.896113764365
 51
20.896113764366
  0
ARC
  5
E3
100
AcDbEntity
  8
1
  6
CONTINUOUS
 62
           2
100
AcDbCircle
 10
96.476533708643
 20
63.67808477297
 40
4.392887815245
100
AcDbArc
 50
-19.965912957255
 51
19.965912957255
  0
ARC
  5
E2
100
AcDbEntity
  8
1
  6
CONTINUOUS
 62
           2
100
AcDbCircle
 10
96.712870569399
 20
63.67808477297
 40
4.602922266817
100
AcDbArc
 50
-19.018893981277
 51
19.018893981278
  0
ARC
  5
E1
100
AcDbEntity
  8
1
  6
CONTINUOUS
 62
           2
100
AcDbCircle
 10
96.900176141068
 20
63.67808477297
 40
4.839613807755
100
AcDbArc
 50
-18.055740372432
 51
18.055740372433
  0
ARC
  5
E0
100
AcDbEntity
  8
1
  6
CONTINUOUS
 62
           2
100
AcDbCircle
 10
97.033147868148
 20
63.67808477297
 40
5.107959161877
100
AcDbArc
 50
-17.077163917012
 51
17.077163917013
  0
ARC
  5
DF
100
AcDbEntity
  8
1
  6
CONTINUOUS
 62
           2
100
AcDbCircle
 10
97.105166564837
 20
63.67808477297
 40
5.414288042617
100
AcDbArc
 50
-16.083904198823
 51
16.083904198823
  0
ARC
  5
DE
100
AcDbEntity
  8
1
  6
CONTINUOUS
 62
           2
100
AcDbCircle
 10
97.107820642766
 20
63.67808477297
 40
5.766739134089
100
AcDbArc
 50
-15.076727998822
 51
15.076727998822
  0
ARC
  5
DD
100
AcDbEntity
  8
1
  6
CONTINUOUS
 62
           2
100
AcDbCircle
 10
97.030210636353
 20
63.67808477297
 40
6.175955762579
100
AcDbArc
 50
-14.056428544737
 51
14.056428544738
  0
ARC
  5
DC
100
AcDbEntity
  8
1
  6
CONTINUOUS
 62
           2
100
AcDbCircle
 10
96.857905873157
 20
63.67808477297
 40
6.65612941095
100
AcDbArc
 50
-13.023824609532
 51
13.023824609532
  0
ARC
  5
DB
100
AcDbEntity
  8
1
  6
CONTINUOUS
 62
           2
100
AcDbCircle
 10
96.571331934794
 20
63.67808477297
 40
7.22661243025
100
AcDbArc
 50
-11.979759459062
 51
11.979759459062
  0
ARC
  5
DA
100
AcDbEntity
  8
1
  6
CONTINUOUS
 62
           2
100
AcDbCircle
 10
96.143190470494
 20
63.67808477297
 40
7.91449838633
100
AcDbArc
 50
-10.925099650771
 51
10.925099650771
  0
ARC
  5
D9
100
AcDbEntity
  8
1
  6
CONTINUOUS
 62
           2
100
AcDbCircle
 10
95.534158758454
 20
63.67808477297
 40
8.758922646205
100
AcDbArc
 50
-9.860733686813
 51
9.860733686813
  0
ARC
  5
D8
100
AcDbEntity
  8
1
  6
CONTINUOUS
 62
           2
100
AcDbCircle
 10
94.685363805367
 20
63.67808477297
 40
9.81858841366
100
AcDbArc
 50
-8.787570526605
 51
8.787570526605
  0
ARC
  5
D7
100
AcDbEntity
  8
1
  6
CONTINUOUS
 62
           2
100
AcDbCircle
 10
93.504405535048
 20
63.67808477297
 40
11.185743663087
100
AcDbArc
 50
-7.706537965358
 51
7.706537965358
  0
ARC
  5
D6
100
AcDbEntity
  8
1
  6
CONTINUOUS
 62
           2
100
AcDbCircle
 10
91.837403018404
 20
63.67808477297
 40
13.014135019229
100
AcDbArc
 50
-6.618580886742
 51
6.618580886742
  0
ARC
  5
D5
100
AcDbEntity
  8
1
  6
CONTINUOUS
 62
           2
100
AcDbCircle
 10
86.27897832415
 20
63.67808477297
 40
18.718020116969
100
AcDbArc
 50
-4.596422182699
 51
4.596422182699
  0
LINE
  5
D4
100
AcDbEntity
  8
1
  6
CONTINUOUS
 62
           7
100
AcDbLine
 10
62.796799126678
 20
-49.856844781895
 11
77.796799126678
 21
-49.856844781895
  0
LINE
  5
D3
100
AcDbEntity
  8
1
  6
CONTINUOUS
 62
           7
100
AcDbLine
 10
43.14728007384
 20
-36.106844781895
 11
43.14728007384
 21
-51.606844781895
  0
LINE
  5
D2
100
AcDbEntity
  8
1
  6
CONTINUOUS
 62
           7
100
AcDbLine
 10
55.64728007384
 20
-36.106844781895
 11
55.64728007384
 21
-51.606844781895
  0
LINE
  5
D1
100
AcDbEntity
  8
1
  6
CONTINUOUS
 62
           7
100
AcDbLine
 10
42.64728007384
 20
-36.606844781895
 11
42.64728007384
 21
-43.856844781895
  0
LINE
  5
D0
100
AcDbEntity
  8
1
  6
CONTINUOUS
 62
           7
100
AcDbLine
 10
43.14728007384
 20
-36.106844781895
 11
55.64728007384
 21
-36.106844781895
  0
LINE
  5
CF
100
AcDbEntity
  8
1
  6
CONTINUOUS
 62
           7
100
AcDbLine
 10
46.89728007384
 20
-29.856844781895
 11
51.89728007384
 21
-29.856844781895
  0
LINE
  5
CE
100
AcDbEntity
  8
1
  6
CONTINUOUS
 62
           7
100
AcDbLine
 10
43.14728007384
 20
-36.106844781895
 11
42.64728007384
 21
-36.606844781895
  0
LINE
  5
CD
100
AcDbEntity
  8
1
  6
CONTINUOUS
 62
           7
100
AcDbLine
 10
56.14728007384
 20
-36.606844781895
 11
55.64728007384
 21
-36.106844781895
  0
LINE
  5
CC
100
AcDbEntity
  8
1
  6
CONTINUOUS
 62
           7
100
AcDbLine
 10
56.14728007384
 20
-36.606844781895
 11
55.64728007384
 21
-36.106844781895
  0
LINE
  5
CB
100
AcDbEntity
  8
1
  6
CONTINUOUS
 62
           7
100
AcDbLine
 10
56.14728007384
 20
-36.606844781895
 11
55.64728007384
 21
-36.106844781895
  0
LINE
  5
CA
100
AcDbEntity
  8
1
  6
CONTINUOUS
 62
           7
100
AcDbLine
 10
56.14728007384
 20
-43.856844781895
 11
56.14728007384
 21
-36.606844781895
  0
LINE
  5
C9
100
AcDbEntity
  8
1
  6
CONTINUOUS
 62
           7
100
AcDbLine
 10
56.14728007384
 20
-51.106844781895
 11
56.14728007384
 21
-43.856844781895
  0
LINE
  5
C8
100
AcDbEntity
  8
1
  6
CONTINUOUS
 62
           7
100
AcDbLine
 10
55.64728007384
 20
-51.606844781895
 11
56.14728007384
 21
-51.106844781895
  0
LINE
  5
C7
100
AcDbEntity
  8
1
  6
CONTINUOUS
 62
           7
100
AcDbLine
 10
55.64728007384
 20
-51.606844781895
 11
56.14728007384
 21
-51.106844781895
  0
LINE
  5
C6
100
AcDbEntity
  8
1
  6
CONTINUOUS
 62
           7
100
AcDbLine
 10
55.64728007384
 20
-51.606844781895
 11
56.14728007384
 21
-51.106844781895
  0
LINE
  5
C5
100
AcDbEntity
  8
1
  6
CONTINUOUS
 62
           7
100
AcDbLine
 10
42.64728007384
 20
-51.106844781895
 11
43.14728007384
 21
-51.606844781895
  0
LINE
  5
C4
100
AcDbEntity
  8
1
  6
CONTINUOUS
 62
           7
100
AcDbLine
 10
51.89728007384
 20
-57.856844781895
 11
46.89728007384
 21
-57.856844781895
  0
LINE
  5
C3
100
AcDbEntity
  8
1
  6
CONTINUOUS
 62
           7
100
AcDbLine
 10
55.64728007384
 20
-51.606844781895
 11
43.14728007384
 21
-51.606844781895
  0
LINE
  5
C2
100
AcDbEntity
  8
1
  6
CONTINUOUS
 62
           7
100
AcDbLine
 10
42.64728007384
 20
-43.856844781895
 11
42.64728007384
 21
-51.106844781895
  0
LINE
  5
C1
100
AcDbEntity
  8
1
  6
CONTINUOUS
 62
           7
100
AcDbLine
 10
56.14728007384
 20
-48.156844781895
 11
62.14728007384
 21
-48.156844781895
  0
LINE
  5
C0
100
AcDbEntity
  8
1
  6
CONTINUOUS
 62
           7
100
AcDbLine
 10
62.796799126678
 20
-39.856844781895
 11
62.14728007384
 21
-39.856844781895
  0
LINE
  5
BF
100
AcDbEntity
  8
1
  6
CONTINUOUS
 62
           7
100
AcDbLine
 10
62.14728007384
 20
-48.156844781895
 11
62.14728007384
 21
-39.556844781895
  0
LINE
  5
BE
100
AcDbEntity
  8
1
  6
CONTINUOUS
 62
           7
100
AcDbLine
 10
62.14728007384
 20
-39.556844781895
 11
56.14728007384
 21
-39.556844781895
  0
LINE
  5
BD
100
AcDbEntity
  8
1
  6
CONTINUOUS
 62
           2
100
AcDbLine
 10
62.14728007384
 20
-39.856844781895
 11
62.796799126678
 21
-40.231844781895
  0
LINE
  5
BC
100
AcDbEntity
  8
1
  6
DOT_CENTER
 62
           2
100
AcDbLine
 10
81.026793249178
 20
-43.856844781895
 11
39.978506509642
 21
-43.856844781895
  0
LINE
  5
BB
100
AcDbEntity
  8
1
  6
CONTINUOUS
 62
           2
100
AcDbLine
 10
62.796799126678
 20
-47.481844781895
 11
62.14728007384
 21
-47.856844781895
  0
LINE
  5
BA
100
AcDbEntity
  8
1
  6
CONTINUOUS
 62
           7
100
AcDbLine
 10
62.14728007384
 20
-47.856844781895
 11
62.796799126678
 21
-47.856844781895
  0
LINE
  5
B9
100
AcDbEntity
  8
1
  6
CONTINUOUS
 62
           7
100
AcDbLine
 10
62.796799126678
 20
-49.856844781895
 11
62.796799126678
 21
-30.356844781895
  0
LINE
  5
B8
100
AcDbEntity
  8
1
  6
CONTINUOUS
 62
           7
100
AcDbLine
 10
76.796799126678
 20
-50.856844781895
 11
70.296799126678
 21
-50.856844781895
  0
LINE
  5
B7
100
AcDbEntity
  8
1
  6
CONTINUOUS
 62
           7
100
AcDbLine
 10
77.796799126678
 20
-30.356844781895
 11
77.796799126678
 21
-49.856844781895
  0
LINE
  5
B6
100
AcDbEntity
  8
1
  6
CONTINUOUS
 62
           7
100
AcDbLine
 10
62.796799126678
 20
-30.356844781895
 11
77.796799126678
 21
-30.356844781895
  0
LINE
  5
B5
100
AcDbEntity
  8
1
  6
CONTINUOUS
 62
           7
100
AcDbLine
 10
70.296799126678
 20
-50.856844781895
 11
63.796799126678
 21
-50.856844781895
  0
LINE
  5
B4
100
AcDbEntity
  8
1
  6
CONTINUOUS
 62
           7
100
AcDbLine
 10
76.796799126678
 20
-50.856844781895
 11
77.796799126678
 21
-49.856844781895
  0
LINE
  5
B3
100
AcDbEntity
  8
1
  6
CONTINUOUS
 62
           7
100
AcDbLine
 10
62.796799126678
 20
-49.856844781895
 11
63.796799126678
 21
-50.856844781895
  0
LINE
  5
B2
100
AcDbEntity
  8
1
  6
CONTINUOUS
 62
           7
100
AcDbLine
 10
70.296799126678
 20
59.888663722525
 11
37.796799126678
 21
59.888663722525
  0
LINE
  5
B1
100
AcDbEntity
  8
1
  6
CONTINUOUS
 62
           7
100
AcDbLine
 10
38.296799126678
 20
67.888663722525
 11
70.296799126678
 21
67.888663722525
  0
LINE
  5
B0
100
AcDbEntity
  8
1
  6
CONTINUOUS
 62
           2
100
AcDbLine
 10
35.325198421188
 20
65.17808477297
 11
35.325198421188
 21
62.0129112074
  0
LINE
  5
AF
100
AcDbEntity
  8
1
  6
CONTINUOUS
 62
           2
100
AcDbLine
 10
35.375667088836
 20
61.765671222301
 11
35.375667088836
 21
65.17808477297
  0
LINE
  5
AE
100
AcDbEntity
  8
1
  6
CONTINUOUS
 62
           2
100
AcDbLine
 10
35.451324582826
 20
62.605221394675
 11
35.451324582826
 21
65.17808477297
  0
LINE
  5
AD
100
AcDbEntity
  8
1
  6
CONTINUOUS
 62
           2
100
AcDbLine
 10
35.552116330943
 20
65.17808477297
 11
35.552116330943
 21
62.369888534727
  0
LINE
  5
AC
100
AcDbEntity
  8
1
  6
CONTINUOUS
 62
           2
100
AcDbLine
 10
35.677969631484
 20
65.17808477297
 11
35.677969631484
 21
62.17808477297
  0
LINE
  5
AB
100
AcDbEntity
  8
1
  6
CONTINUOUS
 62
           2
100
AcDbLine
 10
35.828793705692
 20
65.17808477297
 11
35.828793705692
 21
62.17808477297
  0
LINE
  5
AA
100
AcDbEntity
  8
1
  6
CONTINUOUS
 62
           2
100
AcDbLine
 10
36.004479763238
 20
65.17808477297
 11
36.004479763238
 21
62.17808477297
  0
LINE
  5
A9
100
AcDbEntity
  8
1
  6
CONTINUOUS
 62
           2
100
AcDbLine
 10
36.204901080694
 20
65.17808477297
 11
36.204901080694
 21
62.17808477297
  0
LINE
  5
A8
100
AcDbEntity
  8
1
  6
CONTINUOUS
 62
           2
100
AcDbLine
 10
36.429913092937
 20
65.17808477297
 11
36.429913092937
 21
62.17808477297
  0
LINE
  5
A7
100
AcDbEntity
  8
1
  6
CONTINUOUS
 62
           2
100
AcDbLine
 10
36.679353497424
 20
65.17808477297
 11
36.679353497424
 21
62.17808477297
  0
LINE
  5
A6
100
AcDbEntity
  8
1
  6
CONTINUOUS
 62
           2
100
AcDbLine
 10
36.953042371265
 20
65.17808477297
 11
36.953042371265
 21
62.17808477297
  0
LINE
  5
A5
100
AcDbEntity
  8
1
  6
CONTINUOUS
 62
           2
100
AcDbLine
 10
37.250782300999
 20
62.17808477297
 11
37.250782300999
 21
65.17808477297
  0
LINE
  5
A4
100
AcDbEntity
  8
1
  6
CONTINUOUS
 62
           2
100
AcDbLine
 10
37.572358524991
 20
62.17808477297
 11
37.572358524991
 21
65.17808477297
  0
LINE
  5
A3
100
AcDbEntity
  8
1
  6
CONTINUOUS
 62
           2
100
AcDbLine
 10
37.917539088344
 20
62.17808477297
 11
37.917539088344
 21
65.17808477297
  0
LINE
  5
A2
100
AcDbEntity
  8
1
  6
CONTINUOUS
 62
           2
100
AcDbLine
 10
38.286075010202
 20
62.17808477297
 11
38.286075010202
 21
65.17808477297
  0
LINE
  5
A1
100
AcDbEntity
  8
1
  6
CONTINUOUS
 62
           2
100
AcDbLine
 10
38.67770046335
 20
62.17808477297
 11
38.67770046335
 21
65.17808477297
  0
LINE
  5
A0
100
AcDbEntity
  8
1
  6
CONTINUOUS
 62
           2
100
AcDbLine
 10
39.092132965949
 20
62.17808477297
 11
39.092132965949
 21
65.17808477297
  0
LINE
  5
9F
100
AcDbEntity
  8
1
  6
CONTINUOUS
 62
           2
100
AcDbLine
 10
39.5290735853
 20
62.17808477297
 11
39.5290735853
 21
65.17808477297
  0
LINE
  5
9E
100
AcDbEntity
  8
1
  6
CONTINUOUS
 62
           2
100
AcDbLine
 10
39.988207153457
 20
62.17808477297
 11
39.988207153457
 21
65.17808477297
  0
LINE
  5
9D
100
AcDbEntity
  8
1
  6
CONTINUOUS
 62
           2
100
AcDbLine
 10
40.469202494568
 20
62.17808477297
 11
40.469202494568
 21
65.17808477297
  0
LINE
  5
9C
100
AcDbEntity
  8
1
  6
CONTINUOUS
 62
           2
100
AcDbLine
 10
40.971712663747
 20
62.17808477297
 11
40.971712663747
 21
65.17808477297
  0
LINE
  5
9B
100
AcDbEntity
  8
1
  6
CONTINUOUS
 62
           2
100
AcDbLine
 10
41.495375197333
 20
62.17808477297
 11
41.495375197333
 21
65.17808477297
  0
LINE
  5
9A
100
AcDbEntity
  8
1
  6
CONTINUOUS
 62
           2
100
AcDbLine
 10
42.039812374335
 20
62.17808477297
 11
42.039812374335
 21
65.17808477297
  0
LINE
  5
99
100
AcDbEntity
  8
1
  6
CONTINUOUS
 62
           2
100
AcDbLine
 10
42.607463766451
 20
62.17808477297
 11
42.604631488883
 21
65.171868447599
  0
LINE
  5
98
100
AcDbEntity
  8
1
  6
CONTINUOUS
 62
           2
100
AcDbLine
 10
43.189425133492
 20
62.17808477297
 11
43.176409152127
 21
65.17808477297
  0
LINE
  5
97
100
AcDbEntity
  8
1
  6
CONTINUOUS
 62
           2
100
AcDbLine
 10
43.764916641134
 20
62.17808477297
 11
43.764916641134
 21
65.17808477297
  0
LINE
  5
96
100
AcDbEntity
  8
1
  6
CONTINUOUS
 62
           2
100
AcDbLine
 10
44.372561739418
 20
65.17808477297
 11
44.372561739418
 21
62.17808477297
  0
LINE
  5
95
100
AcDbEntity
  8
1
  6
CONTINUOUS
 62
           2
100
AcDbLine
 10
44.998906148849
 20
62.17808477297
 11
44.998906148849
 21
65.17808477297
  0
LINE
  5
94
100
AcDbEntity
  8
1
  6
CONTINUOUS
 62
           2
100
AcDbLine
 10
45.64349808337
 20
65.17808477297
 11
45.64349808337
 21
62.17808477297
  0
LINE
  5
93
100
AcDbEntity
  8
1
  6
CONTINUOUS
 62
           2
100
AcDbLine
 10
46.278218882687
 20
62.23732498811
 11
46.305872594872
 21
65.17808477297
  0
LINE
  5
92
100
AcDbEntity
  8
1
  6
CONTINUOUS
 62
           2
100
AcDbLine
 10
46.985551908565
 20
65.17808477297
 11
46.985551908565
 21
62.246598765098
  0
LINE
  5
91
100
AcDbEntity
  8
1
  6
CONTINUOUS
 62
           2
100
AcDbLine
 10
47.682045767599
 20
62.17808477297
 11
47.682045767599
 21
65.17808477297
  0
LINE
  5
90
100
AcDbEntity
  8
1
  6
CONTINUOUS
 62
           2
100
AcDbLine
 10
48.394851786687
 20
65.17808477297
 11
48.394851786687
 21
62.17808477297
  0
LINE
  5
8F
100
AcDbEntity
  8
1
  6
CONTINUOUS
 62
           2
100
AcDbLine
 10
49.123455814486
 20
62.17808477297
 11
49.123455814486
 21
65.17808477297
  0
LINE
  5
8E
100
AcDbEntity
  8
1
  6
CONTINUOUS
 62
           2
100
AcDbLine
 10
49.867332304449
 20
65.17808477297
 11
49.867332304449
 21
62.17808477297
  0
LINE
  5
8D
100
AcDbEntity
  8
1
  6
CONTINUOUS
 62
           2
100
AcDbLine
 10
50.625944693908
 20
62.17808477297
 11
50.625944693908
 21
65.17808477297
  0
LINE
  5
8C
100
AcDbEntity
  8
1
  6
CONTINUOUS
 62
           2
100
AcDbLine
 10
51.398745791104
 20
65.17808477297
 11
51.398745791104
 21
62.17808477297
  0
LINE
  5
8B
100
AcDbEntity
  8
1
  6
CONTINUOUS
 62
           2
100
AcDbLine
 10
52.185178169874
 20
65.17808477297
 11
52.148891177658
 21
62.256010078724
  0
LINE
  5
8A
100
AcDbEntity
  8
1
  6
CONTINUOUS
 62
           2
100
AcDbLine
 10
52.984674571727
 20
65.17808477297
 11
52.984674571727
 21
62.17808477297
  0
LINE
  5
89
100
AcDbEntity
  8
1
  6
CONTINUOUS
 62
           2
100
AcDbLine
 10
53.796658315013
 20
65.17808477297
 11
53.796658315013
 21
62.17808477297
  0
LINE
  5
88
100
AcDbEntity
  8
1
  6
CONTINUOUS
 62
           2
100
AcDbLine
 10
54.620543710889
 20
62.17808477297
 11
54.620543710889
 21
65.17808477297
  0
LINE
  5
87
100
AcDbEntity
  8
1
  6
CONTINUOUS
 62
           2
100
AcDbLine
 10
55.455736485773
 20
65.17808477297
 11
55.455736485773
 21
62.17808477297
  0
LINE
  5
86
100
AcDbEntity
  8
1
  6
CONTINUOUS
 62
           2
100
AcDbLine
 10
58.023096620236
 20
65.17808477297
 11
57.999128183137
 21
62.231373655058
  0
LINE
  5
85
100
AcDbEntity
  8
1
  6
CONTINUOUS
 62
           2
100
AcDbLine
 10
58.89741960486
 20
62.17808477297
 11
58.89741960486
 21
65.17808477297
  0
LINE
  5
84
100
AcDbEntity
  8
1
  6
CONTINUOUS
 62
           2
100
AcDbLine
 10
59.779965031726
 20
65.17808477297
 11
59.779965031726
 21
62.17808477297
  0
LINE
  5
83
100
AcDbEntity
  8
1
  6
CONTINUOUS
 62
           2
100
AcDbLine
 10
57.157626732374
 20
62.17808477297
 11
57.157626732374
 21
65.17808477297
  0
LINE
  5
82
100
AcDbEntity
  8
1
  6
CONTINUOUS
 62
           2
100
AcDbLine
 10
56.301634210004
 20
65.17808477297
 11
56.301634210004
 21
62.17808477297
  0
LINE
  5
81
100
AcDbEntity
  8
1
  6
CONTINUOUS
 62
           2
100
AcDbLine
 10
60.670096315414
 20
65.17808477297
 11
60.670096315414
 21
62.17808477297
  0
LINE
  5
80
100
AcDbEntity
  8
1
  6
CONTINUOUS
 62
           2
100
AcDbLine
 10
61.567171398778
 20
65.17808477297
 11
61.567171398778
 21
62.17808477297
  0
LINE
  5
7F
100
AcDbEntity
  8
1
  6
CONTINUOUS
 62
           2
100
AcDbLine
 10
62.470543216069
 20
65.17808477297
 11
62.470543216069
 21
62.17808477297
  0
LINE
  5
7E
100
AcDbEntity
  8
1
  6
CONTINUOUS
 62
           2
100
AcDbLine
 10
63.379560159664
 20
65.17808477297
 11
63.379560159664
 21
62.17808477297
  0
LINE
  5
7D
100
AcDbEntity
  8
1
  6
CONTINUOUS
 62
           2
100
AcDbLine
 10
64.293566550076
 20
65.17808477297
 11
64.293566550076
 21
62.17808477297
  0
LINE
  5
7C
100
AcDbEntity
  8
1
  6
CONTINUOUS
 62
           2
100
AcDbLine
 10
65.211903108901
 20
65.17808477297
 11
65.211903108901
 21
62.17808477297
  0
LINE
  5
7B
100
AcDbEntity
  8
1
  6
CONTINUOUS
 62
           2
100
AcDbLine
 10
66.133907434355
 20
65.17808477297
 11
66.133907434355
 21
62.17808477297
  0
LINE
  5
7A
100
AcDbEntity
  8
1
  6
CONTINUOUS
 62
           2
100
AcDbLine
 10
67.058914479074
 20
65.17808477297
 11
67.058914479074
 21
62.17808477297
  0
LINE
  5
79
100
AcDbEntity
  8
1
  6
CONTINUOUS
 62
           2
100
AcDbLine
 10
67.986257029813
 20
65.17808477297
 11
67.986257029813
 21
62.17808477297
  0
LINE
  5
78
100
AcDbEntity
  8
1
  6
CONTINUOUS
 62
           2
100
AcDbLine
 10
68.915266188713
 20
65.17808477297
 11
68.915266188713
 21
62.17808477297
  0
LINE
  5
77
100
AcDbEntity
  8
1
  6
CONTINUOUS
 62
           2
100
AcDbLine
 10
69.845271855779
 20
65.17808477297
 11
69.845271855779
 21
62.17808477297
  0
LINE
  5
76
100
AcDbEntity
  8
1
  6
CONTINUOUS
 62
           7
100
AcDbLine
 10
35.296799126678
 20
64.888663722525
 11
35.296799126678
 21
62.388663722525
  0
LINE
  5
75
100
AcDbEntity
  8
1
  6
CONTINUOUS
 62
           7
100
AcDbLine
 10
37.796799126678
 20
59.888663722525
 11
37.996799126678
 21
57.488663722525
  0
LINE
  5
74
100
AcDbEntity
  8
1
  6
CONTINUOUS
 62
           7
100
AcDbLine
 10
70.296799126678
 20
69.888663722525
 11
40.296799126678
 21
69.888663722525
  0
LINE
  5
73
100
AcDbEntity
  8
1
  6
CONTINUOUS
 62
           7
100
AcDbLine
 10
100.296799126678
 20
69.888663722525
 11
70.296799126678
 21
69.888663722525
  0
LINE
  5
72
100
AcDbEntity
  8
1
  6
CONTINUOUS
 62
           7
100
AcDbLine
 10
102.596799126678
 20
57.488663722525
 11
102.796799126678
 21
59.888663722525
  0
LINE
  5
71
100
AcDbEntity
  8
1
  6
CONTINUOUS
 62
           7
100
AcDbLine
 10
105.296799126678
 20
62.388663722525
 11
105.296799126678
 21
64.888663722525
  0
LINE
  5
70
100
AcDbEntity
  8
1
  6
CONTINUOUS
 62
           2
100
AcDbLine
 10
70.748326397577
 20
62.17808477297
 11
70.748326397577
 21
65.17808477297
  0
LINE
  5
6F
100
AcDbEntity
  8
1
  6
CONTINUOUS
 62
           2
100
AcDbLine
 10
71.678332064644
 20
62.17808477297
 11
71.678332064644
 21
65.17808477297
  0
LINE
  5
6E
100
AcDbEntity
  8
1
  6
CONTINUOUS
 62
           2
100
AcDbLine
 10
72.607341223543
 20
62.17808477297
 11
72.607341223543
 21
65.17808477297
  0
LINE
  5
6D
100
AcDbEntity
  8
1
  6
CONTINUOUS
 62
           2
100
AcDbLine
 10
73.534683774282
 20
62.17808477297
 11
73.534683774282
 21
65.17808477297
  0
LINE
  5
6C
100
AcDbEntity
  8
1
  6
CONTINUOUS
 62
           2
100
AcDbLine
 10
74.459690819001
 20
62.17808477297
 11
74.459690819001
 21
65.17808477297
  0
LINE
  5
6B
100
AcDbEntity
  8
1
  6
CONTINUOUS
 62
           2
100
AcDbLine
 10
75.381695144455
 20
62.17808477297
 11
75.381695144455
 21
65.17808477297
  0
LINE
  5
6A
100
AcDbEntity
  8
1
  6
CONTINUOUS
 62
           2
100
AcDbLine
 10
76.30003170328
 20
62.17808477297
 11
76.30003170328
 21
65.17808477297
  0
LINE
  5
69
100
AcDbEntity
  8
1
  6
CONTINUOUS
 62
           2
100
AcDbLine
 10
77.214038093692
 20
62.17808477297
 11
77.214038093692
 21
65.17808477297
  0
LINE
  5
68
100
AcDbEntity
  8
1
  6
CONTINUOUS
 62
           2
100
AcDbLine
 10
78.123055037287
 20
62.17808477297
 11
78.123055037287
 21
65.17808477297
  0
LINE
  5
67
100
AcDbEntity
  8
1
  6
CONTINUOUS
 62
           2
100
AcDbLine
 10
79.026426854578
 20
62.17808477297
 11
79.026426854578
 21
65.17808477297
  0
LINE
  5
66
100
AcDbEntity
  8
1
  6
CONTINUOUS
 62
           2
100
AcDbLine
 10
79.923501937943
 20
62.17808477297
 11
79.923501937943
 21
65.17808477297
  0
LINE
  5
65
100
AcDbEntity
  8
1
  6
CONTINUOUS
 62
           2
100
AcDbLine
 10
84.291964043352
 20
62.17808477297
 11
84.291964043352
 21
65.17808477297
  0
LINE
  5
64
100
AcDbEntity
  8
1
  6
CONTINUOUS
 62
           2
100
AcDbLine
 10
83.435971520982
 20
65.17808477297
 11
83.435971520982
 21
62.17808477297
  0
LINE
  5
63
100
AcDbEntity
  8
1
  6
CONTINUOUS
 62
           2
100
AcDbLine
 10
80.81363322163
 20
62.17808477297
 11
80.81363322163
 21
65.17808477297
  0
LINE
  5
62
100
AcDbEntity
  8
1
  6
CONTINUOUS
 62
           2
100
AcDbLine
 10
81.696178648496
 20
65.17808477297
 11
81.696178648496
 21
62.17808477297
  0
LINE
  5
61
100
AcDbEntity
  8
1
  6
CONTINUOUS
 62
           2
100
AcDbLine
 10
82.594470070219
 20
62.231373655058
 11
82.570501633121
 21
65.17808477297
  0
LINE
  5
60
100
AcDbEntity
  8
1
  6
CONTINUOUS
 62
           2
100
AcDbLine
 10
85.137861767583
 20
62.17808477297
 11
85.137861767583
 21
65.17808477297
  0
LINE
  5
5F
100
AcDbEntity
  8
1
  6
CONTINUOUS
 62
           2
100
AcDbLine
 10
85.973054542467
 20
65.17808477297
 11
85.973054542467
 21
62.17808477297
  0
LINE
  5
5E
100
AcDbEntity
  8
1
  6
CONTINUOUS
 62
           2
100
AcDbLine
 10
86.796939938343
 20
62.17808477297
 11
86.796939938343
 21
65.17808477297
  0
LINE
  5
5D
100
AcDbEntity
  8
1
  6
CONTINUOUS
 62
           2
100
AcDbLine
 10
87.60892368163
 20
62.17808477297
 11
87.60892368163
 21
65.17808477297
  0
LINE
  5
5C
100
AcDbEntity
  8
1
  6
CONTINUOUS
 62
           2
100
AcDbLine
 10
88.444707075698
 20
62.256010078724
 11
88.408420083483
 21
65.17808477297
  0
LINE
  5
5B
100
AcDbEntity
  8
1
  6
CONTINUOUS
 62
           2
100
AcDbLine
 10
89.194852462252
 20
62.17808477297
 11
89.194852462252
 21
65.17808477297
  0
LINE
  5
5A
100
AcDbEntity
  8
1
  6
CONTINUOUS
 62
           2
100
AcDbLine
 10
89.967653559448
 20
65.17808477297
 11
89.967653559448
 21
62.17808477297
  0
LINE
  5
59
100
AcDbEntity
  8
1
  6
CONTINUOUS
 62
           2
100
AcDbLine
 10
90.726265948908
 20
62.17808477297
 11
90.726265948908
 21
65.17808477297
  0
LINE
  5
58
100
AcDbEntity
  8
1
  6
CONTINUOUS
 62
           2
100
AcDbLine
 10
91.47014243887
 20
65.17808477297
 11
91.47014243887
 21
62.17808477297
  0
LINE
  5
57
100
AcDbEntity
  8
1
  6
CONTINUOUS
 62
           2
100
AcDbLine
 10
92.198746466669
 20
62.17808477297
 11
92.198746466669
 21
65.17808477297
  0
LINE
  5
56
100
AcDbEntity
  8
1
  6
CONTINUOUS
 62
           2
100
AcDbLine
 10
92.911552485758
 20
65.17808477297
 11
92.911552485758
 21
62.17808477297
  0
LINE
  5
55
100
AcDbEntity
  8
1
  6
CONTINUOUS
 62
           2
100
AcDbLine
 10
93.608046344791
 20
62.246598765098
 11
93.608046344791
 21
65.17808477297
  0
LINE
  5
54
100
AcDbEntity
  8
1
  6
CONTINUOUS
 62
           2
100
AcDbLine
 10
94.287725658484
 20
65.17808477297
 11
94.31537937067
 21
62.23732498811
  0
LINE
  5
53
100
AcDbEntity
  8
1
  6
CONTINUOUS
 62
           2
100
AcDbLine
 10
94.950100169986
 20
62.17808477297
 11
94.950100169986
 21
65.17808477297
  0
LINE
  5
52
100
AcDbEntity
  8
1
  6
CONTINUOUS
 62
           2
100
AcDbLine
 10
95.594692104507
 20
65.17808477297
 11
95.594692104507
 21
62.17808477297
  0
LINE
  5
51
100
AcDbEntity
  8
1
  6
CONTINUOUS
 62
           2
100
AcDbLine
 10
96.221036513939
 20
62.17808477297
 11
96.221036513939
 21
65.17808477297
  0
LINE
  5
50
100
AcDbEntity
  8
1
  6
CONTINUOUS
 62
           2
100
AcDbLine
 10
96.828681612223
 20
65.17808477297
 11
96.828681612223
 21
62.17808477297
  0
LINE
  5
4F
100
AcDbEntity
  8
1
  6
CONTINUOUS
 62
           2
100
AcDbLine
 10
97.41718910123
 20
65.17808477297
 11
97.404173119864
 21
62.17808477297
  0
LINE
  5
4E
100
AcDbEntity
  8
1
  6
CONTINUOUS
 62
           2
100
AcDbLine
 10
97.988966764473
 20
65.171868447599
 11
97.986134486905
 21
62.17808477297
  0
LINE
  5
4D
100
AcDbEntity
  8
1
  6
CONTINUOUS
 62
           2
100
AcDbLine
 10
98.553785879022
 20
65.17808477297
 11
98.553785879022
 21
62.17808477297
  0
LINE
  5
4C
100
AcDbEntity
  8
1
  6
CONTINUOUS
 62
           2
100
AcDbLine
 10
99.098223056023
 20
65.17808477297
 11
99.098223056023
 21
62.17808477297
  0
LINE
  5
4B
100
AcDbEntity
  8
1
  6
CONTINUOUS
 62
           2
100
AcDbLine
 10
99.621885589609
 20
65.17808477297
 11
99.621885589609
 21
62.17808477297
  0
LINE
  5
4A
100
AcDbEntity
  8
1
  6
CONTINUOUS
 62
           2
100
AcDbLine
 10
100.124395758788
 20
65.17808477297
 11
100.124395758788
 21
62.17808477297
  0
LINE
  5
49
100
AcDbEntity
  8
1
  6
CONTINUOUS
 62
           2
100
AcDbLine
 10
100.605391099899
 20
65.17808477297
 11
100.605391099899
 21
62.17808477297
  0
LINE
  5
48
100
AcDbEntity
  8
1
  6
CONTINUOUS
 62
           2
100
AcDbLine
 10
101.064524668056
 20
65.17808477297
 11
101.064524668056
 21
62.17808477297
  0
LINE
  5
47
100
AcDbEntity
  8
1
  6
CONTINUOUS
 62
           2
100
AcDbLine
 10
101.501465287407
 20
65.17808477297
 11
101.501465287407
 21
62.17808477297
  0
LINE
  5
46
100
AcDbEntity
  8
1
  6
CONTINUOUS
 62
           2
100
AcDbLine
 10
101.915897790007
 20
65.17808477297
 11
101.915897790007
 21
62.17808477297
  0
LINE
  5
45
100
AcDbEntity
  8
1
  6
CONTINUOUS
 62
           2
100
AcDbLine
 10
102.307523243154
 20
65.17808477297
 11
102.307523243154
 21
62.17808477297
  0
LINE
  5
44
100
AcDbEntity
  8
1
  6
CONTINUOUS
 62
           2
100
AcDbLine
 10
102.676059165013
 20
65.17808477297
 11
102.676059165013
 21
62.17808477297
  0
LINE
  5
43
100
AcDbEntity
  8
1
  6
CONTINUOUS
 62
           2
100
AcDbLine
 10
103.021239728365
 20
65.17808477297
 11
103.021239728365
 21
62.17808477297
  0
LINE
  5
42
100
AcDbEntity
  8
1
  6
CONTINUOUS
 62
           2
100
AcDbLine
 10
103.342815952358
 20
65.17808477297
 11
103.342815952358
 21
62.17808477297
  0
LINE
  5
41
100
AcDbEntity
  8
1
  6
CONTINUOUS
 62
           2
100
AcDbLine
 10
103.640555882091
 20
62.17808477297
 11
103.640555882091
 21
65.17808477297
  0
LINE
  5
40
100
AcDbEntity
  8
1
  6
CONTINUOUS
 62
           2
100
AcDbLine
 10
103.914244755932
 20
62.17808477297
 11
103.914244755932
 21
65.17808477297
  0
LINE
  5
3F
100
AcDbEntity
  8
1
  6
CONTINUOUS
 62
           2
100
AcDbLine
 10
104.163685160419
 20
62.17808477297
 11
104.163685160419
 21
65.17808477297
  0
LINE
  5
3E
100
AcDbEntity
  8
1
  6
CONTINUOUS
 62
           2
100
AcDbLine
 10
104.388697172662
 20
62.17808477297
 11
104.388697172662
 21
65.17808477297
  0
LINE
  5
3D
100
AcDbEntity
  8
1
  6
CONTINUOUS
 62
           2
100
AcDbLine
 10
104.589118490118
 20
62.17808477297
 11
104.589118490118
 21
65.17808477297
  0
LINE
  5
3C
100
AcDbEntity
  8
1
  6
CONTINUOUS
 62
           2
100
AcDbLine
 10
104.764804547664
 20
62.17808477297
 11
104.764804547664
 21
65.17808477297
  0
LINE
  5
3B
100
AcDbEntity
  8
1
  6
CONTINUOUS
 62
           2
100
AcDbLine
 10
104.915628621872
 20
62.17808477297
 11
104.915628621872
 21
65.17808477297
  0
LINE
  5
3A
100
AcDbEntity
  8
1
  6
CONTINUOUS
 62
           2
100
AcDbLine
 10
105.041481922413
 20
62.369888534727
 11
105.041481922413
 21
65.17808477297
  0
LINE
  5
39
100
AcDbEntity
  8
1
  6
CONTINUOUS
 62
           2
100
AcDbLine
 10
105.14227367053
 20
65.17808477297
 11
105.14227367053
 21
62.605221394675
  0
LINE
  5
38
100
AcDbEntity
  8
1
  6
CONTINUOUS
 62
           2
100
AcDbLine
 10
105.21793116452
 20
65.17808477297
 11
105.21793116452
 21
61.765671222301
  0
LINE
  5
37
100
AcDbEntity
  8
1
  6
CONTINUOUS
 62
           2
100
AcDbLine
 10
105.268399832168
 20
62.0129112074
 11
105.268399832168
 21
65.17808477297
  0
LINE
  5
36
100
AcDbEntity
  8
1
  6
CONTINUOUS
 62
           7
100
AcDbLine
 10
70.296799126678
 20
67.888663722525
 11
102.296799126678
 21
67.888663722525
  0
LINE
  5
35
100
AcDbEntity
  8
1
  6
CONTINUOUS
 62
           7
100
AcDbLine
 10
102.796799126678
 20
59.888663722525
 11
70.296799126678
 21
59.888663722525
  0
LINE
  5
34
100
AcDbEntity
  8
1
  6
DOT_CENTER
 62
           2
100
AcDbLine
 10
70.296799126678
 20
72.415058862541
 11
70.296799126678
 21
-52.978650084202
  0
LINE
  5
33
100
AcDbEntity
  8
1
  6
CONTINUOUS
 62
           7
100
AcDbLine
 10
77.296799126678
 20
-30.356844781895
 11
78.296799126678
 21
-29.440513607877
  0
LINE
  5
32
100
AcDbEntity
  8
1
  6
CONTINUOUS
 62
           7
100
AcDbLine
 10
70.296799126678
 20
-29.440513607877
 11
78.996799126678
 21
-29.440513607877
  0
LINE
  5
31
100
AcDbEntity
  8
1
  6
CONTINUOUS
 62
           7
100
AcDbLine
 10
102.996799126678
 20
-5.440513607877
 11
102.996799126678
 21
54.488663722525
  0
LINE
  5
30
100
AcDbEntity
  8
1
  6
CONTINUOUS
 62
           7
100
AcDbLine
 10
104.796799126678
 20
56.338663722525
 11
104.796799126678
 21
55.388663722525
  0
LINE
  5
2F
100
AcDbEntity
  8
1
  6
CONTINUOUS
 62
           7
100
AcDbLine
 10
103.646799126678
 20
57.488663722525
 11
70.296799126678
 21
57.488663722525
  0
LINE
  5
2E
100
AcDbEntity
  8
1
  6
CONTINUOUS
 62
           7
100
AcDbLine
 10
70.296799126678
 20
57.488663722525
 11
36.946799126678
 21
57.488663722525
  0
LINE
  5
2D
100
AcDbEntity
  8
1
  6
CONTINUOUS
 62
           7
100
AcDbLine
 10
35.796799126678
 20
55.388663722525
 11
35.796799126678
 21
56.338663722525
  0
LINE
  5
2C
100
AcDbEntity
  8
1
  6
CONTINUOUS
 62
           7
100
AcDbLine
 10
61.596799126678
 20
-29.440513607877
 11
70.296799126678
 21
-29.440513607877
  0
LINE
  5
2B
100
AcDbEntity
  8
1
  6
CONTINUOUS
 62
           7
100
AcDbLine
 10
62.296799126678
 20
-29.440513607877
 11
63.296799126678
 21
-30.356844781895
  0
LINE
  5
2A
100
AcDbEntity
  8
1
  6
CONTINUOUS
 62
           7
100
AcDbLine
 10
36.696799126678
 20
54.488663722525
 11
70.296799126678
 21
54.488663722525
  0
LINE
  5
29
100
AcDbEntity
  8
1
  6
CONTINUOUS
 62
           7
100
AcDbLine
 10
70.296799126678
 20
54.488663722525
 11
103.896799126678
 21
54.488663722525
  0
LINE
  5
28
100
AcDbEntity
  8
1
  6
CONTINUOUS
 62
           7
100
AcDbLine
 10
37.596799126678
 20
54.488663722525
 11
37.596799126678
 21
-5.440513607877
  0
ENDSEC
  0
SECTION
  2
OBJECTS
  0
DICTIONARY
  5
19
100
AcDbDictionary
  3
ACAD_GROUP
350
1A
  3
ACAD_MLINESTYLE
350
1B
  0
DICTIONARY
  5
1A
102
{ACAD_REACTORS
330
19
102
}
100
AcDbDictionary
  0
DICTIONARY
  5
1B
102
{ACAD_REACTORS
330
19
102
}
100
AcDbDictionary
  3
STANDARD
350
1C
  0
MLINESTYLE
  5
1C
102
{ACAD_REACTORS
330
1B
102
}
100
AcDbMlineStyle
  2
STANDARD
 70
           0
  3

 62
           0
 51
90.0
 52
90.0
 71
           2
 49
0.5
 62
         256
  6
BYLAYER
 49
-0.5
 62
         256
  6
BYLAYER
  0
ENDSEC
  0
EOF
