  0
SECTION
  2
HEADER
  9
$ACADVER
  1
AC1014
  9
$ACADMAINTVER
 70
           0
  9
$DWGCODEPAGE
  3
DOS932
  9
$INSBASE
 10
0.0
 20
0.0
 30
0.0
  9
$EXTMIN
 10
1.000000000000E+20
 20
1.000000000000E+20
 30
1.000000000000E+20
  9
$EXTMAX
 10
-1.000000000000E+20
 20
-1.000000000000E+20
 30
-1.000000000000E+20
  9
$LIMMIN
 10
0.0
 20
0.0
  9
$LIMMAX
 10
0.0
 20
0.0
  9
$ORTHOMODE
 70
           0
  9
$REGENMODE
 70
           1
  9
$FILLMODE
 70
           1
  9
$QTEXTMODE
 70
           0
  9
$MIRRTEXT
 70
           1
  9
$DRAGMODE
 70
           2
  9
$LTSCALE
 40
1.0
  9
$OSMODE
 70
           0
  9
$ATTMODE
 70
           1
  9
$TEXTSIZE
 40
0.2
  9
$TRACEWID
 40
0.05
  9
$TEXTSTYLE
  7
STANDARD
  9
$CLAYER
  8
0
  9
$CELTYPE
  6
CONTINUOUS
  9
$CECOLOR
 62
         256
  9
$CELTSCALE
 40
1.0
  9
$DELOBJ
 70
           1
  9
$DISPSILH
 70
           0
  9
$DIMSCALE
 40
1.0
  9
$DIMASZ
 40
0.18
  9
$DIMEXO
 40
0.0625
  9
$DIMDLI
 40
0.38
  9
$DIMRND
 40
0.0
  9
$DIMDLE
 40
0.0
  9
$DIMEXE
 40
0.18
  9
$DIMTP
 40
0.0
  9
$DIMTM
 40
0.0
  9
$DIMTXT
 40
0.18
  9
$DIMCEN
 40
0.09
  9
$DIMTSZ
 40
0.0
  9
$DIMTOL
 70
           0
  9
$DIMLIM
 70
           0
  9
$DIMTIH
 70
           1
  9
$DIMTOH
 70
           1
  9
$DIMSE1
 70
           0
  9
$DIMSE2
 70
           0
  9
$DIMTAD
 70
           0
  9
$DIMZIN
 70
           0
  9
$DIMBLK
  1

  9
$DIMASO
 70
           1
  9
$DIMSHO
 70
           1
  9
$DIMPOST
  1

  9
$DIMAPOST
  1

  9
$DIMALT
 70
           0
  9
$DIMALTD
 70
           2
  9
$DIMALTF
 40
25.4
  9
$DIMLFAC
 40
1.0
  9
$DIMTOFL
 70
           0
  9
$DIMTVP
 40
0.0
  9
$DIMTIX
 70
           0
  9
$DIMSOXD
 70
           0
  9
$DIMSAH
 70
           0
  9
$DIMBLK1
  1

  9
$DIMBLK2
  1

  9
$DIMSTYLE
  2
STANDARD
  9
$DIMCLRD
 70
           0
  9
$DIMCLRE
 70
           0
  9
$DIMCLRT
 70
           0
  9
$DIMTFAC
 40
1.0
  9
$DIMGAP
 40
0.09
  9
$DIMJUST
 70
           0
  9
$DIMSD1
 70
           0
  9
$DIMSD2
 70
           0
  9
$DIMTOLJ
 70
           1
  9
$DIMTZIN
 70
           0
  9
$DIMALTZ
 70
           0
  9
$DIMALTTZ
 70
           0
  9
$DIMFIT
 70
           3
  9
$DIMUPT
 70
           0
  9
$DIMUNIT
 70
           2
  9
$DIMDEC
 70
           4
  9
$DIMTDEC
 70
           4
  9
$DIMALTU
 70
           2
  9
$DIMALTTD
 70
           2
  9
$DIMTXSTY
  7
STANDARD
  9
$DIMAUNIT
 70
           0
  9
$LUNITS
 70
           2
  9
$LUPREC
 70
           4
  9
$SKETCHINC
 40
0.1
  9
$FILLETRAD
 40
0.0
  9
$AUNITS
 70
           0
  9
$AUPREC
 70
           0
  9
$MENU
  1
acad
  9
$ELEVATION
 40
0.0
  9
$PELEVATION
 40
0.0
  9
$THICKNESS
 40
0.0
  9
$LIMCHECK
 70
           0
  9
$BLIPMODE
 70
           1
  9
$CHAMFERA
 40
0.0
  9
$CHAMFERB
 40
0.0
  9
$CHAMFERC
 40
0.0
  9
$CHAMFERD
 40
0.0
  9
$SKPOLY
 70
           0
  9
$TDCREATE
 40
0.000000000
  9
$TDUPDATE
 40
0.000000000
  9
$TDINDWG
 40
0.0000000000
  9
$TDUSRTIMER
 40
0.0000000000
  9
$USRTIMER
 70
           1
  9
$ANGBASE
 50
0.0
  9
$ANGDIR
 70
           0
  9
$PDMODE
 70
           0
  9
$PDSIZE
 40
0.0
  9
$PLINEWID
 40
0.0
  9
$COORDS
 70
           0
  9
$SPLFRAME
 70
           0
  9
$SPLINETYPE
 70
           6
  9
$SPLINESEGS
 70
           8
  9
$ATTDIA
 70
           0
  9
$ATTREQ
 70
           1
  9
$HANDLING
 70
           1
  9
$HANDSEED
  5
1FA
  9
$SURFTAB1
 70
           6
  9
$SURFTAB2
 70
           6
  9
$SURFTYPE
 70
           6
  9
$SURFU
 70
           6
  9
$SURFV
 70
           6
  9
$UCSNAME
  2

  9
$UCSORG
 10
0.0
 20
0.0
 30
0.0
  9
$UCSXDIR
 10
1.0
 20
0.0
 30
0.0
  9
$UCSYDIR
 10
0.0
 20
1.0
 30
0.0
  9
$PUCSNAME
  2

  9
$PUCSORG
 10
0.0
 20
0.0
 30
0.0
  9
$PUCSXDIR
 10
1.0
 20
0.0
 30
0.0
  9
$PUCSYDIR
 10
0.0
 20
1.0
 30
0.0
  9
$USERI1
 70
           0
  9
$USERI2
 70
           0
  9
$USERI3
 70
           0
  9
$USERI4
 70
           0
  9
$USERI5
 70
           0
  9
$USERR1
 40
0.0
  9
$USERR2
 40
0.0
  9
$USERR3
 40
0.0
  9
$USERR4
 40
0.0
  9
$USERR5
 40
0.0
  9
$WORLDVIEW
 70
           1
  9
$SHADEDGE
 70
           3
  9
$SHADEDIF
 70
          70
  9
$TILEMODE
 70
           1
  9
$MAXACTVP
 70
          16
  9
$PINSBASE
 10
0.0
 20
0.0
 30
0.0
  9
$PLIMCHECK
 70
           0
  9
$PEXTMIN
 10
1.000000000000E+20
 20
1.000000000000E+20
 30
1.000000000000E+20
  9
$PEXTMAX
 10
-1.000000000000E+20
 20
-1.000000000000E+20
 30
-1.000000000000E+20
  9
$PLIMMIN
 10
0.0
 20
0.0
  9
$PLIMMAX
 10
12.0
 20
9.0
  9
$UNITMODE
 70
           0
  9
$VISRETAIN
 70
           0
  9
$PLINEGEN
 70
           1
  9
$PSLTSCALE
 70
           0
  9
$TREEDEPTH
 70
        3020
  9
$PICKSTYLE
 70
           1
  9
$CMLSTYLE
  2
STANDARD
  9
$CMLJUST
 70
           0
  9
$CMLSCALE
 40
1.0
  9
$PROXYGRAPHICS
 70
           0
  9
$MEASUREMENT
 70
           0
  0
ENDSEC
  0
SECTION
  2
CLASSES
  0
CLASS
  1
LWPOLYLINE
  2
AcDbPolyline
  3
"AutoCAD"
 90
        0
280
           0
281
           1
  0
CLASS
  1
IMAGE
  2
AcDbRasterImage
  3
ISM
 90
      127
280
           0
281
           1
  0
CLASS
  1
OLE2FRAME
  2
AcDbOle2Frame
  3
""
 90
        0
280
           0
281
           1
  0
CLASS
  1
HATCH
  2
AcDbHatch
  3
"ACAD_SEDONA"
 90
        0
280
           0
281
           1
  0
CLASS
  1
DICTIONARYVAR
  2
AcDbDictionaryVar
  3
"AutoCAD"
 90
        0
280
           0
281
           0
  0
CLASS
  1
RASTERVARIABLES
  2
AcDbRasterVariables
  3
ISM
 90
        0
280
           0
281
           0
  0
CLASS
  1
IMAGEDEF
  2
AcDbRasterImageDef
  3
ISM
 90
        0
280
           0
281
           0
  0
CLASS
  1
IMAGEDEF_REACTOR
  2
AcDbRasterImageDefReactor
  3
ISM
 90
        1
280
           0
281
           0
  0
CLASS
  1
IDBUFFER
  2
AcDbIdBuffer
  3
"Acad"
 90
        0
280
           0
281
           0
  0
CLASS
  1
SPATIAL_FILTER
  2
AcDbSpatialFilter
  3
"Acad"
 90
        0
280
           0
281
           0
  0
CLASS
  1
XRECORD
  2
AcDbXrecord
  3
"<Built In>"
 90
        0
280
           0
281
           0
  0
CLASS
  1
SORTENTSTABLE
  2
AcDbSortentsTable
  3
"AutoCAD"
 90
        0
280
           0
281
           0
  0
CLASS
  1
LAYER_INDEX
  2
AcDbLayerIndex
  3
"Acad"
 90
        0
280
           0
281
           0
  0
CLASS
  1
SPATIAL_INDEX
  2
AcDbSpatialIndex
  3
"Acad"
 90
        0
280
           0
281
           0
  0
CLASS
  1
OBJECT_PTR
  2
CAseDLPNTableRecord
  3
"ASE-LPNTableRecord"
 90
        1
280
           0
281
           0
  0
CLASS
  1
LAYOUT
  2
AcDbLayout
  3
"AutoCAD 2000"
 90
        1
280
           0
281
           0
  0
CLASS
  1
PLOTSETTINGS
  2
AcDbPlotSettings
  3
"AutoCAD 2000"
 90
        1
280
           0
281
           0
  0
CLASS
  1
ACDBDICTIONARYWDFLT
  2
AcDbDictionaryWithDefault
  3
"AutoCAD 2000"
 90
        1
280
           0
281
           0
  0
CLASS
  1
ACDBPLACEHOLDER
  2
AcDbPlaceHolder
  3
"AutoCAD 2000"
 90
        1
280
           0
281
           0
  0
CLASS
  1
VBA_PROJECT
  2
AcDbVbaProject
  3
"acadvba"
 90
        1
280
           0
281
           0
  0
CLASS
  1
WIPEOUT
  2
AcDbWipeout
  3
WipeOut|AutoCAD Express Tool|expresstools@autodesk.com
 90
      127
280
           0
281
           1
  0
CLASS
  1
WIPEOUTVARIABLES
  2
AcDbWipeoutVariables
  3
WipeOut|AutoCAD Express Tool|expresstools@autodesk.com
 90
        0
280
           0
281
           0
  0
CLASS
  1
RTEXT
  2
RText
  3
RText|AutoCAD Express Tool|expresstools@autodesk.com
 90
        0
280
           0
281
           1
  0
CLASS
  1
ARCALIGNEDTEXT
  2
AcDbArcAlignedText
  3
ATEXT|AutoCAD Express Tool|expresstools@autodesk.com
 90
        0
280
           0
281
           1
  0
ENDSEC
  0
SECTION
  2
TABLES
  0
TABLE
  2
VPORT
  5
7
100
AcDbSymbolTable
 70
           1
  0
VPORT
  5
15
100
AcDbSymbolTableRecord
100
AcDbViewportTableRecord
  2
*ACTIVE
 70
           0
 10
0.0
 20
0.0
 11
1.0
 21
1.0
 12
6.591288
 22
4.579184
 13
0.0
 23
0.0
 14
1.0
 24
1.0
 15
0.0
 25
0.0
 16
0.0
 26
0.0
 36
1.0
 17
0.0
 27
0.0
 37
0.0
 40
9.158369
 41
0.688564
 42
50.0
 43
0.0
 44
0.0
 50
0.0
 51
0.0
 71
           0
 72
         100
 73
           1
 74
           1
 75
           0
 76
           0
 77
           0
 78
           0
  0
ENDTAB
  0
TABLE
  2
LTYPE
  5
4
100
AcDbSymbolTable
 70
          10
  0
LTYPE
  5
11
100
AcDbSymbolTableRecord
100
AcDbLinetypeTableRecord
  2
BYBLOCK
 70
          64
  3

 72
          65
 73
           0
 40
0.0
  0
LTYPE
  5
12
100
AcDbSymbolTableRecord
100
AcDbLinetypeTableRecord
  2
BYLAYER
 70
          64
  3

 72
          65
 73
           0
 40
0.0
  0
LTYPE
  5
13
100
AcDbSymbolTableRecord
100
AcDbLinetypeTableRecord
  2
CONTINUOUS
 70
          64
  3
Solid line
 72
          65
 73
           0
 40
0.0
  0
LTYPE
  5
1D
100
AcDbSymbolTableRecord
100
AcDbLinetypeTableRecord
  2
DASHED
 70
          64
  3
Dashed
 72
          65
 73
           2
 40
15.0
 49
12.0
 74
           0
 49
-3.0
 74
           0
  0
LTYPE
  5
1E
100
AcDbSymbolTableRecord
100
AcDbLinetypeTableRecord
  2
DOTTED
 70
          64
  3
Dotted
 72
          65
 73
           2
 40
3.5
 49
0.5
 74
           0
 49
-3.0
 74
           0
  0
LTYPE
  5
1F
100
AcDbSymbolTableRecord
100
AcDbLinetypeTableRecord
  2
DOT_CENTER
 70
          64
  3
Dot_Center
 72
          65
 73
           4
 40
2.0
 49
1.25
 74
           0
 49
-0.25
 74
           0
 49
0.25
 74
           0
 49
-0.25
 74
           0
  0
LTYPE
  5
20
100
AcDbSymbolTableRecord
100
AcDbLinetypeTableRecord
  2
LONG_DASHED
 70
          64
  3
Long_Dashed
 72
          65
 73
           2
 40
2.0
 49
1.5
 74
           0
 49
-0.5
 74
           0
  0
LTYPE
  5
21
100
AcDbSymbolTableRecord
100
AcDbLinetypeTableRecord
  2
DASH_CENTER
 70
          64
  3
Dash_Center
 72
          65
 73
           4
 40
36.0
 49
24.0
 74
           0
 49
-3.0
 74
           0
 49
6.0
 74
           0
 49
-3.0
 74
           0
  0
LTYPE
  5
22
100
AcDbSymbolTableRecord
100
AcDbLinetypeTableRecord
  2
PHANTOM
 70
          64
  3
Phantom
 72
          65
 73
           6
 40
2.5
 49
1.25
 74
           0
 49
-0.25
 74
           0
 49
0.25
 74
           0
 49
-0.25
 74
           0
 49
0.25
 74
           0
 49
-0.25
 74
           0
  0
LTYPE
  5
23
100
AcDbSymbolTableRecord
100
AcDbLinetypeTableRecord
  2
CENTER_DASH_DASH
 70
          64
  3
Center_Dash_Dash
 72
          65
 73
           6
 40
22.0
 49
12.0
 74
           0
 49
-3.0
 74
           0
 49
0.5
 74
           0
 49
-3.0
 74
           0
 49
0.5
 74
           0
 49
-3.0
 74
           0
  0
ENDTAB
  0
TABLE
  2
LAYER
  5
2
100
AcDbSymbolTable
 70
           2
  0
LAYER
  5
14
100
AcDbSymbolTableRecord
100
AcDbLayerTableRecord
  2
0
 70
           0
 62
           7
  6
CONTINUOUS
  0
LAYER
  5
24
100
AcDbSymbolTableRecord
100
AcDbLayerTableRecord
  2
1
 70
           0
 62
           7
  6
CONTINUOUS
  0
ENDTAB
  0
TABLE
  2
STYLE
  5
3
100
AcDbSymbolTable
 70
           3
  0
STYLE
  5
17
100
AcDbSymbolTableRecord
100
AcDbTextStyleTableRecord
  2
STANDARD
 70
           0
 40
0.0
 41
1.0
 50
0.0
 71
           0
 42
0.0
  3
txt
  4

  0
STYLE
  5
1E8
100
AcDbSymbolTableRecord
100
AcDbTextStyleTableRecord
  2
CONVERTER_1
 70
           0
 40
0.0
 41
0.9
 50
0.0
 71
           0
 42
0.0
  3
txt.shx
  4

  0
STYLE
  5
1F4
100
AcDbSymbolTableRecord
100
AcDbTextStyleTableRecord
  2
CONVERTER_2
 70
           0
 40
0.0
 41
0.89
 50
0.0
 71
           0
 42
0.0
  3
MS Mincho.ttf
  4

1001
ACAD
1000
MS Mincho
1071
    32785
  0
ENDTAB
  0
TABLE
  2
VIEW
  5
5
100
AcDbSymbolTable
 70
           0
  0
ENDTAB
  0
TABLE
  2
UCS
  5
6
100
AcDbSymbolTable
 70
           0
  0
ENDTAB
  0
TABLE
  2
APPID
  5
8
100
AcDbSymbolTable
 70
           1
  0
APPID
  5
16
100
AcDbSymbolTableRecord
100
AcDbRegAppTableRecord
  2
ACAD
 70
           0
  0
ENDTAB
  0
TABLE
  2
DIMSTYLE
  5
9
100
AcDbSymbolTable
 70
           3
  0
DIMSTYLE
105
18
100
AcDbSymbolTableRecord
100
AcDbDimStyleTableRecord
  2
STANDARD
 70
           0
  3

  4

  5

  6

  7

 40
1.0
 41
0.18
 42
0.0625
 43
0.38
 44
0.18
 45
0.0
 46
0.0
 47
0.0
 48
0.0
 71
           0
 72
           0
 73
           1
 74
           1
 75
           0
 76
           0
 77
           0
 78
           0
140
0.18
141
0.09
142
0.0
143
25.4
144
1.0
145
0.0
146
1.0
147
0.09
170
           0
171
           2
172
           0
173
           0
174
           0
175
           0
176
           0
177
           0
178
           0
270
           2
271
           4
272
           4
273
           2
274
           2
275
           0
280
           0
281
           0
282
           0
283
           1
284
           0
285
           0
286
           0
287
           0
288
           0
340
17
  0
DIMSTYLE
105
1EB
100
AcDbSymbolTableRecord
100
AcDbDimStyleTableRecord
  2
ME10_DIM_0
 70
           0
  3

  4

  5

  6

  7

 40
1.0
 41
2.8
 42
0.8
 43
0.38
 44
1.0
 45
0.0
 46
0.0
 47
0.0
 48
0.0
 71
           0
 72
           0
 73
           0
 74
           0
 75
           0
 76
           0
 77
           1
 78
           8
140
2.8
141
0.09
142
0.0
143
25.4
144
1.0
145
0.0
146
1.0
147
0.09
170
           0
171
           2
172
           0
173
           1
174
           0
175
           0
176
           2
177
           2
178
           2
270
           2
271
           3
272
           4
273
           2
274
           2
275
           0
280
           0
281
           0
282
           0
283
           1
284
           0
285
           0
286
           0
287
           3
288
           0
340
17
  0
DIMSTYLE
105
1F7
100
AcDbSymbolTableRecord
100
AcDbDimStyleTableRecord
  2
ME10_DIM_1
 70
           0
  3
ó<>
  4

  5

  6

  7

 40
1.0
 41
2.8
 42
0.8
 43
0.38
 44
1.0
 45
0.0
 46
0.0
 47
0.0
 48
0.0
 71
           0
 72
           0
 73
           0
 74
           0
 75
           0
 76
           0
 77
           1
 78
           8
140
2.8
141
0.09
142
0.0
143
25.4
144
1.0
145
0.0
146
1.0
147
0.09
170
           0
171
           2
172
           0
173
           1
174
           0
175
           0
176
           2
177
           2
178
           2
270
           2
271
           3
272
           4
273
           2
274
           2
275
           0
280
           0
281
           0
282
           0
283
           1
284
           0
285
           0
286
           0
287
           3
288
           0
340
17
  0
ENDTAB
  0
TABLE
  2
BLOCK_RECORD
  5
1
100
AcDbSymbolTable
 70
           2
  0
BLOCK_RECORD
  5
A
100
AcDbSymbolTableRecord
100
AcDbBlockTableRecord
  2
*MODEL_SPACE
  0
BLOCK_RECORD
  5
B
100
AcDbSymbolTableRecord
100
AcDbBlockTableRecord
  2
*PAPER_SPACE
  0
BLOCK_RECORD
  5
1E1
100
AcDbSymbolTableRecord
100
AcDbBlockTableRecord
  2
*D0
  0
BLOCK_RECORD
  5
1ED
100
AcDbSymbolTableRecord
100
AcDbBlockTableRecord
  2
*D1
  0
ENDTAB
  0
ENDSEC
  0
SECTION
  2
BLOCKS
  0
BLOCK
  5
D
100
AcDbEntity
  8
0
100
AcDbBlockBegin
  2
*MODEL_SPACE
 70
           0
 10
0.0
 20
0.0
 30
0.0
  3
*MODEL_SPACE
  1

  0
ENDBLK
  5
E
100
AcDbEntity
  8
0
100
AcDbBlockEnd
  0
BLOCK
  5
F
100
AcDbEntity
 67
           1
  8
0
100
AcDbBlockBegin
  2
*PAPER_SPACE
 70
           0
 10
0.0
 20
0.0
 30
0.0
  3
*PAPER_SPACE
  1

  0
ENDBLK
  5
10
100
AcDbEntity
 67
           1
  8
0
100
AcDbBlockEnd
  0
BLOCK
  5
1E2
100
AcDbEntity
  8
0
100
AcDbBlockBegin
  2
*D0
 70
           1
 10
0.0
 20
0.0
 30
0.0
  3
*D0
  1

  0
LINE
  5
1E3
100
AcDbEntity
  8
0
  6
CONTINUOUS
 62
           2
100
AcDbLine
 10
726.979116494233
 20
-60.980133645633
 11
726.979116494233
 21
116.931943255227
  0
LINE
  5
1E4
100
AcDbEntity
  8
0
  6
CONTINUOUS
 62
           2
100
AcDbLine
 10
760.01067433887
 20
116.931943255227
 11
725.979116494233
 21
116.931943255227
  0
LINE
  5
1E5
100
AcDbEntity
  8
0
  6
CONTINUOUS
 62
           2
100
AcDbLine
 10
802.213646501637
 20
-60.980133645633
 11
725.979116494233
 21
-60.980133645633
  0
SOLID
  5
1E6
100
AcDbEntity
  8
0
 62
           2
100
AcDbTrace
 10
727.347743487478
 20
114.131943255227
 11
726.610489500988
 21
114.131943255227
 12
726.979116494233
 22
116.931943255227
 13
726.979116494233
 23
116.931943255227
  0
SOLID
  5
1E7
100
AcDbEntity
  8
0
 62
           2
100
AcDbTrace
 10
726.610489500988
 20
-58.180133645633
 11
727.347743487478
 21
-58.180133645633
 12
726.979116494233
 22
-60.980133645633
 13
726.979116494233
 23
-60.980133645633
  0
MTEXT
  5
1E9
100
AcDbEntity
  8
0
 62
           2
100
AcDbMText
 10
725.979116494233
 20
24.705840330456
 30
0.0
 40
2.8
 41
0.0
 71
           7
 72
           1
  1
178
  7
CONVERTER_1
 11
0.0
 21
1.0
 31
0.0
  0
ENDBLK
  5
1EA
100
AcDbEntity
  8
0
100
AcDbBlockEnd
  0
BLOCK
  5
1EE
100
AcDbEntity
  8
0
100
AcDbBlockBegin
  2
*D1
 70
           1
 10
0.0
 20
0.0
 30
0.0
  3
*D1
  1

  0
LINE
  5
1EF
100
AcDbEntity
  8
0
  6
CONTINUOUS
 62
           2
100
AcDbLine
 10
756.027116055921
 20
141.138658010014
 11
852.427116055921
 21
141.138658010014
  0
LINE
  5
1F0
100
AcDbEntity
  8
0
  6
CONTINUOUS
 62
           2
100
AcDbLine
 10
852.427116055921
 20
112.831943255227
 11
852.427116055921
 21
142.138658010014
  0
LINE
  5
1F1
100
AcDbEntity
  8
0
  6
CONTINUOUS
 62
           2
100
AcDbLine
 10
756.027116055921
 20
112.831943255227
 11
756.027116055921
 21
142.138658010014
  0
SOLID
  5
1F2
100
AcDbEntity
  8
0
 62
           2
100
AcDbTrace
 10
758.827116055921
 20
141.507285003259
 11
758.827116055921
 21
140.770031016769
 12
756.027116055921
 22
141.138658010014
 13
756.027116055921
 23
141.138658010014
  0
SOLID
  5
1F3
100
AcDbEntity
  8
0
 62
           2
100
AcDbTrace
 10
849.627116055921
 20
140.770031016769
 11
849.627116055921
 21
141.507285003259
 12
852.427116055921
 22
141.138658010014
 13
852.427116055921
 23
141.138658010014
  0
MTEXT
  5
1F5
100
AcDbEntity
  8
0
 62
           2
100
AcDbMText
 10
798.976403787051
 20
142.138658010014
 30
0.0
 40
2.8
 41
0.0
 71
           7
 72
           1
  1
\C2;ó\C2;96.4\C2;
  7
CONVERTER_2
  0
ENDBLK
  5
1F6
100
AcDbEntity
  8
0
100
AcDbBlockEnd
  0
ENDSEC
  0
SECTION
  2
ENTITIES
  0
DIMENSION
  5
1F8
100
AcDbEntity
  8
0
100
AcDbDimension
  2
*D1
 10
756.027116055921
 20
141.138658010014
 11
803.407403787051
 21
143.538658010014
 31
0.0
  1
<>
  3
ME10_DIM_1
100
AcDbAlignedDimension
 13
852.427116055921
 23
112.031943255227
 14
756.027116055921
 24
112.031943255227
100
AcDbRotatedDimension
  0
DIMENSION
  5
1EC
100
AcDbEntity
  8
0
100
AcDbDimension
  2
*D0
 10
726.979116494233
 20
116.931943255227
 11
724.579116494233
 21
27.645840330456
 31
0.0
 53
90.0
  1
<>
  3
ME10_DIM_0
100
AcDbAlignedDimension
 13
803.013646501637
 23
-60.980133645633
 14
760.81067433887
 24
116.931943255227
 50
90.0
100
AcDbRotatedDimension
  0
ARC
  5
1E0
100
AcDbEntity
  8
1
  6
CONTINUOUS
 62
           7
100
AcDbCircle
 10
849.427116055921
 20
112.031943255227
 40
3.0
100
AcDbArc
 50
0.0
 51
90.0
  0
ARC
  5
1DF
100
AcDbEntity
  8
1
  6
CONTINUOUS
 62
           7
100
AcDbCircle
 10
849.427116055921
 20
110.031943255227
 40
3.0
100
AcDbArc
 50
-84.260829522734
 51
0.0
  0
ARC
  5
1DE
100
AcDbEntity
  8
1
  6
CONTINUOUS
 62
           7
100
AcDbCircle
 10
847.527116055921
 20
115.035514683799
 40
1.9
100
AcDbArc
 50
0.0
 51
86.486419839904
  0
ARC
  5
1DD
100
AcDbEntity
  8
1
  6
CONTINUOUS
 62
           7
100
AcDbCircle
 10
825.227116055921
 20
25.083058809515
 40
24.0
100
AcDbArc
 50
-50.003694207134
 51
-0.000000000001
  0
ARC
  5
1DC
100
AcDbEntity
  8
1
  6
CONTINUOUS
 62
           7
100
AcDbCircle
 10
812.940431769903
 20
-15.248884468475
 40
1.0
100
AcDbArc
 50
-90.0
 51
-48.000779376374
  0
ARC
  5
1DB
100
AcDbEntity
  8
1
  6
CONTINUOUS
 62
           7
100
AcDbCircle
 10
812.724845610752
 20
-17.248884468475
 40
1.0
100
AcDbArc
 50
90.0
 51
132.500000000011
  0
ARC
  5
1DA
100
AcDbEntity
  8
1
  6
CONTINUOUS
 62
           7
100
AcDbCircle
 10
795.72938650109
 20
-17.248884468475
 40
1.0
100
AcDbArc
 50
47.499999999988
 51
90.0
  0
ARC
  5
1D9
100
AcDbEntity
  8
1
  6
CONTINUOUS
 62
           7
100
AcDbCircle
 10
805.440585610205
 20
-58.980133645633
 40
2.0
100
AcDbArc
 50
-90.0
 51
-6.653394672008
  0
ARC
  5
1D8
100
AcDbEntity
  8
1
  6
CONTINUOUS
 62
           7
100
AcDbCircle
 10
803.013646501637
 20
-58.980133645633
 40
2.0
100
AcDbArc
 50
-173.34660532799
 51
-90.0
  0
ARC
  5
1D7
100
AcDbEntity
  8
1
  6
CONTINUOUS
 62
           7
100
AcDbCircle
 10
840.787471560544
 20
-37.383367230888
 40
1.0
100
AcDbArc
 50
149.999999999999
 51
-179.402267989865
  0
ARC
  5
1D6
100
AcDbEntity
  8
1
  6
CONTINUOUS
 62
           7
100
AcDbCircle
 10
828.032359656367
 20
-37.383367230888
 40
1.0
100
AcDbArc
 50
-0.597732010135
 51
30.0
  0
ARC
  5
1D5
100
AcDbEntity
  8
1
  6
CONTINUOUS
 62
           7
100
AcDbCircle
 10
828.032359656367
 20
-20.576900060379
 40
1.0
100
AcDbArc
 50
-30.0
 51
0.597732010134
  0
ARC
  5
1D4
100
AcDbEntity
  8
1
  6
CONTINUOUS
 62
           7
100
AcDbCircle
 10
840.787471560544
 20
-20.576900060379
 40
1.0
100
AcDbArc
 50
179.402267989866
 51
-149.999999999999
  0
ARC
  5
1D3
100
AcDbEntity
  8
1
  6
CONTINUOUS
 62
           7
100
AcDbCircle
 10
795.513800341939
 20
-15.248884468475
 40
1.0
100
AcDbArc
 50
-131.999220623626
 51
-90.0
  0
ARC
  5
1D2
100
AcDbEntity
  8
1
  6
CONTINUOUS
 62
           7
100
AcDbCircle
 10
783.227116055921
 20
25.083058809515
 40
24.0
100
AcDbArc
 50
-179.999999999998
 51
-129.996305792866
  0
ARC
  5
1D1
100
AcDbEntity
  8
1
  6
CONTINUOUS
 62
           7
100
AcDbCircle
 10
759.027116055921
 20
112.031943255227
 40
3.0
100
AcDbArc
 50
90.0
 51
180.0
  0
ARC
  5
1D0
100
AcDbEntity
  8
1
  6
CONTINUOUS
 62
           7
100
AcDbCircle
 10
760.927116055921
 20
115.035514683799
 40
1.9
100
AcDbArc
 50
93.513580160099
 51
180.0
  0
ARC
  5
1CF
100
AcDbEntity
  8
1
  6
CONTINUOUS
 62
           7
100
AcDbCircle
 10
759.027116055921
 20
110.031943255227
 40
3.0
100
AcDbArc
 50
180.0
 51
-95.739170477264
  0
LWPOLYLINE
  5
1CE
100
AcDbEntity
  8
1
  6
CONTINUOUS
 62
           7
 60
           1
100
AcDbPolyline
 90
        4
 70
           0
 10
790.758291965954
 20
-22.881464916453
 10
790.716791965954
 20
-22.881464916453
 10
788.881376386302
 20
-26.060497953414
 10
788.720026059962
 20
-26.339964916453
  0
LWPOLYLINE
  5
1CD
100
AcDbEntity
  8
1
  6
CONTINUOUS
 62
           7
 60
           1
100
AcDbPolyline
 90
        3
 70
           0
 10
794.216791965954
 20
-18.839964916453
 10
789.916791965954
 20
-18.839964916453
 10
789.916791965954
 20
-18.24979582668
  0
LWPOLYLINE
  5
1CC
100
AcDbEntity
  8
1
  6
CONTINUOUS
 62
           7
 60
           1
100
AcDbPolyline
 90
        3
 70
           0
 10
811.727116055921
 20
-31.480133645633
 10
811.727116055921
 20
-35.780133645633
 10
812.317285145694
 20
-35.780133645633
  0
ARC
  5
1CB
100
AcDbEntity
  8
1
  6
CONTINUOUS
 62
           7
100
AcDbCircle
 10
822.020291708529
 20
-35.215210225286
 40
3.706838043384
100
AcDbArc
 50
-24.02067708103
 51
34.228495803066
  0
ARC
  5
1CA
100
AcDbEntity
  8
1
  6
CONTINUOUS
 62
           7
100
AcDbCircle
 10
811.993101587374
 20
-28.980133645634
 40
13.734014468547
100
AcDbArc
 50
-17.587953773995
 51
17.587953773995
  0
ARC
  5
1C9
100
AcDbEntity
  8
1
  6
CONTINUOUS
 62
           7
100
AcDbCircle
 10
822.020291708529
 20
-22.745057065982
 40
3.706838043384
100
AcDbArc
 50
-34.228495803066
 51
24.02067708103
  0
ARC
  5
1C8
100
AcDbEntity
  8
1
  6
CONTINUOUS
 62
           7
100
AcDbCircle
 10
820.433940403313
 20
-35.215210225286
 40
3.706838043384
100
AcDbArc
 50
145.771504196934
 51
-155.979322918969
  0
ARC
  5
1C7
100
AcDbEntity
  8
1
  6
CONTINUOUS
 62
           7
100
AcDbCircle
 10
830.461130524468
 20
-28.980133645634
 40
13.734014468547
100
AcDbArc
 50
162.412046226005
 51
-162.412046226005
  0
ARC
  5
1C6
100
AcDbEntity
  8
1
  6
CONTINUOUS
 62
           7
100
AcDbCircle
 10
820.433940403313
 20
-22.745057065982
 40
3.706838043384
100
AcDbArc
 50
155.979322918969
 51
-145.771504196933
  0
ARC
  5
1C5
100
AcDbEntity
  8
1
  6
CONTINUOUS
 62
           2
100
AcDbCircle
 10
830.149097401531
 20
111.031943255227
 40
21.926823565592
100
AcDbArc
 50
-4.596422182699
 51
4.596422182699
  0
ARC
  5
1C4
100
AcDbEntity
  8
1
  6
CONTINUOUS
 62
           2
100
AcDbCircle
 10
836.660394900514
 20
111.031943255227
 40
15.245129593954
100
AcDbArc
 50
-6.618580886742
 51
6.618580886742
  0
ARC
  5
1C3
100
AcDbEntity
  8
1
  6
CONTINUOUS
 62
           2
100
AcDbCircle
 10
838.613169277154
 20
111.031943255227
 40
13.103299719617
100
AcDbArc
 50
-7.706537965358
 51
7.706537965359
  0
ARC
  5
1C2
100
AcDbEntity
  8
1
  6
CONTINUOUS
 62
           2
100
AcDbCircle
 10
839.996577536671
 20
111.031943255227
 40
11.501774998858
100
AcDbArc
 50
-8.787570526605
 51
8.787570526605
  0
ARC
  5
1C1
100
AcDbEntity
  8
1
  6
CONTINUOUS
 62
           2
100
AcDbCircle
 10
840.990880196002
 20
111.031943255227
 40
10.260452242698
100
AcDbArc
 50
-9.860733686813
 51
9.860733686814
  0
ARC
  5
1C0
100
AcDbEntity
  8
1
  6
CONTINUOUS
 62
           2
100
AcDbCircle
 10
841.704317344391
 20
111.031943255227
 40
9.271269538272
100
AcDbArc
 50
-10.92509965077
 51
10.925099650771
  0
ARC
  5
1BF
100
AcDbEntity
  8
1
  6
CONTINUOUS
 62
           2
100
AcDbCircle
 10
842.205854488285
 20
111.031943255227
 40
8.465460275436
100
AcDbArc
 50
-11.979759459062
 51
11.979759459062
  0
ARC
  5
1BE
100
AcDbEntity
  8
1
  6
CONTINUOUS
 62
           2
100
AcDbCircle
 10
842.54155538751
 20
111.031943255227
 40
7.797180167113
100
AcDbArc
 50
-13.023824609532
 51
13.023824609532
  0
ARC
  5
1BD
100
AcDbEntity
  8
1
  6
CONTINUOUS
 62
           2
100
AcDbCircle
 10
842.743398110111
 20
111.031943255227
 40
7.234691036165
100
AcDbArc
 50
-14.056428544738
 51
14.056428544738
  0
ARC
  5
1BC
100
AcDbEntity
  8
1
  6
CONTINUOUS
 62
           2
100
AcDbCircle
 10
842.834312689052
 20
111.031943255227
 40
6.755322985647
100
AcDbArc
 50
-15.076727998822
 51
15.076727998823
  0
ARC
  5
1BB
100
AcDbEntity
  8
1
  6
CONTINUOUS
 62
           2
100
AcDbCircle
 10
842.831203626336
 20
111.031943255227
 40
6.342451707066
100
AcDbArc
 50
-16.083904198823
 51
16.083904198824
  0
ARC
  5
1BA
100
AcDbEntity
  8
1
  6
CONTINUOUS
 62
           2
100
AcDbCircle
 10
842.746838867358
 20
111.031943255227
 40
5.983609303914
100
AcDbArc
 50
-17.077163917012
 51
17.077163917013
  0
ARC
  5
1B9
100
AcDbEntity
  8
1
  6
CONTINUOUS
 62
           2
100
AcDbCircle
 10
842.591071987064
 20
111.031943255227
 40
5.669261889084
100
AcDbArc
 50
-18.055740372433
 51
18.055740372434
  0
ARC
  5
1B8
100
AcDbEntity
  8
1
  6
CONTINUOUS
 62
           2
100
AcDbCircle
 10
842.371656888823
 20
111.031943255227
 40
5.391994655414
100
AcDbArc
 50
-19.018893981278
 51
19.018893981279
  0
ARC
  5
1B7
100
AcDbEntity
  8
1
  6
CONTINUOUS
 62
           2
100
AcDbCircle
 10
842.094805137652
 20
111.031943255227
 40
5.145954297858
100
AcDbArc
 50
-19.965912957255
 51
19.965912957256
  0
ARC
  5
1B6
100
AcDbEntity
  8
1
  6
CONTINUOUS
 62
           2
100
AcDbCircle
 10
841.765576000842
 20
111.031943255227
 40
4.92645871445
100
AcDbArc
 50
-20.896113764365
 51
20.896113764366
  0
ARC
  5
1B5
100
AcDbEntity
  8
1
  6
CONTINUOUS
 62
           2
100
AcDbCircle
 10
841.388154955541
 20
111.031943255227
 40
4.729718226667
100
AcDbArc
 50
-21.808841425827
 51
21.808841425828
  0
ARC
  5
1B4
100
AcDbEntity
  8
1
  6
CONTINUOUS
 62
           2
100
AcDbCircle
 10
840.966056146701
 20
111.031943255227
 40
4.552632835987
100
AcDbArc
 50
-22.703469693996
 51
22.703469693997
  0
ARC
  5
1B3
100
AcDbEntity
  8
1
  6
CONTINUOUS
 62
           2
100
AcDbCircle
 10
840.502271936801
 20
111.031943255227
 40
4.392642375435
100
AcDbArc
 50
-23.579401087123
 51
23.579401087124
  0
ARC
  5
1B2
100
AcDbEntity
  8
1
  6
CONTINUOUS
 62
           2
100
AcDbCircle
 10
840.008251079586
 20
111.028302264653
 40
4.24105416365
100
AcDbArc
 50
-24.459430925235
 51
24.530399701571
  0
ARC
  5
1B1
100
AcDbEntity
  8
1
  6
CONTINUOUS
 62
           2
100
AcDbCircle
 10
839.357160779437
 20
111.031943255227
 40
4.222526887852
100
AcDbArc
 50
-24.677155667188
 51
24.590837528832
  0
ARC
  5
1B0
100
AcDbEntity
  8
1
  6
CONTINUOUS
 62
           2
100
AcDbCircle
 10
821.946210520373
 20
111.031943255227
 40
4.239916914773
100
AcDbArc
 50
-24.483338245836
 51
24.483338245838
  0
ARC
  5
1AF
100
AcDbEntity
  8
1
  6
CONTINUOUS
 62
           2
100
AcDbCircle
 10
833.019423737232
 20
111.031943255227
 40
7.425440436421
100
AcDbArc
 50
166.311791265249
 51
-166.31179126525
  0
ARC
  5
1AE
100
AcDbEntity
  8
1
  6
CONTINUOUS
 62
           2
100
AcDbCircle
 10
820.886562866992
 20
111.031943255227
 40
4.272196125596
100
AcDbArc
 50
-24.286357094226
 51
24.286357094227
  0
ARC
  5
1AD
100
AcDbEntity
  8
1
  6
CONTINUOUS
 62
           2
100
AcDbCircle
 10
831.691991792897
 20
111.031943255227
 40
7.131188672169
100
AcDbArc
 50
165.735266563817
 51
-165.735266563817
  0
ARC
  5
1AC
100
AcDbEntity
  8
1
  6
CONTINUOUS
 62
           2
100
AcDbCircle
 10
819.81357856272
 20
111.031943255227
 40
4.3079072709
100
AcDbArc
 50
-24.072219138783
 51
24.072219138784
  0
ARC
  5
1AB
100
AcDbEntity
  8
1
  6
CONTINUOUS
 62
           2
100
AcDbCircle
 10
830.383113256171
 20
111.031943255227
 40
6.864963721533
100
AcDbArc
 50
165.169637358708
 51
-165.169637358709
  0
ARC
  5
1AA
100
AcDbEntity
  8
1
  6
CONTINUOUS
 62
           2
100
AcDbCircle
 10
834.368876041266
 20
111.031943255227
 40
7.751931205521
100
AcDbArc
 50
166.89880467669
 51
-166.898804676691
  0
ARC
  5
1A9
100
AcDbEntity
  8
1
  6
CONTINUOUS
 62
           2
100
AcDbCircle
 10
822.991917979072
 20
111.031943255227
 40
4.210932135244
100
AcDbArc
 50
-24.663057523758
 51
24.663057523759
  0
ARC
  5
1A8
100
AcDbEntity
  8
1
  6
CONTINUOUS
 62
           2
100
AcDbCircle
 10
835.744720533391
 20
111.031943255227
 40
8.11577067625
100
AcDbArc
 50
167.495888404975
 51
-167.495888404975
  0
ARC
  5
1A7
100
AcDbEntity
  8
1
  6
CONTINUOUS
 62
           2
100
AcDbCircle
 10
824.02307317918
 20
111.031943255227
 40
4.185120482783
100
AcDbArc
 50
-24.825419750245
 51
24.825419750246
  0
ARC
  5
1A6
100
AcDbEntity
  8
1
  6
CONTINUOUS
 62
           2
100
AcDbCircle
 10
837.152486118359
 20
111.031943255227
 40
8.523217718768
100
AcDbArc
 50
168.102612698737
 51
-168.102612698738
  0
ARC
  5
1A5
100
AcDbEntity
  8
1
  6
CONTINUOUS
 62
           2
100
AcDbCircle
 10
825.039057271939
 20
111.031943255227
 40
4.162375645836
100
AcDbArc
 50
-24.970339504414
 51
24.970339504415
  0
ARC
  5
1A4
100
AcDbEntity
  8
1
  6
CONTINUOUS
 62
           2
100
AcDbCircle
 10
838.599200749596
 20
111.031943255227
 40
8.982021822399
100
AcDbArc
 50
168.718536732984
 51
-168.718536732984
  0
ARC
  5
1A3
100
AcDbEntity
  8
1
  6
CONTINUOUS
 62
           2
100
AcDbCircle
 10
826.039246178882
 20
111.031943255227
 40
4.142605273445
100
AcDbArc
 50
-25.097740997077
 51
25.097740997078
  0
ARC
  5
1A2
100
AcDbEntity
  8
1
  6
CONTINUOUS
 62
           2
100
AcDbCircle
 10
840.093862894313
 20
111.031943255227
 40
9.501894040298
100
AcDbArc
 50
169.343208929923
 51
-169.343208929924
  0
ARC
  5
1A1
100
AcDbEntity
  8
1
  6
CONTINUOUS
 62
           2
100
AcDbCircle
 10
827.023011985907
 20
111.031943255227
 40
4.125730097937
100
AcDbArc
 50
-25.207557956643
 51
25.207557956645
  0
ARC
  5
1A0
100
AcDbEntity
  8
1
  6
CONTINUOUS
 62
           2
100
AcDbCircle
 10
841.648103651935
 20
111.031943255227
 40
10.095168593882
100
AcDbArc
 50
169.976167316159
 51
-169.976167316159
  0
ARC
  5
19F
100
AcDbEntity
  8
1
  6
CONTINUOUS
 62
           2
100
AcDbCircle
 10
827.989724191975
 20
111.031943255227
 40
4.111683196324
100
AcDbArc
 50
-25.299733526932
 51
25.299733526933
  0
ARC
  5
19E
100
AcDbEntity
  8
1
  6
CONTINUOUS
 62
           2
100
AcDbCircle
 10
843.277136087331
 20
111.031943255227
 40
10.777751698897
100
AcDbArc
 50
170.616939916073
 51
-170.616939916074
  0
ARC
  5
19D
100
AcDbEntity
  8
1
  6
CONTINUOUS
 62
           2
100
AcDbCircle
 10
828.938750825296
 20
111.031943255227
 40
4.100409377161
100
AcDbArc
 50
-25.374220177729
 51
25.37422017773
  0
ARC
  5
19C
100
AcDbEntity
  8
1
  6
CONTINUOUS
 62
           2
100
AcDbCircle
 10
845.001148591351
 20
111.031943255227
 40
11.570514425979
100
AcDbArc
 50
171.265045181021
 51
-171.26504518102
  0
ARC
  5
19B
100
AcDbEntity
  8
1
  6
CONTINUOUS
 62
           2
100
AcDbCircle
 10
829.86945943739
 20
111.031943255227
 40
4.091864682154
100
AcDbArc
 50
-25.430979628699
 51
25.430979628698
  0
ARC
  5
19A
100
AcDbEntity
  8
1
  6
CONTINUOUS
 62
           2
100
AcDbCircle
 10
846.84740520347
 20
111.031943255227
 40
12.501392530877
100
AcDbArc
 50
171.919992453658
 51
-171.919992453658
  0
ARC
  5
199
100
AcDbEntity
  8
1
  6
CONTINUOUS
 62
           2
100
AcDbCircle
 10
830.781217983219
 20
111.031943255227
 40
4.086015993918
100
AcDbArc
 50
-25.469982787248
 51
25.469982787249
  0
ARC
  5
198
100
AcDbEntity
  8
1
  6
CONTINUOUS
 62
           2
100
AcDbCircle
 10
848.853510214805
 20
111.031943255227
 40
13.608650572955
100
AcDbArc
 50
172.581282466506
 51
-172.581282466506
  0
ARC
  5
197
100
AcDbEntity
  8
1
  6
CONTINUOUS
 62
           2
100
AcDbCircle
 10
831.673395593702
 20
111.031943255227
 40
4.082840743241
100
AcDbArc
 50
-25.491209700778
 51
25.49120970078
  0
ARC
  5
196
100
AcDbEntity
  8
1
  6
CONTINUOUS
 62
           2
100
AcDbCircle
 10
851.072666881615
 20
111.031943255227
 40
14.94614015244
100
AcDbArc
 50
173.248407873555
 51
-173.248407873555
  0
ARC
  5
195
100
AcDbEntity
  8
1
  6
CONTINUOUS
 62
           2
100
AcDbCircle
 10
832.54536324517
 20
111.031943255227
 40
4.082326710968
100
AcDbArc
 50
-25.494649523688
 51
25.49464952369
  0
ARC
  5
194
100
AcDbEntity
  8
1
  6
CONTINUOUS
 62
           2
100
AcDbCircle
 10
853.582512649241
 20
111.031943255227
 40
16.5921346667
100
AcDbArc
 50
173.920853813494
 51
-173.920853813495
  0
ARC
  5
193
100
AcDbEntity
  8
1
  6
CONTINUOUS
 62
           2
100
AcDbCircle
 10
833.396494328694
 20
111.031943255227
 40
4.084471921202
100
AcDbArc
 50
-25.480300499328
 51
25.480300499329
  0
ARC
  5
192
100
AcDbEntity
  8
1
  6
CONTINUOUS
 62
           2
100
AcDbCircle
 10
856.50073184148
 20
111.031943255227
 40
18.664941540907
100
AcDbArc
 50
174.59809850289
 51
-174.59809850289
  0
ARC
  5
191
100
AcDbEntity
  8
1
  6
CONTINUOUS
 62
           2
100
AcDbCircle
 10
834.226165120725
 20
111.031943255227
 40
4.089284624062
100
AcDbArc
 50
-25.448169957084
 51
25.448169957083
  0
ARC
  5
190
100
AcDbEntity
  8
1
  6
CONTINUOUS
 62
           2
100
AcDbCircle
 10
860.014400841709
 20
111.031943255227
 40
21.352246959708
100
AcDbArc
 50
175.279613857382
 51
-175.279613857383
  0
ARC
  5
18F
100
AcDbEntity
  8
1
  6
CONTINUOUS
 62
           2
100
AcDbCircle
 10
835.033755155005
 20
111.031943255227
 40
4.096783367723
100
AcDbArc
 50
-25.398274324571
 51
25.39827432457
  0
ARC
  5
18E
100
AcDbEntity
  8
1
  6
CONTINUOUS
 62
           2
100
AcDbCircle
 10
864.43957883264
 20
111.031943255227
 40
24.97070616713
100
AcDbArc
 50
175.964866138765
 51
-175.964866138765
  0
ARC
  5
18D
100
AcDbEntity
  8
1
  6
CONTINUOUS
 62
           2
100
AcDbCircle
 10
835.818647494231
 20
111.031943255227
 40
4.106997160912
100
AcDbArc
 50
-25.330639154872
 51
25.330639154872
  0
ARC
  5
18C
100
AcDbEntity
  8
1
  6
CONTINUOUS
 62
           2
100
AcDbCircle
 10
870.355057357153
 20
111.031943255228
 40
30.099692597465
100
AcDbArc
 50
176.653316625579
 51
-176.653316625579
  0
ARC
  5
18B
100
AcDbEntity
  8
1
  6
CONTINUOUS
 62
           2
100
AcDbCircle
 10
836.580228898485
 20
111.031943255227
 40
4.119965728564
100
AcDbArc
 50
-25.245299168625
 51
25.245299168631
  0
ARC
  5
18A
100
AcDbEntity
  8
1
  6
CONTINUOUS
 62
           2
100
AcDbCircle
 10
878.946115645825
 20
111.031943255227
 40
37.925052783078
100
AcDbArc
 50
177.344422304671
 51
-177.344422304671
  0
ARC
  5
189
100
AcDbEntity
  8
1
  6
CONTINUOUS
 62
           2
100
AcDbCircle
 10
837.317889885837
 20
111.031943255227
 40
4.135739864891
100
AcDbArc
 50
-25.142298310638
 51
25.14229831064
  0
ARC
  5
188
100
AcDbEntity
  8
1
  6
CONTINUOUS
 62
           2
100
AcDbCircle
 10
893.079332607864
 20
111.031943255227
 40
51.313917936138
100
AcDbArc
 50
178.037636580969
 51
-178.037636580969
  0
ARC
  5
187
100
AcDbEntity
  8
1
  6
CONTINUOUS
 62
           2
100
AcDbCircle
 10
838.031024678899
 20
111.031943255227
 40
4.154381889818
100
AcDbArc
 50
-25.021689820635
 51
25.021689820633
  0
ARC
  5
186
100
AcDbEntity
  8
1
  6
CONTINUOUS
 62
           2
100
AcDbCircle
 10
921.918206320966
 20
111.031943255227
 40
79.430323040101
100
AcDbArc
 50
178.732410002594
 51
-178.732410002594
  0
ARC
  5
185
100
AcDbEntity
  8
1
  6
CONTINUOUS
 62
           2
100
AcDbCircle
 10
838.719031029205
 20
111.031943255227
 40
4.175966216599
100
AcDbArc
 50
-24.883536317614
 51
24.883536317615
  0
ARC
  5
184
100
AcDbEntity
  8
1
  6
CONTINUOUS
 62
           2
100
AcDbCircle
 10
807.287374041558
 20
111.031943255227
 40
4.988393285191
100
AcDbArc
 50
-20.624767847769
 51
20.62476784777
  0
ARC
  5
183
100
AcDbEntity
  8
1
  6
CONTINUOUS
 62
           2
100
AcDbCircle
 10
816.879353080804
 20
111.031943255227
 40
5.227473952211
100
AcDbArc
 50
160.3583598459
 51
-160.358359845901
  0
ARC
  5
182
100
AcDbEntity
  8
1
  6
CONTINUOUS
 62
           2
100
AcDbCircle
 10
808.472195492607
 20
111.031943255227
 40
4.899235816242
100
AcDbArc
 50
-21.017711079804
 51
21.017711079805
  0
ARC
  5
181
100
AcDbEntity
  8
1
  6
CONTINUOUS
 62
           2
100
AcDbCircle
 10
817.924389139333
 20
111.031943255227
 40
5.185679711464
100
AcDbArc
 50
160.193464876452
 51
-160.193464876453
  0
ARC
  5
180
100
AcDbEntity
  8
1
  6
CONTINUOUS
 62
           2
100
AcDbCircle
 10
809.648979889123
 20
111.031943255227
 40
4.816712954694
100
AcDbArc
 50
-21.395351170019
 51
21.39535117002
  0
ARC
  5
17F
100
AcDbEntity
  8
1
  6
CONTINUOUS
 62
           2
100
AcDbCircle
 10
819.10859173022
 20
111.031943255227
 40
5.276039279507
100
AcDbArc
 50
160.546481006697
 51
-160.546481006698
  0
ARC
  5
17E
100
AcDbEntity
  8
1
  6
CONTINUOUS
 62
           2
100
AcDbCircle
 10
810.817419713293
 20
111.031943255227
 40
4.740342921042
100
AcDbArc
 50
-21.757463708819
 51
21.75746370882
  0
ARC
  5
17D
100
AcDbEntity
  8
1
  6
CONTINUOUS
 62
           2
100
AcDbCircle
 10
820.346913481782
 20
111.031943255227
 40
5.419604185507
100
AcDbArc
 50
161.081687914026
 51
-161.081687914027
  0
ARC
  5
17C
100
AcDbEntity
  8
1
  6
CONTINUOUS
 62
           2
100
AcDbCircle
 10
811.977156278201
 20
111.031943255227
 40
4.669696685805
100
AcDbArc
 50
-22.103835952373
 51
22.103835952374
  0
ARC
  5
17B
100
AcDbEntity
  8
1
  6
CONTINUOUS
 62
           2
100
AcDbCircle
 10
821.569530900607
 20
111.031943255227
 40
5.551314384342
100
AcDbArc
 50
161.546956549955
 51
-161.546956549956
  0
ARC
  5
17A
100
AcDbEntity
  8
1
  6
CONTINUOUS
 62
           2
100
AcDbCircle
 10
813.127786717489
 20
111.031943255227
 40
4.604391548045
100
AcDbArc
 50
-22.434266668841
 51
22.434266668842
  0
ARC
  5
179
100
AcDbEntity
  8
1
  6
CONTINUOUS
 62
           2
100
AcDbCircle
 10
822.799980184629
 20
111.031943255227
 40
5.694168035369
100
AcDbArc
 50
162.02593852488
 51
-162.025938524881
  0
ARC
  5
178
100
AcDbEntity
  8
1
  6
CONTINUOUS
 62
           2
100
AcDbCircle
 10
814.268870013368
 20
111.031943255227
 40
4.544085673995
100
AcDbArc
 50
-22.748565977766
 51
22.748565977767
  0
ARC
  5
177
100
AcDbEntity
  8
1
  6
CONTINUOUS
 62
           2
100
AcDbCircle
 10
824.038640672303
 20
111.031943255227
 40
5.849328966254
100
AcDbArc
 50
162.518324819923
 51
-162.518324819924
  0
ARC
  5
176
100
AcDbEntity
  8
1
  6
CONTINUOUS
 62
           2
100
AcDbCircle
 10
815.399932222007
 20
111.031943255227
 40
4.488473436335
100
AcDbArc
 50
-23.046555184543
 51
23.046555184544
  0
ARC
  5
175
100
AcDbEntity
  8
1
  6
CONTINUOUS
 62
           2
100
AcDbCircle
 10
825.286070873709
 20
111.031943255227
 40
6.018137221777
100
AcDbArc
 50
163.023794006763
 51
-163.023794006764
  0
ARC
  5
174
100
AcDbEntity
  8
1
  6
CONTINUOUS
 62
           2
100
AcDbCircle
 10
816.520471025395
 20
111.031943255227
 40
4.43728142465
100
AcDbArc
 50
-23.328066611806
 51
23.328066611807
  0
ARC
  5
173
100
AcDbEntity
  8
1
  6
CONTINUOUS
 62
           2
100
AcDbCircle
 10
826.54304298842
 20
111.031943255227
 40
6.202143017972
100
AcDbArc
 50
163.542012244599
 51
-163.542012244599
  0
ARC
  5
172
100
AcDbEntity
  8
1
  6
CONTINUOUS
 62
           2
100
AcDbCircle
 10
817.62995971491
 20
111.031943255227
 40
4.390265021386
100
AcDbArc
 50
-23.592943429552
 51
23.592943429553
  0
ARC
  5
171
100
AcDbEntity
  8
1
  6
CONTINUOUS
 62
           2
100
AcDbCircle
 10
827.810585640198
 20
111.031943255227
 40
6.403148915642
100
AcDbArc
 50
164.072633303533
 51
-164.072633303534
  0
ARC
  5
170
100
AcDbEntity
  8
1
  6
CONTINUOUS
 62
           2
100
AcDbCircle
 10
818.727850692841
 20
111.031943255227
 40
4.3472054567
100
AcDbArc
 50
-23.841039485704
 51
23.841039485705
  0
ARC
  5
16F
100
AcDbEntity
  8
1
  6
CONTINUOUS
 62
           2
100
AcDbCircle
 10
829.090037242623
 20
111.031943255227
 40
6.623262627736
100
AcDbArc
 50
164.615298616132
 51
-164.615298616132
  0
ARC
  5
16E
100
AcDbEntity
  8
1
  6
CONTINUOUS
 62
           2
100
AcDbCircle
 10
815.799353080804
 20
111.031943255227
 40
5.227473952211
100
AcDbArc
 50
160.3583598459
 51
-160.358359845901
  0
ARC
  5
16D
100
AcDbEntity
  8
1
  6
CONTINUOUS
 62
           2
100
AcDbCircle
 10
806.207374041558
 20
111.031943255227
 40
4.988393285191
100
AcDbArc
 50
-20.624767847769
 51
20.62476784777
  0
ARC
  5
16C
100
AcDbEntity
  8
1
  6
CONTINUOUS
 62
           2
100
AcDbCircle
 10
805.127374041558
 20
111.031943255227
 40
4.988393285191
100
AcDbArc
 50
-20.624767847769
 51
20.62476784777
  0
ARC
  5
16B
100
AcDbEntity
  8
1
  6
CONTINUOUS
 62
           2
100
AcDbCircle
 10
814.719353080804
 20
111.031943255227
 40
5.227473952211
100
AcDbArc
 50
160.3583598459
 51
-160.358359845901
  0
ARC
  5
16A
100
AcDbEntity
  8
1
  6
CONTINUOUS
 62
           2
100
AcDbCircle
 10
813.639353080804
 20
111.031943255227
 40
5.227473952211
100
AcDbArc
 50
160.358359845901
 51
-160.358359845901
  0
ARC
  5
169
100
AcDbEntity
  8
1
  6
CONTINUOUS
 62
           2
100
AcDbCircle
 10
804.047374041558
 20
111.031943255227
 40
4.988393285191
100
AcDbArc
 50
-20.624767847769
 51
20.62476784777
  0
ARC
  5
168
100
AcDbEntity
  8
1
  6
CONTINUOUS
 62
           2
100
AcDbCircle
 10
802.967374041558
 20
111.031943255227
 40
4.988393285191
100
AcDbArc
 50
-20.624767847769
 51
20.62476784777
  0
ARC
  5
167
100
AcDbEntity
  8
1
  6
CONTINUOUS
 62
           2
100
AcDbCircle
 10
812.559353080804
 20
111.031943255227
 40
5.227473952211
100
AcDbArc
 50
160.3583598459
 51
-160.358359845901
  0
ARC
  5
166
100
AcDbEntity
  8
1
  6
CONTINUOUS
 62
           2
100
AcDbCircle
 10
811.479353080804
 20
111.031943255227
 40
5.227473952211
100
AcDbArc
 50
160.358359845899
 51
-160.3583598459
  0
ARC
  5
165
100
AcDbEntity
  8
1
  6
CONTINUOUS
 62
           2
100
AcDbCircle
 10
801.887374041558
 20
111.031943255227
 40
4.988393285191
100
AcDbArc
 50
-20.624767847769
 51
20.62476784777
  0
ARC
  5
164
100
AcDbEntity
  8
1
  6
CONTINUOUS
 62
           2
100
AcDbCircle
 10
800.807374041558
 20
111.031943255227
 40
4.988393285191
100
AcDbArc
 50
-20.62476784777
 51
20.624767847771
  0
ARC
  5
163
100
AcDbEntity
  8
1
  6
CONTINUOUS
 62
           2
100
AcDbCircle
 10
810.399353080804
 20
111.031943255227
 40
5.227473952211
100
AcDbArc
 50
160.358359845901
 51
-160.358359845901
  0
ARC
  5
162
100
AcDbEntity
  8
1
  6
CONTINUOUS
 62
           7
100
AcDbCircle
 10
850.045968196286
 20
104.1502306177
 40
1.384167850292
100
AcDbArc
 50
-3.785515640977
 51
94.92579117639
  0
ARC
  5
161
100
AcDbEntity
  8
1
  6
CONTINUOUS
 62
           7
100
AcDbCircle
 10
849.770608333053
 20
103.190988122244
 40
1.662270809802
100
AcDbArc
 50
-91.499279366466
 51
-4.772433449723
  0
ARC
  5
160
100
AcDbEntity
  8
1
  6
CONTINUOUS
 62
           7
100
AcDbCircle
 10
817.877116022851
 20
-45.833240462314
 40
10.0
100
AcDbArc
 50
117.71022183523
 51
179.995340355051
  0
ARC
  5
15F
100
AcDbEntity
  8
1
  6
CONTINUOUS
 62
           7
100
AcDbCircle
 10
790.577116088991
 20
-45.833240462313
 40
10.0
100
AcDbArc
 50
0.004659644947
 51
62.289778164771
  0
ARC
  5
15E
100
AcDbEntity
  8
1
  6
CONTINUOUS
 62
           7
100
AcDbCircle
 10
833.787852478872
 20
-37.456392647603
 40
6.0
100
AcDbArc
 50
-58.644680567663
 51
0.597732010135
  0
ARC
  5
15D
100
AcDbEntity
  8
1
  6
CONTINUOUS
 62
           6
100
AcDbCircle
 10
835.031978738039
 20
-37.456392647603
 40
6.0
100
AcDbArc
 50
176.882918637988
 51
179.402267989865
  0
ARC
  5
15C
100
AcDbEntity
  8
1
  6
CONTINUOUS
 62
           7
100
AcDbCircle
 10
835.031978738039
 20
-37.456392647603
 40
6.0
100
AcDbArc
 50
179.402267989865
 51
-121.355319432337
  0
ARC
  5
15B
100
AcDbEntity
  8
1
  6
CONTINUOUS
 62
           7
100
AcDbCircle
 10
835.031978738039
 20
-20.503874643663
 40
6.0
100
AcDbArc
 50
121.355319432337
 51
-179.402267989865
  0
ARC
  5
15A
100
AcDbEntity
  8
1
  6
CONTINUOUS
 62
           6
100
AcDbCircle
 10
835.031978738039
 20
-20.503874643663
 40
6.0
100
AcDbArc
 50
-179.402267989865
 51
-176.882918637988
  0
ARC
  5
159
100
AcDbEntity
  8
1
  6
CONTINUOUS
 62
           7
100
AcDbCircle
 10
833.787852478872
 20
-20.503874643663
 40
6.0
100
AcDbArc
 50
-0.597732010135
 51
58.644680567663
  0
ARC
  5
158
100
AcDbEntity
  8
1
  6
CONTINUOUS
 62
           7
100
AcDbCircle
 10
758.683623778789
 20
103.190988122244
 40
1.662270809802
100
AcDbArc
 50
-175.227566550277
 51
-88.500720633533
  0
ARC
  5
157
100
AcDbEntity
  8
1
  6
CONTINUOUS
 62
           7
100
AcDbCircle
 10
758.408263915556
 20
104.1502306177
 40
1.384167850292
100
AcDbArc
 50
85.074208823609
 51
-176.214484359023
  0
ARC
  5
156
100
AcDbEntity
  8
1
  6
CONTINUOUS
 62
           2
100
AcDbCircle
 10
798.054879031038
 20
111.031943255227
 40
5.227473952211
100
AcDbArc
 50
-19.641640154098
 51
19.641640154099
  0
ARC
  5
155
100
AcDbEntity
  8
1
  6
CONTINUOUS
 62
           2
100
AcDbCircle
 10
807.646858070284
 20
111.031943255227
 40
4.988393285191
100
AcDbArc
 50
159.375232152228
 51
-159.375232152229
  0
ARC
  5
154
100
AcDbEntity
  8
1
  6
CONTINUOUS
 62
           2
100
AcDbCircle
 10
806.566858070284
 20
111.031943255227
 40
4.988393285191
100
AcDbArc
 50
159.375232152229
 51
-159.37523215223
  0
ARC
  5
153
100
AcDbEntity
  8
1
  6
CONTINUOUS
 62
           2
100
AcDbCircle
 10
796.974879031038
 20
111.031943255227
 40
5.227473952211
100
AcDbArc
 50
-19.641640154099
 51
19.6416401541
  0
ARC
  5
152
100
AcDbEntity
  8
1
  6
CONTINUOUS
 62
           2
100
AcDbCircle
 10
795.894879031038
 20
111.031943255227
 40
5.227473952211
100
AcDbArc
 50
-19.641640154099
 51
19.641640154099
  0
ARC
  5
151
100
AcDbEntity
  8
1
  6
CONTINUOUS
 62
           2
100
AcDbCircle
 10
805.486858070284
 20
111.031943255227
 40
4.988393285191
100
AcDbArc
 50
159.375232152229
 51
-159.37523215223
  0
ARC
  5
150
100
AcDbEntity
  8
1
  6
CONTINUOUS
 62
           2
100
AcDbCircle
 10
804.406858070284
 20
111.031943255227
 40
4.988393285191
100
AcDbArc
 50
159.375232152229
 51
-159.37523215223
  0
ARC
  5
14F
100
AcDbEntity
  8
1
  6
CONTINUOUS
 62
           2
100
AcDbCircle
 10
794.814879031038
 20
111.031943255227
 40
5.227473952211
100
AcDbArc
 50
-19.641640154098
 51
19.641640154099
  0
ARC
  5
14E
100
AcDbEntity
  8
1
  6
CONTINUOUS
 62
           2
100
AcDbCircle
 10
793.734879031038
 20
111.031943255227
 40
5.227473952211
100
AcDbArc
 50
-19.641640154099
 51
19.6416401541
  0
ARC
  5
14D
100
AcDbEntity
  8
1
  6
CONTINUOUS
 62
           2
100
AcDbCircle
 10
803.326858070284
 20
111.031943255227
 40
4.988393285191
100
AcDbArc
 50
159.375232152229
 51
-159.37523215223
  0
ARC
  5
14C
100
AcDbEntity
  8
1
  6
CONTINUOUS
 62
           2
100
AcDbCircle
 10
802.246858070284
 20
111.031943255227
 40
4.988393285191
100
AcDbArc
 50
159.37523215223
 51
-159.375232152231
  0
ARC
  5
14B
100
AcDbEntity
  8
1
  6
CONTINUOUS
 62
           2
100
AcDbCircle
 10
792.654879031038
 20
111.031943255227
 40
5.227473952211
100
AcDbArc
 50
-19.641640154099
 51
19.641640154099
  0
ARC
  5
14A
100
AcDbEntity
  8
1
  6
CONTINUOUS
 62
           2
100
AcDbCircle
 10
779.364194869219
 20
111.031943255227
 40
6.623262627736
100
AcDbArc
 50
-15.384701383867
 51
15.384701383868
  0
ARC
  5
149
100
AcDbEntity
  8
1
  6
CONTINUOUS
 62
           2
100
AcDbCircle
 10
789.726381419001
 20
111.031943255227
 40
4.3472054567
100
AcDbArc
 50
156.158960514295
 51
-156.158960514296
  0
ARC
  5
148
100
AcDbEntity
  8
1
  6
CONTINUOUS
 62
           2
100
AcDbCircle
 10
780.643646471644
 20
111.031943255227
 40
6.403148915642
100
AcDbArc
 50
-15.927366696466
 51
15.927366696467
  0
ARC
  5
147
100
AcDbEntity
  8
1
  6
CONTINUOUS
 62
           2
100
AcDbCircle
 10
790.824272396932
 20
111.031943255227
 40
4.390265021386
100
AcDbArc
 50
156.407056570447
 51
-156.407056570448
  0
ARC
  5
146
100
AcDbEntity
  8
1
  6
CONTINUOUS
 62
           2
100
AcDbCircle
 10
781.911189123422
 20
111.031943255227
 40
6.202143017972
100
AcDbArc
 50
-16.4579877554
 51
16.457987755401
  0
ARC
  5
145
100
AcDbEntity
  8
1
  6
CONTINUOUS
 62
           2
100
AcDbCircle
 10
791.933761086447
 20
111.031943255227
 40
4.43728142465
100
AcDbArc
 50
156.671933388193
 51
-156.671933388194
  0
ARC
  5
144
100
AcDbEntity
  8
1
  6
CONTINUOUS
 62
           2
100
AcDbCircle
 10
783.168161238133
 20
111.031943255227
 40
6.018137221777
100
AcDbArc
 50
-16.976205993236
 51
16.976205993236
  0
ARC
  5
143
100
AcDbEntity
  8
1
  6
CONTINUOUS
 62
           2
100
AcDbCircle
 10
793.054299889835
 20
111.031943255227
 40
4.488473436335
100
AcDbArc
 50
156.953444815455
 51
-156.953444815456
  0
ARC
  5
142
100
AcDbEntity
  8
1
  6
CONTINUOUS
 62
           2
100
AcDbCircle
 10
784.415591439539
 20
111.031943255227
 40
5.849328966254
100
AcDbArc
 50
-17.481675180076
 51
17.481675180077
  0
ARC
  5
141
100
AcDbEntity
  8
1
  6
CONTINUOUS
 62
           2
100
AcDbCircle
 10
794.185362098474
 20
111.031943255227
 40
4.544085673995
100
AcDbArc
 50
157.251434022233
 51
-157.251434022234
  0
ARC
  5
140
100
AcDbEntity
  8
1
  6
CONTINUOUS
 62
           2
100
AcDbCircle
 10
785.654251927213
 20
111.031943255227
 40
5.694168035369
100
AcDbArc
 50
-17.974061475118
 51
17.974061475119
  0
ARC
  5
13F
100
AcDbEntity
  8
1
  6
CONTINUOUS
 62
           2
100
AcDbCircle
 10
795.326445394353
 20
111.031943255227
 40
4.604391548045
100
AcDbArc
 50
157.565733331158
 51
-157.565733331159
  0
ARC
  5
13E
100
AcDbEntity
  8
1
  6
CONTINUOUS
 62
           2
100
AcDbCircle
 10
786.884701211235
 20
111.031943255227
 40
5.551314384342
100
AcDbArc
 50
-18.453043450043
 51
18.453043450044
  0
ARC
  5
13D
100
AcDbEntity
  8
1
  6
CONTINUOUS
 62
           2
100
AcDbCircle
 10
796.477075833641
 20
111.031943255227
 40
4.669696685805
100
AcDbArc
 50
157.896164047625
 51
-157.896164047626
  0
ARC
  5
13C
100
AcDbEntity
  8
1
  6
CONTINUOUS
 62
           2
100
AcDbCircle
 10
788.10731863006
 20
111.031943255227
 40
5.419604185507
100
AcDbArc
 50
-18.918312085973
 51
18.918312085973
  0
ARC
  5
13B
100
AcDbEntity
  8
1
  6
CONTINUOUS
 62
           2
100
AcDbCircle
 10
797.636812398549
 20
111.031943255227
 40
4.740342921042
100
AcDbArc
 50
158.242536291179
 51
-158.24253629118
  0
ARC
  5
13A
100
AcDbEntity
  8
1
  6
CONTINUOUS
 62
           2
100
AcDbCircle
 10
789.345640381622
 20
111.031943255227
 40
5.276039279507
100
AcDbArc
 50
-19.453518993302
 51
19.453518993302
  0
ARC
  5
139
100
AcDbEntity
  8
1
  6
CONTINUOUS
 62
           2
100
AcDbCircle
 10
798.805252222719
 20
111.031943255227
 40
4.816712954694
100
AcDbArc
 50
158.60464882998
 51
-158.604648829981
  0
ARC
  5
138
100
AcDbEntity
  8
1
  6
CONTINUOUS
 62
           2
100
AcDbCircle
 10
790.529842972509
 20
111.031943255227
 40
5.185679711464
100
AcDbArc
 50
-19.806535123547
 51
19.806535123548
  0
ARC
  5
137
100
AcDbEntity
  8
1
  6
CONTINUOUS
 62
           2
100
AcDbCircle
 10
799.982036619235
 20
111.031943255227
 40
4.899235816242
100
AcDbArc
 50
158.982288920195
 51
-158.982288920196
  0
ARC
  5
136
100
AcDbEntity
  8
1
  6
CONTINUOUS
 62
           2
100
AcDbCircle
 10
791.574879031038
 20
111.031943255227
 40
5.227473952211
100
AcDbArc
 50
-19.641640154099
 51
19.641640154099
  0
ARC
  5
135
100
AcDbEntity
  8
1
  6
CONTINUOUS
 62
           2
100
AcDbCircle
 10
801.166858070284
 20
111.031943255227
 40
4.988393285191
100
AcDbArc
 50
159.375232152229
 51
-159.37523215223
  0
ARC
  5
134
100
AcDbEntity
  8
1
  6
CONTINUOUS
 62
           2
100
AcDbCircle
 10
769.735201082637
 20
111.031943255227
 40
4.175966216599
100
AcDbArc
 50
155.116463682384
 51
-155.116463682385
  0
ARC
  5
133
100
AcDbEntity
  8
1
  6
CONTINUOUS
 62
           2
100
AcDbCircle
 10
686.536025790876
 20
111.031943255227
 40
79.430323040101
100
AcDbArc
 50
-1.267589997405
 51
1.267589997405
  0
ARC
  5
132
100
AcDbEntity
  8
1
  6
CONTINUOUS
 62
           2
100
AcDbCircle
 10
770.423207432943
 20
111.031943255227
 40
4.154381889818
100
AcDbArc
 50
154.978310179367
 51
-154.978310179366
  0
ARC
  5
131
100
AcDbEntity
  8
1
  6
CONTINUOUS
 62
           2
100
AcDbCircle
 10
715.374899503978
 20
111.031943255227
 40
51.313917936138
100
AcDbArc
 50
-1.962363419031
 51
1.962363419031
  0
ARC
  5
130
100
AcDbEntity
  8
1
  6
CONTINUOUS
 62
           2
100
AcDbCircle
 10
771.136342226005
 20
111.031943255227
 40
4.135739864891
100
AcDbArc
 50
154.85770168936
 51
-154.857701689361
  0
ARC
  5
12F
100
AcDbEntity
  8
1
  6
CONTINUOUS
 62
           2
100
AcDbCircle
 10
729.508116466017
 20
111.031943255227
 40
37.925052783078
100
AcDbArc
 50
-2.655577695328
 51
2.655577695328
  0
ARC
  5
12E
100
AcDbEntity
  8
1
  6
CONTINUOUS
 62
           2
100
AcDbCircle
 10
771.874003213357
 20
111.031943255227
 40
4.119965728564
100
AcDbArc
 50
154.754700831369
 51
-154.754700831374
  0
ARC
  5
12D
100
AcDbEntity
  8
1
  6
CONTINUOUS
 62
           2
100
AcDbCircle
 10
738.09917475469
 20
111.031943255228
 40
30.099692597465
100
AcDbArc
 50
-3.346683374421
 51
3.346683374421
  0
ARC
  5
12C
100
AcDbEntity
  8
1
  6
CONTINUOUS
 62
           2
100
AcDbCircle
 10
772.635584617611
 20
111.031943255227
 40
4.106997160913
100
AcDbArc
 50
154.669360845128
 51
-154.669360845128
  0
ARC
  5
12B
100
AcDbEntity
  8
1
  6
CONTINUOUS
 62
           2
100
AcDbCircle
 10
744.014653279202
 20
111.031943255227
 40
24.97070616713
100
AcDbArc
 50
-4.035133861235
 51
4.035133861235
  0
ARC
  5
12A
100
AcDbEntity
  8
1
  6
CONTINUOUS
 62
           2
100
AcDbCircle
 10
773.420476956838
 20
111.031943255227
 40
4.096783367723
100
AcDbArc
 50
154.601725675429
 51
-154.60172567543
  0
ARC
  5
129
100
AcDbEntity
  8
1
  6
CONTINUOUS
 62
           2
100
AcDbCircle
 10
748.439831270133
 20
111.031943255227
 40
21.352246959708
100
AcDbArc
 50
-4.720386142617
 51
4.720386142618
  0
ARC
  5
128
100
AcDbEntity
  8
1
  6
CONTINUOUS
 62
           2
100
AcDbCircle
 10
774.228066991117
 20
111.031943255227
 40
4.089284624062
100
AcDbArc
 50
154.551830042917
 51
-154.551830042916
  0
ARC
  5
127
100
AcDbEntity
  8
1
  6
CONTINUOUS
 62
           2
100
AcDbCircle
 10
751.953500270362
 20
111.031943255227
 40
18.664941540907
100
AcDbArc
 50
-5.40190149711
 51
5.401901497109
  0
ARC
  5
126
100
AcDbEntity
  8
1
  6
CONTINUOUS
 62
           2
100
AcDbCircle
 10
775.057737783148
 20
111.031943255227
 40
4.084471921202
100
AcDbArc
 50
154.51969950067
 51
-154.519699500671
  0
ARC
  5
125
100
AcDbEntity
  8
1
  6
CONTINUOUS
 62
           2
100
AcDbCircle
 10
754.871719462601
 20
111.031943255227
 40
16.5921346667
100
AcDbArc
 50
-6.079146186505
 51
6.079146186505
  0
ARC
  5
124
100
AcDbEntity
  8
1
  6
CONTINUOUS
 62
           2
100
AcDbCircle
 10
775.908868866672
 20
111.031943255227
 40
4.082326710968
100
AcDbArc
 50
154.505350476309
 51
-154.505350476311
  0
ARC
  5
123
100
AcDbEntity
  8
1
  6
CONTINUOUS
 62
           2
100
AcDbCircle
 10
757.381565230227
 20
111.031943255227
 40
14.94614015244
100
AcDbArc
 50
-6.751592126444
 51
6.751592126445
  0
ARC
  5
122
100
AcDbEntity
  8
1
  6
CONTINUOUS
 62
           2
100
AcDbCircle
 10
776.78083651814
 20
111.031943255227
 40
4.082840743241
100
AcDbArc
 50
154.508790299221
 51
-154.508790299222
  0
ARC
  5
121
100
AcDbEntity
  8
1
  6
CONTINUOUS
 62
           2
100
AcDbCircle
 10
759.600721897037
 20
111.031943255227
 40
13.608650572955
100
AcDbArc
 50
-7.418717533493
 51
7.418717533494
  0
ARC
  5
120
100
AcDbEntity
  8
1
  6
CONTINUOUS
 62
           2
100
AcDbCircle
 10
777.673014128623
 20
111.031943255227
 40
4.086015993918
100
AcDbArc
 50
154.530017212752
 51
-154.530017212753
  0
ARC
  5
11F
100
AcDbEntity
  8
1
  6
CONTINUOUS
 62
           2
100
AcDbCircle
 10
761.606826908371
 20
111.031943255227
 40
12.501392530877
100
AcDbArc
 50
-8.080007546341
 51
8.080007546342
  0
ARC
  5
11E
100
AcDbEntity
  8
1
  6
CONTINUOUS
 62
           2
100
AcDbCircle
 10
778.584772674452
 20
111.031943255227
 40
4.091864682154
100
AcDbArc
 50
154.569020371303
 51
-154.569020371301
  0
ARC
  5
11D
100
AcDbEntity
  8
1
  6
CONTINUOUS
 62
           2
100
AcDbCircle
 10
763.453083520491
 20
111.031943255227
 40
11.570514425979
100
AcDbArc
 50
-8.734954818979
 51
8.734954818979
  0
ARC
  5
11C
100
AcDbEntity
  8
1
  6
CONTINUOUS
 62
           2
100
AcDbCircle
 10
779.515481286546
 20
111.031943255227
 40
4.100409377161
100
AcDbArc
 50
154.625779822269
 51
-154.62577982227
  0
ARC
  5
11B
100
AcDbEntity
  8
1
  6
CONTINUOUS
 62
           2
100
AcDbCircle
 10
765.177096024511
 20
111.031943255227
 40
10.777751698897
100
AcDbArc
 50
-9.383060083926
 51
9.383060083926
  0
ARC
  5
11A
100
AcDbEntity
  8
1
  6
CONTINUOUS
 62
           2
100
AcDbCircle
 10
780.464507919867
 20
111.031943255227
 40
4.111683196324
100
AcDbArc
 50
154.700266473066
 51
-154.700266473067
  0
ARC
  5
119
100
AcDbEntity
  8
1
  6
CONTINUOUS
 62
           2
100
AcDbCircle
 10
766.806128459907
 20
111.031943255227
 40
10.095168593882
100
AcDbArc
 50
-10.02383268384
 51
10.023832683841
  0
ARC
  5
118
100
AcDbEntity
  8
1
  6
CONTINUOUS
 62
           2
100
AcDbCircle
 10
781.431220125934
 20
111.031943255227
 40
4.125730097937
100
AcDbArc
 50
154.792442043356
 51
-154.792442043357
  0
ARC
  5
117
100
AcDbEntity
  8
1
  6
CONTINUOUS
 62
           2
100
AcDbCircle
 10
768.360369217529
 20
111.031943255227
 40
9.501894040298
100
AcDbArc
 50
-10.656791070076
 51
10.656791070076
  0
ARC
  5
116
100
AcDbEntity
  8
1
  6
CONTINUOUS
 62
           2
100
AcDbCircle
 10
782.41498593296
 20
111.031943255227
 40
4.142605273445
100
AcDbArc
 50
154.902259002921
 51
-154.902259002923
  0
ARC
  5
115
100
AcDbEntity
  8
1
  6
CONTINUOUS
 62
           2
100
AcDbCircle
 10
769.855031362246
 20
111.031943255227
 40
8.982021822399
100
AcDbArc
 50
-11.281463267015
 51
11.281463267016
  0
ARC
  5
114
100
AcDbEntity
  8
1
  6
CONTINUOUS
 62
           2
100
AcDbCircle
 10
783.415174839903
 20
111.031943255227
 40
4.162375645836
100
AcDbArc
 50
155.029660495585
 51
-155.029660495586
  0
ARC
  5
113
100
AcDbEntity
  8
1
  6
CONTINUOUS
 62
           2
100
AcDbCircle
 10
771.301745993483
 20
111.031943255227
 40
8.523217718768
100
AcDbArc
 50
-11.897387301262
 51
11.897387301262
  0
ARC
  5
112
100
AcDbEntity
  8
1
  6
CONTINUOUS
 62
           2
100
AcDbCircle
 10
784.431158932662
 20
111.031943255227
 40
4.185120482783
100
AcDbArc
 50
155.174580249754
 51
-155.174580249755
  0
ARC
  5
111
100
AcDbEntity
  8
1
  6
CONTINUOUS
 62
           2
100
AcDbCircle
 10
772.709511578451
 20
111.031943255227
 40
8.11577067625
100
AcDbArc
 50
-12.504111595024
 51
12.504111595025
  0
ARC
  5
110
100
AcDbEntity
  8
1
  6
CONTINUOUS
 62
           2
100
AcDbCircle
 10
785.46231413277
 20
111.031943255227
 40
4.210932135244
100
AcDbArc
 50
155.336942476241
 51
-155.336942476242
  0
ARC
  5
10F
100
AcDbEntity
  8
1
  6
CONTINUOUS
 62
           2
100
AcDbCircle
 10
774.085356070576
 20
111.031943255227
 40
7.751931205521
100
AcDbArc
 50
-13.101195323309
 51
13.101195323309
  0
ARC
  5
10E
100
AcDbEntity
  8
1
  6
CONTINUOUS
 62
           2
100
AcDbCircle
 10
778.071118855671
 20
111.031943255227
 40
6.864963721533
100
AcDbArc
 50
-14.830362641291
 51
14.830362641291
  0
ARC
  5
10D
100
AcDbEntity
  8
1
  6
CONTINUOUS
 62
           2
100
AcDbCircle
 10
788.640653549122
 20
111.031943255227
 40
4.3079072709
100
AcDbArc
 50
155.927780861216
 51
-155.927780861217
  0
ARC
  5
10C
100
AcDbEntity
  8
1
  6
CONTINUOUS
 62
           2
100
AcDbCircle
 10
776.762240318945
 20
111.031943255227
 40
7.131188672168
100
AcDbArc
 50
-14.264733436182
 51
14.264733436183
  0
ARC
  5
10B
100
AcDbEntity
  8
1
  6
CONTINUOUS
 62
           2
100
AcDbCircle
 10
787.56766924485
 20
111.031943255227
 40
4.272196125596
100
AcDbArc
 50
155.713642905773
 51
-155.713642905774
  0
ARC
  5
10A
100
AcDbEntity
  8
1
  6
CONTINUOUS
 62
           2
100
AcDbCircle
 10
775.434808374609
 20
111.031943255227
 40
7.425440436421
100
AcDbArc
 50
-13.688208734749
 51
13.68820873475
  0
ARC
  5
109
100
AcDbEntity
  8
1
  6
CONTINUOUS
 62
           2
100
AcDbCircle
 10
786.508021591469
 20
111.031943255227
 40
4.239916914773
100
AcDbArc
 50
155.516661754162
 51
-155.516661754163
  0
ARC
  5
108
100
AcDbEntity
  8
1
  6
CONTINUOUS
 62
           2
100
AcDbCircle
 10
769.097071332405
 20
111.031943255227
 40
4.222526887852
100
AcDbArc
 50
155.409162471168
 51
-155.322844332812
  0
ARC
  5
107
100
AcDbEntity
  8
1
  6
CONTINUOUS
 62
           2
100
AcDbCircle
 10
768.445981032256
 20
111.028302264653
 40
4.24105416365
100
AcDbArc
 50
155.469600298428
 51
-155.540569074764
  0
ARC
  5
106
100
AcDbEntity
  8
1
  6
CONTINUOUS
 62
           2
100
AcDbCircle
 10
767.951960175041
 20
111.031943255227
 40
4.392642375435
100
AcDbArc
 50
156.420598912876
 51
-156.420598912877
  0
ARC
  5
105
100
AcDbEntity
  8
1
  6
CONTINUOUS
 62
           2
100
AcDbCircle
 10
767.488175965141
 20
111.031943255227
 40
4.552632835987
100
AcDbArc
 50
157.296530306003
 51
-157.296530306004
  0
ARC
  5
104
100
AcDbEntity
  8
1
  6
CONTINUOUS
 62
           2
100
AcDbCircle
 10
767.0660771563
 20
111.031943255227
 40
4.729718226667
100
AcDbArc
 50
158.191158574171
 51
-158.191158574172
  0
ARC
  5
103
100
AcDbEntity
  8
1
  6
CONTINUOUS
 62
           2
100
AcDbCircle
 10
766.688656111
 20
111.031943255227
 40
4.92645871445
100
AcDbArc
 50
159.103886235634
 51
-159.103886235635
  0
ARC
  5
102
100
AcDbEntity
  8
1
  6
CONTINUOUS
 62
           2
100
AcDbCircle
 10
766.35942697419
 20
111.031943255227
 40
5.145954297858
100
AcDbArc
 50
160.034087042744
 51
-160.034087042745
  0
ARC
  5
101
100
AcDbEntity
  8
1
  6
CONTINUOUS
 62
           2
100
AcDbCircle
 10
766.082575223019
 20
111.031943255227
 40
5.391994655414
100
AcDbArc
 50
160.981106018721
 51
-160.981106018722
  0
ARC
  5
100
100
AcDbEntity
  8
1
  6
CONTINUOUS
 62
           2
100
AcDbCircle
 10
765.863160124778
 20
111.031943255227
 40
5.669261889084
100
AcDbArc
 50
161.944259627566
 51
-161.944259627567
  0
ARC
  5
FF
100
AcDbEntity
  8
1
  6
CONTINUOUS
 62
           2
100
AcDbCircle
 10
765.707393244484
 20
111.031943255227
 40
5.983609303913
100
AcDbArc
 50
162.922836082986
 51
-162.922836082987
  0
ARC
  5
FE
100
AcDbEntity
  8
1
  6
CONTINUOUS
 62
           2
100
AcDbCircle
 10
765.623028485506
 20
111.031943255227
 40
6.342451707066
100
AcDbArc
 50
163.916095801176
 51
-163.916095801177
  0
ARC
  5
FD
100
AcDbEntity
  8
1
  6
CONTINUOUS
 62
           2
100
AcDbCircle
 10
765.61991942279
 20
111.031943255227
 40
6.755322985647
100
AcDbArc
 50
164.923272001177
 51
-164.923272001178
  0
ARC
  5
FC
100
AcDbEntity
  8
1
  6
CONTINUOUS
 62
           2
100
AcDbCircle
 10
765.710834001731
 20
111.031943255227
 40
7.234691036164
100
AcDbArc
 50
165.943571455261
 51
-165.943571455262
  0
ARC
  5
FB
100
AcDbEntity
  8
1
  6
CONTINUOUS
 62
           2
100
AcDbCircle
 10
765.912676724332
 20
111.031943255227
 40
7.797180167113
100
AcDbArc
 50
166.976175390467
 51
-166.976175390468
  0
ARC
  5
FA
100
AcDbEntity
  8
1
  6
CONTINUOUS
 62
           2
100
AcDbCircle
 10
766.248377623557
 20
111.031943255227
 40
8.465460275436
100
AcDbArc
 50
168.020240540937
 51
-168.020240540938
  0
ARC
  5
F9
100
AcDbEntity
  8
1
  6
CONTINUOUS
 62
           2
100
AcDbCircle
 10
766.749914767451
 20
111.031943255227
 40
9.271269538272
100
AcDbArc
 50
169.074900349229
 51
-169.074900349229
  0
ARC
  5
F8
100
AcDbEntity
  8
1
  6
CONTINUOUS
 62
           2
100
AcDbCircle
 10
767.46335191584
 20
111.031943255227
 40
10.260452242698
100
AcDbArc
 50
170.139266313186
 51
-170.139266313187
  0
ARC
  5
F7
100
AcDbEntity
  8
1
  6
CONTINUOUS
 62
           2
100
AcDbCircle
 10
768.457654575171
 20
111.031943255227
 40
11.501774998858
100
AcDbArc
 50
171.212429473395
 51
-171.212429473395
  0
ARC
  5
F6
100
AcDbEntity
  8
1
  6
CONTINUOUS
 62
           2
100
AcDbCircle
 10
769.841062834688
 20
111.031943255227
 40
13.103299719617
100
AcDbArc
 50
172.293462034641
 51
-172.293462034641
  0
ARC
  5
F5
100
AcDbEntity
  8
1
  6
CONTINUOUS
 62
           2
100
AcDbCircle
 10
771.793837211328
 20
111.031943255227
 40
15.245129593954
100
AcDbArc
 50
173.381419113257
 51
-173.381419113258
  0
ARC
  5
F4
100
AcDbEntity
  8
1
  6
CONTINUOUS
 62
           2
100
AcDbCircle
 10
778.305134710311
 20
111.031943255227
 40
21.926823565592
100
AcDbArc
 50
175.4035778173
 51
-175.4035778173
  0
LINE
  5
F3
100
AcDbEntity
  8
1
  6
CONTINUOUS
 62
           7
100
AcDbLine
 10
813.227116055921
 20
-36.980133645633
 11
795.227116055921
 21
-36.980133645633
  0
LINE
  5
F2
100
AcDbEntity
  8
1
  6
CONTINUOUS
 62
           7
100
AcDbLine
 10
817.369123290195
 20
-33.130133645634
 11
825.085108821647
 21
-33.130133645634
  0
LINE
  5
F1
100
AcDbEntity
  8
1
  6
CONTINUOUS
 62
           7
100
AcDbLine
 10
817.369123290195
 20
-24.830133645634
 11
825.085108821647
 21
-24.830133645634
  0
LINE
  5
F0
100
AcDbEntity
  8
1
  6
CONTINUOUS
 62
           7
100
AcDbLine
 10
828.209915608455
 20
-21.730133645634
 11
828.209915608455
 21
-28.980133645633
  0
LINE
  5
EF
100
AcDbEntity
  8
1
  6
CONTINUOUS
 62
           7
100
AcDbLine
 10
840.609915608455
 20
-28.980133645633
 11
840.609915608455
 21
-21.730133645634
  0
LINE
  5
EE
100
AcDbEntity
  8
1
  6
CONTINUOUS
 62
           7
100
AcDbLine
 10
828.209915608455
 20
-28.980133645633
 11
828.209915608455
 21
-36.230133645633
  0
LINE
  5
ED
100
AcDbEntity
  8
1
  6
CONTINUOUS
 62
           7
100
AcDbLine
 10
840.609915608455
 20
-36.230133645633
 11
840.609915608455
 21
-28.980133645633
  0
LINE
  5
EC
100
AcDbEntity
  8
1
  6
CONTINUOUS
 62
           7
100
AcDbLine
 10
852.427116055921
 20
112.031943255227
 11
852.427116055921
 21
110.031943255227
  0
LINE
  5
EB
100
AcDbEntity
  8
1
  6
CONTINUOUS
 62
           7
100
AcDbLine
 10
842.227116055921
 20
115.031943255227
 11
842.227116055921
 21
115.035514683799
  0
LINE
  5
EA
100
AcDbEntity
  8
1
  6
CONTINUOUS
 62
           2
100
AcDbLine
 10
852.246100521577
 20
112.78908611237
 11
852.246100521577
 21
109.527767317811
  0
LINE
  5
E9
100
AcDbEntity
  8
1
  6
CONTINUOUS
 62
           7
100
AcDbLine
 10
804.227116055921
 20
115.031943255227
 11
849.427116055921
 21
115.031943255227
  0
LINE
  5
E8
100
AcDbEntity
  8
1
  6
CONTINUOUS
 62
           2
100
AcDbLine
 10
852.334727871679
 20
112.739394421129
 11
852.334727871679
 21
109.548210520251
  0
LINE
  5
E7
100
AcDbEntity
  8
1
  6
CONTINUOUS
 62
           2
100
AcDbLine
 10
852.128030188067
 20
109.499484804714
 11
852.128030188067
 21
112.78908611237
  0
LINE
  5
E6
100
AcDbEntity
  8
1
  6
CONTINUOUS
 62
           2
100
AcDbLine
 10
851.980602036005
 20
109.274800398085
 11
851.980602036005
 21
112.78908611237
  0
LINE
  5
E5
100
AcDbEntity
  8
1
  6
CONTINUOUS
 62
           2
100
AcDbLine
 10
851.803922406219
 20
109.274800398085
 11
851.803922406219
 21
112.78908611237
  0
LINE
  5
E4
100
AcDbEntity
  8
1
  6
CONTINUOUS
 62
           2
100
AcDbLine
 10
851.598118738808
 20
109.274800398085
 11
851.598118738808
 21
112.78908611237
  0
LINE
  5
E3
100
AcDbEntity
  8
1
  6
CONTINUOUS
 62
           2
100
AcDbLine
 10
851.363339481216
 20
109.274800398085
 11
851.363339481216
 21
112.78908611237
  0
LINE
  5
E2
100
AcDbEntity
  8
1
  6
CONTINUOUS
 62
           2
100
AcDbLine
 10
851.09975398116
 20
109.274800398085
 11
851.09975398116
 21
112.78908611237
  0
LINE
  5
E1
100
AcDbEntity
  8
1
  6
CONTINUOUS
 62
           2
100
AcDbLine
 10
850.807552364475
 20
109.274800398085
 11
850.807552364475
 21
112.78908611237
  0
LINE
  5
E0
100
AcDbEntity
  8
1
  6
CONTINUOUS
 62
           2
100
AcDbLine
 10
850.486945397977
 20
109.274800398085
 11
850.486945397977
 21
112.78908611237
  0
LINE
  5
DF
100
AcDbEntity
  8
1
  6
CONTINUOUS
 62
           2
100
AcDbLine
 10
850.138164337431
 20
112.78908611237
 11
850.138164337431
 21
109.274800398085
  0
LINE
  5
DE
100
AcDbEntity
  8
1
  6
CONTINUOUS
 62
           2
100
AcDbLine
 10
849.761460760754
 20
112.78908611237
 11
849.761460760754
 21
109.274800398085
  0
LINE
  5
DD
100
AcDbEntity
  8
1
  6
CONTINUOUS
 62
           2
100
AcDbLine
 10
849.357106386541
 20
112.78908611237
 11
849.357106386541
 21
109.274800398085
  0
LINE
  5
DC
100
AcDbEntity
  8
1
  6
CONTINUOUS
 62
           2
100
AcDbLine
 10
848.925392878079
 20
112.78908611237
 11
848.925392878079
 21
109.274800398085
  0
LINE
  5
DB
100
AcDbEntity
  8
1
  6
CONTINUOUS
 62
           2
100
AcDbLine
 10
848.466631632963
 20
112.78908611237
 11
848.466631632963
 21
109.274800398085
  0
LINE
  5
DA
100
AcDbEntity
  8
1
  6
CONTINUOUS
 62
           2
100
AcDbLine
 10
847.981153558489
 20
112.78908611237
 11
847.981153558489
 21
109.274800398085
  0
LINE
  5
D9
100
AcDbEntity
  8
1
  6
CONTINUOUS
 62
           2
100
AcDbLine
 10
847.469308832964
 20
112.78908611237
 11
847.469308832964
 21
109.274800398085
  0
LINE
  5
D8
100
AcDbEntity
  8
1
  6
CONTINUOUS
 62
           2
100
AcDbLine
 10
846.931466653123
 20
112.78908611237
 11
846.931466653123
 21
109.274800398085
  0
LINE
  5
D7
100
AcDbEntity
  8
1
  6
CONTINUOUS
 62
           2
100
AcDbLine
 10
846.368014967822
 20
112.78908611237
 11
846.368014967822
 21
109.274800398085
  0
LINE
  5
D6
100
AcDbEntity
  8
1
  6
CONTINUOUS
 62
           2
100
AcDbLine
 10
845.779360198212
 20
112.78908611237
 11
845.779360198212
 21
109.274800398085
  0
LINE
  5
D5
100
AcDbEntity
  8
1
  6
CONTINUOUS
 62
           2
100
AcDbLine
 10
845.165926944582
 20
112.78908611237
 11
845.165926944582
 21
109.274800398085
  0
LINE
  5
D4
100
AcDbEntity
  8
1
  6
CONTINUOUS
 62
           2
100
AcDbLine
 10
844.528157680095
 20
112.78908611237
 11
844.528157680095
 21
109.274800398085
  0
LINE
  5
D3
100
AcDbEntity
  8
1
  6
CONTINUOUS
 62
           2
100
AcDbLine
 10
843.866512431624
 20
112.781804131221
 11
843.863194620758
 21
109.274800398085
  0
LINE
  5
D2
100
AcDbEntity
  8
1
  6
CONTINUOUS
 62
           2
100
AcDbLine
 10
843.196715740396
 20
112.78908611237
 11
843.181468447939
 21
109.274800398085
  0
LINE
  5
D1
100
AcDbEntity
  8
1
  6
CONTINUOUS
 62
           2
100
AcDbLine
 10
842.507321253273
 20
112.78908611237
 11
842.507321253273
 21
109.274800398085
  0
LINE
  5
D0
100
AcDbEntity
  8
1
  6
CONTINUOUS
 62
           2
100
AcDbLine
 10
841.795508423855
 20
109.274800398085
 11
841.795508423855
 21
112.78908611237
  0
LINE
  5
CF
100
AcDbEntity
  8
1
  6
CONTINUOUS
 62
           2
100
AcDbLine
 10
841.061790687092
 20
112.78908611237
 11
841.061790687092
 21
109.274800398085
  0
LINE
  5
CE
100
AcDbEntity
  8
1
  6
CONTINUOUS
 62
           2
100
AcDbLine
 10
840.306697278082
 20
109.274800398085
 11
840.306697278082
 21
112.78908611237
  0
LINE
  5
CD
100
AcDbEntity
  8
1
  6
CONTINUOUS
 62
           2
100
AcDbLine
 10
839.530772850322
 20
112.78908611237
 11
839.563167198883
 21
109.344196078677
  0
LINE
  5
CC
100
AcDbEntity
  8
1
  6
CONTINUOUS
 62
           2
100
AcDbLine
 10
838.734577082853
 20
109.355059646006
 11
838.734577082853
 21
112.78908611237
  0
LINE
  5
CB
100
AcDbEntity
  8
1
  6
CONTINUOUS
 62
           2
100
AcDbLine
 10
837.918684276557
 20
112.78908611237
 11
837.918684276557
 21
109.274800398085
  0
LINE
  5
CA
100
AcDbEntity
  8
1
  6
CONTINUOUS
 62
           2
100
AcDbLine
 10
837.08368293991
 20
109.274800398085
 11
837.08368293991
 21
112.78908611237
  0
LINE
  5
C9
100
AcDbEntity
  8
1
  6
CONTINUOUS
 62
           2
100
AcDbLine
 10
836.230175364489
 20
112.78908611237
 11
836.230175364489
 21
109.274800398085
  0
LINE
  5
C8
100
AcDbEntity
  8
1
  6
CONTINUOUS
 62
           2
100
AcDbLine
 10
835.358777190533
 20
109.274800398085
 11
835.358777190533
 21
112.78908611237
  0
LINE
  5
C7
100
AcDbEntity
  8
1
  6
CONTINUOUS
 62
           2
100
AcDbLine
 10
834.47011696288
 20
112.78908611237
 11
834.47011696288
 21
109.274800398085
  0
LINE
  5
C6
100
AcDbEntity
  8
1
  6
CONTINUOUS
 62
           2
100
AcDbLine
 10
833.564835677593
 20
109.274800398085
 11
833.564835677593
 21
112.78908611237
  0
LINE
  5
C5
100
AcDbEntity
  8
1
  6
CONTINUOUS
 62
           2
100
AcDbLine
 10
832.686093939059
 20
109.366084327682
 11
832.643586319606
 21
112.78908611237
  0
LINE
  5
C4
100
AcDbEntity
  8
1
  6
CONTINUOUS
 62
           2
100
AcDbLine
 10
831.707033391721
 20
109.274800398085
 11
831.707033391721
 21
112.78908611237
  0
LINE
  5
C3
100
AcDbEntity
  8
1
  6
CONTINUOUS
 62
           2
100
AcDbLine
 10
830.7558524353
 20
109.274800398085
 11
830.7558524353
 21
112.78908611237
  0
LINE
  5
C2
100
AcDbEntity
  8
1
  6
CONTINUOUS
 62
           2
100
AcDbLine
 10
829.790729542988
 20
112.78908611237
 11
829.790729542988
 21
109.274800398085
  0
LINE
  5
C1
100
AcDbEntity
  8
1
  6
CONTINUOUS
 62
           2
100
AcDbLine
 10
828.812360863838
 20
109.274800398085
 11
828.812360863838
 21
112.78908611237
  0
LINE
  5
C0
100
AcDbEntity
  8
1
  6
CONTINUOUS
 62
           2
100
AcDbLine
 10
825.832959161212
 20
109.337224517102
 11
825.804881849182
 21
112.78908611237
  0
LINE
  5
BF
100
AcDbEntity
  8
1
  6
CONTINUOUS
 62
           2
100
AcDbLine
 10
824.780674924336
 20
112.78908611237
 11
824.780674924336
 21
109.274800398085
  0
LINE
  5
BE
100
AcDbEntity
  8
1
  6
CONTINUOUS
 62
           2
100
AcDbLine
 10
823.746835995722
 20
109.274800398085
 11
823.746835995722
 21
112.78908611237
  0
LINE
  5
BD
100
AcDbEntity
  8
1
  6
CONTINUOUS
 62
           2
100
AcDbLine
 10
826.818718003535
 20
112.78908611237
 11
826.818718003535
 21
109.274800398085
  0
LINE
  5
BC
100
AcDbEntity
  8
1
  6
CONTINUOUS
 62
           2
100
AcDbLine
 10
827.821452101168
 20
109.274800398085
 11
827.821452101168
 21
112.78908611237
  0
LINE
  5
BB
100
AcDbEntity
  8
1
  6
CONTINUOUS
 62
           2
100
AcDbLine
 10
822.704110777688
 20
109.274800398085
 11
822.704110777688
 21
112.78908611237
  0
LINE
  5
BA
100
AcDbEntity
  8
1
  6
CONTINUOUS
 62
           2
100
AcDbLine
 10
821.653251394319
 20
109.274800398085
 11
821.653251394319
 21
112.78908611237
  0
LINE
  5
B9
100
AcDbEntity
  8
1
  6
CONTINUOUS
 62
           2
100
AcDbLine
 10
820.595015836921
 20
109.274800398085
 11
820.595015836921
 21
112.78908611237
  0
LINE
  5
B8
100
AcDbEntity
  8
1
  6
CONTINUOUS
 62
           2
100
AcDbLine
 10
819.53016741728
 20
109.274800398085
 11
819.53016741728
 21
112.78908611237
  0
LINE
  5
B7
100
AcDbEntity
  8
1
  6
CONTINUOUS
 62
           2
100
AcDbLine
 10
818.459474217083
 20
109.274800398085
 11
818.459474217083
 21
112.78908611237
  0
LINE
  5
B6
100
AcDbEntity
  8
1
  6
CONTINUOUS
 62
           2
100
AcDbLine
 10
817.383708533888
 20
109.274800398085
 11
817.383708533888
 21
112.78908611237
  0
LINE
  5
B5
100
AcDbEntity
  8
1
  6
CONTINUOUS
 62
           2
100
AcDbLine
 10
816.303646324071
 20
109.274800398085
 11
816.303646324071
 21
112.78908611237
  0
LINE
  5
B4
100
AcDbEntity
  8
1
  6
CONTINUOUS
 62
           2
100
AcDbLine
 10
815.220066643114
 20
109.274800398085
 11
815.220066643114
 21
112.78908611237
  0
LINE
  5
B3
100
AcDbEntity
  8
1
  6
CONTINUOUS
 62
           2
100
AcDbLine
 10
814.133751083677
 20
109.274800398085
 11
814.133751083677
 21
112.78908611237
  0
LINE
  5
B2
100
AcDbEntity
  8
1
  6
CONTINUOUS
 62
           2
100
AcDbLine
 10
813.045483211823
 20
109.274800398085
 11
813.045483211823
 21
112.78908611237
  0
LINE
  5
B1
100
AcDbEntity
  8
1
  6
CONTINUOUS
 62
           2
100
AcDbLine
 10
811.956048001832
 20
109.274800398085
 11
811.956048001832
 21
112.78908611237
  0
LINE
  5
B0
100
AcDbEntity
  8
1
  6
CONTINUOUS
 62
           7
100
AcDbLine
 10
804.227116055921
 20
107.046980943908
 11
849.727116055921
 21
107.046980943908
  0
LINE
  5
AF
100
AcDbEntity
  8
1
  6
CONTINUOUS
 62
           7
100
AcDbLine
 10
848.569456295367
 20
105.470383338372
 11
848.727116055921
 21
107.046980943908
  0
LINE
  5
AE
100
AcDbEntity
  8
1
  6
CONTINUOUS
 62
           7
100
AcDbLine
 10
847.643557772972
 20
116.931943255227
 11
804.227116055921
 21
116.931943255227
  0
LINE
  5
AD
100
AcDbEntity
  8
1
  6
CONTINUOUS
 62
           2
100
AcDbLine
 10
810.876048001832
 20
109.274800398085
 11
810.876048001832
 21
112.78908611237
  0
LINE
  5
AC
100
AcDbEntity
  8
1
  6
CONTINUOUS
 62
           2
100
AcDbLine
 10
809.796048001832
 20
109.274800398085
 11
809.796048001832
 21
112.78908611237
  0
LINE
  5
AB
100
AcDbEntity
  8
1
  6
CONTINUOUS
 62
           2
100
AcDbLine
 10
808.716048001832
 20
109.274800398085
 11
808.716048001832
 21
112.78908611237
  0
LINE
  5
AA
100
AcDbEntity
  8
1
  6
CONTINUOUS
 62
           2
100
AcDbLine
 10
807.636048001832
 20
109.274800398085
 11
807.636048001832
 21
112.78908611237
  0
LINE
  5
A9
100
AcDbEntity
  8
1
  6
CONTINUOUS
 62
           2
100
AcDbLine
 10
806.556048001832
 20
109.274800398085
 11
806.556048001832
 21
112.78908611237
  0
LINE
  5
A8
100
AcDbEntity
  8
1
  6
CONTINUOUS
 62
           2
100
AcDbLine
 10
805.476048001831
 20
109.274800398085
 11
805.476048001831
 21
112.78908611237
  0
LINE
  5
A7
100
AcDbEntity
  8
1
  6
CONTINUOUS
 62
           7
100
AcDbLine
 10
851.427116055921
 20
103.052689860508
 11
851.427116055921
 21
104.058845566369
  0
LINE
  5
A6
100
AcDbEntity
  8
1
  6
CONTINUOUS
 62
           7
100
AcDbLine
 10
849.727116055922
 20
101.52928638398
 11
849.227116055922
 21
101.52928638398
  0
LINE
  5
A5
100
AcDbEntity
  8
1
  6
CONTINUOUS
 62
           7
100
AcDbLine
 10
849.927116055921
 20
105.52928638398
 11
804.227116055921
 21
105.52928638398
  0
LINE
  5
A4
100
AcDbEntity
  8
1
  6
CONTINUOUS
 62
           7
100
AcDbLine
 10
804.227116055921
 20
101.52928638398
 11
849.227116055922
 21
101.52928638398
  0
LINE
  5
A3
100
AcDbEntity
  8
1
  6
CONTINUOUS
 62
           7
100
AcDbLine
 10
849.227116055921
 20
25.083058809514
 11
849.227116055922
 21
101.52928638398
  0
LINE
  5
A2
100
AcDbEntity
  8
1
  6
CONTINUOUS
 62
           7
100
AcDbLine
 10
836.385069320383
 20
26.300868885676
 11
836.385069320383
 21
26.302105681103
  0
LINE
  5
A1
100
AcDbEntity
  8
1
  6
CONTINUOUS
 62
           7
100
AcDbLine
 10
813.609552267436
 20
-15.992038395855
 11
840.652833259347
 21
6.696997546701
  0
LINE
  5
A0
100
AcDbEntity
  8
1
  6
CONTINUOUS
 62
           7
100
AcDbLine
 10
812.724845610752
 20
-16.248884468475
 11
812.940431769903
 21
-16.248884468475
  0
LINE
  5
9F
100
AcDbEntity
  8
1
  6
CONTINUOUS
 62
           7
100
AcDbLine
 10
812.049255403136
 20
-16.511607131665
 11
811.977116055921
 21
-16.57771066439
  0
LINE
  5
9E
100
AcDbEntity
  8
1
  6
CONTINUOUS
 62
           7
100
AcDbLine
 10
796.477116055921
 20
-16.57771066439
 11
796.404976708706
 21
-16.511607131665
  0
LINE
  5
9D
100
AcDbEntity
  8
1
  6
CONTINUOUS
 62
           7
100
AcDbLine
 10
816.727116055921
 20
-22.980133645634
 11
813.227116055921
 21
-22.980133645634
  0
LINE
  5
9C
100
AcDbEntity
  8
1
  6
CONTINUOUS
 62
           7
100
AcDbLine
 10
813.227116055921
 20
-34.980133645633
 11
816.727116055921
 21
-34.980133645633
  0
LINE
  5
9B
100
AcDbEntity
  8
1
  6
CONTINUOUS
 62
           7
100
AcDbLine
 10
813.227116055921
 20
-22.980133645634
 11
813.227116055921
 21
-25.080133645634
  0
LINE
  5
9A
100
AcDbEntity
  8
1
  6
DOT_CENTER
 62
           2
100
AcDbLine
 10
803.752026131737
 20
-28.980133645633
 11
845.676980756101
 21
-28.980133645633
  0
LINE
  5
99
100
AcDbEntity
  8
1
  6
CONTINUOUS
 62
           7
100
AcDbLine
 10
825.727116055921
 20
-24.830133645633
 11
827.709915608455
 21
-24.830133645633
  0
LINE
  5
98
100
AcDbEntity
  8
1
  6
CONTINUOUS
 62
           7
100
AcDbLine
 10
827.709915608455
 20
-33.130133645633
 11
825.727116055921
 21
-33.130133645633
  0
LINE
  5
97
100
AcDbEntity
  8
1
  6
CONTINUOUS
 62
           7
100
AcDbLine
 10
825.727116055921
 20
-21.480133645634
 11
825.727116055921
 21
-28.980133645633
  0
LINE
  5
96
100
AcDbEntity
  8
1
  6
CONTINUOUS
 62
           7
100
AcDbLine
 10
816.727116055921
 20
-21.480133645634
 11
817.188996271273
 21
-20.680133645634
  0
LINE
  5
95
100
AcDbEntity
  8
1
  6
CONTINUOUS
 62
           7
100
AcDbLine
 10
825.727116055921
 20
-21.480133645634
 11
825.265235840569
 21
-20.680133645634
  0
LINE
  5
94
100
AcDbEntity
  8
1
  6
CONTINUOUS
 62
           7
100
AcDbLine
 10
816.727116055921
 20
-36.480133645634
 11
816.727116055921
 21
-21.480133645634
  0
LINE
  5
93
100
AcDbEntity
  8
1
  6
CONTINUOUS
 62
           7
100
AcDbLine
 10
825.265235840569
 20
-20.680133645634
 11
817.188996271273
 21
-20.680133645634
  0
LINE
  5
92
100
AcDbEntity
  8
1
  6
CONTINUOUS
 62
           7
100
AcDbLine
 10
817.188996271273
 20
-37.280133645634
 11
825.265235840569
 21
-37.280133645634
  0
LINE
  5
91
100
AcDbEntity
  8
1
  6
CONTINUOUS
 62
           7
100
AcDbLine
 10
825.265235840569
 20
-37.280133645634
 11
825.727116055921
 21
-36.480133645634
  0
LINE
  5
90
100
AcDbEntity
  8
1
  6
CONTINUOUS
 62
           7
100
AcDbLine
 10
817.188996271273
 20
-37.280133645634
 11
816.727116055921
 21
-36.480133645634
  0
LINE
  5
8F
100
AcDbEntity
  8
1
  6
CONTINUOUS
 62
           7
100
AcDbLine
 10
825.727116055921
 20
-28.980133645633
 11
825.727116055921
 21
-36.480133645634
  0
LINE
  5
8E
100
AcDbEntity
  8
1
  6
CONTINUOUS
 62
           7
100
AcDbLine
 10
772.069162791459
 20
26.302105681103
 11
772.069162791459
 21
26.300868885676
  0
LINE
  5
8D
100
AcDbEntity
  8
1
  6
DOT_CENTER
 62
           2
100
AcDbLine
 10
804.227116055921
 20
125.17039954803
 11
804.227116055921
 21
-60.980133645633
  0
LINE
  5
8C
100
AcDbEntity
  8
1
  6
CONTINUOUS
 62
           7
100
AcDbLine
 10
795.227116055921
 20
-22.480133645633
 11
795.227116055921
 21
-36.980133645633
  0
LINE
  5
8B
100
AcDbEntity
  8
1
  6
CONTINUOUS
 62
           7
100
AcDbLine
 10
807.877116055921
 20
-45.832427200851
 11
807.427116055921
 21
-59.211859320182
  0
LINE
  5
8A
100
AcDbEntity
  8
1
  6
CONTINUOUS
 62
           7
100
AcDbLine
 10
801.027116055921
 20
-59.211859320182
 11
800.577116055921
 21
-45.832427200851
  0
LINE
  5
89
100
AcDbEntity
  8
1
  6
CONTINUOUS
 62
           7
100
AcDbLine
 10
803.013646501637
 20
-60.980133645633
 11
805.440585610205
 21
-60.980133645633
  0
LINE
  5
88
100
AcDbEntity
  8
1
  6
CONTINUOUS
 62
           7
100
AcDbLine
 10
795.227116055921
 20
-16.580133645633
 11
795.227116055921
 21
-22.480133645633
  0
LINE
  5
87
100
AcDbEntity
  8
1
  6
CONTINUOUS
 62
           7
100
AcDbLine
 10
813.227116055921
 20
-16.577710664391
 11
795.227116055921
 21
-16.57771066439
  0
LINE
  5
86
100
AcDbEntity
  8
1
  6
CONTINUOUS
 62
           7
100
AcDbLine
 10
813.227116055921
 20
-36.980133645633
 11
813.227116055921
 21
-16.577710664391
  0
LINE
  5
85
100
AcDbEntity
  8
1
  6
CONTINUOUS
 62
           7
100
AcDbLine
 10
840.009915608455
 20
-36.730133645633
 11
839.92144615676
 21
-36.883367230888
  0
LINE
  5
84
100
AcDbEntity
  8
1
  6
CONTINUOUS
 62
           7
100
AcDbLine
 10
840.609915608455
 20
-36.730133645633
 11
841.109915608455
 21
-36.230133645633
  0
LINE
  5
83
100
AcDbEntity
  8
1
  6
CONTINUOUS
 62
           6
100
AcDbLine
 10
828.898385060151
 20
-36.883367230888
 11
829.040855716131
 21
-37.130133645633
  0
LINE
  5
82
100
AcDbEntity
  8
1
  6
CONTINUOUS
 62
           7
100
AcDbLine
 10
836.909915608455
 20
-42.580133645633
 11
831.909915608455
 21
-42.580133645633
  0
LINE
  5
81
100
AcDbEntity
  8
1
  6
CONTINUOUS
 62
           7
100
AcDbLine
 10
828.209915608455
 20
-36.730133645633
 11
827.709915608455
 21
-36.230133645633
  0
LINE
  5
80
100
AcDbEntity
  8
1
  6
CONTINUOUS
 62
           7
100
AcDbLine
 10
841.109915608455
 20
-36.230133645633
 11
841.109915608455
 21
-28.980133645633
  0
LINE
  5
7F
100
AcDbEntity
  8
1
  6
CONTINUOUS
 62
           7
100
AcDbLine
 10
828.898385060151
 20
-36.883367230888
 11
828.809915608455
 21
-36.730133645633
  0
LINE
  5
7E
100
AcDbEntity
  8
1
  6
CONTINUOUS
 62
           7
100
AcDbLine
 10
827.709915608455
 20
-28.980133645633
 11
827.709915608455
 21
-36.230133645633
  0
LINE
  5
7D
100
AcDbEntity
  8
1
  6
CONTINUOUS
 62
           7
100
AcDbLine
 10
828.209915608455
 20
-36.730133645633
 11
840.609915608455
 21
-36.730133645633
  0
LINE
  5
7C
100
AcDbEntity
  8
1
  6
CONTINUOUS
 62
           7
100
AcDbLine
 10
827.709915608455
 20
-21.730133645633
 11
827.709915608455
 21
-28.980133645633
  0
LINE
  5
7B
100
AcDbEntity
  8
1
  6
CONTINUOUS
 62
           7
100
AcDbLine
 10
828.809915608455
 20
-21.230133645633
 11
828.898385060151
 21
-21.076900060379
  0
LINE
  5
7A
100
AcDbEntity
  8
1
  6
CONTINUOUS
 62
           7
100
AcDbLine
 10
841.109915608455
 20
-28.980133645633
 11
841.109915608455
 21
-21.730133645633
  0
LINE
  5
79
100
AcDbEntity
  8
1
  6
CONTINUOUS
 62
           7
100
AcDbLine
 10
827.709915608455
 20
-21.730133645633
 11
828.209915608455
 21
-21.230133645633
  0
LINE
  5
78
100
AcDbEntity
  8
1
  6
CONTINUOUS
 62
           7
100
AcDbLine
 10
831.909915608455
 20
-15.380133645633
 11
836.909915608455
 21
-15.380133645633
  0
LINE
  5
77
100
AcDbEntity
  8
1
  6
CONTINUOUS
 62
           6
100
AcDbLine
 10
829.040855716131
 20
-20.830133645633
 11
828.898385060151
 21
-21.076900060379
  0
LINE
  5
76
100
AcDbEntity
  8
1
  6
CONTINUOUS
 62
           7
100
AcDbLine
 10
841.109915608455
 20
-21.730133645633
 11
840.609915608455
 21
-21.230133645633
  0
LINE
  5
75
100
AcDbEntity
  8
1
  6
CONTINUOUS
 62
           7
100
AcDbLine
 10
840.609915608455
 20
-21.230133645633
 11
828.209915608455
 21
-21.230133645633
  0
LINE
  5
74
100
AcDbEntity
  8
1
  6
CONTINUOUS
 62
           7
100
AcDbLine
 10
839.92144615676
 20
-21.076900060379
 11
840.009915608455
 21
-21.230133645633
  0
LINE
  5
73
100
AcDbEntity
  8
1
  6
CONTINUOUS
 62
           7
100
AcDbLine
 10
795.513800341939
 20
-16.248884468475
 11
795.72938650109
 21
-16.248884468475
  0
LINE
  5
72
100
AcDbEntity
  8
1
  6
CONTINUOUS
 62
           7
100
AcDbLine
 10
759.22711605592
 20
101.52928638398
 11
804.227116055921
 21
101.52928638398
  0
LINE
  5
71
100
AcDbEntity
  8
1
  6
CONTINUOUS
 62
           7
100
AcDbLine
 10
804.227116055921
 20
105.52928638398
 11
758.527116055921
 21
105.52928638398
  0
LINE
  5
70
100
AcDbEntity
  8
1
  6
CONTINUOUS
 62
           7
100
AcDbLine
 10
759.22711605592
 20
101.52928638398
 11
758.72711605592
 21
101.52928638398
  0
LINE
  5
6F
100
AcDbEntity
  8
1
  6
CONTINUOUS
 62
           7
100
AcDbLine
 10
757.027116055921
 20
104.058845566369
 11
757.027116055921
 21
103.052689860508
  0
LINE
  5
6E
100
AcDbEntity
  8
1
  6
CONTINUOUS
 62
           7
100
AcDbLine
 10
767.801398852495
 20
6.696997546701
 11
794.844679844406
 21
-15.992038395855
  0
LINE
  5
6D
100
AcDbEntity
  8
1
  6
CONTINUOUS
 62
           7
100
AcDbLine
 10
759.22711605592
 20
101.52928638398
 11
759.227116055921
 21
25.083058809514
  0
LINE
  5
6C
100
AcDbEntity
  8
1
  6
CONTINUOUS
 62
           2
100
AcDbLine
 10
802.97818411001
 20
112.78908611237
 11
802.97818411001
 21
109.274800398085
  0
LINE
  5
6B
100
AcDbEntity
  8
1
  6
CONTINUOUS
 62
           2
100
AcDbLine
 10
801.89818411001
 20
112.78908611237
 11
801.89818411001
 21
109.274800398085
  0
LINE
  5
6A
100
AcDbEntity
  8
1
  6
CONTINUOUS
 62
           2
100
AcDbLine
 10
800.81818411001
 20
112.78908611237
 11
800.81818411001
 21
109.274800398085
  0
LINE
  5
69
100
AcDbEntity
  8
1
  6
CONTINUOUS
 62
           2
100
AcDbLine
 10
799.73818411001
 20
112.78908611237
 11
799.73818411001
 21
109.274800398085
  0
LINE
  5
68
100
AcDbEntity
  8
1
  6
CONTINUOUS
 62
           2
100
AcDbLine
 10
798.65818411001
 20
112.78908611237
 11
798.65818411001
 21
109.274800398085
  0
LINE
  5
67
100
AcDbEntity
  8
1
  6
CONTINUOUS
 62
           2
100
AcDbLine
 10
797.57818411001
 20
112.78908611237
 11
797.57818411001
 21
109.274800398085
  0
LINE
  5
66
100
AcDbEntity
  8
1
  6
CONTINUOUS
 62
           7
100
AcDbLine
 10
804.227116055921
 20
116.931943255227
 11
760.81067433887
 21
116.931943255227
  0
LINE
  5
65
100
AcDbEntity
  8
1
  6
CONTINUOUS
 62
           7
100
AcDbLine
 10
759.727116055921
 20
107.046980943908
 11
759.884775816475
 21
105.470383338372
  0
LINE
  5
64
100
AcDbEntity
  8
1
  6
CONTINUOUS
 62
           7
100
AcDbLine
 10
758.727116055921
 20
107.046980943908
 11
804.227116055921
 21
107.046980943908
  0
LINE
  5
63
100
AcDbEntity
  8
1
  6
CONTINUOUS
 62
           7
100
AcDbLine
 10
756.027116055921
 20
112.031943255227
 11
756.027116055921
 21
110.031943255227
  0
LINE
  5
62
100
AcDbEntity
  8
1
  6
CONTINUOUS
 62
           2
100
AcDbLine
 10
796.49818411001
 20
112.78908611237
 11
796.49818411001
 21
109.274800398085
  0
LINE
  5
61
100
AcDbEntity
  8
1
  6
CONTINUOUS
 62
           2
100
AcDbLine
 10
795.408748900019
 20
112.78908611237
 11
795.408748900019
 21
109.274800398085
  0
LINE
  5
60
100
AcDbEntity
  8
1
  6
CONTINUOUS
 62
           2
100
AcDbLine
 10
794.320481028165
 20
112.78908611237
 11
794.320481028165
 21
109.274800398085
  0
LINE
  5
5F
100
AcDbEntity
  8
1
  6
CONTINUOUS
 62
           2
100
AcDbLine
 10
793.234165468728
 20
112.78908611237
 11
793.234165468728
 21
109.274800398085
  0
LINE
  5
5E
100
AcDbEntity
  8
1
  6
CONTINUOUS
 62
           2
100
AcDbLine
 10
792.150585787771
 20
112.78908611237
 11
792.150585787771
 21
109.274800398085
  0
LINE
  5
5D
100
AcDbEntity
  8
1
  6
CONTINUOUS
 62
           2
100
AcDbLine
 10
791.070523577954
 20
112.78908611237
 11
791.070523577954
 21
109.274800398085
  0
LINE
  5
5C
100
AcDbEntity
  8
1
  6
CONTINUOUS
 62
           2
100
AcDbLine
 10
789.994757894759
 20
112.78908611237
 11
789.994757894759
 21
109.274800398085
  0
LINE
  5
5B
100
AcDbEntity
  8
1
  6
CONTINUOUS
 62
           2
100
AcDbLine
 10
788.924064694562
 20
112.78908611237
 11
788.924064694562
 21
109.274800398085
  0
LINE
  5
5A
100
AcDbEntity
  8
1
  6
CONTINUOUS
 62
           2
100
AcDbLine
 10
787.859216274921
 20
112.78908611237
 11
787.859216274921
 21
109.274800398085
  0
LINE
  5
59
100
AcDbEntity
  8
1
  6
CONTINUOUS
 62
           2
100
AcDbLine
 10
786.800980717523
 20
112.78908611237
 11
786.800980717523
 21
109.274800398085
  0
LINE
  5
58
100
AcDbEntity
  8
1
  6
CONTINUOUS
 62
           2
100
AcDbLine
 10
785.750121334154
 20
112.78908611237
 11
785.750121334154
 21
109.274800398085
  0
LINE
  5
57
100
AcDbEntity
  8
1
  6
CONTINUOUS
 62
           2
100
AcDbLine
 10
780.632780010674
 20
112.78908611237
 11
780.632780010674
 21
109.274800398085
  0
LINE
  5
56
100
AcDbEntity
  8
1
  6
CONTINUOUS
 62
           2
100
AcDbLine
 10
781.635514108307
 20
109.274800398085
 11
781.635514108307
 21
112.78908611237
  0
LINE
  5
55
100
AcDbEntity
  8
1
  6
CONTINUOUS
 62
           2
100
AcDbLine
 10
784.70739611612
 20
112.78908611237
 11
784.70739611612
 21
109.274800398085
  0
LINE
  5
54
100
AcDbEntity
  8
1
  6
CONTINUOUS
 62
           2
100
AcDbLine
 10
783.673557187506
 20
109.274800398085
 11
783.673557187506
 21
112.78908611237
  0
LINE
  5
53
100
AcDbEntity
  8
1
  6
CONTINUOUS
 62
           2
100
AcDbLine
 10
782.64935026266
 20
112.78908611237
 11
782.62127295063
 21
109.337224517102
  0
LINE
  5
52
100
AcDbEntity
  8
1
  6
CONTINUOUS
 62
           2
100
AcDbLine
 10
779.641871248004
 20
112.78908611237
 11
779.641871248004
 21
109.274800398085
  0
LINE
  5
51
100
AcDbEntity
  8
1
  6
CONTINUOUS
 62
           2
100
AcDbLine
 10
778.663502568854
 20
109.274800398085
 11
778.663502568854
 21
112.78908611237
  0
LINE
  5
50
100
AcDbEntity
  8
1
  6
CONTINUOUS
 62
           2
100
AcDbLine
 10
777.698379676542
 20
112.78908611237
 11
777.698379676542
 21
109.274800398085
  0
LINE
  5
4F
100
AcDbEntity
  8
1
  6
CONTINUOUS
 62
           2
100
AcDbLine
 10
776.747198720121
 20
112.78908611237
 11
776.747198720121
 21
109.274800398085
  0
LINE
  5
4E
100
AcDbEntity
  8
1
  6
CONTINUOUS
 62
           2
100
AcDbLine
 10
775.810645792236
 20
112.78908611237
 11
775.768138172783
 21
109.366084327682
  0
LINE
  5
4D
100
AcDbEntity
  8
1
  6
CONTINUOUS
 62
           2
100
AcDbLine
 10
774.889396434249
 20
112.78908611237
 11
774.889396434249
 21
109.274800398085
  0
LINE
  5
4C
100
AcDbEntity
  8
1
  6
CONTINUOUS
 62
           2
100
AcDbLine
 10
773.984115148962
 20
109.274800398085
 11
773.984115148962
 21
112.78908611237
  0
LINE
  5
4B
100
AcDbEntity
  8
1
  6
CONTINUOUS
 62
           2
100
AcDbLine
 10
773.095454921309
 20
112.78908611237
 11
773.095454921309
 21
109.274800398085
  0
LINE
  5
4A
100
AcDbEntity
  8
1
  6
CONTINUOUS
 62
           2
100
AcDbLine
 10
772.224056747353
 20
109.274800398085
 11
772.224056747353
 21
112.78908611237
  0
LINE
  5
49
100
AcDbEntity
  8
1
  6
CONTINUOUS
 62
           2
100
AcDbLine
 10
771.370549171932
 20
112.78908611237
 11
771.370549171932
 21
109.274800398085
  0
LINE
  5
48
100
AcDbEntity
  8
1
  6
CONTINUOUS
 62
           2
100
AcDbLine
 10
770.535547835285
 20
109.274800398085
 11
770.535547835285
 21
112.78908611237
  0
LINE
  5
47
100
AcDbEntity
  8
1
  6
CONTINUOUS
 62
           2
100
AcDbLine
 10
769.719655028989
 20
112.78908611237
 11
769.719655028989
 21
109.355059646006
  0
LINE
  5
46
100
AcDbEntity
  8
1
  6
CONTINUOUS
 62
           2
100
AcDbLine
 10
768.891064912959
 20
109.344196078677
 11
768.92345926152
 21
112.78908611237
  0
LINE
  5
45
100
AcDbEntity
  8
1
  6
CONTINUOUS
 62
           2
100
AcDbLine
 10
768.14753483376
 20
112.78908611237
 11
768.14753483376
 21
109.274800398085
  0
LINE
  5
44
100
AcDbEntity
  8
1
  6
CONTINUOUS
 62
           2
100
AcDbLine
 10
767.39244142475
 20
109.274800398085
 11
767.39244142475
 21
112.78908611237
  0
LINE
  5
43
100
AcDbEntity
  8
1
  6
CONTINUOUS
 62
           2
100
AcDbLine
 10
766.658723687987
 20
112.78908611237
 11
766.658723687987
 21
109.274800398085
  0
LINE
  5
42
100
AcDbEntity
  8
1
  6
CONTINUOUS
 62
           2
100
AcDbLine
 10
765.946910858569
 20
109.274800398085
 11
765.946910858569
 21
112.78908611237
  0
LINE
  5
41
100
AcDbEntity
  8
1
  6
CONTINUOUS
 62
           2
100
AcDbLine
 10
765.272763663903
 20
109.274800398085
 11
765.257516371446
 21
112.78908611237
  0
LINE
  5
40
100
AcDbEntity
  8
1
  6
CONTINUOUS
 62
           2
100
AcDbLine
 10
764.591037491084
 20
109.274800398085
 11
764.587719680218
 21
112.781804131221
  0
LINE
  5
3F
100
AcDbEntity
  8
1
  6
CONTINUOUS
 62
           2
100
AcDbLine
 10
763.926074431747
 20
109.274800398085
 11
763.926074431747
 21
112.78908611237
  0
LINE
  5
3E
100
AcDbEntity
  8
1
  6
CONTINUOUS
 62
           2
100
AcDbLine
 10
763.28830516726
 20
109.274800398085
 11
763.28830516726
 21
112.78908611237
  0
LINE
  5
3D
100
AcDbEntity
  8
1
  6
CONTINUOUS
 62
           2
100
AcDbLine
 10
762.67487191363
 20
109.274800398085
 11
762.67487191363
 21
112.78908611237
  0
LINE
  5
3C
100
AcDbEntity
  8
1
  6
CONTINUOUS
 62
           2
100
AcDbLine
 10
762.08621714402
 20
109.274800398085
 11
762.08621714402
 21
112.78908611237
  0
LINE
  5
3B
100
AcDbEntity
  8
1
  6
CONTINUOUS
 62
           2
100
AcDbLine
 10
761.522765458719
 20
109.274800398085
 11
761.522765458719
 21
112.78908611237
  0
LINE
  5
3A
100
AcDbEntity
  8
1
  6
CONTINUOUS
 62
           2
100
AcDbLine
 10
760.984923278878
 20
109.274800398085
 11
760.984923278878
 21
112.78908611237
  0
LINE
  5
39
100
AcDbEntity
  8
1
  6
CONTINUOUS
 62
           2
100
AcDbLine
 10
760.473078553353
 20
109.274800398085
 11
760.473078553353
 21
112.78908611237
  0
LINE
  5
38
100
AcDbEntity
  8
1
  6
CONTINUOUS
 62
           2
100
AcDbLine
 10
759.987600478879
 20
109.274800398085
 11
759.987600478879
 21
112.78908611237
  0
LINE
  5
37
100
AcDbEntity
  8
1
  6
CONTINUOUS
 62
           2
100
AcDbLine
 10
759.528839233763
 20
109.274800398085
 11
759.528839233763
 21
112.78908611237
  0
LINE
  5
36
100
AcDbEntity
  8
1
  6
CONTINUOUS
 62
           2
100
AcDbLine
 10
759.0971257253
 20
109.274800398085
 11
759.0971257253
 21
112.78908611237
  0
LINE
  5
35
100
AcDbEntity
  8
1
  6
CONTINUOUS
 62
           2
100
AcDbLine
 10
758.692771351088
 20
109.274800398085
 11
758.692771351088
 21
112.78908611237
  0
LINE
  5
34
100
AcDbEntity
  8
1
  6
CONTINUOUS
 62
           2
100
AcDbLine
 10
758.316067774411
 20
109.274800398085
 11
758.316067774411
 21
112.78908611237
  0
LINE
  5
33
100
AcDbEntity
  8
1
  6
CONTINUOUS
 62
           2
100
AcDbLine
 10
757.967286713865
 20
112.78908611237
 11
757.967286713865
 21
109.274800398085
  0
LINE
  5
32
100
AcDbEntity
  8
1
  6
CONTINUOUS
 62
           2
100
AcDbLine
 10
757.646679747367
 20
112.78908611237
 11
757.646679747367
 21
109.274800398085
  0
LINE
  5
31
100
AcDbEntity
  8
1
  6
CONTINUOUS
 62
           2
100
AcDbLine
 10
757.354478130682
 20
112.78908611237
 11
757.354478130682
 21
109.274800398085
  0
LINE
  5
30
100
AcDbEntity
  8
1
  6
CONTINUOUS
 62
           2
100
AcDbLine
 10
757.090892630626
 20
112.78908611237
 11
757.090892630626
 21
109.274800398085
  0
LINE
  5
2F
100
AcDbEntity
  8
1
  6
CONTINUOUS
 62
           2
100
AcDbLine
 10
756.856113373034
 20
112.78908611237
 11
756.856113373034
 21
109.274800398085
  0
LINE
  5
2E
100
AcDbEntity
  8
1
  6
CONTINUOUS
 62
           2
100
AcDbLine
 10
756.650309705623
 20
112.78908611237
 11
756.650309705623
 21
109.274800398085
  0
LINE
  5
2D
100
AcDbEntity
  8
1
  6
CONTINUOUS
 62
           2
100
AcDbLine
 10
756.473630075837
 20
112.78908611237
 11
756.473630075837
 21
109.274800398085
  0
LINE
  5
2C
100
AcDbEntity
  8
1
  6
CONTINUOUS
 62
           2
100
AcDbLine
 10
756.326201923775
 20
112.78908611237
 11
756.326201923775
 21
109.499484804714
  0
LINE
  5
2B
100
AcDbEntity
  8
1
  6
CONTINUOUS
 62
           2
100
AcDbLine
 10
756.119504240163
 20
109.548210520251
 11
756.119504240163
 21
112.739394421129
  0
LINE
  5
2A
100
AcDbEntity
  8
1
  6
CONTINUOUS
 62
           7
100
AcDbLine
 10
759.027116055921
 20
115.031943255227
 11
804.227116055921
 21
115.031943255227
  0
LINE
  5
29
100
AcDbEntity
  8
1
  6
CONTINUOUS
 62
           2
100
AcDbLine
 10
756.208131590265
 20
109.527767317811
 11
756.208131590265
 21
112.78908611237
  0
LINE
  5
28
100
AcDbEntity
  8
1
  6
CONTINUOUS
 62
           7
100
AcDbLine
 10
766.227116055921
 20
115.035514683799
 11
766.227116055921
 21
115.031943255227
  0
ENDSEC
  0
SECTION
  2
OBJECTS
  0
DICTIONARY
  5
19
100
AcDbDictionary
  3
ACAD_GROUP
350
1A
  3
ACAD_MLINESTYLE
350
1B
  0
DICTIONARY
  5
1A
102
{ACAD_REACTORS
330
19
102
}
100
AcDbDictionary
  0
DICTIONARY
  5
1B
102
{ACAD_REACTORS
330
19
102
}
100
AcDbDictionary
  3
STANDARD
350
1C
  0
MLINESTYLE
  5
1C
102
{ACAD_REACTORS
330
1B
102
}
100
AcDbMlineStyle
  2
STANDARD
 70
           0
  3

 62
           0
 51
90.0
 52
90.0
 71
           2
 49
0.5
 62
         256
  6
BYLAYER
 49
-0.5
 62
         256
  6
BYLAYER
  0
ENDSEC
  0
EOF
