  0
SECTION
  2
HEADER
  9
$ACADVER
  1
AC1014
  9
$ACADMAINTVER
 70
           0
  9
$DWGCODEPAGE
  3
DOS932
  9
$INSBASE
 10
0.0
 20
0.0
 30
0.0
  9
$EXTMIN
 10
1.000000000000E+20
 20
1.000000000000E+20
 30
1.000000000000E+20
  9
$EXTMAX
 10
-1.000000000000E+20
 20
-1.000000000000E+20
 30
-1.000000000000E+20
  9
$LIMMIN
 10
0.0
 20
0.0
  9
$LIMMAX
 10
0.0
 20
0.0
  9
$ORTHOMODE
 70
           0
  9
$REGENMODE
 70
           1
  9
$FILLMODE
 70
           1
  9
$QTEXTMODE
 70
           0
  9
$MIRRTEXT
 70
           1
  9
$DRAGMODE
 70
           2
  9
$LTSCALE
 40
1.0
  9
$OSMODE
 70
           0
  9
$ATTMODE
 70
           1
  9
$TEXTSIZE
 40
0.2
  9
$TRACEWID
 40
0.05
  9
$TEXTSTYLE
  7
STANDARD
  9
$CLAYER
  8
0
  9
$CELTYPE
  6
CONTINUOUS
  9
$CECOLOR
 62
         256
  9
$CELTSCALE
 40
1.0
  9
$DELOBJ
 70
           1
  9
$DISPSILH
 70
           0
  9
$DIMSCALE
 40
1.0
  9
$DIMASZ
 40
0.18
  9
$DIMEXO
 40
0.0625
  9
$DIMDLI
 40
0.38
  9
$DIMRND
 40
0.0
  9
$DIMDLE
 40
0.0
  9
$DIMEXE
 40
0.18
  9
$DIMTP
 40
0.0
  9
$DIMTM
 40
0.0
  9
$DIMTXT
 40
0.18
  9
$DIMCEN
 40
0.09
  9
$DIMTSZ
 40
0.0
  9
$DIMTOL
 70
           0
  9
$DIMLIM
 70
           0
  9
$DIMTIH
 70
           1
  9
$DIMTOH
 70
           1
  9
$DIMSE1
 70
           0
  9
$DIMSE2
 70
           0
  9
$DIMTAD
 70
           0
  9
$DIMZIN
 70
           0
  9
$DIMBLK
  1

  9
$DIMASO
 70
           1
  9
$DIMSHO
 70
           1
  9
$DIMPOST
  1

  9
$DIMAPOST
  1

  9
$DIMALT
 70
           0
  9
$DIMALTD
 70
           2
  9
$DIMALTF
 40
25.4
  9
$DIMLFAC
 40
1.0
  9
$DIMTOFL
 70
           0
  9
$DIMTVP
 40
0.0
  9
$DIMTIX
 70
           0
  9
$DIMSOXD
 70
           0
  9
$DIMSAH
 70
           0
  9
$DIMBLK1
  1

  9
$DIMBLK2
  1

  9
$DIMSTYLE
  2
STANDARD
  9
$DIMCLRD
 70
           0
  9
$DIMCLRE
 70
           0
  9
$DIMCLRT
 70
           0
  9
$DIMTFAC
 40
1.0
  9
$DIMGAP
 40
0.09
  9
$DIMJUST
 70
           0
  9
$DIMSD1
 70
           0
  9
$DIMSD2
 70
           0
  9
$DIMTOLJ
 70
           1
  9
$DIMTZIN
 70
           0
  9
$DIMALTZ
 70
           0
  9
$DIMALTTZ
 70
           0
  9
$DIMFIT
 70
           3
  9
$DIMUPT
 70
           0
  9
$DIMUNIT
 70
           2
  9
$DIMDEC
 70
           4
  9
$DIMTDEC
 70
           4
  9
$DIMALTU
 70
           2
  9
$DIMALTTD
 70
           2
  9
$DIMTXSTY
  7
STANDARD
  9
$DIMAUNIT
 70
           0
  9
$LUNITS
 70
           2
  9
$LUPREC
 70
           4
  9
$SKETCHINC
 40
0.1
  9
$FILLETRAD
 40
0.0
  9
$AUNITS
 70
           0
  9
$AUPREC
 70
           0
  9
$MENU
  1
acad
  9
$ELEVATION
 40
0.0
  9
$PELEVATION
 40
0.0
  9
$THICKNESS
 40
0.0
  9
$LIMCHECK
 70
           0
  9
$BLIPMODE
 70
           1
  9
$CHAMFERA
 40
0.0
  9
$CHAMFERB
 40
0.0
  9
$CHAMFERC
 40
0.0
  9
$CHAMFERD
 40
0.0
  9
$SKPOLY
 70
           0
  9
$TDCREATE
 40
0.000000000
  9
$TDUPDATE
 40
0.000000000
  9
$TDINDWG
 40
0.0000000000
  9
$TDUSRTIMER
 40
0.0000000000
  9
$USRTIMER
 70
           1
  9
$ANGBASE
 50
0.0
  9
$ANGDIR
 70
           0
  9
$PDMODE
 70
           0
  9
$PDSIZE
 40
0.0
  9
$PLINEWID
 40
0.0
  9
$COORDS
 70
           0
  9
$SPLFRAME
 70
           0
  9
$SPLINETYPE
 70
           6
  9
$SPLINESEGS
 70
           8
  9
$ATTDIA
 70
           0
  9
$ATTREQ
 70
           1
  9
$HANDLING
 70
           1
  9
$HANDSEED
  5
1BF
  9
$SURFTAB1
 70
           6
  9
$SURFTAB2
 70
           6
  9
$SURFTYPE
 70
           6
  9
$SURFU
 70
           6
  9
$SURFV
 70
           6
  9
$UCSNAME
  2

  9
$UCSORG
 10
0.0
 20
0.0
 30
0.0
  9
$UCSXDIR
 10
1.0
 20
0.0
 30
0.0
  9
$UCSYDIR
 10
0.0
 20
1.0
 30
0.0
  9
$PUCSNAME
  2

  9
$PUCSORG
 10
0.0
 20
0.0
 30
0.0
  9
$PUCSXDIR
 10
1.0
 20
0.0
 30
0.0
  9
$PUCSYDIR
 10
0.0
 20
1.0
 30
0.0
  9
$USERI1
 70
           0
  9
$USERI2
 70
           0
  9
$USERI3
 70
           0
  9
$USERI4
 70
           0
  9
$USERI5
 70
           0
  9
$USERR1
 40
0.0
  9
$USERR2
 40
0.0
  9
$USERR3
 40
0.0
  9
$USERR4
 40
0.0
  9
$USERR5
 40
0.0
  9
$WORLDVIEW
 70
           1
  9
$SHADEDGE
 70
           3
  9
$SHADEDIF
 70
          70
  9
$TILEMODE
 70
           1
  9
$MAXACTVP
 70
          16
  9
$PINSBASE
 10
0.0
 20
0.0
 30
0.0
  9
$PLIMCHECK
 70
           0
  9
$PEXTMIN
 10
1.000000000000E+20
 20
1.000000000000E+20
 30
1.000000000000E+20
  9
$PEXTMAX
 10
-1.000000000000E+20
 20
-1.000000000000E+20
 30
-1.000000000000E+20
  9
$PLIMMIN
 10
0.0
 20
0.0
  9
$PLIMMAX
 10
12.0
 20
9.0
  9
$UNITMODE
 70
           0
  9
$VISRETAIN
 70
           0
  9
$PLINEGEN
 70
           1
  9
$PSLTSCALE
 70
           0
  9
$TREEDEPTH
 70
        3020
  9
$PICKSTYLE
 70
           1
  9
$CMLSTYLE
  2
STANDARD
  9
$CMLJUST
 70
           0
  9
$CMLSCALE
 40
1.0
  9
$PROXYGRAPHICS
 70
           0
  9
$MEASUREMENT
 70
           0
  0
ENDSEC
  0
SECTION
  2
CLASSES
  0
CLASS
  1
LWPOLYLINE
  2
AcDbPolyline
  3
"AutoCAD"
 90
        0
280
           0
281
           1
  0
CLASS
  1
IMAGE
  2
AcDbRasterImage
  3
ISM
 90
      127
280
           0
281
           1
  0
CLASS
  1
OLE2FRAME
  2
AcDbOle2Frame
  3
""
 90
        0
280
           0
281
           1
  0
CLASS
  1
HATCH
  2
AcDbHatch
  3
"ACAD_SEDONA"
 90
        0
280
           0
281
           1
  0
CLASS
  1
DICTIONARYVAR
  2
AcDbDictionaryVar
  3
"AutoCAD"
 90
        0
280
           0
281
           0
  0
CLASS
  1
RASTERVARIABLES
  2
AcDbRasterVariables
  3
ISM
 90
        0
280
           0
281
           0
  0
CLASS
  1
IMAGEDEF
  2
AcDbRasterImageDef
  3
ISM
 90
        0
280
           0
281
           0
  0
CLASS
  1
IMAGEDEF_REACTOR
  2
AcDbRasterImageDefReactor
  3
ISM
 90
        1
280
           0
281
           0
  0
CLASS
  1
IDBUFFER
  2
AcDbIdBuffer
  3
"Acad"
 90
        0
280
           0
281
           0
  0
CLASS
  1
SPATIAL_FILTER
  2
AcDbSpatialFilter
  3
"Acad"
 90
        0
280
           0
281
           0
  0
CLASS
  1
XRECORD
  2
AcDbXrecord
  3
"<Built In>"
 90
        0
280
           0
281
           0
  0
CLASS
  1
SORTENTSTABLE
  2
AcDbSortentsTable
  3
"AutoCAD"
 90
        0
280
           0
281
           0
  0
CLASS
  1
LAYER_INDEX
  2
AcDbLayerIndex
  3
"Acad"
 90
        0
280
           0
281
           0
  0
CLASS
  1
SPATIAL_INDEX
  2
AcDbSpatialIndex
  3
"Acad"
 90
        0
280
           0
281
           0
  0
CLASS
  1
OBJECT_PTR
  2
CAseDLPNTableRecord
  3
"ASE-LPNTableRecord"
 90
        1
280
           0
281
           0
  0
CLASS
  1
LAYOUT
  2
AcDbLayout
  3
"AutoCAD 2000"
 90
        1
280
           0
281
           0
  0
CLASS
  1
PLOTSETTINGS
  2
AcDbPlotSettings
  3
"AutoCAD 2000"
 90
        1
280
           0
281
           0
  0
CLASS
  1
ACDBDICTIONARYWDFLT
  2
AcDbDictionaryWithDefault
  3
"AutoCAD 2000"
 90
        1
280
           0
281
           0
  0
CLASS
  1
ACDBPLACEHOLDER
  2
AcDbPlaceHolder
  3
"AutoCAD 2000"
 90
        1
280
           0
281
           0
  0
CLASS
  1
VBA_PROJECT
  2
AcDbVbaProject
  3
"acadvba"
 90
        1
280
           0
281
           0
  0
CLASS
  1
WIPEOUT
  2
AcDbWipeout
  3
WipeOut|AutoCAD Express Tool|expresstools@autodesk.com
 90
      127
280
           0
281
           1
  0
CLASS
  1
WIPEOUTVARIABLES
  2
AcDbWipeoutVariables
  3
WipeOut|AutoCAD Express Tool|expresstools@autodesk.com
 90
        0
280
           0
281
           0
  0
CLASS
  1
RTEXT
  2
RText
  3
RText|AutoCAD Express Tool|expresstools@autodesk.com
 90
        0
280
           0
281
           1
  0
CLASS
  1
ARCALIGNEDTEXT
  2
AcDbArcAlignedText
  3
ATEXT|AutoCAD Express Tool|expresstools@autodesk.com
 90
        0
280
           0
281
           1
  0
ENDSEC
  0
SECTION
  2
TABLES
  0
TABLE
  2
VPORT
  5
7
100
AcDbSymbolTable
 70
           1
  0
VPORT
  5
15
100
AcDbSymbolTableRecord
100
AcDbViewportTableRecord
  2
*ACTIVE
 70
           0
 10
0.0
 20
0.0
 11
1.0
 21
1.0
 12
6.591288
 22
4.579184
 13
0.0
 23
0.0
 14
1.0
 24
1.0
 15
0.0
 25
0.0
 16
0.0
 26
0.0
 36
1.0
 17
0.0
 27
0.0
 37
0.0
 40
9.158369
 41
0.688564
 42
50.0
 43
0.0
 44
0.0
 50
0.0
 51
0.0
 71
           0
 72
         100
 73
           1
 74
           1
 75
           0
 76
           0
 77
           0
 78
           0
  0
ENDTAB
  0
TABLE
  2
LTYPE
  5
4
100
AcDbSymbolTable
 70
          10
  0
LTYPE
  5
11
100
AcDbSymbolTableRecord
100
AcDbLinetypeTableRecord
  2
BYBLOCK
 70
          64
  3

 72
          65
 73
           0
 40
0.0
  0
LTYPE
  5
12
100
AcDbSymbolTableRecord
100
AcDbLinetypeTableRecord
  2
BYLAYER
 70
          64
  3

 72
          65
 73
           0
 40
0.0
  0
LTYPE
  5
13
100
AcDbSymbolTableRecord
100
AcDbLinetypeTableRecord
  2
CONTINUOUS
 70
          64
  3
Solid line
 72
          65
 73
           0
 40
0.0
  0
LTYPE
  5
1D
100
AcDbSymbolTableRecord
100
AcDbLinetypeTableRecord
  2
DASHED
 70
          64
  3
Dashed
 72
          65
 73
           2
 40
15.0
 49
12.0
 74
           0
 49
-3.0
 74
           0
  0
LTYPE
  5
1E
100
AcDbSymbolTableRecord
100
AcDbLinetypeTableRecord
  2
DOTTED
 70
          64
  3
Dotted
 72
          65
 73
           2
 40
3.5
 49
0.5
 74
           0
 49
-3.0
 74
           0
  0
LTYPE
  5
1F
100
AcDbSymbolTableRecord
100
AcDbLinetypeTableRecord
  2
DOT_CENTER
 70
          64
  3
Dot_Center
 72
          65
 73
           4
 40
2.0
 49
1.25
 74
           0
 49
-0.25
 74
           0
 49
0.25
 74
           0
 49
-0.25
 74
           0
  0
LTYPE
  5
20
100
AcDbSymbolTableRecord
100
AcDbLinetypeTableRecord
  2
LONG_DASHED
 70
          64
  3
Long_Dashed
 72
          65
 73
           2
 40
2.0
 49
1.5
 74
           0
 49
-0.5
 74
           0
  0
LTYPE
  5
21
100
AcDbSymbolTableRecord
100
AcDbLinetypeTableRecord
  2
DASH_CENTER
 70
          64
  3
Dash_Center
 72
          65
 73
           4
 40
36.0
 49
24.0
 74
           0
 49
-3.0
 74
           0
 49
6.0
 74
           0
 49
-3.0
 74
           0
  0
LTYPE
  5
22
100
AcDbSymbolTableRecord
100
AcDbLinetypeTableRecord
  2
PHANTOM
 70
          64
  3
Phantom
 72
          65
 73
           6
 40
2.5
 49
1.25
 74
           0
 49
-0.25
 74
           0
 49
0.25
 74
           0
 49
-0.25
 74
           0
 49
0.25
 74
           0
 49
-0.25
 74
           0
  0
LTYPE
  5
23
100
AcDbSymbolTableRecord
100
AcDbLinetypeTableRecord
  2
CENTER_DASH_DASH
 70
          64
  3
Center_Dash_Dash
 72
          65
 73
           6
 40
22.0
 49
12.0
 74
           0
 49
-3.0
 74
           0
 49
0.5
 74
           0
 49
-3.0
 74
           0
 49
0.5
 74
           0
 49
-3.0
 74
           0
  0
ENDTAB
  0
TABLE
  2
LAYER
  5
2
100
AcDbSymbolTable
 70
           3
  0
LAYER
  5
14
100
AcDbSymbolTableRecord
100
AcDbLayerTableRecord
  2
0
 70
           0
 62
           7
  6
CONTINUOUS
  0
LAYER
  5
24
100
AcDbSymbolTableRecord
100
AcDbLayerTableRecord
  2
976
 70
           0
 62
           7
  6
CONTINUOUS
  0
LAYER
  5
25
100
AcDbSymbolTableRecord
100
AcDbLayerTableRecord
  2
1
 70
           0
 62
           7
  6
CONTINUOUS
  0
ENDTAB
  0
TABLE
  2
STYLE
  5
3
100
AcDbSymbolTable
 70
           3
  0
STYLE
  5
17
100
AcDbSymbolTableRecord
100
AcDbTextStyleTableRecord
  2
STANDARD
 70
           0
 40
0.0
 41
1.0
 50
0.0
 71
           0
 42
0.0
  3
txt
  4

  0
STYLE
  5
1AD
100
AcDbSymbolTableRecord
100
AcDbTextStyleTableRecord
  2
CONVERTER_1
 70
           0
 40
0.0
 41
0.9
 50
0.0
 71
           0
 42
0.0
  3
txt.shx
  4

  0
STYLE
  5
1B9
100
AcDbSymbolTableRecord
100
AcDbTextStyleTableRecord
  2
CONVERTER_2
 70
           0
 40
0.0
 41
0.89
 50
0.0
 71
           0
 42
0.0
  3
MS Mincho.ttf
  4

1001
ACAD
1000
MS Mincho
1071
    32785
  0
ENDTAB
  0
TABLE
  2
VIEW
  5
5
100
AcDbSymbolTable
 70
           0
  0
ENDTAB
  0
TABLE
  2
UCS
  5
6
100
AcDbSymbolTable
 70
           0
  0
ENDTAB
  0
TABLE
  2
APPID
  5
8
100
AcDbSymbolTable
 70
           1
  0
APPID
  5
16
100
AcDbSymbolTableRecord
100
AcDbRegAppTableRecord
  2
ACAD
 70
           0
  0
ENDTAB
  0
TABLE
  2
DIMSTYLE
  5
9
100
AcDbSymbolTable
 70
           3
  0
DIMSTYLE
105
18
100
AcDbSymbolTableRecord
100
AcDbDimStyleTableRecord
  2
STANDARD
 70
           0
  3

  4

  5

  6

  7

 40
1.0
 41
0.18
 42
0.0625
 43
0.38
 44
0.18
 45
0.0
 46
0.0
 47
0.0
 48
0.0
 71
           0
 72
           0
 73
           1
 74
           1
 75
           0
 76
           0
 77
           0
 78
           0
140
0.18
141
0.09
142
0.0
143
25.4
144
1.0
145
0.0
146
1.0
147
0.09
170
           0
171
           2
172
           0
173
           0
174
           0
175
           0
176
           0
177
           0
178
           0
270
           2
271
           4
272
           4
273
           2
274
           2
275
           0
280
           0
281
           0
282
           0
283
           1
284
           0
285
           0
286
           0
287
           0
288
           0
340
17
  0
DIMSTYLE
105
1B0
100
AcDbSymbolTableRecord
100
AcDbDimStyleTableRecord
  2
ME10_DIM_0
 70
           0
  3

  4

  5

  6

  7

 40
1.0
 41
2.8
 42
0.8
 43
0.38
 44
1.0
 45
0.0
 46
0.0
 47
0.0
 48
0.0
 71
           0
 72
           0
 73
           0
 74
           0
 75
           0
 76
           0
 77
           1
 78
           8
140
2.8
141
0.09
142
0.0
143
25.4
144
1.0
145
0.0
146
1.0
147
0.09
170
           0
171
           2
172
           0
173
           1
174
           0
175
           0
176
           2
177
           2
178
           2
270
           2
271
           3
272
           4
273
           2
274
           2
275
           0
280
           0
281
           0
282
           0
283
           1
284
           0
285
           0
286
           0
287
           3
288
           0
340
17
  0
DIMSTYLE
105
1BC
100
AcDbSymbolTableRecord
100
AcDbDimStyleTableRecord
  2
ME10_DIM_1
 70
           0
  3
ó<>
  4

  5

  6

  7

 40
1.0
 41
2.8
 42
0.8
 43
0.38
 44
1.0
 45
0.0
 46
0.0
 47
0.0
 48
0.0
 71
           0
 72
           0
 73
           0
 74
           0
 75
           0
 76
           0
 77
           1
 78
           8
140
2.8
141
0.09
142
0.0
143
25.4
144
1.0
145
0.0
146
1.0
147
0.09
170
           0
171
           2
172
           0
173
           1
174
           0
175
           0
176
           2
177
           2
178
           2
270
           2
271
           3
272
           4
273
           2
274
           2
275
           0
280
           0
281
           0
282
           0
283
           1
284
           0
285
           0
286
           0
287
           3
288
           0
340
17
  0
ENDTAB
  0
TABLE
  2
BLOCK_RECORD
  5
1
100
AcDbSymbolTable
 70
           2
  0
BLOCK_RECORD
  5
A
100
AcDbSymbolTableRecord
100
AcDbBlockTableRecord
  2
*MODEL_SPACE
  0
BLOCK_RECORD
  5
B
100
AcDbSymbolTableRecord
100
AcDbBlockTableRecord
  2
*PAPER_SPACE
  0
BLOCK_RECORD
  5
1A6
100
AcDbSymbolTableRecord
100
AcDbBlockTableRecord
  2
*D0
  0
BLOCK_RECORD
  5
1B2
100
AcDbSymbolTableRecord
100
AcDbBlockTableRecord
  2
*D1
  0
ENDTAB
  0
ENDSEC
  0
SECTION
  2
BLOCKS
  0
BLOCK
  5
D
100
AcDbEntity
  8
0
100
AcDbBlockBegin
  2
*MODEL_SPACE
 70
           0
 10
0.0
 20
0.0
 30
0.0
  3
*MODEL_SPACE
  1

  0
ENDBLK
  5
E
100
AcDbEntity
  8
0
100
AcDbBlockEnd
  0
BLOCK
  5
F
100
AcDbEntity
 67
           1
  8
0
100
AcDbBlockBegin
  2
*PAPER_SPACE
 70
           0
 10
0.0
 20
0.0
 30
0.0
  3
*PAPER_SPACE
  1

  0
ENDBLK
  5
10
100
AcDbEntity
 67
           1
  8
0
100
AcDbBlockEnd
  0
BLOCK
  5
1A7
100
AcDbEntity
  8
0
100
AcDbBlockBegin
  2
*D0
 70
           1
 10
0.0
 20
0.0
 30
0.0
  3
*D0
  1

  0
LINE
  5
1A8
100
AcDbEntity
  8
0
  6
CONTINUOUS
 62
           2
100
AcDbLine
 10
460.81025939116
 20
117.009069210215
 11
460.81025939116
 21
230.220896326926
  0
LINE
  5
1A9
100
AcDbEntity
  8
0
  6
CONTINUOUS
 62
           2
100
AcDbLine
 10
500.167588221984
 20
117.009069210215
 11
459.81025939116
 21
117.009069210215
  0
LINE
  5
1AA
100
AcDbEntity
  8
0
  6
CONTINUOUS
 62
           2
100
AcDbLine
 10
498.567107274822
 20
230.220896326926
 11
459.81025939116
 21
230.220896326926
  0
SOLID
  5
1AB
100
AcDbEntity
  8
0
 62
           2
100
AcDbTrace
 10
461.178886384405
 20
227.420896326926
 11
460.441632397915
 21
227.420896326926
 12
460.81025939116
 22
230.220896326926
 13
460.81025939116
 23
230.220896326926
  0
SOLID
  5
1AC
100
AcDbEntity
  8
0
 62
           2
100
AcDbTrace
 10
460.441632397915
 20
119.809069210215
 11
461.178886384405
 21
119.809069210215
 12
460.81025939116
 22
117.009069210215
 13
460.81025939116
 23
117.009069210215
  0
MTEXT
  5
1AE
100
AcDbEntity
  8
0
 62
           2
100
AcDbMText
 10
459.81025939116
 20
170.084714044409
 30
0.0
 40
2.8
 41
0.0
 71
           7
 72
           1
  1
114
  7
CONVERTER_1
 11
0.0
 21
1.0
 31
0.0
  0
ENDBLK
  5
1AF
100
AcDbEntity
  8
0
100
AcDbBlockEnd
  0
BLOCK
  5
1B3
100
AcDbEntity
  8
0
100
AcDbBlockBegin
  2
*D1
 70
           1
 10
0.0
 20
0.0
 30
0.0
  3
*D1
  1

  0
LINE
  5
1B4
100
AcDbEntity
  8
0
  6
CONTINUOUS
 62
           2
100
AcDbLine
 10
494.367107274822
 20
246.917158585129
 11
554.367107274822
 21
246.917158585129
  0
LINE
  5
1B5
100
AcDbEntity
  8
0
  6
CONTINUOUS
 62
           2
100
AcDbLine
 10
494.367107274822
 20
226.020896326926
 11
494.367107274822
 21
247.917158585129
  0
LINE
  5
1B6
100
AcDbEntity
  8
0
  6
CONTINUOUS
 62
           2
100
AcDbLine
 10
554.367107274822
 20
226.020896326926
 11
554.367107274822
 21
247.917158585129
  0
SOLID
  5
1B7
100
AcDbEntity
  8
0
 62
           2
100
AcDbTrace
 10
497.167107274822
 20
247.285785578374
 11
497.167107274822
 21
246.548531591884
 12
494.367107274822
 22
246.917158585129
 13
494.367107274822
 23
246.917158585129
  0
SOLID
  5
1B8
100
AcDbEntity
  8
0
 62
           2
100
AcDbTrace
 10
551.567107274822
 20
246.548531591884
 11
551.567107274822
 21
247.285785578374
 12
554.367107274822
 22
246.917158585129
 13
554.367107274822
 23
246.917158585129
  0
MTEXT
  5
1BA
100
AcDbEntity
  8
0
 62
           2
100
AcDbMText
 10
520.809828243249
 20
247.917158585129
 30
0.0
 40
2.8
 41
0.0
 71
           7
 72
           1
  1
\C2;ó\C2;60\C2;
  7
CONVERTER_2
  0
ENDBLK
  5
1BB
100
AcDbEntity
  8
0
100
AcDbBlockEnd
  0
ENDSEC
  0
SECTION
  2
ENTITIES
  0
DIMENSION
  5
1BD
100
AcDbEntity
  8
0
100
AcDbDimension
  2
*D1
 10
494.367107274822
 20
246.917158585129
 11
523.525828243249
 21
249.317158585129
 31
0.0
  1
<>
  3
ME10_DIM_1
100
AcDbAlignedDimension
 13
554.367107274822
 23
225.220896326926
 14
494.367107274822
 24
225.220896326926
100
AcDbRotatedDimension
  0
DIMENSION
  5
1B1
100
AcDbEntity
  8
0
100
AcDbDimension
  2
*D0
 10
460.81025939116
 20
230.220896326926
 11
458.41025939116
 21
172.604714044409
 31
0.0
 53
90.0
  1
<>
  3
ME10_DIM_0
100
AcDbAlignedDimension
 13
500.967588221984
 23
117.009069210215
 14
499.367107274822
 24
230.220896326926
 50
90.0
100
AcDbRotatedDimension
  0
ARC
  5
1A5
100
AcDbEntity
  8
1
  6
CONTINUOUS
 62
           7
100
AcDbCircle
 10
552.617107274822
 20
218.425827842914
 40
1.0
100
AcDbArc
 50
-90.0
 51
0.0
  0
ARC
  5
1A4
100
AcDbEntity
  8
1
  6
CONTINUOUS
 62
           7
100
AcDbCircle
 10
553.317107274822
 20
219.286382970461
 40
0.3
100
AcDbArc
 50
0.0
 51
31.002719133864
  0
ARC
  5
1A3
100
AcDbEntity
  8
1
  6
CONTINUOUS
 62
           7
100
AcDbCircle
 10
552.717107274822
 20
218.925827842914
 40
1.0
100
AcDbArc
 50
31.00271913388
 51
97.474185223767
  0
ARC
  5
1A2
100
AcDbEntity
  8
1
  6
CONTINUOUS
 62
           2
100
AcDbCircle
 10
573.168836487396
 20
225.074218494224
 40
19.308166356737
100
AcDbArc
 50
175.964866138765
 51
-178.096573695752
  0
ARC
  5
1A1
100
AcDbEntity
  8
1
  6
CONTINUOUS
 62
           2
100
AcDbCircle
 10
572.475024041073
 20
225.074218494224
 40
19.308166356737
100
AcDbArc
 50
175.964866138765
 51
-178.096573695752
  0
ARC
  5
1A0
100
AcDbEntity
  8
1
  6
CONTINUOUS
 62
           2
100
AcDbCircle
 10
571.78121159475
 20
225.074218494224
 40
19.308166356737
100
AcDbArc
 50
175.964866138765
 51
-178.096573695752
  0
ARC
  5
19F
100
AcDbEntity
  8
1
  6
CONTINUOUS
 62
           2
100
AcDbCircle
 10
571.087399148427
 20
225.074218494224
 40
19.308166356737
100
AcDbArc
 50
175.964866138765
 51
-178.096573695752
  0
ARC
  5
19E
100
AcDbEntity
  8
1
  6
CONTINUOUS
 62
           2
100
AcDbCircle
 10
570.393586702104
 20
225.074218494224
 40
19.308166356737
100
AcDbArc
 50
175.964866138765
 51
-178.096573695752
  0
ARC
  5
19D
100
AcDbEntity
  8
1
  6
CONTINUOUS
 62
           2
100
AcDbCircle
 10
569.699774255781
 20
225.074218494224
 40
19.308166356737
100
AcDbArc
 50
175.964866138765
 51
-178.096573695752
  0
ARC
  5
19C
100
AcDbEntity
  8
1
  6
CONTINUOUS
 62
           2
100
AcDbCircle
 10
569.005961809458
 20
225.074218494224
 40
19.308166356738
100
AcDbArc
 50
175.964866138765
 51
-178.096573695752
  0
ARC
  5
19B
100
AcDbEntity
  8
1
  6
CONTINUOUS
 62
           2
100
AcDbCircle
 10
568.312149363135
 20
225.074218494224
 40
19.308166356737
100
AcDbArc
 50
175.964866138765
 51
-178.096573695752
  0
ARC
  5
19A
100
AcDbEntity
  8
1
  6
CONTINUOUS
 62
           7
100
AcDbCircle
 10
551.867107274822
 20
225.220896326926
 40
2.5
100
AcDbArc
 50
-90.0
 51
0.0
  0
ARC
  5
199
100
AcDbEntity
  8
1
  6
CONTINUOUS
 62
           7
100
AcDbCircle
 10
549.367107274822
 20
228.220896326926
 40
2.0
100
AcDbArc
 50
0.0
 51
90.0
  0
ARC
  5
198
100
AcDbEntity
  8
1
  6
CONTINUOUS
 62
           7
100
AcDbCircle
 10
551.367107274822
 20
225.220896326926
 40
3.0
100
AcDbArc
 50
0.0
 51
90.0
  0
ARC
  5
197
100
AcDbEntity
  8
1
  6
CONTINUOUS
 62
           2
100
AcDbCircle
 10
538.931617199013
 20
225.074218494224
 40
5.121323193055
100
AcDbArc
 50
164.615298616132
 51
-172.806228006348
  0
ARC
  5
196
100
AcDbEntity
  8
1
  6
CONTINUOUS
 62
           2
100
AcDbCircle
 10
537.857787138684
 20
225.074218494224
 40
4.951124074854
100
AcDbArc
 50
164.072633303533
 51
-172.557559371075
  0
ARC
  5
195
100
AcDbEntity
  8
1
  6
CONTINUOUS
 62
           2
100
AcDbCircle
 10
536.7925722333
 20
225.074218494224
 40
4.795699743442
100
AcDbArc
 50
163.542012244598
 51
-172.314922898917
  0
ARC
  5
194
100
AcDbEntity
  8
1
  6
CONTINUOUS
 62
           2
100
AcDbCircle
 10
535.734998967723
 20
225.074218494224
 40
4.653420446263
100
AcDbArc
 50
163.023794006763
 51
-172.078464223402
  0
ARC
  5
193
100
AcDbEntity
  8
1
  6
CONTINUOUS
 62
           2
100
AcDbCircle
 10
534.684333750047
 20
225.074218494224
 40
4.522892384373
100
AcDbArc
 50
162.518324819923
 51
-171.848320488131
  0
ARC
  5
192
100
AcDbEntity
  8
1
  6
CONTINUOUS
 62
           2
100
AcDbCircle
 10
533.640041603003
 20
225.074218494224
 40
4.402916880054
100
AcDbArc
 50
162.025938524881
 51
-171.624620493008
  0
ARC
  5
191
100
AcDbEntity
  8
1
  6
CONTINUOUS
 62
           2
100
AcDbCircle
 10
532.601753075284
 20
225.074218494224
 40
4.292457766874
100
AcDbArc
 50
161.546956549956
 51
-171.407484868923
  0
ARC
  5
190
100
AcDbEntity
  8
1
  6
CONTINUOUS
 62
           2
100
AcDbCircle
 10
531.56923750619
 20
225.074218494224
 40
4.190615135234
100
AcDbArc
 50
161.081687914027
 51
-171.19702627855
  0
ARC
  5
18F
100
AcDbEntity
  8
1
  6
CONTINUOUS
 62
           2
100
AcDbCircle
 10
530.524358798277
 20
225.074218494224
 40
4.079606056456
100
AcDbArc
 50
160.546481006698
 51
-170.955508596156
  0
ARC
  5
18E
100
AcDbEntity
  8
1
  6
CONTINUOUS
 62
           2
100
AcDbCircle
 10
529.5211697783
 20
225.074218494224
 40
4.009737084389
100
AcDbArc
 50
160.193464876451
 51
-170.796552376905
  0
ARC
  5
18D
100
AcDbEntity
  8
1
  6
CONTINUOUS
 62
           2
100
AcDbCircle
 10
528.625494986653
 20
225.074218494224
 40
4.042053757681
100
AcDbArc
 50
160.3583598459
 51
-170.87076666989
  0
ARC
  5
18C
100
AcDbEntity
  8
1
  6
CONTINUOUS
 62
           2
100
AcDbCircle
 10
567.618336916813
 20
225.074218494224
 40
19.308166356737
100
AcDbArc
 50
175.964866138765
 51
-178.096573695752
  0
ARC
  5
18B
100
AcDbEntity
  8
1
  6
CONTINUOUS
 62
           2
100
AcDbCircle
 10
564.132609908382
 20
225.074218494224
 40
16.510255402023
100
AcDbArc
 50
175.279613857382
 51
-177.773858869816
  0
ARC
  5
18A
100
AcDbEntity
  8
1
  6
CONTINUOUS
 62
           2
100
AcDbCircle
 10
561.350107299854
 20
225.074218494224
 40
14.432342998172
100
AcDbArc
 50
174.59809850289
 51
-177.453149816312
  0
ARC
  5
189
100
AcDbEntity
  8
1
  6
CONTINUOUS
 62
           2
100
AcDbCircle
 10
559.026489129763
 20
225.074218494224
 40
12.829580958336
100
AcDbArc
 50
173.920853813495
 51
-177.134728551459
  0
ARC
  5
188
100
AcDbEntity
  8
1
  6
CONTINUOUS
 62
           2
100
AcDbCircle
 10
557.017150262347
 20
225.074218494224
 40
11.556844188664
100
AcDbArc
 50
173.248407873556
 51
-176.818872306169
  0
ARC
  5
187
100
AcDbEntity
  8
1
  6
CONTINUOUS
 62
           2
100
AcDbCircle
 10
555.231142844466
 20
225.074218494224
 40
10.522653520276
100
AcDbArc
 50
172.581282466507
 51
-176.505853003906
  0
ARC
  5
186
100
AcDbEntity
  8
1
  6
CONTINUOUS
 62
           2
100
AcDbCircle
 10
553.608485616491
 20
225.074218494224
 40
9.666485403396
100
AcDbArc
 50
171.919992453659
 51
-176.195936768995
  0
ARC
  5
185
100
AcDbEntity
  8
1
  6
CONTINUOUS
 62
           2
100
AcDbCircle
 10
552.108091633997
 20
225.074218494224
 40
8.946700020199
100
AcDbArc
 50
171.265045181021
 51
-175.88938346783
  0
ARC
  5
184
100
AcDbEntity
  8
1
  6
CONTINUOUS
 62
           2
100
AcDbCircle
 10
550.700936546589
 20
225.074218494224
 40
8.33370996243
100
AcDbArc
 50
170.616939916074
 51
-175.586446285116
  0
ARC
  5
183
100
AcDbEntity
  8
1
  6
CONTINUOUS
 62
           2
100
AcDbCircle
 10
549.365992350823
 20
225.074218494224
 40
7.805914390461
100
AcDbArc
 50
169.976167316159
 51
-175.287371336971
  0
ARC
  5
182
100
AcDbEntity
  8
1
  6
CONTINUOUS
 62
           2
100
AcDbCircle
 10
548.087703053872
 20
225.074218494224
 40
7.347175110157
100
AcDbArc
 50
169.343208929924
 51
-174.992397322426
  0
ARC
  5
181
100
AcDbEntity
  8
1
  6
CONTINUOUS
 62
           2
100
AcDbCircle
 10
546.854360596212
 20
225.074218494224
 40
6.945192915489
100
AcDbArc
 50
168.718536732985
 51
-174.701755214487
  0
ARC
  5
180
100
AcDbEntity
  8
1
  6
CONTINUOUS
 62
           2
100
AcDbCircle
 10
545.657027419897
 20
225.074218494224
 40
6.590430583228
100
AcDbArc
 50
168.102612698738
 51
-174.415667991628
  0
ARC
  5
17F
100
AcDbEntity
  8
1
  6
CONTINUOUS
 62
           2
100
AcDbCircle
 10
544.488802372682
 20
225.074218494224
 40
6.275379209597
100
AcDbArc
 50
167.495888404976
 51
-174.134350410261
  0
ARC
  5
17E
100
AcDbEntity
  8
1
  6
CONTINUOUS
 62
           2
100
AcDbCircle
 10
543.344308695477
 20
225.074218494224
 40
5.994046636102
100
AcDbArc
 50
166.898804676692
 51
-173.858008818368
  0
ARC
  5
17D
100
AcDbEntity
  8
1
  6
CONTINUOUS
 62
           2
100
AcDbCircle
 10
540.01532790232
 20
225.074218494224
 40
5.308214380529
100
AcDbArc
 50
165.169637358708
 51
-173.0607745657
  0
ARC
  5
17C
100
AcDbEntity
  8
1
  6
CONTINUOUS
 62
           2
100
AcDbCircle
 10
541.110542945839
 20
225.074218494224
 40
5.51406821585
100
AcDbArc
 50
165.735266563817
 51
-173.321036121699
  0
ARC
  5
17B
100
AcDbEntity
  8
1
  6
CONTINUOUS
 62
           2
100
AcDbCircle
 10
542.219329428638
 20
225.074218494224
 40
5.74159329972
100
AcDbArc
 50
166.31179126525
 51
-173.586841010212
  0
ARC
  5
17A
100
AcDbEntity
  8
1
  6
CONTINUOUS
 62
           2
100
AcDbCircle
 10
521.20866321023
 20
225.074218494224
 40
3.857188769859
100
AcDbArc
 50
-9.570792147306
 51
20.624767847769
  0
ARC
  5
179
100
AcDbEntity
  8
1
  6
CONTINUOUS
 62
           2
100
AcDbCircle
 10
522.212424637271
 20
225.074218494224
 40
3.78824930011
100
AcDbArc
 50
-9.746647755149
 51
21.017711079805
  0
ARC
  5
178
100
AcDbEntity
  8
1
  6
CONTINUOUS
 62
           2
100
AcDbCircle
 10
523.209877666843
 20
225.074218494224
 40
3.724439925704
100
AcDbArc
 50
-9.915305742459
 51
21.39535117002
  0
ARC
  5
177
100
AcDbEntity
  8
1
  6
CONTINUOUS
 62
           2
100
AcDbCircle
 10
524.200721383899
 20
225.074218494224
 40
3.665388118977
100
AcDbArc
 50
-10.0767017564
 51
21.75746370882
  0
ARC
  5
176
100
AcDbEntity
  8
1
  6
CONTINUOUS
 62
           2
100
AcDbCircle
 10
551.038196694189
 20
225.074218494224
 40
3.175664471753
100
AcDbArc
 50
-11.650907157093
 51
25.33063915487
  0
ARC
  5
175
100
AcDbEntity
  8
1
  6
CONTINUOUS
 62
           2
100
AcDbCircle
 10
550.344384247866
 20
225.074218494224
 40
3.175664471753
100
AcDbArc
 50
-11.650907157094
 51
25.330639154872
  0
ARC
  5
174
100
AcDbEntity
  8
1
  6
CONTINUOUS
 62
           2
100
AcDbCircle
 10
549.650571801543
 20
225.074218494224
 40
3.175664471753
100
AcDbArc
 50
-11.650907157093
 51
25.330639154872
  0
ARC
  5
173
100
AcDbEntity
  8
1
  6
CONTINUOUS
 62
           2
100
AcDbCircle
 10
548.956759355221
 20
225.074218494224
 40
3.175664471753
100
AcDbArc
 50
-11.650907157093
 51
25.330639154872
  0
ARC
  5
172
100
AcDbEntity
  8
1
  6
CONTINUOUS
 62
           2
100
AcDbCircle
 10
548.262946908898
 20
225.074218494224
 40
3.175664471753
100
AcDbArc
 50
-11.650907157093
 51
25.330639154872
  0
ARC
  5
171
100
AcDbEntity
  8
1
  6
CONTINUOUS
 62
           2
100
AcDbCircle
 10
547.569134462575
 20
225.074218494224
 40
3.175664471753
100
AcDbArc
 50
-11.650907157093
 51
25.330639154872
  0
ARC
  5
170
100
AcDbEntity
  8
1
  6
CONTINUOUS
 62
           2
100
AcDbCircle
 10
546.875322016252
 20
225.074218494224
 40
3.175664471753
100
AcDbArc
 50
-11.650907157093
 51
25.330639154872
  0
ARC
  5
16F
100
AcDbEntity
  8
1
  6
CONTINUOUS
 62
           2
100
AcDbCircle
 10
546.181509569929
 20
225.074218494224
 40
3.175664471753
100
AcDbArc
 50
-11.650907157094
 51
25.330639154872
  0
ARC
  5
16E
100
AcDbEntity
  8
1
  6
CONTINUOUS
 62
           2
100
AcDbCircle
 10
545.487697123606
 20
225.074218494224
 40
3.175664471753
100
AcDbArc
 50
-11.650907157094
 51
25.330639154872
  0
ARC
  5
16D
100
AcDbEntity
  8
1
  6
CONTINUOUS
 62
           2
100
AcDbCircle
 10
544.816757990165
 20
225.074218494224
 40
3.167766832948
100
AcDbArc
 50
-11.680362988343
 51
25.398274324568
  0
ARC
  5
16C
100
AcDbEntity
  8
1
  6
CONTINUOUS
 62
           2
100
AcDbCircle
 10
544.126684105891
 20
225.074218494224
 40
3.161968559198
100
AcDbArc
 50
-11.702084491848
 51
25.448169957082
  0
ARC
  5
16B
100
AcDbEntity
  8
1
  6
CONTINUOUS
 62
           2
100
AcDbCircle
 10
543.417999838166
 20
225.074218494224
 40
3.158247220009
100
AcDbArc
 50
-11.716068302379
 51
25.480300499326
  0
ARC
  5
16A
100
AcDbEntity
  8
1
  6
CONTINUOUS
 62
           2
100
AcDbCircle
 10
542.691233391596
 20
225.074218494224
 40
3.156588473324
100
AcDbArc
 50
-11.722312286903
 51
25.494649523692
  0
ARC
  5
169
100
AcDbEntity
  8
1
  6
CONTINUOUS
 62
           2
100
AcDbCircle
 10
541.946916563003
 20
225.074218494224
 40
3.156985939882
100
AcDbArc
 50
-11.72081550146
 51
25.491209700779
  0
ARC
  5
168
100
AcDbEntity
  8
1
  6
CONTINUOUS
 62
           2
100
AcDbCircle
 10
541.185584418148
 20
225.074218494224
 40
3.159441147511
100
AcDbArc
 50
-11.711578171853
 51
25.469982787248
  0
ARC
  5
167
100
AcDbEntity
  8
1
  6
CONTINUOUS
 62
           2
100
AcDbCircle
 10
540.407774891345
 20
225.074218494224
 40
3.163963544463
100
AcDbArc
 50
-11.694601698285
 51
25.430979628699
  0
ARC
  5
166
100
AcDbEntity
  8
1
  6
CONTINUOUS
 62
           2
100
AcDbCircle
 10
539.614028308056
 20
225.074218494224
 40
3.170570581987
100
AcDbArc
 50
-11.669888683903
 51
25.374220177729
  0
ARC
  5
165
100
AcDbEntity
  8
1
  6
CONTINUOUS
 62
           2
100
AcDbCircle
 10
538.804886829366
 20
225.074218494224
 40
3.17928786753
100
AcDbArc
 50
-11.637442987059
 51
25.299733526932
  0
ARC
  5
164
100
AcDbEntity
  8
1
  6
CONTINUOUS
 62
           2
100
AcDbCircle
 10
537.980893816102
 20
225.074218494224
 40
3.190149391082
100
AcDbArc
 50
-11.597269797168
 51
25.207557956646
  0
ARC
  5
163
100
AcDbEntity
  8
1
  6
CONTINUOUS
 62
           2
100
AcDbCircle
 10
537.142593109091
 20
225.074218494224
 40
3.203197828472
100
AcDbArc
 50
-11.549375733654
 51
25.097740997075
  0
ARC
  5
162
100
AcDbEntity
  8
1
  6
CONTINUOUS
 62
           2
100
AcDbCircle
 10
536.290528220725
 20
225.074218494224
 40
3.218484926743
100
AcDbArc
 50
-11.493768967614
 51
24.970339504415
  0
ARC
  5
161
100
AcDbEntity
  8
1
  6
CONTINUOUS
 62
           2
100
AcDbCircle
 10
535.425241431501
 20
225.074218494224
 40
3.23607197825
100
AcDbArc
 50
-11.430459365538
 51
24.825419750244
  0
ARC
  5
160
100
AcDbEntity
  8
1
  6
CONTINUOUS
 62
           2
100
AcDbCircle
 10
534.547272783548
 20
225.074218494224
 40
3.256030391774
100
AcDbArc
 50
-11.359458654418
 51
24.663057523758
  0
ARC
  5
15F
100
AcDbEntity
  8
1
  6
CONTINUOUS
 62
           2
100
AcDbCircle
 10
533.657158961222
 20
225.074218494224
 40
3.278442370883
100
AcDbArc
 50
-11.280780607387
 51
24.483338245838
  0
ARC
  5
15E
100
AcDbEntity
  8
1
  6
CONTINUOUS
 62
           2
100
AcDbCircle
 10
532.755432046657
 20
225.074218494224
 40
3.303401711971
100
AcDbArc
 50
-11.194441248945
 51
24.286357094227
  0
ARC
  5
15D
100
AcDbEntity
  8
1
  6
CONTINUOUS
 62
           2
100
AcDbCircle
 10
531.842618135582
 20
225.074218494224
 40
3.331014736997
100
AcDbArc
 50
-11.100459078708
 51
24.072219138784
  0
ARC
  5
15C
100
AcDbEntity
  8
1
  6
CONTINUOUS
 62
           2
100
AcDbCircle
 10
530.919235795635
 20
225.074218494224
 40
3.361401379003
100
AcDbArc
 50
-10.998855312479
 51
23.841039485705
  0
ARC
  5
15B
100
AcDbEntity
  8
1
  6
CONTINUOUS
 62
           2
100
AcDbCircle
 10
529.985794345788
 20
225.074218494224
 40
3.394696442132
100
AcDbArc
 50
-10.889654139326
 51
23.592943429553
  0
ARC
  5
15A
100
AcDbEntity
  8
1
  6
CONTINUOUS
 62
           2
100
AcDbCircle
 10
529.042791931164
 20
225.074218494224
 40
3.431051062207
100
AcDbArc
 50
-10.772882993235
 51
23.328066611806
  0
ARC
  5
159
100
AcDbEntity
  8
1
  6
CONTINUOUS
 62
           2
100
AcDbCircle
 10
528.090713362212
 20
225.074218494224
 40
3.470634399224
100
AcDbArc
 50
-10.648572837772
 51
23.046555184543
  0
ARC
  5
158
100
AcDbEntity
  8
1
  6
CONTINUOUS
 62
           2
100
AcDbCircle
 10
525.184615421029
 20
225.074218494224
 40
3.610762140308
100
AcDbArc
 50
-10.230777175342
 51
22.103835952374
  0
ARC
  5
157
100
AcDbEntity
  8
1
  6
CONTINUOUS
 62
           2
100
AcDbCircle
 10
526.161185408543
 20
225.074218494224
 40
3.560266072821
100
AcDbArc
 50
-10.377478786427
 51
22.43426666884
  0
ARC
  5
156
100
AcDbEntity
  8
1
  6
CONTINUOUS
 62
           2
100
AcDbCircle
 10
527.130027680874
 20
225.074218494224
 40
3.513635599471
100
AcDbArc
 50
-10.516758462083
 51
22.748565977767
  0
ARC
  5
155
100
AcDbEntity
  8
1
  6
CONTINUOUS
 62
           2
100
AcDbCircle
 10
521.60418686877
 20
225.074218494224
 40
3.513635599471
100
AcDbArc
 50
157.251434022233
 51
-169.483241537917
  0
ARC
  5
154
100
AcDbEntity
  8
1
  6
CONTINUOUS
 62
           2
100
AcDbCircle
 10
522.573029141101
 20
225.074218494224
 40
3.560266072821
100
AcDbArc
 50
157.565733331159
 51
-169.622521213573
  0
ARC
  5
153
100
AcDbEntity
  8
1
  6
CONTINUOUS
 62
           2
100
AcDbCircle
 10
523.549599128615
 20
225.074218494224
 40
3.610762140308
100
AcDbArc
 50
157.896164047626
 51
-169.769222824658
  0
ARC
  5
152
100
AcDbEntity
  8
1
  6
CONTINUOUS
 62
           2
100
AcDbCircle
 10
520.643501187433
 20
225.074218494224
 40
3.470634399224
100
AcDbArc
 50
156.953444815457
 51
-169.351427162228
  0
ARC
  5
151
100
AcDbEntity
  8
1
  6
CONTINUOUS
 62
           2
100
AcDbCircle
 10
519.69142261848
 20
225.074218494224
 40
3.431051062207
100
AcDbArc
 50
156.671933388194
 51
-169.227117006765
  0
ARC
  5
150
100
AcDbEntity
  8
1
  6
CONTINUOUS
 62
           2
100
AcDbCircle
 10
518.748420203856
 20
225.074218494224
 40
3.394696442132
100
AcDbArc
 50
156.407056570447
 51
-169.110345860673
  0
ARC
  5
14F
100
AcDbEntity
  8
1
  6
CONTINUOUS
 62
           2
100
AcDbCircle
 10
517.814978754009
 20
225.074218494224
 40
3.361401379003
100
AcDbArc
 50
156.158960514295
 51
-169.001144687521
  0
ARC
  5
14E
100
AcDbEntity
  8
1
  6
CONTINUOUS
 62
           2
100
AcDbCircle
 10
516.891596414062
 20
225.074218494224
 40
3.331014736997
100
AcDbArc
 50
155.927780861216
 51
-168.899540921292
  0
ARC
  5
14D
100
AcDbEntity
  8
1
  6
CONTINUOUS
 62
           2
100
AcDbCircle
 10
515.978782502988
 20
225.074218494224
 40
3.303401711971
100
AcDbArc
 50
155.713642905772
 51
-168.805558751055
  0
ARC
  5
14C
100
AcDbEntity
  8
1
  6
CONTINUOUS
 62
           2
100
AcDbCircle
 10
515.077055588423
 20
225.074218494224
 40
3.278442370883
100
AcDbArc
 50
155.516661754162
 51
-168.719219392613
  0
ARC
  5
14B
100
AcDbEntity
  8
1
  6
CONTINUOUS
 62
           2
100
AcDbCircle
 10
514.186941766096
 20
225.074218494224
 40
3.256030391774
100
AcDbArc
 50
155.336942476242
 51
-168.640541345582
  0
ARC
  5
14A
100
AcDbEntity
  8
1
  6
CONTINUOUS
 62
           2
100
AcDbCircle
 10
513.308973118143
 20
225.074218494224
 40
3.23607197825
100
AcDbArc
 50
155.174580249756
 51
-168.569540634462
  0
ARC
  5
149
100
AcDbEntity
  8
1
  6
CONTINUOUS
 62
           2
100
AcDbCircle
 10
512.44368632892
 20
225.074218494224
 40
3.218484926743
100
AcDbArc
 50
155.029660495585
 51
-168.506231032386
  0
ARC
  5
148
100
AcDbEntity
  8
1
  6
CONTINUOUS
 62
           2
100
AcDbCircle
 10
511.591621440553
 20
225.074218494224
 40
3.203197828472
100
AcDbArc
 50
154.902259002924
 51
-168.450624266346
  0
ARC
  5
147
100
AcDbEntity
  8
1
  6
CONTINUOUS
 62
           2
100
AcDbCircle
 10
510.753320733542
 20
225.074218494224
 40
3.190149391082
100
AcDbArc
 50
154.792442043354
 51
-168.402730202831
  0
ARC
  5
146
100
AcDbEntity
  8
1
  6
CONTINUOUS
 62
           2
100
AcDbCircle
 10
509.929327720278
 20
225.074218494224
 40
3.17928786753
100
AcDbArc
 50
154.700266473068
 51
-168.36255701294
  0
ARC
  5
145
100
AcDbEntity
  8
1
  6
CONTINUOUS
 62
           2
100
AcDbCircle
 10
509.120186241588
 20
225.074218494224
 40
3.170570581987
100
AcDbArc
 50
154.62577982227
 51
-168.330111316097
  0
ARC
  5
144
100
AcDbEntity
  8
1
  6
CONTINUOUS
 62
           2
100
AcDbCircle
 10
508.326439658299
 20
225.074218494224
 40
3.163963544463
100
AcDbArc
 50
154.569020371301
 51
-168.305398301714
  0
ARC
  5
143
100
AcDbEntity
  8
1
  6
CONTINUOUS
 62
           2
100
AcDbCircle
 10
507.548630131496
 20
225.074218494224
 40
3.159441147511
100
AcDbArc
 50
154.530017212753
 51
-168.288421828147
  0
ARC
  5
142
100
AcDbEntity
  8
1
  6
CONTINUOUS
 62
           2
100
AcDbCircle
 10
506.787297986641
 20
225.074218494224
 40
3.156985939882
100
AcDbArc
 50
154.508790299221
 51
-168.27918449854
  0
ARC
  5
141
100
AcDbEntity
  8
1
  6
CONTINUOUS
 62
           2
100
AcDbCircle
 10
506.042981158048
 20
225.074218494224
 40
3.156588473324
100
AcDbArc
 50
154.505350476308
 51
-168.277687713097
  0
ARC
  5
140
100
AcDbEntity
  8
1
  6
CONTINUOUS
 62
           2
100
AcDbCircle
 10
505.316214711478
 20
225.074218494224
 40
3.158247220009
100
AcDbArc
 50
154.519699500672
 51
-168.28393169762
  0
ARC
  5
13F
100
AcDbEntity
  8
1
  6
CONTINUOUS
 62
           2
100
AcDbCircle
 10
504.607530443753
 20
225.074218494224
 40
3.161968559199
100
AcDbArc
 50
154.551830042918
 51
-168.297915508151
  0
ARC
  5
13E
100
AcDbEntity
  8
1
  6
CONTINUOUS
 62
           2
100
AcDbCircle
 10
503.917456559479
 20
225.074218494224
 40
3.167766832947
100
AcDbArc
 50
154.601725675431
 51
-168.319637011656
  0
ARC
  5
13D
100
AcDbEntity
  8
1
  6
CONTINUOUS
 62
           2
100
AcDbCircle
 10
503.246517426038
 20
225.074218494224
 40
3.175664471753
100
AcDbArc
 50
154.669360845127
 51
-168.349092842905
  0
ARC
  5
13C
100
AcDbEntity
  8
1
  6
CONTINUOUS
 62
           2
100
AcDbCircle
 10
502.552704979715
 20
225.074218494224
 40
3.175664471753
100
AcDbArc
 50
154.669360845127
 51
-168.349092842905
  0
ARC
  5
13B
100
AcDbEntity
  8
1
  6
CONTINUOUS
 62
           2
100
AcDbCircle
 10
501.858892533392
 20
225.074218494224
 40
3.175664471753
100
AcDbArc
 50
154.669360845127
 51
-168.349092842906
  0
ARC
  5
13A
100
AcDbEntity
  8
1
  6
CONTINUOUS
 62
           2
100
AcDbCircle
 10
501.165080087069
 20
225.074218494224
 40
3.175664471753
100
AcDbArc
 50
154.669360845127
 51
-168.349092842906
  0
ARC
  5
139
100
AcDbEntity
  8
1
  6
CONTINUOUS
 62
           2
100
AcDbCircle
 10
500.471267640746
 20
225.074218494224
 40
3.175664471753
100
AcDbArc
 50
154.669360845127
 51
-168.349092842906
  0
ARC
  5
138
100
AcDbEntity
  8
1
  6
CONTINUOUS
 62
           2
100
AcDbCircle
 10
499.777455194424
 20
225.074218494224
 40
3.175664471753
100
AcDbArc
 50
154.669360845127
 51
-168.349092842906
  0
ARC
  5
137
100
AcDbEntity
  8
1
  6
CONTINUOUS
 62
           2
100
AcDbCircle
 10
499.083642748101
 20
225.074218494224
 40
3.175664471753
100
AcDbArc
 50
154.669360845127
 51
-168.349092842906
  0
ARC
  5
136
100
AcDbEntity
  8
1
  6
CONTINUOUS
 62
           2
100
AcDbCircle
 10
498.389830301778
 20
225.074218494224
 40
3.175664471753
100
AcDbArc
 50
154.669360845127
 51
-168.349092842905
  0
ARC
  5
135
100
AcDbEntity
  8
1
  6
CONTINUOUS
 62
           2
100
AcDbCircle
 10
497.696017855455
 20
225.074218494224
 40
3.175664471753
100
AcDbArc
 50
154.669360845129
 51
-168.349092842906
  0
ARC
  5
134
100
AcDbEntity
  8
1
  6
CONTINUOUS
 62
           2
100
AcDbCircle
 10
524.533493165745
 20
225.074218494224
 40
3.665388118977
100
AcDbArc
 50
158.242536291179
 51
-169.923298243599
  0
ARC
  5
133
100
AcDbEntity
  8
1
  6
CONTINUOUS
 62
           2
100
AcDbCircle
 10
525.524336882801
 20
225.074218494224
 40
3.724439925704
100
AcDbArc
 50
158.60464882998
 51
-170.084694257541
  0
ARC
  5
132
100
AcDbEntity
  8
1
  6
CONTINUOUS
 62
           2
100
AcDbCircle
 10
526.521789912373
 20
225.074218494224
 40
3.78824930011
100
AcDbArc
 50
158.982288920194
 51
-170.253352244851
  0
ARC
  5
131
100
AcDbEntity
  8
1
  6
CONTINUOUS
 62
           2
100
AcDbCircle
 10
527.525551339415
 20
225.074218494224
 40
3.857188769859
100
AcDbArc
 50
159.37523215223
 51
-170.429207852693
  0
ARC
  5
130
100
AcDbEntity
  8
1
  6
CONTINUOUS
 62
           2
100
AcDbCircle
 10
506.514885121006
 20
225.074218494224
 40
5.74159329972
100
AcDbArc
 50
-6.413158989788
 51
13.68820873475
  0
ARC
  5
12F
100
AcDbEntity
  8
1
  6
CONTINUOUS
 62
           2
100
AcDbCircle
 10
507.623671603805
 20
225.074218494224
 40
5.51406821585
100
AcDbArc
 50
-6.678963878301
 51
14.264733436183
  0
ARC
  5
12E
100
AcDbEntity
  8
1
  6
CONTINUOUS
 62
           2
100
AcDbCircle
 10
508.718886647324
 20
225.074218494224
 40
5.308214380529
100
AcDbArc
 50
-6.9392254343
 51
14.830362641291
  0
ARC
  5
12D
100
AcDbEntity
  8
1
  6
CONTINUOUS
 62
           2
100
AcDbCircle
 10
505.389905854167
 20
225.074218494224
 40
5.994046636102
100
AcDbArc
 50
-6.141991181631
 51
13.101195323308
  0
ARC
  5
12C
100
AcDbEntity
  8
1
  6
CONTINUOUS
 62
           2
100
AcDbCircle
 10
504.245412176962
 20
225.074218494224
 40
6.275379209597
100
AcDbArc
 50
-5.865649589738
 51
12.504111595024
  0
ARC
  5
12B
100
AcDbEntity
  8
1
  6
CONTINUOUS
 62
           2
100
AcDbCircle
 10
503.077187129747
 20
225.074218494224
 40
6.590430583228
100
AcDbArc
 50
-5.584332008371
 51
11.897387301262
  0
ARC
  5
12A
100
AcDbEntity
  8
1
  6
CONTINUOUS
 62
           2
100
AcDbCircle
 10
501.879853953432
 20
225.074218494224
 40
6.945192915489
100
AcDbArc
 50
-5.298244785513
 51
11.281463267015
  0
ARC
  5
129
100
AcDbEntity
  8
1
  6
CONTINUOUS
 62
           2
100
AcDbCircle
 10
500.646511495772
 20
225.074218494224
 40
7.347175110156
100
AcDbArc
 50
-5.007602677573
 51
10.656791070076
  0
ARC
  5
128
100
AcDbEntity
  8
1
  6
CONTINUOUS
 62
           2
100
AcDbCircle
 10
499.368222198822
 20
225.074218494224
 40
7.805914390461
100
AcDbArc
 50
-4.712628663029
 51
10.02383268384
  0
ARC
  5
127
100
AcDbEntity
  8
1
  6
CONTINUOUS
 62
           2
100
AcDbCircle
 10
498.033278003055
 20
225.074218494224
 40
8.33370996243
100
AcDbArc
 50
-4.413553714884
 51
9.383060083926
  0
ARC
  5
126
100
AcDbEntity
  8
1
  6
CONTINUOUS
 62
           2
100
AcDbCircle
 10
496.626122915647
 20
225.074218494224
 40
8.946700020199
100
AcDbArc
 50
-4.110616532169
 51
8.734954818979
  0
ARC
  5
125
100
AcDbEntity
  8
1
  6
CONTINUOUS
 62
           2
100
AcDbCircle
 10
495.125728933153
 20
225.074218494224
 40
9.666485403396
100
AcDbArc
 50
-3.804063231005
 51
8.080007546341
  0
ARC
  5
124
100
AcDbEntity
  8
1
  6
CONTINUOUS
 62
           2
100
AcDbCircle
 10
493.503071705178
 20
225.074218494224
 40
10.522653520276
100
AcDbArc
 50
-3.494146996094
 51
7.418717533493
  0
ARC
  5
123
100
AcDbEntity
  8
1
  6
CONTINUOUS
 62
           2
100
AcDbCircle
 10
491.717064287297
 20
225.074218494224
 40
11.556844188664
100
AcDbArc
 50
-3.18112769383
 51
6.751592126444
  0
ARC
  5
122
100
AcDbEntity
  8
1
  6
CONTINUOUS
 62
           2
100
AcDbCircle
 10
489.707725419881
 20
225.074218494224
 40
12.829580958336
100
AcDbArc
 50
-2.86527144854
 51
6.079146186505
  0
ARC
  5
121
100
AcDbEntity
  8
1
  6
CONTINUOUS
 62
           2
100
AcDbCircle
 10
487.38410724979
 20
225.074218494224
 40
14.432342998173
100
AcDbArc
 50
-2.546850183687
 51
5.401901497109
  0
ARC
  5
120
100
AcDbEntity
  8
1
  6
CONTINUOUS
 62
           2
100
AcDbCircle
 10
484.601604641262
 20
225.074218494224
 40
16.510255402023
100
AcDbArc
 50
-2.226141130184
 51
4.720386142617
  0
ARC
  5
11F
100
AcDbEntity
  8
1
  6
CONTINUOUS
 62
           2
100
AcDbCircle
 10
481.115877632832
 20
225.074218494224
 40
19.308166356737
100
AcDbArc
 50
-1.903426304248
 51
4.035133861235
  0
ARC
  5
11E
100
AcDbEntity
  8
1
  6
CONTINUOUS
 62
           2
100
AcDbCircle
 10
520.108719562991
 20
225.074218494224
 40
4.042053757681
100
AcDbArc
 50
-9.12923333011
 51
19.641640154099
  0
ARC
  5
11D
100
AcDbEntity
  8
1
  6
CONTINUOUS
 62
           2
100
AcDbCircle
 10
519.213044771344
 20
225.074218494224
 40
4.009737084389
100
AcDbArc
 50
-9.203447623095
 51
19.806535123548
  0
ARC
  5
11C
100
AcDbEntity
  8
1
  6
CONTINUOUS
 62
           2
100
AcDbCircle
 10
518.209855751367
 20
225.074218494224
 40
4.079606056456
100
AcDbArc
 50
-9.044491403844
 51
19.453518993301
  0
ARC
  5
11B
100
AcDbEntity
  8
1
  6
CONTINUOUS
 62
           2
100
AcDbCircle
 10
517.164977043454
 20
225.074218494224
 40
4.190615135234
100
AcDbArc
 50
-8.80297372145
 51
18.918312085972
  0
ARC
  5
11A
100
AcDbEntity
  8
1
  6
CONTINUOUS
 62
           2
100
AcDbCircle
 10
516.132461474361
 20
225.074218494224
 40
4.292457766874
100
AcDbArc
 50
-8.592515131077
 51
18.453043450044
  0
ARC
  5
119
100
AcDbEntity
  8
1
  6
CONTINUOUS
 62
           2
100
AcDbCircle
 10
515.094172946641
 20
225.074218494224
 40
4.402916880054
100
AcDbArc
 50
-8.375379506991
 51
17.974061475119
  0
ARC
  5
118
100
AcDbEntity
  8
1
  6
CONTINUOUS
 62
           2
100
AcDbCircle
 10
514.049880799597
 20
225.074218494224
 40
4.522892384373
100
AcDbArc
 50
-8.151679511869
 51
17.481675180076
  0
ARC
  5
117
100
AcDbEntity
  8
1
  6
CONTINUOUS
 62
           2
100
AcDbCircle
 10
512.999215581921
 20
225.074218494224
 40
4.653420446263
100
AcDbArc
 50
-7.921535776598
 51
16.976205993237
  0
ARC
  5
116
100
AcDbEntity
  8
1
  6
CONTINUOUS
 62
           2
100
AcDbCircle
 10
511.941642316344
 20
225.074218494224
 40
4.795699743442
100
AcDbArc
 50
-7.685077101082
 51
16.457987755401
  0
ARC
  5
115
100
AcDbEntity
  8
1
  6
CONTINUOUS
 62
           2
100
AcDbCircle
 10
510.876427410961
 20
225.074218494224
 40
4.951124074854
100
AcDbArc
 50
-7.442440628925
 51
15.927366696467
  0
ARC
  5
114
100
AcDbEntity
  8
1
  6
CONTINUOUS
 62
           2
100
AcDbCircle
 10
509.802597350631
 20
225.074218494224
 40
5.121323193055
100
AcDbArc
 50
-7.193771993652
 51
15.384701383868
  0
ARC
  5
113
100
AcDbEntity
  8
1
  6
CONTINUOUS
 62
           7
100
AcDbCircle
 10
497.367107274822
 20
225.220896326926
 40
3.0
100
AcDbArc
 50
90.0
 51
180.0
  0
ARC
  5
112
100
AcDbEntity
  8
1
  6
CONTINUOUS
 62
           7
100
AcDbCircle
 10
499.367107274822
 20
228.220896326926
 40
2.0
100
AcDbArc
 50
90.0
 51
180.0
  0
ARC
  5
111
100
AcDbEntity
  8
1
  6
CONTINUOUS
 62
           7
100
AcDbCircle
 10
496.867107274822
 20
225.220896326926
 40
2.5
100
AcDbArc
 50
180.0
 51
-89.999999999996
  0
ARC
  5
110
100
AcDbEntity
  8
1
  6
CONTINUOUS
 62
           2
100
AcDbCircle
 10
480.422065186509
 20
225.074218494224
 40
19.308166356737
100
AcDbArc
 50
-1.903426304248
 51
4.035133861235
  0
ARC
  5
10F
100
AcDbEntity
  8
1
  6
CONTINUOUS
 62
           2
100
AcDbCircle
 10
479.728252740186
 20
225.074218494224
 40
19.308166356737
100
AcDbArc
 50
-1.903426304248
 51
4.035133861235
  0
ARC
  5
10E
100
AcDbEntity
  8
1
  6
CONTINUOUS
 62
           2
100
AcDbCircle
 10
479.034440293863
 20
225.074218494224
 40
19.308166356737
100
AcDbArc
 50
-1.903426304248
 51
4.035133861235
  0
ARC
  5
10D
100
AcDbEntity
  8
1
  6
CONTINUOUS
 62
           2
100
AcDbCircle
 10
478.34062784754
 20
225.074218494224
 40
19.308166356737
100
AcDbArc
 50
-1.903426304248
 51
4.035133861235
  0
ARC
  5
10C
100
AcDbEntity
  8
1
  6
CONTINUOUS
 62
           2
100
AcDbCircle
 10
477.646815401217
 20
225.074218494224
 40
19.308166356737
100
AcDbArc
 50
-1.903426304248
 51
4.035133861235
  0
ARC
  5
10B
100
AcDbEntity
  8
1
  6
CONTINUOUS
 62
           2
100
AcDbCircle
 10
476.953002954894
 20
225.074218494224
 40
19.308166356737
100
AcDbArc
 50
-1.903426304248
 51
4.035133861235
  0
ARC
  5
10A
100
AcDbEntity
  8
1
  6
CONTINUOUS
 62
           2
100
AcDbCircle
 10
476.259190508572
 20
225.074218494224
 40
19.308166356737
100
AcDbArc
 50
-1.903426304248
 51
4.035133861235
  0
ARC
  5
109
100
AcDbEntity
  8
1
  6
CONTINUOUS
 62
           2
100
AcDbCircle
 10
475.565378062249
 20
225.074218494224
 40
19.308166356737
100
AcDbArc
 50
-1.903426304248
 51
4.035133861235
  0
ARC
  5
108
100
AcDbEntity
  8
1
  6
CONTINUOUS
 62
           7
100
AcDbCircle
 10
496.367107274822
 20
218.675400384233
 40
1.25
100
AcDbArc
 50
180.0
 51
-90.0
  0
ARC
  5
107
100
AcDbEntity
  8
1
  6
CONTINUOUS
 62
           7
100
AcDbCircle
 10
496.367107274822
 20
218.675400384233
 40
1.25
100
AcDbArc
 50
90.0
 51
180.0
  0
ARC
  5
106
100
AcDbEntity
  8
976
  6
CONTINUOUS
 62
           7
100
AcDbCircle
 10
528.020389466085
 20
169.028494340136
 40
24.0
100
AcDbArc
 50
-79.565390286133
 51
0.947586579981
  0
ARC
  5
105
100
AcDbEntity
  8
976
  6
CONTINUOUS
 62
           7
100
AcDbCircle
 10
520.713825083559
 20
169.028494340136
 40
24.0
100
AcDbArc
 50
179.052413420019
 51
-100.434609713867
  0
ARC
  5
104
100
AcDbEntity
  8
1
  6
CONTINUOUS
 62
           7
100
AcDbCircle
 10
511.228795846452
 20
140.985061998003
 40
3.0
100
AcDbArc
 50
-167.901859248078
 51
-132.098140751918
  0
ARC
  5
103
100
AcDbEntity
  8
1
  6
CONTINUOUS
 62
           7
100
AcDbCircle
 10
495.706380597516
 20
140.985061998003
 40
3.0
100
AcDbArc
 50
-9.964145252393
 51
0.936691098029
  0
ARC
  5
102
100
AcDbEntity
  8
1
  6
CONTINUOUS
 62
           7
100
AcDbCircle
 10
504.658196196785
 20
140.278380806152
 40
6.0
100
AcDbArc
 50
127.959283412994
 51
172.764148226506
  0
ARC
  5
101
100
AcDbEntity
  8
1
  6
CONTINUOUS
 62
           7
100
AcDbCircle
 10
495.706380597516
 20
140.985061998003
 40
3.0
100
AcDbArc
 50
-47.90185924808
 51
-9.964145252393
  0
ARC
  5
100
100
AcDbEntity
  8
1
  6
CONTINUOUS
 62
           7
100
AcDbCircle
 10
502.209852666629
 20
140.331524609036
 40
6.0
100
AcDbArc
 50
1.695673574344
 51
51.223121659596
  0
ARC
  5
FF
100
AcDbEntity
  8
1
  6
CONTINUOUS
 62
           7
100
AcDbCircle
 10
502.209852666629
 20
121.686613811394
 40
6.0
100
AcDbArc
 50
-51.223121659596
 51
-1.695673574344
  0
ARC
  5
FE
100
AcDbEntity
  8
1
  6
CONTINUOUS
 62
           7
100
AcDbCircle
 10
495.706380597516
 20
121.033076422428
 40
3.0
100
AcDbArc
 50
9.964145252393
 51
47.90185924808
  0
ARC
  5
FD
100
AcDbEntity
  8
1
  6
CONTINUOUS
 62
           7
100
AcDbCircle
 10
504.658196196785
 20
121.739757614278
 40
6.0
100
AcDbArc
 50
-172.764148226506
 51
-127.959283412994
  0
ARC
  5
FC
100
AcDbEntity
  8
1
  6
CONTINUOUS
 62
           7
100
AcDbCircle
 10
495.706380597516
 20
121.033076422428
 40
3.0
100
AcDbArc
 50
-0.936691098031
 51
9.964145252393
  0
ARC
  5
FB
100
AcDbEntity
  8
1
  6
CONTINUOUS
 62
           7
100
AcDbCircle
 10
511.228795846452
 20
121.033076422428
 40
3.0
100
AcDbArc
 50
132.098140751918
 51
167.90185924808
  0
LINE
  5
FA
100
AcDbEntity
  8
1
  6
DOT_CENTER
 62
           2
100
AcDbLine
 10
524.367107274822
 20
119.840402699436
 11
524.367107274822
 21
236.402341805521
  0
LINE
  5
F9
100
AcDbEntity
  8
1
  6
CONTINUOUS
 62
           7
100
AcDbLine
 10
549.367107274822
 20
230.220896326926
 11
524.367107274822
 21
230.220896326926
  0
LINE
  5
F8
100
AcDbEntity
  8
1
  6
CONTINUOUS
 62
           2
100
AcDbLine
 10
524.818634545721
 20
224.432898796303
 11
524.818634545721
 21
226.432898796303
  0
LINE
  5
F7
100
AcDbEntity
  8
1
  6
CONTINUOUS
 62
           2
100
AcDbLine
 10
525.748640212787
 20
224.432898796303
 11
525.748640212787
 21
226.432898796303
  0
LINE
  5
F6
100
AcDbEntity
  8
1
  6
CONTINUOUS
 62
           2
100
AcDbLine
 10
526.677649371687
 20
224.432898796303
 11
526.677649371687
 21
226.432898796303
  0
LINE
  5
F5
100
AcDbEntity
  8
1
  6
CONTINUOUS
 62
           2
100
AcDbLine
 10
527.604991922426
 20
224.432898796303
 11
527.604991922426
 21
226.432898796303
  0
LINE
  5
F4
100
AcDbEntity
  8
1
  6
CONTINUOUS
 62
           2
100
AcDbLine
 10
528.529998967145
 20
224.432898796303
 11
528.529998967145
 21
226.432898796303
  0
LINE
  5
F3
100
AcDbEntity
  8
1
  6
CONTINUOUS
 62
           2
100
AcDbLine
 10
529.452003292599
 20
224.432898796303
 11
529.452003292599
 21
226.432898796303
  0
LINE
  5
F2
100
AcDbEntity
  8
1
  6
CONTINUOUS
 62
           2
100
AcDbLine
 10
530.370339851424
 20
224.432898796303
 11
530.370339851424
 21
226.432898796303
  0
LINE
  5
F1
100
AcDbEntity
  8
1
  6
CONTINUOUS
 62
           2
100
AcDbLine
 10
531.284346241836
 20
224.432898796303
 11
531.284346241836
 21
226.432898796303
  0
LINE
  5
F0
100
AcDbEntity
  8
1
  6
CONTINUOUS
 62
           2
100
AcDbLine
 10
532.193363185432
 20
224.432898796303
 11
532.193363185432
 21
226.432898796303
  0
LINE
  5
EF
100
AcDbEntity
  8
1
  6
CONTINUOUS
 62
           2
100
AcDbLine
 10
533.096735002722
 20
224.432898796303
 11
533.096735002722
 21
226.432898796303
  0
LINE
  5
EE
100
AcDbEntity
  8
1
  6
CONTINUOUS
 62
           2
100
AcDbLine
 10
533.993810086087
 20
224.432898796303
 11
533.993810086087
 21
226.432898796303
  0
LINE
  5
ED
100
AcDbEntity
  8
1
  6
CONTINUOUS
 62
           2
100
AcDbLine
 10
538.362272191496
 20
224.432898796303
 11
538.362272191496
 21
226.432898796302
  0
LINE
  5
EC
100
AcDbEntity
  8
1
  6
CONTINUOUS
 62
           2
100
AcDbLine
 10
534.883941369774
 20
224.432898796303
 11
534.883941369774
 21
226.432898796303
  0
LINE
  5
EB
100
AcDbEntity
  8
1
  6
CONTINUOUS
 62
           2
100
AcDbLine
 10
536.658803618968
 20
224.432898796303
 11
536.640809781265
 21
226.432898796303
  0
LINE
  5
EA
100
AcDbEntity
  8
1
  6
CONTINUOUS
 62
           2
100
AcDbLine
 10
539.208169915727
 20
224.432898796303
 11
539.208169915727
 21
226.432898796303
  0
LINE
  5
E9
100
AcDbEntity
  8
1
  6
CONTINUOUS
 62
           2
100
AcDbLine
 10
540.867248086487
 20
224.432898796303
 11
540.867248086487
 21
226.432898796303
  0
LINE
  5
E8
100
AcDbEntity
  8
1
  6
CONTINUOUS
 62
           2
100
AcDbLine
 10
541.679231829774
 20
224.432898796303
 11
541.679231829774
 21
226.432898796302
  0
LINE
  5
E7
100
AcDbEntity
  8
1
  6
CONTINUOUS
 62
           2
100
AcDbLine
 10
542.506224258703
 20
224.432898796303
 11
542.478728231627
 21
226.432898796302
  0
LINE
  5
E6
100
AcDbEntity
  8
1
  6
CONTINUOUS
 62
           2
100
AcDbLine
 10
543.265160610396
 20
224.432898796303
 11
543.265160610396
 21
226.432898796302
  0
LINE
  5
E5
100
AcDbEntity
  8
1
  6
CONTINUOUS
 62
           2
100
AcDbLine
 10
544.796574097051
 20
224.432898796303
 11
544.796574097051
 21
226.432898796302
  0
LINE
  5
E4
100
AcDbEntity
  8
1
  6
CONTINUOUS
 62
           2
100
AcDbLine
 10
546.269054614813
 20
224.432898796303
 11
546.269054614813
 21
226.432898796302
  0
LINE
  5
E3
100
AcDbEntity
  8
1
  6
CONTINUOUS
 62
           2
100
AcDbLine
 10
547.678354492935
 20
224.432898796303
 11
547.678354492935
 21
226.432898796302
  0
LINE
  5
E2
100
AcDbEntity
  8
1
  6
CONTINUOUS
 62
           7
100
AcDbLine
 10
524.367107274822
 20
228.220896326926
 11
551.367107274822
 21
228.220896326926
  0
LINE
  5
E1
100
AcDbEntity
  8
1
  6
CONTINUOUS
 62
           7
100
AcDbLine
 10
551.867107274822
 20
222.720896326926
 11
524.367107274822
 21
222.720896326926
  0
LINE
  5
E0
100
AcDbEntity
  8
1
  6
CONTINUOUS
 62
           2
100
AcDbLine
 10
525.012163473328
 20
224.432898796303
 11
524.634641991986
 21
224.432898796303
  0
LINE
  5
DF
100
AcDbEntity
  8
1
  6
CONTINUOUS
 62
           2
100
AcDbLine
 10
525.945994216754
 20
224.432898796303
 11
525.563051471455
 21
224.432898796303
  0
LINE
  5
DE
100
AcDbEntity
  8
1
  6
CONTINUOUS
 62
           2
100
AcDbLine
 10
526.878686983942
 20
224.432898796303
 11
526.49547624589
 21
224.432898796303
  0
LINE
  5
DD
100
AcDbEntity
  8
1
  6
CONTINUOUS
 62
           2
100
AcDbLine
 10
527.809568721734
 20
224.432898796303
 11
527.427985973537
 21
224.432898796303
  0
LINE
  5
DC
100
AcDbEntity
  8
1
  6
CONTINUOUS
 62
           2
100
AcDbLine
 10
528.737967680366
 20
224.432898796303
 11
528.357474252509
 21
224.432898796303
  0
LINE
  5
DB
100
AcDbEntity
  8
1
  6
CONTINUOUS
 62
           2
100
AcDbLine
 10
529.663213899909
 20
224.432898796303
 11
529.284081766443
 21
224.432898796303
  0
LINE
  5
DA
100
AcDbEntity
  8
1
  6
CONTINUOUS
 62
           2
100
AcDbLine
 10
530.584639695403
 20
224.432898796303
 11
530.207139922919
 21
224.432898796303
  0
LINE
  5
D9
100
AcDbEntity
  8
1
  6
CONTINUOUS
 62
           2
100
AcDbLine
 10
531.501580140339
 20
224.432898796303
 11
531.125982706659
 21
224.432898796303
  0
LINE
  5
D8
100
AcDbEntity
  8
1
  6
CONTINUOUS
 62
           2
100
AcDbLine
 10
532.413373548115
 20
224.432898796303
 11
532.039947161373
 21
224.432898796303
  0
LINE
  5
D7
100
AcDbEntity
  8
1
  6
CONTINUOUS
 62
           2
100
AcDbLine
 10
533.319361951114
 20
224.432898796303
 11
532.948373869295
 21
224.432898796303
  0
LINE
  5
D6
100
AcDbEntity
  8
1
  6
CONTINUOUS
 62
           2
100
AcDbLine
 10
534.218891577049
 20
224.432898796303
 11
533.850607428034
 21
224.432898796303
  0
LINE
  5
D5
100
AcDbEntity
  8
1
  6
CONTINUOUS
 62
           2
100
AcDbLine
 10
535.11131332222
 20
224.432898796303
 11
534.745996924415
 21
224.432898796303
  0
LINE
  5
D4
100
AcDbEntity
  8
1
  6
CONTINUOUS
 62
           2
100
AcDbLine
 10
535.995983221335
 20
224.432898796303
 11
535.633896404925
 21
224.432898796303
  0
LINE
  5
D3
100
AcDbEntity
  8
1
  6
CONTINUOUS
 62
           2
100
AcDbLine
 10
536.872262913547
 20
224.432898796303
 11
536.513665342447
 21
224.432898796303
  0
LINE
  5
D2
100
AcDbEntity
  8
1
  6
CONTINUOUS
 62
           2
100
AcDbLine
 10
537.739520104357
 20
224.432898796303
 11
537.384669098922
 21
224.432898796303
  0
LINE
  5
D1
100
AcDbEntity
  8
1
  6
CONTINUOUS
 62
           2
100
AcDbLine
 10
538.597129023058
 20
224.432898796303
 11
538.246279383594
 21
224.432898796303
  0
LINE
  5
D0
100
AcDbEntity
  8
1
  6
CONTINUOUS
 62
           2
100
AcDbLine
 10
539.44447087536
 20
224.432898796303
 11
539.09787470652
 21
224.432898796303
  0
LINE
  5
CF
100
AcDbEntity
  8
1
  6
CONTINUOUS
 62
           2
100
AcDbLine
 10
540.280934290892
 20
224.432898796303
 11
539.938840826996
 21
224.432898796303
  0
LINE
  5
CE
100
AcDbEntity
  8
1
  6
CONTINUOUS
 62
           2
100
AcDbLine
 10
541.105915765222
 20
224.432898796303
 11
540.768571196585
 21
224.432898796303
  0
LINE
  5
CD
100
AcDbEntity
  8
1
  6
CONTINUOUS
 62
           2
100
AcDbLine
 10
541.918820096102
 20
224.432898796303
 11
541.586467396414
 21
224.432898796303
  0
LINE
  5
CC
100
AcDbEntity
  8
1
  6
CONTINUOUS
 62
           2
100
AcDbLine
 10
542.719060813589
 20
224.432898796303
 11
542.391939568436
 21
224.432898796303
  0
LINE
  5
CB
100
AcDbEntity
  8
1
  6
CONTINUOUS
 62
           2
100
AcDbLine
 10
543.506060603759
 20
224.432898796303
 11
543.184406840343
 21
224.432898796303
  0
LINE
  5
CA
100
AcDbEntity
  8
1
  6
CONTINUOUS
 62
           2
100
AcDbLine
 10
544.279251725673
 20
224.432898796303
 11
543.96329774382
 21
224.432898796303
  0
LINE
  5
C9
100
AcDbEntity
  8
1
  6
CONTINUOUS
 62
           2
100
AcDbLine
 10
545.038076421321
 20
224.432898796303
 11
544.728050625846
 21
224.432898796303
  0
LINE
  5
C8
100
AcDbEntity
  8
1
  6
CONTINUOUS
 62
           2
100
AcDbLine
 10
545.781987318226
 20
224.432898796303
 11
545.478114052763
 21
224.432898796303
  0
LINE
  5
C7
100
AcDbEntity
  8
1
  6
CONTINUOUS
 62
           2
100
AcDbLine
 10
546.510447824431
 20
224.432898796303
 11
546.212947206799
 21
224.432898796303
  0
LINE
  5
C6
100
AcDbEntity
  8
1
  6
CONTINUOUS
 62
           2
100
AcDbLine
 10
547.222932515566
 20
224.432898796303
 11
546.932020274802
 21
224.432898796303
  0
LINE
  5
C5
100
AcDbEntity
  8
1
  6
CONTINUOUS
 62
           2
100
AcDbLine
 10
547.918927513737
 20
224.432898796303
 11
547.634814828885
 21
224.432898796303
  0
LINE
  5
C4
100
AcDbEntity
  8
1
  6
CONTINUOUS
 62
           2
100
AcDbLine
 10
548.597930857944
 20
224.432898796303
 11
548.320824198731
 21
224.432898796303
  0
LINE
  5
C3
100
AcDbEntity
  8
1
  6
CONTINUOUS
 62
           2
100
AcDbLine
 10
549.291743304267
 20
224.432898796303
 11
549.014636645054
 21
224.432898796303
  0
LINE
  5
C2
100
AcDbEntity
  8
1
  6
CONTINUOUS
 62
           2
100
AcDbLine
 10
549.98555575059
 20
224.432898796303
 11
549.708449091377
 21
224.432898796303
  0
LINE
  5
C1
100
AcDbEntity
  8
1
  6
CONTINUOUS
 62
           2
100
AcDbLine
 10
550.679368196913
 20
224.432898796303
 11
550.4022615377
 21
224.432898796303
  0
LINE
  5
C0
100
AcDbEntity
  8
1
  6
CONTINUOUS
 62
           2
100
AcDbLine
 10
551.373180643236
 20
224.432898796303
 11
551.096073984023
 21
224.432898796303
  0
LINE
  5
BF
100
AcDbEntity
  8
1
  6
CONTINUOUS
 62
           2
100
AcDbLine
 10
552.066993089559
 20
224.432898796303
 11
551.789886430346
 21
224.432898796303
  0
LINE
  5
BE
100
AcDbEntity
  8
1
  6
CONTINUOUS
 62
           2
100
AcDbLine
 10
552.760805535881
 20
224.432898796303
 11
552.483698876669
 21
224.432898796303
  0
LINE
  5
BD
100
AcDbEntity
  8
1
  6
CONTINUOUS
 62
           2
100
AcDbLine
 10
553.454617982204
 20
224.432898796303
 11
553.177511322991
 21
224.432898796303
  0
LINE
  5
BC
100
AcDbEntity
  8
1
  6
CONTINUOUS
 62
           2
100
AcDbLine
 10
554.148430428527
 20
224.432898796303
 11
553.871323769314
 21
224.432898796303
  0
LINE
  5
BB
100
AcDbEntity
  8
1
  6
CONTINUOUS
 62
           2
100
AcDbLine
 10
553.908533377211
 20
226.432898796303
 11
553.929340344645
 21
224.432898796303
  0
LINE
  5
BA
100
AcDbEntity
  8
1
  6
CONTINUOUS
 62
           2
100
AcDbLine
 10
553.214720930888
 20
226.432898796303
 11
553.235527898323
 21
224.432898796303
  0
LINE
  5
B9
100
AcDbEntity
  8
1
  6
CONTINUOUS
 62
           2
100
AcDbLine
 10
552.520908484565
 20
226.432898796303
 11
552.541715452
 21
224.432898796303
  0
LINE
  5
B8
100
AcDbEntity
  8
1
  6
CONTINUOUS
 62
           2
100
AcDbLine
 10
551.827096038242
 20
226.432898796303
 11
551.847903005677
 21
224.432898796303
  0
LINE
  5
B7
100
AcDbEntity
  8
1
  6
CONTINUOUS
 62
           2
100
AcDbLine
 10
551.133283591919
 20
226.432898796303
 11
551.154090559354
 21
224.432898796303
  0
LINE
  5
B6
100
AcDbEntity
  8
1
  6
CONTINUOUS
 62
           2
100
AcDbLine
 10
550.439471145596
 20
226.432898796303
 11
550.460278113031
 21
224.432898796303
  0
LINE
  5
B5
100
AcDbEntity
  8
1
  6
CONTINUOUS
 62
           2
100
AcDbLine
 10
549.745658699273
 20
226.432898796303
 11
549.766465666708
 21
224.432898796303
  0
LINE
  5
B4
100
AcDbEntity
  8
1
  6
CONTINUOUS
 62
           2
100
AcDbLine
 10
549.051846252951
 20
226.432898796303
 11
549.072653220385
 21
224.432898796303
  0
LINE
  5
B3
100
AcDbEntity
  8
1
  6
CONTINUOUS
 62
           2
100
AcDbLine
 10
548.358033806628
 20
226.432898796303
 11
548.378840774062
 21
224.432898796303
  0
LINE
  5
B2
100
AcDbEntity
  8
1
  6
CONTINUOUS
 62
           2
100
AcDbLine
 10
546.981860633902
 20
226.432898796302
 11
546.981860633902
 21
224.432898796303
  0
LINE
  5
B1
100
AcDbEntity
  8
1
  6
CONTINUOUS
 62
           2
100
AcDbLine
 10
545.540450587014
 20
226.432898796302
 11
545.540450587014
 21
224.432898796303
  0
LINE
  5
B0
100
AcDbEntity
  8
1
  6
CONTINUOUS
 62
           2
100
AcDbLine
 10
544.037961707592
 20
226.432898796302
 11
544.037961707592
 21
224.432898796303
  0
LINE
  5
AF
100
AcDbEntity
  8
1
  6
CONTINUOUS
 62
           2
100
AcDbLine
 10
540.043362690611
 20
226.432898796302
 11
540.043362690611
 21
224.432898796303
  0
LINE
  5
AE
100
AcDbEntity
  8
1
  6
CONTINUOUS
 62
           2
100
AcDbLine
 10
537.506279669126
 20
226.432898796302
 11
537.506279669126
 21
224.432898796302
  0
LINE
  5
AD
100
AcDbEntity
  8
1
  6
CONTINUOUS
 62
           2
100
AcDbLine
 10
535.76648679664
 20
226.432898796303
 11
535.76648679664
 21
224.432898796303
  0
LINE
  5
AC
100
AcDbEntity
  8
1
  6
CONTINUOUS
 62
           7
100
AcDbLine
 10
551.867107274822
 20
222.720896326926
 11
551.724250131965
 21
220.720896326926
  0
LINE
  5
AB
100
AcDbEntity
  8
1
  6
CONTINUOUS
 62
           7
100
AcDbLine
 10
497.067107274822
 20
219.920896326926
 11
497.009964417679
 21
220.720896326926
  0
LINE
  5
AA
100
AcDbEntity
  8
1
  6
CONTINUOUS
 62
           2
100
AcDbLine
 10
512.967727753004
 20
224.432898796303
 11
512.967727753004
 21
226.432898796303
  0
LINE
  5
A9
100
AcDbEntity
  8
1
  6
CONTINUOUS
 62
           2
100
AcDbLine
 10
511.227934880518
 20
224.432898796303
 11
511.227934880518
 21
226.432898796302
  0
LINE
  5
A8
100
AcDbEntity
  8
1
  6
CONTINUOUS
 62
           2
100
AcDbLine
 10
508.690851859033
 20
224.432898796303
 11
508.690851859033
 21
226.432898796302
  0
LINE
  5
A7
100
AcDbEntity
  8
1
  6
CONTINUOUS
 62
           2
100
AcDbLine
 10
504.696252842052
 20
224.432898796303
 11
504.696252842052
 21
226.432898796302
  0
LINE
  5
A6
100
AcDbEntity
  8
1
  6
CONTINUOUS
 62
           2
100
AcDbLine
 10
503.19376396263
 20
224.432898796303
 11
503.19376396263
 21
226.432898796302
  0
LINE
  5
A5
100
AcDbEntity
  8
1
  6
CONTINUOUS
 62
           2
100
AcDbLine
 10
501.752353915742
 20
224.432898796303
 11
501.752353915742
 21
226.432898796302
  0
LINE
  5
A4
100
AcDbEntity
  8
1
  6
CONTINUOUS
 62
           2
100
AcDbLine
 10
500.355373775582
 20
224.432898796303
 11
500.376180743016
 21
226.432898796303
  0
LINE
  5
A3
100
AcDbEntity
  8
1
  6
CONTINUOUS
 62
           2
100
AcDbLine
 10
499.661561329259
 20
224.432898796303
 11
499.682368296693
 21
226.432898796303
  0
LINE
  5
A2
100
AcDbEntity
  8
1
  6
CONTINUOUS
 62
           2
100
AcDbLine
 10
498.967748882936
 20
224.432898796303
 11
498.988555850371
 21
226.432898796303
  0
LINE
  5
A1
100
AcDbEntity
  8
1
  6
CONTINUOUS
 62
           2
100
AcDbLine
 10
498.273936436613
 20
224.432898796303
 11
498.294743404048
 21
226.432898796303
  0
LINE
  5
A0
100
AcDbEntity
  8
1
  6
CONTINUOUS
 62
           2
100
AcDbLine
 10
497.58012399029
 20
224.432898796303
 11
497.600930957725
 21
226.432898796303
  0
LINE
  5
9F
100
AcDbEntity
  8
1
  6
CONTINUOUS
 62
           2
100
AcDbLine
 10
496.886311543967
 20
224.432898796303
 11
496.907118511402
 21
226.432898796303
  0
LINE
  5
9E
100
AcDbEntity
  8
1
  6
CONTINUOUS
 62
           2
100
AcDbLine
 10
496.192499097644
 20
224.432898796303
 11
496.213306065079
 21
226.432898796303
  0
LINE
  5
9D
100
AcDbEntity
  8
1
  6
CONTINUOUS
 62
           2
100
AcDbLine
 10
495.498686651322
 20
224.432898796303
 11
495.519493618756
 21
226.432898796303
  0
LINE
  5
9C
100
AcDbEntity
  8
1
  6
CONTINUOUS
 62
           2
100
AcDbLine
 10
494.804874204999
 20
224.432898796303
 11
494.825681172433
 21
226.432898796303
  0
LINE
  5
9B
100
AcDbEntity
  8
1
  6
CONTINUOUS
 62
           2
100
AcDbLine
 10
494.86289078033
 20
224.432898796303
 11
494.585784121117
 21
224.432898796303
  0
LINE
  5
9A
100
AcDbEntity
  8
1
  6
CONTINUOUS
 62
           2
100
AcDbLine
 10
495.556703226653
 20
224.432898796303
 11
495.27959656744
 21
224.432898796303
  0
LINE
  5
99
100
AcDbEntity
  8
1
  6
CONTINUOUS
 62
           2
100
AcDbLine
 10
496.250515672976
 20
224.432898796303
 11
495.973409013763
 21
224.432898796303
  0
LINE
  5
98
100
AcDbEntity
  8
1
  6
CONTINUOUS
 62
           2
100
AcDbLine
 10
496.944328119299
 20
224.432898796303
 11
496.667221460086
 21
224.432898796303
  0
LINE
  5
97
100
AcDbEntity
  8
1
  6
CONTINUOUS
 62
           2
100
AcDbLine
 10
497.638140565621
 20
224.432898796303
 11
497.361033906409
 21
224.432898796303
  0
LINE
  5
96
100
AcDbEntity
  8
1
  6
CONTINUOUS
 62
           2
100
AcDbLine
 10
498.331953011944
 20
224.432898796303
 11
498.054846352731
 21
224.432898796303
  0
LINE
  5
95
100
AcDbEntity
  8
1
  6
CONTINUOUS
 62
           2
100
AcDbLine
 10
499.025765458267
 20
224.432898796303
 11
498.748658799054
 21
224.432898796303
  0
LINE
  5
94
100
AcDbEntity
  8
1
  6
CONTINUOUS
 62
           2
100
AcDbLine
 10
499.71957790459
 20
224.432898796303
 11
499.442471245377
 21
224.432898796303
  0
LINE
  5
93
100
AcDbEntity
  8
1
  6
CONTINUOUS
 62
           2
100
AcDbLine
 10
500.413390350913
 20
224.432898796303
 11
500.1362836917
 21
224.432898796303
  0
LINE
  5
92
100
AcDbEntity
  8
1
  6
CONTINUOUS
 62
           2
100
AcDbLine
 10
501.099399720759
 20
224.432898796303
 11
500.815287035907
 21
224.432898796303
  0
LINE
  5
91
100
AcDbEntity
  8
1
  6
CONTINUOUS
 62
           2
100
AcDbLine
 10
501.802194274842
 20
224.432898796303
 11
501.511282034078
 21
224.432898796303
  0
LINE
  5
90
100
AcDbEntity
  8
1
  6
CONTINUOUS
 62
           2
100
AcDbLine
 10
502.521267342845
 20
224.432898796303
 11
502.223766725213
 21
224.432898796303
  0
LINE
  5
8F
100
AcDbEntity
  8
1
  6
CONTINUOUS
 62
           2
100
AcDbLine
 10
503.256100496882
 20
224.432898796303
 11
502.952227231418
 21
224.432898796303
  0
LINE
  5
8E
100
AcDbEntity
  8
1
  6
CONTINUOUS
 62
           2
100
AcDbLine
 10
504.006163923798
 20
224.432898796303
 11
503.696138128324
 21
224.432898796303
  0
LINE
  5
8D
100
AcDbEntity
  8
1
  6
CONTINUOUS
 62
           2
100
AcDbLine
 10
504.770916805825
 20
224.432898796303
 11
504.454962823971
 21
224.432898796303
  0
LINE
  5
8C
100
AcDbEntity
  8
1
  6
CONTINUOUS
 62
           2
100
AcDbLine
 10
505.549807709301
 20
224.432898796303
 11
505.228153945885
 21
224.432898796303
  0
LINE
  5
8B
100
AcDbEntity
  8
1
  6
CONTINUOUS
 62
           2
100
AcDbLine
 10
506.342274981208
 20
224.432898796303
 11
506.015153736055
 21
224.432898796303
  0
LINE
  5
8A
100
AcDbEntity
  8
1
  6
CONTINUOUS
 62
           2
100
AcDbLine
 10
507.14774715323
 20
224.432898796303
 11
506.815394453543
 21
224.432898796303
  0
LINE
  5
89
100
AcDbEntity
  8
1
  6
CONTINUOUS
 62
           2
100
AcDbLine
 10
507.965643353059
 20
224.432898796303
 11
507.628298784422
 21
224.432898796303
  0
LINE
  5
88
100
AcDbEntity
  8
1
  6
CONTINUOUS
 62
           2
100
AcDbLine
 10
508.795373722648
 20
224.432898796303
 11
508.453280258753
 21
224.432898796303
  0
LINE
  5
87
100
AcDbEntity
  8
1
  6
CONTINUOUS
 62
           2
100
AcDbLine
 10
509.636339843125
 20
224.432898796303
 11
509.289743674284
 21
224.432898796303
  0
LINE
  5
86
100
AcDbEntity
  8
1
  6
CONTINUOUS
 62
           2
100
AcDbLine
 10
510.48793516605
 20
224.432898796303
 11
510.137085526586
 21
224.432898796303
  0
LINE
  5
85
100
AcDbEntity
  8
1
  6
CONTINUOUS
 62
           2
100
AcDbLine
 10
511.349545450722
 20
224.432898796303
 11
510.994694445287
 21
224.432898796303
  0
LINE
  5
84
100
AcDbEntity
  8
1
  6
CONTINUOUS
 62
           2
100
AcDbLine
 10
512.220549207197
 20
224.432898796303
 11
511.861951636097
 21
224.432898796303
  0
LINE
  5
83
100
AcDbEntity
  8
1
  6
CONTINUOUS
 62
           2
100
AcDbLine
 10
513.100318144719
 20
224.432898796303
 11
512.738231328309
 21
224.432898796303
  0
LINE
  5
82
100
AcDbEntity
  8
1
  6
CONTINUOUS
 62
           2
100
AcDbLine
 10
513.988217625229
 20
224.432898796303
 11
513.622901227424
 21
224.432898796303
  0
LINE
  5
81
100
AcDbEntity
  8
1
  6
CONTINUOUS
 62
           2
100
AcDbLine
 10
514.88360712161
 20
224.432898796303
 11
514.515322972595
 21
224.432898796303
  0
LINE
  5
80
100
AcDbEntity
  8
1
  6
CONTINUOUS
 62
           2
100
AcDbLine
 10
515.78584068035
 20
224.432898796303
 11
515.41485259853
 21
224.432898796303
  0
LINE
  5
7F
100
AcDbEntity
  8
1
  6
CONTINUOUS
 62
           2
100
AcDbLine
 10
516.694267388271
 20
224.432898796303
 11
516.320841001529
 21
224.432898796303
  0
LINE
  5
7E
100
AcDbEntity
  8
1
  6
CONTINUOUS
 62
           2
100
AcDbLine
 10
517.608231842986
 20
224.432898796303
 11
517.232634409305
 21
224.432898796303
  0
LINE
  5
7D
100
AcDbEntity
  8
1
  6
CONTINUOUS
 62
           2
100
AcDbLine
 10
518.527074626725
 20
224.432898796303
 11
518.149574854241
 21
224.432898796303
  0
LINE
  5
7C
100
AcDbEntity
  8
1
  6
CONTINUOUS
 62
           2
100
AcDbLine
 10
519.450132783201
 20
224.432898796303
 11
519.071000649735
 21
224.432898796303
  0
LINE
  5
7B
100
AcDbEntity
  8
1
  6
CONTINUOUS
 62
           2
100
AcDbLine
 10
520.376740297135
 20
224.432898796303
 11
519.996246869278
 21
224.432898796303
  0
LINE
  5
7A
100
AcDbEntity
  8
1
  6
CONTINUOUS
 62
           2
100
AcDbLine
 10
521.306228576108
 20
224.432898796303
 11
520.92464582791
 21
224.432898796303
  0
LINE
  5
79
100
AcDbEntity
  8
1
  6
CONTINUOUS
 62
           2
100
AcDbLine
 10
522.238738303754
 20
224.432898796303
 11
521.855527565702
 21
224.432898796303
  0
LINE
  5
78
100
AcDbEntity
  8
1
  6
CONTINUOUS
 62
           2
100
AcDbLine
 10
523.171163078189
 20
224.432898796303
 11
522.78822033289
 21
224.432898796303
  0
LINE
  5
77
100
AcDbEntity
  8
1
  6
CONTINUOUS
 62
           2
100
AcDbLine
 10
524.099572557658
 20
224.432898796303
 11
523.722051076317
 21
224.432898796303
  0
LINE
  5
76
100
AcDbEntity
  8
1
  6
CONTINUOUS
 62
           7
100
AcDbLine
 10
524.367107274822
 20
222.720896326926
 11
496.867107274822
 21
222.720896326926
  0
LINE
  5
75
100
AcDbEntity
  8
1
  6
CONTINUOUS
 62
           7
100
AcDbLine
 10
497.367107274822
 20
228.220896326926
 11
524.367107274822
 21
228.220896326926
  0
LINE
  5
74
100
AcDbEntity
  8
1
  6
CONTINUOUS
 62
           2
100
AcDbLine
 10
501.055860056709
 20
226.432898796302
 11
501.055860056709
 21
224.432898796303
  0
LINE
  5
73
100
AcDbEntity
  8
1
  6
CONTINUOUS
 62
           2
100
AcDbLine
 10
502.465159934831
 20
226.432898796302
 11
502.465159934831
 21
224.432898796303
  0
LINE
  5
72
100
AcDbEntity
  8
1
  6
CONTINUOUS
 62
           2
100
AcDbLine
 10
503.937640452593
 20
226.432898796302
 11
503.937640452593
 21
224.432898796303
  0
LINE
  5
71
100
AcDbEntity
  8
1
  6
CONTINUOUS
 62
           2
100
AcDbLine
 10
505.469053939248
 20
226.432898796302
 11
505.469053939248
 21
224.432898796303
  0
LINE
  5
70
100
AcDbEntity
  8
1
  6
CONTINUOUS
 62
           2
100
AcDbLine
 10
506.255486318018
 20
226.432898796302
 11
506.227990290941
 21
224.432898796303
  0
LINE
  5
6F
100
AcDbEntity
  8
1
  6
CONTINUOUS
 62
           2
100
AcDbLine
 10
507.05498271987
 20
226.432898796302
 11
507.05498271987
 21
224.432898796303
  0
LINE
  5
6E
100
AcDbEntity
  8
1
  6
CONTINUOUS
 62
           2
100
AcDbLine
 10
507.866966463158
 20
226.432898796303
 11
507.866966463158
 21
224.432898796303
  0
LINE
  5
6D
100
AcDbEntity
  8
1
  6
CONTINUOUS
 62
           2
100
AcDbLine
 10
509.526044633917
 20
226.432898796303
 11
509.526044633917
 21
224.432898796303
  0
LINE
  5
6C
100
AcDbEntity
  8
1
  6
CONTINUOUS
 62
           2
100
AcDbLine
 10
512.09340476838
 20
226.432898796303
 11
512.075410930676
 21
224.432898796303
  0
LINE
  5
6B
100
AcDbEntity
  8
1
  6
CONTINUOUS
 62
           2
100
AcDbLine
 10
513.85027317987
 20
226.432898796303
 11
513.85027317987
 21
224.432898796303
  0
LINE
  5
6A
100
AcDbEntity
  8
1
  6
CONTINUOUS
 62
           2
100
AcDbLine
 10
510.371942358148
 20
226.432898796302
 11
510.371942358148
 21
224.432898796303
  0
LINE
  5
69
100
AcDbEntity
  8
1
  6
CONTINUOUS
 62
           2
100
AcDbLine
 10
514.740404463558
 20
226.432898796303
 11
514.740404463558
 21
224.432898796303
  0
LINE
  5
68
100
AcDbEntity
  8
1
  6
CONTINUOUS
 62
           2
100
AcDbLine
 10
515.637479546922
 20
226.432898796303
 11
515.637479546922
 21
224.432898796303
  0
LINE
  5
67
100
AcDbEntity
  8
1
  6
CONTINUOUS
 62
           2
100
AcDbLine
 10
516.540851364213
 20
226.432898796303
 11
516.540851364213
 21
224.432898796303
  0
LINE
  5
66
100
AcDbEntity
  8
1
  6
CONTINUOUS
 62
           2
100
AcDbLine
 10
517.449868307808
 20
226.432898796303
 11
517.449868307808
 21
224.432898796303
  0
LINE
  5
65
100
AcDbEntity
  8
1
  6
CONTINUOUS
 62
           2
100
AcDbLine
 10
518.36387469822
 20
226.432898796303
 11
518.36387469822
 21
224.432898796303
  0
LINE
  5
64
100
AcDbEntity
  8
1
  6
CONTINUOUS
 62
           2
100
AcDbLine
 10
519.282211257045
 20
226.432898796303
 11
519.282211257045
 21
224.432898796303
  0
LINE
  5
63
100
AcDbEntity
  8
1
  6
CONTINUOUS
 62
           2
100
AcDbLine
 10
520.204215582499
 20
226.432898796303
 11
520.204215582499
 21
224.432898796303
  0
LINE
  5
62
100
AcDbEntity
  8
1
  6
CONTINUOUS
 62
           2
100
AcDbLine
 10
521.129222627218
 20
226.432898796303
 11
521.129222627218
 21
224.432898796303
  0
LINE
  5
61
100
AcDbEntity
  8
1
  6
CONTINUOUS
 62
           2
100
AcDbLine
 10
522.056565177957
 20
226.432898796303
 11
522.056565177957
 21
224.432898796303
  0
LINE
  5
60
100
AcDbEntity
  8
1
  6
CONTINUOUS
 62
           2
100
AcDbLine
 10
522.985574336857
 20
226.432898796303
 11
522.985574336857
 21
224.432898796303
  0
LINE
  5
5F
100
AcDbEntity
  8
1
  6
CONTINUOUS
 62
           2
100
AcDbLine
 10
523.915580003923
 20
226.432898796303
 11
523.915580003923
 21
224.432898796303
  0
LINE
  5
5E
100
AcDbEntity
  8
1
  6
CONTINUOUS
 62
           7
100
AcDbLine
 10
524.367107274822
 20
230.220896326926
 11
499.367107274822
 21
230.220896326926
  0
LINE
  5
5D
100
AcDbEntity
  8
1
  6
CONTINUOUS
 62
           7
100
AcDbLine
 10
551.724250131965
 20
220.720896326926
 11
551.667107274822
 21
219.920896326926
  0
LINE
  5
5C
100
AcDbEntity
  8
1
  6
CONTINUOUS
 62
           7
100
AcDbLine
 10
497.009964417679
 20
220.720896326926
 11
496.867107274822
 21
222.720896326926
  0
LINE
  5
5B
100
AcDbEntity
  8
1
  6
DOT_CENTER
 62
           2
100
AcDbLine
 10
524.367107274822
 20
134.462752066976
 11
524.367107274822
 21
147.734576770748
  0
LINE
  5
5A
100
AcDbEntity
  8
1
  6
CONTINUOUS
 62
           7
100
AcDbLine
 10
496.717107274822
 20
217.425400384233
 11
496.717107274822
 21
169.425400384233
  0
LINE
  5
59
100
AcDbEntity
  8
1
  6
CONTINUOUS
 62
           7
100
AcDbLine
 10
496.367107274822
 20
219.925400384233
 11
524.367107274822
 21
219.925400384233
  0
LINE
  5
58
100
AcDbEntity
  8
1
  6
CONTINUOUS
 62
           7
100
AcDbLine
 10
496.367107274822
 20
217.425400384233
 11
524.367107274822
 21
217.425400384233
  0
LINE
  5
57
100
AcDbEntity
  8
1
  6
CONTINUOUS
 62
           7
100
AcDbLine
 10
552.017107274822
 20
169.425400384233
 11
552.017107274822
 21
217.425827842914
  0
LINE
  5
56
100
AcDbEntity
  8
1
  6
CONTINUOUS
 62
           7
100
AcDbLine
 10
524.367107274822
 20
219.925400384233
 11
552.587027794134
 21
219.925400384233
  0
LINE
  5
55
100
AcDbEntity
  8
1
  6
CONTINUOUS
 62
           7
100
AcDbLine
 10
524.367107274822
 20
217.425400384233
 11
552.117107274822
 21
217.425400384233
  0
LINE
  5
54
100
AcDbEntity
  8
1
  6
CONTINUOUS
 62
           7
100
AcDbLine
 10
553.617107274822
 20
219.286382970461
 11
553.617107274822
 21
218.425827842914
  0
LINE
  5
53
100
AcDbEntity
  8
1
  6
CONTINUOUS
 62
           7
100
AcDbLine
 10
552.217107274822
 20
217.425827842914
 11
552.117107274822
 21
217.425827842914
  0
LINE
  5
52
100
AcDbEntity
  8
1
  6
CONTINUOUS
 62
           7
100
AcDbLine
 10
552.617107274822
 20
217.425827842914
 11
552.017107274822
 21
217.425827842914
  0
LINE
  5
51
100
AcDbEntity
  8
976
  6
CONTINUOUS
 62
           7
100
AcDbLine
 10
517.367107274822
 20
144.509069210215
 11
516.367107274822
 21
145.425400384233
  0
LINE
  5
50
100
AcDbEntity
  8
976
  6
CONTINUOUS
 62
           7
100
AcDbLine
 10
532.367107274822
 20
145.425400384233
 11
531.367107274822
 21
144.509069210215
  0
LINE
  5
4F
100
AcDbEntity
  8
1
  6
CONTINUOUS
 62
           7
100
AcDbLine
 10
516.867107274822
 20
135.009069210215
 11
516.217588221984
 21
135.009069210215
  0
LINE
  5
4E
100
AcDbEntity
  8
1
  6
CONTINUOUS
 62
           7
100
AcDbLine
 10
516.217588221984
 20
135.009069210215
 11
516.217588221984
 21
135.309069210215
  0
LINE
  5
4D
100
AcDbEntity
  8
1
  6
CONTINUOUS
 62
           7
100
AcDbLine
 10
516.217588221984
 20
135.309069210215
 11
510.217588221984
 21
135.309069210215
  0
LINE
  5
4C
100
AcDbEntity
  8
1
  6
CONTINUOUS
 62
           2
100
AcDbLine
 10
516.217588221984
 20
135.009069210215
 11
516.867107274822
 21
134.634069210215
  0
LINE
  5
4B
100
AcDbEntity
  8
1
  6
CONTINUOUS
 62
           2
100
AcDbLine
 10
516.867107274822
 20
134.634069210215
 11
516.867107274822
 21
135.009069210215
  0
LINE
  5
4A
100
AcDbEntity
  8
1
  6
DOT_CENTER
 62
           2
100
AcDbLine
 10
530.530783667583
 20
131.009069210215
 11
495.656860930087
 21
131.009069210215
  0
LINE
  5
49
100
AcDbEntity
  8
1
  6
CONTINUOUS
 62
           2
100
AcDbLine
 10
516.867107274822
 20
127.009069210215
 11
516.867107274822
 21
127.384069210215
  0
LINE
  5
48
100
AcDbEntity
  8
1
  6
CONTINUOUS
 62
           2
100
AcDbLine
 10
516.867107274822
 20
127.384069210215
 11
516.217588221984
 21
127.009069210215
  0
LINE
  5
47
100
AcDbEntity
  8
1
  6
CONTINUOUS
 62
           7
100
AcDbLine
 10
516.217588221984
 20
126.709069210215
 11
516.217588221984
 21
127.009069210215
  0
LINE
  5
46
100
AcDbEntity
  8
1
  6
CONTINUOUS
 62
           7
100
AcDbLine
 10
516.217588221984
 20
127.009069210215
 11
516.867107274822
 21
127.009069210215
  0
LINE
  5
45
100
AcDbEntity
  8
1
  6
CONTINUOUS
 62
           7
100
AcDbLine
 10
508.295425731353
 20
140.356301496822
 11
508.275940988635
 21
140.390050061182
  0
LINE
  5
44
100
AcDbEntity
  8
1
  6
CONTINUOUS
 62
           7
100
AcDbLine
 10
496.717588221984
 20
138.259069210215
 11
496.717588221984
 21
131.009069210215
  0
LINE
  5
43
100
AcDbEntity
  8
1
  6
CONTINUOUS
 62
           7
100
AcDbLine
 10
497.217588221984
 20
138.759069210215
 11
509.717588221984
 21
138.759069210215
  0
LINE
  5
42
100
AcDbEntity
  8
1
  6
CONTINUOUS
 62
           7
100
AcDbLine
 10
500.967588221984
 20
145.009069210215
 11
505.967588221984
 21
145.009069210215
  0
LINE
  5
41
100
AcDbEntity
  8
1
  6
CONTINUOUS
 62
           2
100
AcDbLine
 10
508.275940988635
 20
140.390050061182
 11
508.207225250902
 21
140.509069210215
  0
LINE
  5
40
100
AcDbEntity
  8
1
  6
CONTINUOUS
 62
           7
100
AcDbLine
 10
497.217588221984
 20
138.759069210215
 11
496.717588221984
 21
138.259069210215
  0
LINE
  5
3F
100
AcDbEntity
  8
1
  6
CONTINUOUS
 62
           7
100
AcDbLine
 10
510.217588221984
 20
138.259069210215
 11
509.717588221984
 21
138.759069210215
  0
LINE
  5
3E
100
AcDbEntity
  8
1
  6
CONTINUOUS
 62
           7
100
AcDbLine
 10
510.217588221984
 20
138.259069210215
 11
509.717588221984
 21
138.759069210215
  0
LINE
  5
3D
100
AcDbEntity
  8
1
  6
CONTINUOUS
 62
           7
100
AcDbLine
 10
510.217588221984
 20
138.259069210215
 11
509.717588221984
 21
138.759069210215
  0
LINE
  5
3C
100
AcDbEntity
  8
1
  6
CONTINUOUS
 62
           7
100
AcDbLine
 10
510.217588221984
 20
131.009069210215
 11
510.217588221984
 21
138.259069210215
  0
LINE
  5
3B
100
AcDbEntity
  8
1
  6
CONTINUOUS
 62
           7
100
AcDbLine
 10
510.217588221984
 20
123.759069210215
 11
510.217588221984
 21
131.009069210215
  0
LINE
  5
3A
100
AcDbEntity
  8
1
  6
CONTINUOUS
 62
           7
100
AcDbLine
 10
509.717588221984
 20
123.259069210215
 11
510.217588221984
 21
123.759069210215
  0
LINE
  5
39
100
AcDbEntity
  8
1
  6
CONTINUOUS
 62
           7
100
AcDbLine
 10
509.717588221984
 20
123.259069210215
 11
510.217588221984
 21
123.759069210215
  0
LINE
  5
38
100
AcDbEntity
  8
1
  6
CONTINUOUS
 62
           7
100
AcDbLine
 10
509.717588221984
 20
123.259069210215
 11
510.217588221984
 21
123.759069210215
  0
LINE
  5
37
100
AcDbEntity
  8
1
  6
CONTINUOUS
 62
           7
100
AcDbLine
 10
496.717588221984
 20
123.759069210215
 11
497.217588221984
 21
123.259069210215
  0
LINE
  5
36
100
AcDbEntity
  8
1
  6
CONTINUOUS
 62
           2
100
AcDbLine
 10
508.207225250902
 20
121.509069210215
 11
508.275940988635
 21
121.628088359248
  0
LINE
  5
35
100
AcDbEntity
  8
1
  6
CONTINUOUS
 62
           7
100
AcDbLine
 10
505.967588221984
 20
117.009069210215
 11
500.967588221984
 21
117.009069210215
  0
LINE
  5
34
100
AcDbEntity
  8
1
  6
CONTINUOUS
 62
           7
100
AcDbLine
 10
509.717588221984
 20
123.259069210215
 11
497.217588221984
 21
123.259069210215
  0
LINE
  5
33
100
AcDbEntity
  8
1
  6
CONTINUOUS
 62
           7
100
AcDbLine
 10
496.717588221984
 20
131.009069210215
 11
496.717588221984
 21
123.759069210215
  0
LINE
  5
32
100
AcDbEntity
  8
1
  6
CONTINUOUS
 62
           7
100
AcDbLine
 10
508.275940988635
 20
121.628088359248
 11
508.295425731353
 21
121.661836923608
  0
LINE
  5
31
100
AcDbEntity
  8
1
  6
CONTINUOUS
 62
           7
100
AcDbLine
 10
530.867107274822
 20
124.009069210215
 11
524.367107274822
 21
124.009069210215
  0
LINE
  5
30
100
AcDbEntity
  8
1
  6
CONTINUOUS
 62
           7
100
AcDbLine
 10
531.867107274822
 20
144.509069210215
 11
531.867107274822
 21
125.009069210215
  0
LINE
  5
2F
100
AcDbEntity
  8
1
  6
CONTINUOUS
 62
           7
100
AcDbLine
 10
516.867107274822
 20
125.009069210215
 11
516.867107274822
 21
131.009069210215
  0
LINE
  5
2E
100
AcDbEntity
  8
1
  6
CONTINUOUS
 62
           7
100
AcDbLine
 10
524.367107274822
 20
124.009069210215
 11
517.867107274822
 21
124.009069210215
  0
LINE
  5
2D
100
AcDbEntity
  8
1
  6
CONTINUOUS
 62
           7
100
AcDbLine
 10
530.867107274822
 20
124.009069210215
 11
531.867107274822
 21
125.009069210215
  0
LINE
  5
2C
100
AcDbEntity
  8
1
  6
CONTINUOUS
 62
           7
100
AcDbLine
 10
516.867107274822
 20
125.009069210215
 11
517.867107274822
 21
124.009069210215
  0
LINE
  5
2B
100
AcDbEntity
  8
1
  6
CONTINUOUS
 62
           7
100
AcDbLine
 10
516.867107274822
 20
144.509069210215
 11
531.867107274822
 21
144.509069210215
  0
LINE
  5
2A
100
AcDbEntity
  8
1
  6
CONTINUOUS
 62
           7
100
AcDbLine
 10
516.867107274822
 20
131.009069210215
 11
516.867107274822
 21
144.509069210215
  0
LINE
  5
29
100
AcDbEntity
  8
1
  6
CONTINUOUS
 62
           7
100
AcDbLine
 10
510.217588221984
 20
126.709069210215
 11
516.217588221984
 21
126.709069210215
  0
ENDSEC
  0
SECTION
  2
OBJECTS
  0
DICTIONARY
  5
19
100
AcDbDictionary
  3
ACAD_GROUP
350
1A
  3
ACAD_MLINESTYLE
350
1B
  0
DICTIONARY
  5
1A
102
{ACAD_REACTORS
330
19
102
}
100
AcDbDictionary
  0
DICTIONARY
  5
1B
102
{ACAD_REACTORS
330
19
102
}
100
AcDbDictionary
  3
STANDARD
350
1C
  0
MLINESTYLE
  5
1C
102
{ACAD_REACTORS
330
1B
102
}
100
AcDbMlineStyle
  2
STANDARD
 70
           0
  3

 62
           0
 51
90.0
 52
90.0
 71
           2
 49
0.5
 62
         256
  6
BYLAYER
 49
-0.5
 62
         256
  6
BYLAYER
  0
ENDSEC
  0
EOF
