  0
SECTION
  2
HEADER
  9
$ACADVER
  1
AC1014
  9
$ACADMAINTVER
 70
           0
  9
$DWGCODEPAGE
  3
DOS932
  9
$INSBASE
 10
0.0
 20
0.0
 30
0.0
  9
$EXTMIN
 10
1.000000000000E+20
 20
1.000000000000E+20
 30
1.000000000000E+20
  9
$EXTMAX
 10
-1.000000000000E+20
 20
-1.000000000000E+20
 30
-1.000000000000E+20
  9
$LIMMIN
 10
0.0
 20
0.0
  9
$LIMMAX
 10
0.0
 20
0.0
  9
$ORTHOMODE
 70
           0
  9
$REGENMODE
 70
           1
  9
$FILLMODE
 70
           1
  9
$QTEXTMODE
 70
           0
  9
$MIRRTEXT
 70
           1
  9
$DRAGMODE
 70
           2
  9
$LTSCALE
 40
1.0
  9
$OSMODE
 70
           0
  9
$ATTMODE
 70
           1
  9
$TEXTSIZE
 40
0.2
  9
$TRACEWID
 40
0.05
  9
$TEXTSTYLE
  7
STANDARD
  9
$CLAYER
  8
0
  9
$CELTYPE
  6
CONTINUOUS
  9
$CECOLOR
 62
         256
  9
$CELTSCALE
 40
1.0
  9
$DELOBJ
 70
           1
  9
$DISPSILH
 70
           0
  9
$DIMSCALE
 40
1.0
  9
$DIMASZ
 40
0.18
  9
$DIMEXO
 40
0.0625
  9
$DIMDLI
 40
0.38
  9
$DIMRND
 40
0.0
  9
$DIMDLE
 40
0.0
  9
$DIMEXE
 40
0.18
  9
$DIMTP
 40
0.0
  9
$DIMTM
 40
0.0
  9
$DIMTXT
 40
0.18
  9
$DIMCEN
 40
0.09
  9
$DIMTSZ
 40
0.0
  9
$DIMTOL
 70
           0
  9
$DIMLIM
 70
           0
  9
$DIMTIH
 70
           1
  9
$DIMTOH
 70
           1
  9
$DIMSE1
 70
           0
  9
$DIMSE2
 70
           0
  9
$DIMTAD
 70
           0
  9
$DIMZIN
 70
           0
  9
$DIMBLK
  1

  9
$DIMASO
 70
           1
  9
$DIMSHO
 70
           1
  9
$DIMPOST
  1

  9
$DIMAPOST
  1

  9
$DIMALT
 70
           0
  9
$DIMALTD
 70
           2
  9
$DIMALTF
 40
25.4
  9
$DIMLFAC
 40
1.0
  9
$DIMTOFL
 70
           0
  9
$DIMTVP
 40
0.0
  9
$DIMTIX
 70
           0
  9
$DIMSOXD
 70
           0
  9
$DIMSAH
 70
           0
  9
$DIMBLK1
  1

  9
$DIMBLK2
  1

  9
$DIMSTYLE
  2
STANDARD
  9
$DIMCLRD
 70
           0
  9
$DIMCLRE
 70
           0
  9
$DIMCLRT
 70
           0
  9
$DIMTFAC
 40
1.0
  9
$DIMGAP
 40
0.09
  9
$DIMJUST
 70
           0
  9
$DIMSD1
 70
           0
  9
$DIMSD2
 70
           0
  9
$DIMTOLJ
 70
           1
  9
$DIMTZIN
 70
           0
  9
$DIMALTZ
 70
           0
  9
$DIMALTTZ
 70
           0
  9
$DIMFIT
 70
           3
  9
$DIMUPT
 70
           0
  9
$DIMUNIT
 70
           2
  9
$DIMDEC
 70
           4
  9
$DIMTDEC
 70
           4
  9
$DIMALTU
 70
           2
  9
$DIMALTTD
 70
           2
  9
$DIMTXSTY
  7
STANDARD
  9
$DIMAUNIT
 70
           0
  9
$LUNITS
 70
           2
  9
$LUPREC
 70
           4
  9
$SKETCHINC
 40
0.1
  9
$FILLETRAD
 40
0.0
  9
$AUNITS
 70
           0
  9
$AUPREC
 70
           0
  9
$MENU
  1
acad
  9
$ELEVATION
 40
0.0
  9
$PELEVATION
 40
0.0
  9
$THICKNESS
 40
0.0
  9
$LIMCHECK
 70
           0
  9
$BLIPMODE
 70
           1
  9
$CHAMFERA
 40
0.0
  9
$CHAMFERB
 40
0.0
  9
$CHAMFERC
 40
0.0
  9
$CHAMFERD
 40
0.0
  9
$SKPOLY
 70
           0
  9
$TDCREATE
 40
0.000000000
  9
$TDUPDATE
 40
0.000000000
  9
$TDINDWG
 40
0.0000000000
  9
$TDUSRTIMER
 40
0.0000000000
  9
$USRTIMER
 70
           1
  9
$ANGBASE
 50
0.0
  9
$ANGDIR
 70
           0
  9
$PDMODE
 70
           0
  9
$PDSIZE
 40
0.0
  9
$PLINEWID
 40
0.0
  9
$COORDS
 70
           0
  9
$SPLFRAME
 70
           0
  9
$SPLINETYPE
 70
           6
  9
$SPLINESEGS
 70
           8
  9
$ATTDIA
 70
           0
  9
$ATTREQ
 70
           1
  9
$HANDLING
 70
           1
  9
$HANDSEED
  5
243
  9
$SURFTAB1
 70
           6
  9
$SURFTAB2
 70
           6
  9
$SURFTYPE
 70
           6
  9
$SURFU
 70
           6
  9
$SURFV
 70
           6
  9
$UCSNAME
  2

  9
$UCSORG
 10
0.0
 20
0.0
 30
0.0
  9
$UCSXDIR
 10
1.0
 20
0.0
 30
0.0
  9
$UCSYDIR
 10
0.0
 20
1.0
 30
0.0
  9
$PUCSNAME
  2

  9
$PUCSORG
 10
0.0
 20
0.0
 30
0.0
  9
$PUCSXDIR
 10
1.0
 20
0.0
 30
0.0
  9
$PUCSYDIR
 10
0.0
 20
1.0
 30
0.0
  9
$USERI1
 70
           0
  9
$USERI2
 70
           0
  9
$USERI3
 70
           0
  9
$USERI4
 70
           0
  9
$USERI5
 70
           0
  9
$USERR1
 40
0.0
  9
$USERR2
 40
0.0
  9
$USERR3
 40
0.0
  9
$USERR4
 40
0.0
  9
$USERR5
 40
0.0
  9
$WORLDVIEW
 70
           1
  9
$SHADEDGE
 70
           3
  9
$SHADEDIF
 70
          70
  9
$TILEMODE
 70
           1
  9
$MAXACTVP
 70
          16
  9
$PINSBASE
 10
0.0
 20
0.0
 30
0.0
  9
$PLIMCHECK
 70
           0
  9
$PEXTMIN
 10
1.000000000000E+20
 20
1.000000000000E+20
 30
1.000000000000E+20
  9
$PEXTMAX
 10
-1.000000000000E+20
 20
-1.000000000000E+20
 30
-1.000000000000E+20
  9
$PLIMMIN
 10
0.0
 20
0.0
  9
$PLIMMAX
 10
12.0
 20
9.0
  9
$UNITMODE
 70
           0
  9
$VISRETAIN
 70
           0
  9
$PLINEGEN
 70
           1
  9
$PSLTSCALE
 70
           0
  9
$TREEDEPTH
 70
        3020
  9
$PICKSTYLE
 70
           1
  9
$CMLSTYLE
  2
STANDARD
  9
$CMLJUST
 70
           0
  9
$CMLSCALE
 40
1.0
  9
$PROXYGRAPHICS
 70
           0
  9
$MEASUREMENT
 70
           0
  0
ENDSEC
  0
SECTION
  2
CLASSES
  0
CLASS
  1
LWPOLYLINE
  2
AcDbPolyline
  3
"AutoCAD"
 90
        0
280
           0
281
           1
  0
CLASS
  1
IMAGE
  2
AcDbRasterImage
  3
ISM
 90
      127
280
           0
281
           1
  0
CLASS
  1
OLE2FRAME
  2
AcDbOle2Frame
  3
""
 90
        0
280
           0
281
           1
  0
CLASS
  1
HATCH
  2
AcDbHatch
  3
"ACAD_SEDONA"
 90
        0
280
           0
281
           1
  0
CLASS
  1
DICTIONARYVAR
  2
AcDbDictionaryVar
  3
"AutoCAD"
 90
        0
280
           0
281
           0
  0
CLASS
  1
RASTERVARIABLES
  2
AcDbRasterVariables
  3
ISM
 90
        0
280
           0
281
           0
  0
CLASS
  1
IMAGEDEF
  2
AcDbRasterImageDef
  3
ISM
 90
        0
280
           0
281
           0
  0
CLASS
  1
IMAGEDEF_REACTOR
  2
AcDbRasterImageDefReactor
  3
ISM
 90
        1
280
           0
281
           0
  0
CLASS
  1
IDBUFFER
  2
AcDbIdBuffer
  3
"Acad"
 90
        0
280
           0
281
           0
  0
CLASS
  1
SPATIAL_FILTER
  2
AcDbSpatialFilter
  3
"Acad"
 90
        0
280
           0
281
           0
  0
CLASS
  1
XRECORD
  2
AcDbXrecord
  3
"<Built In>"
 90
        0
280
           0
281
           0
  0
CLASS
  1
SORTENTSTABLE
  2
AcDbSortentsTable
  3
"AutoCAD"
 90
        0
280
           0
281
           0
  0
CLASS
  1
LAYER_INDEX
  2
AcDbLayerIndex
  3
"Acad"
 90
        0
280
           0
281
           0
  0
CLASS
  1
SPATIAL_INDEX
  2
AcDbSpatialIndex
  3
"Acad"
 90
        0
280
           0
281
           0
  0
CLASS
  1
OBJECT_PTR
  2
CAseDLPNTableRecord
  3
"ASE-LPNTableRecord"
 90
        1
280
           0
281
           0
  0
CLASS
  1
LAYOUT
  2
AcDbLayout
  3
"AutoCAD 2000"
 90
        1
280
           0
281
           0
  0
CLASS
  1
PLOTSETTINGS
  2
AcDbPlotSettings
  3
"AutoCAD 2000"
 90
        1
280
           0
281
           0
  0
CLASS
  1
ACDBDICTIONARYWDFLT
  2
AcDbDictionaryWithDefault
  3
"AutoCAD 2000"
 90
        1
280
           0
281
           0
  0
CLASS
  1
ACDBPLACEHOLDER
  2
AcDbPlaceHolder
  3
"AutoCAD 2000"
 90
        1
280
           0
281
           0
  0
CLASS
  1
VBA_PROJECT
  2
AcDbVbaProject
  3
"acadvba"
 90
        1
280
           0
281
           0
  0
CLASS
  1
WIPEOUT
  2
AcDbWipeout
  3
WipeOut|AutoCAD Express Tool|expresstools@autodesk.com
 90
      127
280
           0
281
           1
  0
CLASS
  1
WIPEOUTVARIABLES
  2
AcDbWipeoutVariables
  3
WipeOut|AutoCAD Express Tool|expresstools@autodesk.com
 90
        0
280
           0
281
           0
  0
CLASS
  1
RTEXT
  2
RText
  3
RText|AutoCAD Express Tool|expresstools@autodesk.com
 90
        0
280
           0
281
           1
  0
CLASS
  1
ARCALIGNEDTEXT
  2
AcDbArcAlignedText
  3
ATEXT|AutoCAD Express Tool|expresstools@autodesk.com
 90
        0
280
           0
281
           1
  0
ENDSEC
  0
SECTION
  2
TABLES
  0
TABLE
  2
VPORT
  5
7
100
AcDbSymbolTable
 70
           1
  0
VPORT
  5
15
100
AcDbSymbolTableRecord
100
AcDbViewportTableRecord
  2
*ACTIVE
 70
           0
 10
0.0
 20
0.0
 11
1.0
 21
1.0
 12
6.591288
 22
4.579184
 13
0.0
 23
0.0
 14
1.0
 24
1.0
 15
0.0
 25
0.0
 16
0.0
 26
0.0
 36
1.0
 17
0.0
 27
0.0
 37
0.0
 40
9.158369
 41
0.688564
 42
50.0
 43
0.0
 44
0.0
 50
0.0
 51
0.0
 71
           0
 72
         100
 73
           1
 74
           1
 75
           0
 76
           0
 77
           0
 78
           0
  0
ENDTAB
  0
TABLE
  2
LTYPE
  5
4
100
AcDbSymbolTable
 70
          10
  0
LTYPE
  5
11
100
AcDbSymbolTableRecord
100
AcDbLinetypeTableRecord
  2
BYBLOCK
 70
          64
  3

 72
          65
 73
           0
 40
0.0
  0
LTYPE
  5
12
100
AcDbSymbolTableRecord
100
AcDbLinetypeTableRecord
  2
BYLAYER
 70
          64
  3

 72
          65
 73
           0
 40
0.0
  0
LTYPE
  5
13
100
AcDbSymbolTableRecord
100
AcDbLinetypeTableRecord
  2
CONTINUOUS
 70
          64
  3
Solid line
 72
          65
 73
           0
 40
0.0
  0
LTYPE
  5
1D
100
AcDbSymbolTableRecord
100
AcDbLinetypeTableRecord
  2
DASHED
 70
          64
  3
Dashed
 72
          65
 73
           2
 40
15.0
 49
12.0
 74
           0
 49
-3.0
 74
           0
  0
LTYPE
  5
1E
100
AcDbSymbolTableRecord
100
AcDbLinetypeTableRecord
  2
DOTTED
 70
          64
  3
Dotted
 72
          65
 73
           2
 40
3.5
 49
0.5
 74
           0
 49
-3.0
 74
           0
  0
LTYPE
  5
1F
100
AcDbSymbolTableRecord
100
AcDbLinetypeTableRecord
  2
DOT_CENTER
 70
          64
  3
Dot_Center
 72
          65
 73
           4
 40
2.0
 49
1.25
 74
           0
 49
-0.25
 74
           0
 49
0.25
 74
           0
 49
-0.25
 74
           0
  0
LTYPE
  5
20
100
AcDbSymbolTableRecord
100
AcDbLinetypeTableRecord
  2
LONG_DASHED
 70
          64
  3
Long_Dashed
 72
          65
 73
           2
 40
2.0
 49
1.5
 74
           0
 49
-0.5
 74
           0
  0
LTYPE
  5
21
100
AcDbSymbolTableRecord
100
AcDbLinetypeTableRecord
  2
DASH_CENTER
 70
          64
  3
Dash_Center
 72
          65
 73
           4
 40
36.0
 49
24.0
 74
           0
 49
-3.0
 74
           0
 49
6.0
 74
           0
 49
-3.0
 74
           0
  0
LTYPE
  5
22
100
AcDbSymbolTableRecord
100
AcDbLinetypeTableRecord
  2
PHANTOM
 70
          64
  3
Phantom
 72
          65
 73
           6
 40
2.5
 49
1.25
 74
           0
 49
-0.25
 74
           0
 49
0.25
 74
           0
 49
-0.25
 74
           0
 49
0.25
 74
           0
 49
-0.25
 74
           0
  0
LTYPE
  5
23
100
AcDbSymbolTableRecord
100
AcDbLinetypeTableRecord
  2
CENTER_DASH_DASH
 70
          64
  3
Center_Dash_Dash
 72
          65
 73
           6
 40
22.0
 49
12.0
 74
           0
 49
-3.0
 74
           0
 49
0.5
 74
           0
 49
-3.0
 74
           0
 49
0.5
 74
           0
 49
-3.0
 74
           0
  0
ENDTAB
  0
TABLE
  2
LAYER
  5
2
100
AcDbSymbolTable
 70
           2
  0
LAYER
  5
14
100
AcDbSymbolTableRecord
100
AcDbLayerTableRecord
  2
0
 70
           0
 62
           7
  6
CONTINUOUS
  0
LAYER
  5
24
100
AcDbSymbolTableRecord
100
AcDbLayerTableRecord
  2
1
 70
           0
 62
           7
  6
CONTINUOUS
  0
ENDTAB
  0
TABLE
  2
STYLE
  5
3
100
AcDbSymbolTable
 70
           3
  0
STYLE
  5
17
100
AcDbSymbolTableRecord
100
AcDbTextStyleTableRecord
  2
STANDARD
 70
           0
 40
0.0
 41
1.0
 50
0.0
 71
           0
 42
0.0
  3
txt
  4

  0
STYLE
  5
230
100
AcDbSymbolTableRecord
100
AcDbTextStyleTableRecord
  2
CONVERTER_1
 70
           0
 40
0.0
 41
0.89
 50
0.0
 71
           0
 42
0.0
  3
MS Mincho.ttf
  4

1001
ACAD
1000
MS Mincho
1071
    32785
  0
STYLE
  5
23C
100
AcDbSymbolTableRecord
100
AcDbTextStyleTableRecord
  2
CONVERTER_2
 70
           0
 40
0.0
 41
0.9
 50
0.0
 71
           0
 42
0.0
  3
txt.shx
  4

  0
ENDTAB
  0
TABLE
  2
VIEW
  5
5
100
AcDbSymbolTable
 70
           0
  0
ENDTAB
  0
TABLE
  2
UCS
  5
6
100
AcDbSymbolTable
 70
           0
  0
ENDTAB
  0
TABLE
  2
APPID
  5
8
100
AcDbSymbolTable
 70
           1
  0
APPID
  5
16
100
AcDbSymbolTableRecord
100
AcDbRegAppTableRecord
  2
ACAD
 70
           0
  0
ENDTAB
  0
TABLE
  2
DIMSTYLE
  5
9
100
AcDbSymbolTable
 70
           3
  0
DIMSTYLE
105
18
100
AcDbSymbolTableRecord
100
AcDbDimStyleTableRecord
  2
STANDARD
 70
           0
  3

  4

  5

  6

  7

 40
1.0
 41
0.18
 42
0.0625
 43
0.38
 44
0.18
 45
0.0
 46
0.0
 47
0.0
 48
0.0
 71
           0
 72
           0
 73
           1
 74
           1
 75
           0
 76
           0
 77
           0
 78
           0
140
0.18
141
0.09
142
0.0
143
25.4
144
1.0
145
0.0
146
1.0
147
0.09
170
           0
171
           2
172
           0
173
           0
174
           0
175
           0
176
           0
177
           0
178
           0
270
           2
271
           4
272
           4
273
           2
274
           2
275
           0
280
           0
281
           0
282
           0
283
           1
284
           0
285
           0
286
           0
287
           0
288
           0
340
17
  0
DIMSTYLE
105
233
100
AcDbSymbolTableRecord
100
AcDbDimStyleTableRecord
  2
ME10_DIM_0
 70
           0
  3
ó<>
  4

  5

  6

  7

 40
1.0
 41
2.8
 42
0.8
 43
0.38
 44
1.0
 45
0.0
 46
0.0
 47
0.0
 48
0.0
 71
           0
 72
           0
 73
           0
 74
           0
 75
           0
 76
           0
 77
           1
 78
           8
140
2.8
141
0.09
142
0.0
143
25.4
144
1.0
145
0.0
146
1.0
147
0.09
170
           0
171
           2
172
           0
173
           1
174
           0
175
           0
176
           2
177
           2
178
           2
270
           2
271
           3
272
           4
273
           2
274
           2
275
           0
280
           0
281
           0
282
           0
283
           1
284
           0
285
           0
286
           0
287
           3
288
           0
340
17
  0
DIMSTYLE
105
23F
100
AcDbSymbolTableRecord
100
AcDbDimStyleTableRecord
  2
ME10_DIM_1
 70
           0
  3
(<>)
  4

  5

  6

  7

 40
1.0
 41
2.8
 42
0.8
 43
0.38
 44
1.0
 45
0.0
 46
0.0
 47
0.0
 48
0.0
 71
           0
 72
           0
 73
           0
 74
           0
 75
           0
 76
           0
 77
           1
 78
           8
140
2.8
141
0.09
142
0.0
143
25.4
144
1.0
145
0.0
146
1.0
147
0.09
170
           0
171
           2
172
           0
173
           1
174
           0
175
           0
176
           2
177
           2
178
           2
270
           2
271
           0
272
           4
273
           2
274
           2
275
           0
280
           0
281
           0
282
           0
283
           1
284
           0
285
           0
286
           0
287
           3
288
           0
340
17
  0
ENDTAB
  0
TABLE
  2
BLOCK_RECORD
  5
1
100
AcDbSymbolTable
 70
           2
  0
BLOCK_RECORD
  5
A
100
AcDbSymbolTableRecord
100
AcDbBlockTableRecord
  2
*MODEL_SPACE
  0
BLOCK_RECORD
  5
B
100
AcDbSymbolTableRecord
100
AcDbBlockTableRecord
  2
*PAPER_SPACE
  0
BLOCK_RECORD
  5
229
100
AcDbSymbolTableRecord
100
AcDbBlockTableRecord
  2
*D0
  0
BLOCK_RECORD
  5
235
100
AcDbSymbolTableRecord
100
AcDbBlockTableRecord
  2
*D1
  0
ENDTAB
  0
ENDSEC
  0
SECTION
  2
BLOCKS
  0
BLOCK
  5
D
100
AcDbEntity
  8
0
100
AcDbBlockBegin
  2
*MODEL_SPACE
 70
           0
 10
0.0
 20
0.0
 30
0.0
  3
*MODEL_SPACE
  1

  0
ENDBLK
  5
E
100
AcDbEntity
  8
0
100
AcDbBlockEnd
  0
BLOCK
  5
F
100
AcDbEntity
 67
           1
  8
0
100
AcDbBlockBegin
  2
*PAPER_SPACE
 70
           0
 10
0.0
 20
0.0
 30
0.0
  3
*PAPER_SPACE
  1

  0
ENDBLK
  5
10
100
AcDbEntity
 67
           1
  8
0
100
AcDbBlockEnd
  0
BLOCK
  5
22A
100
AcDbEntity
  8
0
100
AcDbBlockBegin
  2
*D0
 70
           1
 10
0.0
 20
0.0
 30
0.0
  3
*D0
  1

  0
LINE
  5
22B
100
AcDbEntity
  8
0
  6
CONTINUOUS
 62
           2
100
AcDbLine
 10
-120.093812154696
 20
-77.066968267074
 11
-41.493812154696
 21
-77.066968267074
  0
LINE
  5
22C
100
AcDbEntity
  8
0
  6
CONTINUOUS
 62
           2
100
AcDbLine
 10
-41.493812154696
 20
-60.388635920244
 11
-41.493812154696
 21
-78.066968267074
  0
LINE
  5
22D
100
AcDbEntity
  8
0
  6
CONTINUOUS
 62
           2
100
AcDbLine
 10
-120.093812154696
 20
-60.388635920244
 11
-120.093812154696
 21
-78.066968267074
  0
SOLID
  5
22E
100
AcDbEntity
  8
0
 62
           2
100
AcDbTrace
 10
-117.293812154696
 20
-76.698341273829
 11
-117.293812154696
 21
-77.435595260319
 12
-120.093812154696
 22
-77.066968267074
 13
-120.093812154696
 23
-77.066968267074
  0
SOLID
  5
22F
100
AcDbEntity
  8
0
 62
           2
100
AcDbTrace
 10
-44.293812154696
 20
-77.435595260319
 11
-44.293812154696
 21
-76.698341273829
 12
-41.493812154696
 22
-77.066968267074
 13
-41.493812154696
 23
-77.066968267074
  0
MTEXT
  5
231
100
AcDbEntity
  8
0
 62
           2
100
AcDbMText
 10
-86.287618177054
 20
-76.066968267074
 30
0.0
 40
2.8
 41
0.0
 71
           7
 72
           1
  1
\C2;ó\C2;78.6\C2;
  7
CONVERTER_1
  0
ENDBLK
  5
232
100
AcDbEntity
  8
0
100
AcDbBlockEnd
  0
BLOCK
  5
236
100
AcDbEntity
  8
0
100
AcDbBlockBegin
  2
*D1
 70
           1
 10
0.0
 20
0.0
 30
0.0
  3
*D1
  1

  0
LINE
  5
237
100
AcDbEntity
  8
0
  6
CONTINUOUS
 62
           2
100
AcDbLine
 10
-151.576430291332
 20
-61.08861878453
 11
-151.576430291332
 21
119.433134113216
  0
LINE
  5
238
100
AcDbEntity
  8
0
  6
CONTINUOUS
 62
           2
100
AcDbLine
 10
-63.693812154697
 20
119.433134113216
 11
-152.576430291332
 21
119.433134113216
  0
LINE
  5
239
100
AcDbEntity
  8
0
  6
CONTINUOUS
 62
           2
100
AcDbLine
 10
-119.386642297777
 20
-61.08861878453
 11
-152.576430291332
 21
-61.08861878453
  0
SOLID
  5
23A
100
AcDbEntity
  8
0
 62
           2
100
AcDbTrace
 10
-151.945057284577
 20
-58.28861878453
 11
-151.207803298088
 21
-58.28861878453
 12
-151.576430291332
 22
-61.08861878453
 13
-151.576430291332
 23
-61.08861878453
  0
SOLID
  5
23B
100
AcDbEntity
  8
0
 62
           2
100
AcDbTrace
 10
-151.207803298088
 20
116.633134113216
 11
-151.945057284577
 21
116.633134113216
 12
-151.576430291332
 22
119.433134113216
 13
-151.576430291332
 23
119.433134113216
  0
MTEXT
  5
23D
100
AcDbEntity
  8
0
 62
           2
100
AcDbMText
 10
-152.576430291332
 20
20.066018290667
 30
0.0
 40
2.8
 41
0.0
 71
           7
 72
           1
  1
\C2;(\C2;181\C2;)
  7
CONVERTER_2
 11
0.0
 21
1.0
 31
0.0
  0
ENDBLK
  5
23E
100
AcDbEntity
  8
0
100
AcDbBlockEnd
  0
ENDSEC
  0
SECTION
  2
ENTITIES
  0
HATCH
  5
241
100
AcDbEntity
  8
0
  6
CONTINUOUS
 62
           4
100
AcDbHatch
 10
0.0
 20
0.0
 30
0.0
210
0.0
220
0.0
230
1.0
  2
USER
 70
           0
 71
           1
 91
        1
 92
        1
 93
        6
 72
           1
 10
-93.793812154696198
 20
91.974694884569359
 11
-99.793812154696198
 21
91.974694884569359
 72
           1
 10
-87.793812154696198
 20
91.974694884569359
 11
-93.793812154696198
 21
91.974694884569359
 72
           1
 10
-87.793812154696198
 20
95.974694884569359
 11
-87.793812154696198
 21
91.974694884569359
 72
           1
 10
-87.793812154696198
 20
95.974694884569359
 11
-93.793812154696198
 21
95.974694884569359
 72
           1
 10
-93.793812154696198
 20
95.974694884569359
 11
-99.793812154696198
 21
95.974694884569359
 72
           1
 10
-99.793812154696198
 20
91.974694884569359
 11
-99.793812154696198
 21
95.974694884569359
 97
        6
330
F8
330
101
330
FE
330
100
330
F7
330
F3
 75
           1
 76
           0
 52
90.0
 41
0.8
 77
           0
 78
           1
 53
90.0
 43
0.0
 44
0.0
 45
-0.8
 46
-0.0000000000000003
 79
           0
 98
        1
 10
0.0
 20
0.0
  0
DIMENSION
  5
240
100
AcDbEntity
  8
0
100
AcDbDimension
  2
*D1
 10
-151.576430291332
 20
-61.08861878453
 11
-153.976430291332
 21
24.882018290667
 31
0.0
 53
90.0
  1
<>
  3
ME10_DIM_1
100
AcDbAlignedDimension
 13
-62.893812154697
 23
119.433134113216
 14
-118.586642297777
 24
-61.08861878453
 50
90.0
100
AcDbRotatedDimension
  0
DIMENSION
  5
234
100
AcDbEntity
  8
0
100
AcDbDimension
  2
*D0
 10
-120.093812154696
 20
-77.066968267074
 11
-81.856618177054
 21
-74.666968267074
 31
0.0
  1
<>
  3
ME10_DIM_0
100
AcDbAlignedDimension
 13
-41.493812154696
 23
-59.588635920244
 14
-120.093812154696
 24
-59.588635920244
100
AcDbRotatedDimension
  0
ARC
  5
228
100
AcDbEntity
  8
1
  6
CONTINUOUS
 62
           7
100
AcDbCircle
 10
-113.793812154696
 20
48.598875291298
 40
4.0
100
AcDbArc
 50
-70.384020864595
 51
0.0
  0
ARC
  5
227
100
AcDbEntity
  8
1
  6
CONTINUOUS
 62
           7
100
AcDbCircle
 10
-118.593812154696
 20
-59.588635920244
 40
1.5
100
AcDbArc
 50
180.0
 51
-81.495283849173
  0
ARC
  5
226
100
AcDbEntity
  8
1
  6
CONTINUOUS
 62
           7
100
AcDbCircle
 10
-42.993812154696
 20
-59.588635920244
 40
1.5
100
AcDbArc
 50
-98.504716150828
 51
0.0
  0
ARC
  5
225
100
AcDbEntity
  8
1
  6
CONTINUOUS
 62
           7
100
AcDbCircle
 10
-47.793812154696
 20
48.598875291298
 40
4.0
100
AcDbArc
 50
180.0
 51
-109.615979135405
  0
ARC
  5
224
100
AcDbEntity
  8
1
  6
CONTINUOUS
 62
           7
100
AcDbCircle
 10
-78.093812154696
 20
69.61138121547
 40
1.0
100
AcDbArc
 50
0.0
 51
60.137165643725
  0
ARC
  5
223
100
AcDbEntity
  8
1
  6
CONTINUOUS
 62
           7
100
AcDbCircle
 10
-79.093812154696
 20
58.61138121547
 40
2.0
100
AcDbArc
 50
-66.421821521798
 51
0.0
  0
ARC
  5
222
100
AcDbEntity
  8
1
  6
CONTINUOUS
 62
           7
100
AcDbCircle
 10
-75.093812154696
 20
58.61138121547
 40
2.0
100
AcDbArc
 50
-66.421821521798
 51
0.0
  0
ARC
  5
221
100
AcDbEntity
  8
1
  6
CONTINUOUS
 62
           7
100
AcDbCircle
 10
-74.093812154696
 20
69.61138121547
 40
1.0
100
AcDbArc
 50
0.0
 51
60.137165643725
  0
ARC
  5
220
100
AcDbEntity
  8
1
  6
CONTINUOUS
 62
           7
100
AcDbCircle
 10
-70.093812154696
 20
69.61138121547
 40
1.0
100
AcDbArc
 50
0.0
 51
60.137165643725
  0
ARC
  5
21F
100
AcDbEntity
  8
1
  6
CONTINUOUS
 62
           7
100
AcDbCircle
 10
-71.093812154696
 20
58.61138121547
 40
2.0
100
AcDbArc
 50
-66.421821521798
 51
0.0
  0
ARC
  5
21E
100
AcDbEntity
  8
1
  6
CONTINUOUS
 62
           7
100
AcDbCircle
 10
-67.093812154696
 20
58.61138121547
 40
2.0
100
AcDbArc
 50
-66.421821521798
 51
0.0
  0
ARC
  5
21D
100
AcDbEntity
  8
1
  6
CONTINUOUS
 62
           7
100
AcDbCircle
 10
-66.093812154696
 20
69.61138121547
 40
1.0
100
AcDbArc
 50
0.0
 51
60.137165643725
  0
ARC
  5
21C
100
AcDbEntity
  8
1
  6
CONTINUOUS
 62
           7
100
AcDbCircle
 10
-62.093812154696
 20
69.61138121547
 40
1.0
100
AcDbArc
 50
0.0
 51
60.137165643725
  0
ARC
  5
21B
100
AcDbEntity
  8
1
  6
CONTINUOUS
 62
           7
100
AcDbCircle
 10
-63.093812154696
 20
58.61138121547
 40
2.0
100
AcDbArc
 50
-66.421821521798
 51
0.0
  0
ARC
  5
21A
100
AcDbEntity
  8
1
  6
CONTINUOUS
 62
           7
100
AcDbCircle
 10
-60.093812154696
 20
58.61138121547
 40
2.0
100
AcDbArc
 50
-66.421821521798
 51
0.0
  0
ARC
  5
219
100
AcDbEntity
  8
1
  6
CONTINUOUS
 62
           7
100
AcDbCircle
 10
-59.093812154696
 20
69.61138121547
 40
1.0
100
AcDbArc
 50
0.0
 51
60.137165643725
  0
ARC
  5
218
100
AcDbEntity
  8
1
  6
CONTINUOUS
 62
           7
100
AcDbCircle
 10
-56.093812154696
 20
69.61138121547
 40
1.0
100
AcDbArc
 50
0.0
 51
60.137165643725
  0
ARC
  5
217
100
AcDbEntity
  8
1
  6
CONTINUOUS
 62
           7
100
AcDbCircle
 10
-57.093812154696
 20
58.61138121547
 40
2.0
100
AcDbArc
 50
-66.421821521798
 51
0.0
  0
ARC
  5
216
100
AcDbEntity
  8
1
  6
CONTINUOUS
 62
           7
100
AcDbCircle
 10
-55.093812154696
 20
58.61138121547
 40
2.0
100
AcDbArc
 50
-66.421821521798
 51
0.0
  0
ARC
  5
215
100
AcDbEntity
  8
1
  6
CONTINUOUS
 62
           7
100
AcDbCircle
 10
-54.093812154696
 20
69.61138121547
 40
1.0
100
AcDbArc
 50
0.0
 51
60.137165643725
  0
ARC
  5
214
100
AcDbEntity
  8
1
  6
CONTINUOUS
 62
           7
100
AcDbCircle
 10
-52.093812154696
 20
69.61138121547
 40
1.0
100
AcDbArc
 50
0.0
 51
60.137165643725
  0
ARC
  5
213
100
AcDbEntity
  8
1
  6
CONTINUOUS
 62
           7
100
AcDbCircle
 10
-53.093812154696
 20
58.61138121547
 40
2.0
100
AcDbArc
 50
-66.421821521798
 51
0.0
  0
ARC
  5
212
100
AcDbEntity
  8
1
  6
CONTINUOUS
 62
           7
100
AcDbCircle
 10
-51.093812154696
 20
58.61138121547
 40
2.0
100
AcDbArc
 50
-66.421821521798
 51
0.0
  0
ARC
  5
211
100
AcDbEntity
  8
1
  6
CONTINUOUS
 62
           7
100
AcDbCircle
 10
-50.093812154696
 20
69.61138121547
 40
1.0
100
AcDbArc
 50
0.0
 51
60.137165643725
  0
ARC
  5
210
100
AcDbEntity
  8
1
  6
CONTINUOUS
 62
           7
100
AcDbCircle
 10
-48.293812154696
 20
54.61138121547
 40
2.0
100
AcDbArc
 50
112.619864948041
 51
180.0
  0
ARC
  5
20F
100
AcDbEntity
  8
1
  6
CONTINUOUS
 62
           7
100
AcDbCircle
 10
-49.093812154696
 20
58.61138121547
 40
2.0
100
AcDbArc
 50
-66.421821521798
 51
0.0
  0
ARC
  5
20E
100
AcDbEntity
  8
1
  6
CONTINUOUS
 62
           7
100
AcDbCircle
 10
-51.293812154696
 20
70.61138121547
 40
2.0
100
AcDbArc
 50
53.130102354156
 51
90.0
  0
ARC
  5
20D
100
AcDbEntity
  8
1
  6
CONTINUOUS
 62
           7
100
AcDbCircle
 10
-47.315397226217
 20
72.578689145019
 40
1.960896705512
100
AcDbArc
 50
-126.938480467707
 51
-119.931417178138
  0
ARC
  5
20C
100
AcDbEntity
  8
1
  6
CONTINUOUS
 62
           7
100
AcDbCircle
 10
-48.093812154696
 20
69.61138121547
 40
1.0
100
AcDbArc
 50
0.0
 51
60.137165643725
  0
ARC
  5
20B
100
AcDbEntity
  8
1
  6
CONTINUOUS
 62
           7
100
AcDbCircle
 10
-51.293812154696
 20
54.61138121547
 40
1.0
100
AcDbArc
 50
-30.0
 51
0.0
  0
ARC
  5
20A
100
AcDbEntity
  8
1
  6
CONTINUOUS
 62
           7
100
AcDbCircle
 10
-59.043812154696
 20
79.61138121547
 40
1.5
100
AcDbArc
 50
0.0
 51
41.810314895779
  0
ARC
  5
209
100
AcDbEntity
  8
1
  6
CONTINUOUS
 62
           7
100
AcDbCircle
 10
-110.293812154696
 20
54.61138121547
 40
1.0
100
AcDbArc
 50
180.0
 51
-150.000000000002
  0
ARC
  5
208
100
AcDbEntity
  8
1
  6
CONTINUOUS
 62
           7
100
AcDbCircle
 10
-113.493812154696
 20
69.61138121547
 40
1.0
100
AcDbArc
 50
119.862834356274
 51
180.0
  0
ARC
  5
207
100
AcDbEntity
  8
1
  6
CONTINUOUS
 62
           7
100
AcDbCircle
 10
-114.272227083175
 20
72.578689145019
 40
1.960896705512
100
AcDbArc
 50
-60.068582821864
 51
-53.061519532295
  0
ARC
  5
206
100
AcDbEntity
  8
1
  6
CONTINUOUS
 62
           7
100
AcDbCircle
 10
-110.293812154696
 20
70.61138121547
 40
2.0
100
AcDbArc
 50
90.0
 51
126.869897645843
  0
ARC
  5
205
100
AcDbEntity
  8
1
  6
CONTINUOUS
 62
           7
100
AcDbCircle
 10
-112.493812154696
 20
58.61138121547
 40
2.0
100
AcDbArc
 50
180.0
 51
-113.578178478201
  0
ARC
  5
204
100
AcDbEntity
  8
1
  6
CONTINUOUS
 62
           7
100
AcDbCircle
 10
-113.293812154696
 20
54.61138121547
 40
2.0
100
AcDbArc
 50
0.0
 51
67.380135051958
  0
ARC
  5
203
100
AcDbEntity
  8
1
  6
CONTINUOUS
 62
           7
100
AcDbCircle
 10
-76.043812154696
 20
76.61138121547
 40
4.0
100
AcDbArc
 50
-90.0
 51
0.0
  0
ARC
  5
202
100
AcDbEntity
  8
1
  6
CONTINUOUS
 62
           7
100
AcDbCircle
 10
-70.543812154696
 20
79.61138121547
 40
1.5
100
AcDbArc
 50
138.189685104221
 51
180.0
  0
ARC
  5
201
100
AcDbEntity
  8
1
  6
CONTINUOUS
 62
           7
100
AcDbCircle
 10
-53.543812154696
 20
76.61138121547
 40
4.0
100
AcDbArc
 50
180.0
 51
-90.0
  0
ARC
  5
200
100
AcDbEntity
  8
1
  6
CONTINUOUS
 62
           7
100
AcDbCircle
 10
-111.493812154696
 20
69.61138121547
 40
1.0
100
AcDbArc
 50
119.862834356274
 51
180.0
  0
ARC
  5
1FF
100
AcDbEntity
  8
1
  6
CONTINUOUS
 62
           7
100
AcDbCircle
 10
-110.493812154696
 20
58.61138121547
 40
2.0
100
AcDbArc
 50
180.0
 51
-113.578178478201
  0
ARC
  5
1FE
100
AcDbEntity
  8
1
  6
CONTINUOUS
 62
           7
100
AcDbCircle
 10
-108.493812154696
 20
58.61138121547
 40
2.0
100
AcDbArc
 50
180.0
 51
-113.578178478201
  0
ARC
  5
1FD
100
AcDbEntity
  8
1
  6
CONTINUOUS
 62
           7
100
AcDbCircle
 10
-109.493812154696
 20
69.61138121547
 40
1.0
100
AcDbArc
 50
119.862834356274
 51
180.0
  0
ARC
  5
1FC
100
AcDbEntity
  8
1
  6
CONTINUOUS
 62
           7
100
AcDbCircle
 10
-107.493812154696
 20
69.61138121547
 40
1.0
100
AcDbArc
 50
119.862834356274
 51
180.0
  0
ARC
  5
1FB
100
AcDbEntity
  8
1
  6
CONTINUOUS
 62
           7
100
AcDbCircle
 10
-106.493812154696
 20
58.61138121547
 40
2.0
100
AcDbArc
 50
180.0
 51
-113.578178478201
  0
ARC
  5
1FA
100
AcDbEntity
  8
1
  6
CONTINUOUS
 62
           7
100
AcDbCircle
 10
-104.493812154696
 20
58.61138121547
 40
2.0
100
AcDbArc
 50
180.0
 51
-113.578178478201
  0
ARC
  5
1F9
100
AcDbEntity
  8
1
  6
CONTINUOUS
 62
           7
100
AcDbCircle
 10
-105.493812154696
 20
69.61138121547
 40
1.0
100
AcDbArc
 50
119.862834356274
 51
180.0
  0
ARC
  5
1F8
100
AcDbEntity
  8
1
  6
CONTINUOUS
 62
           7
100
AcDbCircle
 10
-102.493812154696
 20
69.61138121547
 40
1.0
100
AcDbArc
 50
119.862834356274
 51
180.0
  0
ARC
  5
1F7
100
AcDbEntity
  8
1
  6
CONTINUOUS
 62
           7
100
AcDbCircle
 10
-101.493812154696
 20
58.61138121547
 40
2.0
100
AcDbArc
 50
180.0
 51
-113.578178478201
  0
ARC
  5
1F6
100
AcDbEntity
  8
1
  6
CONTINUOUS
 62
           7
100
AcDbCircle
 10
-98.493812154696
 20
58.61138121547
 40
2.0
100
AcDbArc
 50
180.0
 51
-113.578178478201
  0
ARC
  5
1F5
100
AcDbEntity
  8
1
  6
CONTINUOUS
 62
           7
100
AcDbCircle
 10
-99.493812154696
 20
69.61138121547
 40
1.0
100
AcDbArc
 50
119.862834356275
 51
180.0
  0
ARC
  5
1F4
100
AcDbEntity
  8
1
  6
CONTINUOUS
 62
           7
100
AcDbCircle
 10
-95.493812154696
 20
69.61138121547
 40
1.0
100
AcDbArc
 50
119.862834356275
 51
180.0
  0
ARC
  5
1F3
100
AcDbEntity
  8
1
  6
CONTINUOUS
 62
           7
100
AcDbCircle
 10
-94.493812154696
 20
58.61138121547
 40
2.0
100
AcDbArc
 50
180.0
 51
-113.578178478201
  0
ARC
  5
1F2
100
AcDbEntity
  8
1
  6
CONTINUOUS
 62
           7
100
AcDbCircle
 10
-90.493812154696
 20
58.61138121547
 40
2.0
100
AcDbArc
 50
180.0
 51
-113.578178478201
  0
ARC
  5
1F1
100
AcDbEntity
  8
1
  6
CONTINUOUS
 62
           7
100
AcDbCircle
 10
-91.493812154696
 20
69.61138121547
 40
1.0
100
AcDbArc
 50
119.862834356275
 51
180.0
  0
ARC
  5
1F0
100
AcDbEntity
  8
1
  6
CONTINUOUS
 62
           7
100
AcDbCircle
 10
-87.493812154696
 20
69.61138121547
 40
1.0
100
AcDbArc
 50
119.862834356275
 51
180.0
  0
ARC
  5
1EF
100
AcDbEntity
  8
1
  6
CONTINUOUS
 62
           7
100
AcDbCircle
 10
-86.493812154696
 20
58.61138121547
 40
2.0
100
AcDbArc
 50
180.0
 51
-113.578178478201
  0
ARC
  5
1EE
100
AcDbEntity
  8
1
  6
CONTINUOUS
 62
           7
100
AcDbCircle
 10
-82.493812154696
 20
58.61138121547
 40
2.0
100
AcDbArc
 50
180.0
 51
-113.578178478201
  0
ARC
  5
1ED
100
AcDbEntity
  8
1
  6
CONTINUOUS
 62
           7
100
AcDbCircle
 10
-83.493812154696
 20
69.61138121547
 40
1.0
100
AcDbArc
 50
119.862834356275
 51
180.0
  0
ARC
  5
1EC
100
AcDbEntity
  8
1
  6
CONTINUOUS
 62
           7
100
AcDbCircle
 10
-2.65682963971
 20
48.382819375046
 40
18.8
100
AcDbArc
 50
-154.999999999997
 51
-126.999999999997
  0
ARC
  5
1EB
100
AcDbEntity
  8
1
  6
CONTINUOUS
 62
           7
100
AcDbCircle
 10
-2.65682963971
 20
48.382819375046
 40
14.0
100
AcDbArc
 50
-154.999999999997
 51
-126.999999999997
  0
ARC
  5
1EA
100
AcDbEntity
  8
1
  6
CONTINUOUS
 62
           7
100
AcDbCircle
 10
51.775356869649
 20
10.692610448967
 40
1.0
100
AcDbArc
 50
23.000000000001
 51
113.000000000002
  0
ARC
  5
1E9
100
AcDbEntity
  8
1
  6
CONTINUOUS
 62
           7
100
AcDbCircle
 10
65.129736536523
 20
-19.488684150718
 40
1.0
100
AcDbArc
 50
-156.999999999998
 51
-66.999999999998
  0
ARC
  5
1E8
100
AcDbEntity
  8
1
  6
CONTINUOUS
 62
           7
100
AcDbCircle
 10
54.083678295094
 20
-24.17745769259
 40
1.0
100
AcDbArc
 50
-66.999999999998
 51
23.000000000003
  0
ARC
  5
1E7
100
AcDbEntity
  8
1
  6
CONTINUOUS
 62
           7
100
AcDbCircle
 10
28.323592630311
 20
-16.142311817777
 40
0.5
100
AcDbArc
 50
-31.999999999995
 51
98.000000000001
  0
ARC
  5
1E6
100
AcDbEntity
  8
1
  6
CONTINUOUS
 62
           7
100
AcDbCircle
 10
26.866923991037
 20
-21.30408881078
 40
1.0
100
AcDbArc
 50
148.000000000003
 51
-121.999999999996
  0
ARC
  5
1E5
100
AcDbEntity
  8
1
  6
CONTINUOUS
 62
           7
100
AcDbCircle
 10
37.891549241071
 20
-28.193039245811
 40
1.0
100
AcDbArc
 50
-121.999999999998
 51
-31.999999999998
  0
ARC
  5
1E4
100
AcDbEntity
  8
1
  6
CONTINUOUS
 62
           7
100
AcDbCircle
 10
28.946635059669
 20
10.293554050571
 40
1.0
100
AcDbArc
 50
150.816449008616
 51
-126.999999999995
  0
ARC
  5
1E3
100
AcDbEntity
  8
1
  6
CONTINUOUS
 62
           7
100
AcDbCircle
 10
54.901205897564
 20
3.328571621347
 40
1.0
100
AcDbArc
 50
-7.896264719272
 51
23.000000000003
  0
ARC
  5
1E2
100
AcDbEntity
  8
1
  6
CONTINUOUS
 62
           7
100
AcDbCircle
 10
22.928484828149
 20
2.307198950098
 40
1.0
100
AcDbArc
 50
53.000000000002
 51
135.183550991387
  0
CIRCLE
  5
1E1
100
AcDbEntity
  8
1
  6
CONTINUOUS
 62
           2
100
AcDbCircle
 10
-98.043812154696
 20
91.224694884569
 40
0.25
  0
CIRCLE
  5
1E0
100
AcDbEntity
  8
1
  6
CONTINUOUS
 62
           7
100
AcDbCircle
 10
14.346084054199
 20
-53.6076407405
 40
2.122719211425
  0
CIRCLE
  5
1DF
100
AcDbEntity
  8
1
  6
CONTINUOUS
 62
           7
100
AcDbCircle
 10
14.346084054199
 20
-53.6076407405
 40
21.5
  0
CIRCLE
  5
1DE
100
AcDbEntity
  8
1
  6
CONTINUOUS
 62
           7
100
AcDbCircle
 10
43.50754116495
 20
-6.93955400901
 40
16.0
  0
CIRCLE
  5
1DD
100
AcDbEntity
  8
1
  6
CONTINUOUS
 62
           7
100
AcDbCircle
 10
43.50754116495
 20
-6.93955400901
 40
5.0
  0
CIRCLE
  5
1DC
100
AcDbEntity
  8
1
  6
CONTINUOUS
 62
           7
100
AcDbCircle
 10
43.50754116495
 20
-6.93955400901
 40
9.5
  0
ARC
  5
1DB
100
AcDbEntity
  8
1
  6
CONTINUOUS
 62
           7
100
AcDbCircle
 10
-80.793812154696
 20
-33.58861878453
 40
2.0
100
AcDbArc
 50
90.0
 51
-90.0
  0
ARC
  5
1DA
100
AcDbEntity
  8
1
  6
CONTINUOUS
 62
           7
100
AcDbCircle
 10
-109.093812154696
 20
35.41138121547
 40
10.0
100
AcDbArc
 50
109.615979135405
 51
180.0
  0
ARC
  5
1D9
100
AcDbEntity
  8
1
  6
CONTINUOUS
 62
           7
100
AcDbCircle
 10
-116.343812154696
 20
-33.58861878453
 40
4.25
100
AcDbArc
 50
151.927513064147
 51
-151.927513064147
  0
ARC
  5
1D8
100
AcDbEntity
  8
1
  6
CONTINUOUS
 62
           7
100
AcDbCircle
 10
-45.243812154696
 20
-33.58861878453
 40
4.25
100
AcDbArc
 50
-28.072486935853
 51
28.072486935853
  0
ARC
  5
1D7
100
AcDbEntity
  8
1
  6
CONTINUOUS
 62
           7
100
AcDbCircle
 10
-52.493812154696
 20
35.41138121547
 40
10.0
100
AcDbArc
 50
0.0
 51
70.384020864595
  0
ARC
  5
1D6
100
AcDbEntity
  8
1
  6
CONTINUOUS
 62
           7
100
AcDbCircle
 10
-80.793812154696
 20
-33.58861878453
 40
2.0
100
AcDbArc
 50
-90.0
 51
90.0
  0
ARC
  5
1D5
100
AcDbEntity
  8
1
  6
CONTINUOUS
 62
           7
100
AcDbCircle
 10
-64.793812154696
 20
81.459886991502
 40
18.151494223968
100
AcDbArc
 50
72.412046226006
 51
90.0
  0
ARC
  5
1D4
100
AcDbEntity
  8
1
  6
CONTINUOUS
 62
           7
100
AcDbCircle
 10
-64.793812154696
 20
104.762875439438
 40
18.151494223968
100
AcDbArc
 50
-90.0
 51
-72.412046226006
  0
ARC
  5
1D3
100
AcDbEntity
  8
1
  6
CONTINUOUS
 62
           7
100
AcDbCircle
 10
-56.566570818744
 20
91.467444437474
 40
4.856063222004
100
AcDbArc
 50
-124.384247468042
 51
-55.615752531958
  0
ARC
  5
1D2
100
AcDbEntity
  8
1
  6
CONTINUOUS
 62
           7
100
AcDbCircle
 10
-56.566570818744
 20
94.755317993466
 40
4.856063222004
100
AcDbArc
 50
55.615752531957
 51
124.384247468042
  0
ARC
  5
1D1
100
AcDbEntity
  8
1
  6
CONTINUOUS
 62
           2
100
AcDbCircle
 10
-89.543812154696
 20
91.474694884569
 40
0.25
100
AcDbArc
 50
180.0
 51
0.0
  0
ARC
  5
1D0
100
AcDbEntity
  8
1
  6
CONTINUOUS
 62
           7
100
AcDbCircle
 10
-74.030672433882
 20
73.799976192204
 40
2.811405023265
100
AcDbArc
 50
55.615752531958
 51
124.384247468042
  0
ARC
  5
1CF
100
AcDbEntity
  8
1
  6
CONTINUOUS
 62
           7
100
AcDbCircle
 10
-78.793812154696
 20
66.102621401593
 40
10.508759813876
100
AcDbArc
 50
72.412046226006
 51
90.0
  0
ARC
  5
1CE
100
AcDbEntity
  8
1
  6
CONTINUOUS
 62
           7
100
AcDbCircle
 10
-74.030672433882
 20
83.992796515232
 40
2.811405023265
100
AcDbArc
 50
55.61575253196
 51
68.656466769452
  0
ARC
  5
1CD
100
AcDbEntity
  8
1
  6
CONTINUOUS
 62
           7
100
AcDbCircle
 10
-62.893812154697
 20
101.133134113216
 40
18.3
100
AcDbArc
 50
90.0
 51
-179.999999999997
  0
ARC
  5
1CC
100
AcDbEntity
  8
1
  6
CONTINUOUS
 62
           7
100
AcDbCircle
 10
-62.893812154697
 20
101.133134113216
 40
13.5
100
AcDbArc
 50
25.000000000003
 51
-179.999999999997
  0
ARC
  5
1CB
100
AcDbEntity
  8
1
  6
CONTINUOUS
 62
           7
100
AcDbCircle
 10
25.045425610247
 20
6.972647940701
 40
10.508759813876
100
AcDbArc
 50
125.41204622601
 51
143.000000000004
  0
ARC
  5
1CA
100
AcDbEntity
  8
1
  6
CONTINUOUS
 62
           7
100
AcDbCircle
 10
21.764573782391
 20
15.409044212581
 40
2.811405023266
100
AcDbArc
 50
108.615752531962
 51
177.384247468045
  0
ARC
  5
1C9
100
AcDbEntity
  8
1
  6
CONTINUOUS
 62
           7
100
AcDbCircle
 10
24.062399848382
 20
13.677508074121
 40
2.811405023266
100
AcDbArc
 50
-71.384247468037
 51
-2.615752531954
  0
ARC
  5
1C8
100
AcDbEntity
  8
1
  6
CONTINUOUS
 62
           7
100
AcDbCircle
 10
15.04848993781
 20
14.505879305282
 40
10.508759813876
100
AcDbArc
 50
-36.999999999996
 51
-19.412046226002
  0
ARC
  5
1C7
100
AcDbEntity
  8
1
  6
CONTINUOUS
 62
           7
100
AcDbCircle
 10
-78.793812154696
 20
88.812961352374
 40
10.508759813876
100
AcDbArc
 50
-89.999999999998
 51
-72.412046226003
  0
ARC
  5
1C6
100
AcDbEntity
  8
1
  6
CONTINUOUS
 62
           7
100
AcDbCircle
 10
-74.030672433882
 20
81.115606561763
 40
2.811405023265
100
AcDbArc
 50
-124.384247468039
 51
-55.615752531955
  0
ARC
  5
1C5
100
AcDbEntity
  8
1
  6
CONTINUOUS
 62
           7
100
AcDbCircle
 10
-74.030672433882
 20
83.992796515232
 40
2.811405023265
100
AcDbArc
 50
100.550751122893
 51
124.384247468045
  0
ARC
  5
1C4
100
AcDbEntity
  8
1
  6
CONTINUOUS
 62
           7
100
AcDbCircle
 10
-78.793812154696
 20
76.295441724621
 40
10.508759813876
100
AcDbArc
 50
72.412046226009
 51
90.000000000002
  0
ARC
  5
1C3
100
AcDbEntity
  8
1
  6
CONTINUOUS
 62
           7
100
AcDbCircle
 10
14.346084054199
 20
-53.6076407405
 40
9.056418825387
100
AcDbArc
 50
-175.866740412983
 51
-166.999999999997
  0
ARC
  5
1C2
100
AcDbEntity
  8
1
  6
CONTINUOUS
 62
           7
100
AcDbCircle
 10
14.346084054199
 20
-53.6076407405
 40
9.056418825387
100
AcDbArc
 50
-166.999999999997
 51
-158.13325958701
  0
ARC
  5
1C1
100
AcDbEntity
  8
1
  6
CONTINUOUS
 62
           7
100
AcDbCircle
 10
14.346084054199
 20
-53.6076407405
 40
16.628559698333
100
AcDbArc
 50
103.000000000003
 51
165.617180468093
  0
ARC
  5
1C0
100
AcDbEntity
  8
1
  6
CONTINUOUS
 62
           7
100
AcDbCircle
 10
14.346084054199
 20
-53.6076407405
 40
16.628559698333
100
AcDbArc
 50
165.617180468093
 51
13.000000000003
  0
ARC
  5
1BF
100
AcDbEntity
  8
1
  6
CONTINUOUS
 62
           7
100
AcDbCircle
 10
14.346084054199
 20
-53.6076407405
 40
14.681495925283
100
AcDbArc
 50
164.418708384893
 51
13.000000000003
  0
ARC
  5
1BE
100
AcDbEntity
  8
1
  6
CONTINUOUS
 62
           7
100
AcDbCircle
 10
14.346084054199
 20
-53.6076407405
 40
14.681495925283
100
AcDbArc
 50
103.000000000003
 51
164.418708384893
  0
ARC
  5
1BD
100
AcDbEntity
  8
1
  6
CONTINUOUS
 62
           7
100
AcDbCircle
 10
43.50754116495
 20
-6.93955400901
 40
10.0
100
AcDbArc
 50
-108.80512766123
 51
-85.194872338764
  0
ARC
  5
1BC
100
AcDbEntity
  8
1
  6
CONTINUOUS
 62
           7
100
AcDbCircle
 10
43.50754116495
 20
-6.93955400901
 40
10.0
100
AcDbArc
 50
-168.80512766123
 51
-145.194872338764
  0
ARC
  5
1BB
100
AcDbEntity
  8
1
  6
CONTINUOUS
 62
           7
100
AcDbCircle
 10
43.50754116495
 20
-6.93955400901
 40
10.0
100
AcDbArc
 50
131.194872338769
 51
154.805127661236
  0
ARC
  5
1BA
100
AcDbEntity
  8
1
  6
CONTINUOUS
 62
           7
100
AcDbCircle
 10
43.50754116495
 20
-6.93955400901
 40
10.0
100
AcDbArc
 50
71.194872338769
 51
94.805127661236
  0
ARC
  5
1B9
100
AcDbEntity
  8
1
  6
CONTINUOUS
 62
           7
100
AcDbCircle
 10
43.50754116495
 20
-6.93955400901
 40
10.0
100
AcDbArc
 50
-48.80512766123
 51
-25.194872338764
  0
ARC
  5
1B8
100
AcDbEntity
  8
1
  6
CONTINUOUS
 62
           7
100
AcDbCircle
 10
43.50754116495
 20
-6.93955400901
 40
10.0
100
AcDbArc
 50
11.19487233877
 51
23.000000000003
  0
ARC
  5
1B7
100
AcDbEntity
  8
1
  6
CONTINUOUS
 62
           7
100
AcDbCircle
 10
43.50754116495
 20
-6.93955400901
 40
10.0
100
AcDbArc
 50
23.000000000003
 51
34.805127661236
  0
ARC
  5
1B6
100
AcDbEntity
  8
1
  6
CONTINUOUS
 62
           7
100
AcDbCircle
 10
23.226038448252
 20
-4.979983507997
 40
2.811405023265
100
AcDbArc
 50
-26.384247468039
 51
42.384247468044
  0
ARC
  5
1B5
100
AcDbEntity
  8
1
  6
CONTINUOUS
 62
           7
100
AcDbCircle
 10
24.833055418965
 20
-4.754132001553
 40
2.811405023265
100
AcDbArc
 50
153.61575253196
 51
-137.615752531955
  0
ARC
  5
1B4
100
AcDbEntity
  8
1
  6
CONTINUOUS
 62
           7
100
AcDbCircle
 10
33.118401007134
 20
-8.39965243863
 40
10.508759813876
100
AcDbArc
 50
170.412046226009
 51
-171.999999999997
  0
ARC
  5
1B3
100
AcDbEntity
  8
1
  6
CONTINUOUS
 62
           7
100
AcDbCircle
 10
16.266494710587
 20
-10.768033415874
 40
10.508759813876
100
AcDbArc
 50
8.000000000003
 51
25.587953773996
  0
ARC
  5
1B2
100
AcDbEntity
  8
1
  6
CONTINUOUS
 62
           7
100
AcDbCircle
 10
16.266494710587
 20
-10.768033415874
 40
10.508759813876
100
AcDbArc
 50
-9.587953773991
 51
8.000000000003
  0
ARC
  5
1B1
100
AcDbEntity
  8
1
  6
CONTINUOUS
 62
           7
100
AcDbCircle
 10
33.118401007134
 20
-8.39965243863
 40
10.508759813876
100
AcDbArc
 50
-171.999999999997
 51
-154.412046226003
  0
ARC
  5
1B0
100
AcDbEntity
  8
1
  6
CONTINUOUS
 62
           7
100
AcDbCircle
 10
26.158857269469
 20
-14.187702346507
 40
2.811405023265
100
AcDbArc
 50
153.615752531961
 51
-137.615752531954
  0
ARC
  5
1AF
100
AcDbEntity
  8
1
  6
CONTINUOUS
 62
           7
100
AcDbCircle
 10
24.551840298756
 20
-14.413553852952
 40
2.811405023265
100
AcDbArc
 50
-26.384247468039
 51
42.384247468045
  0
ARC
  5
1AE
100
AcDbEntity
  8
1
  6
CONTINUOUS
 62
           7
100
AcDbCircle
 10
50.298231503562
 20
18.566514546156
 40
4.825125798293
100
AcDbArc
 50
-99.578005824064
 51
-34.421994175929
  0
ARC
  5
1AD
100
AcDbEntity
  8
1
  6
CONTINUOUS
 62
           7
100
AcDbCircle
 10
48.989380529741
 20
21.649974209343
 40
4.825125798293
100
AcDbArc
 50
80.421994175935
 51
145.57800582407
  0
ARC
  5
1AC
100
AcDbEntity
  8
1
  6
CONTINUOUS
 62
           7
100
AcDbCircle
 10
35.703037406463
 20
16.010256153991
 40
4.825125798293
100
AcDbArc
 50
80.421994175935
 51
145.578005824071
  0
ARC
  5
1AB
100
AcDbEntity
  8
1
  6
CONTINUOUS
 62
           7
100
AcDbCircle
 10
46.099002705361
 20
9.989087177296
 40
14.429668317772
100
AcDbArc
 50
94.331591884456
 51
131.668408115549
  0
ARC
  5
1AA
100
AcDbEntity
  8
1
  6
CONTINUOUS
 62
           7
100
AcDbCircle
 10
37.011888380284
 20
12.926796490804
 40
4.825125798293
100
AcDbArc
 50
-99.578005824064
 51
-34.421994175929
  0
ARC
  5
1A9
100
AcDbEntity
  8
1
  6
CONTINUOUS
 62
           7
100
AcDbCircle
 10
39.902266204663
 20
24.58768352285
 40
14.429668317772
100
AcDbArc
 50
-85.668408115543
 51
-48.33159188445
  0
ARC
  5
1A8
100
AcDbEntity
  8
1
  6
CONTINUOUS
 62
           7
100
AcDbCircle
 10
16.608608079897
 20
-5.47273452993
 40
3.066987298108
100
AcDbArc
 50
153.61575253196
 51
-137.615752531956
  0
ARC
  5
1A7
100
AcDbEntity
  8
1
  6
CONTINUOUS
 62
           7
100
AcDbCircle
 10
13.505133109017
 20
-5.908899492815
 40
3.066987298108
100
AcDbArc
 50
-26.384247468039
 51
42.384247468044
  0
ARC
  5
1A6
100
AcDbEntity
  8
1
  6
CONTINUOUS
 62
           7
100
AcDbCircle
 10
5.912903577019
 20
-12.223135755954
 40
11.464101615138
100
AcDbArc
 50
8.000000000003
 51
25.587953773996
  0
ARC
  5
1A5
100
AcDbEntity
  8
1
  6
CONTINUOUS
 62
           7
100
AcDbCircle
 10
25.647166903354
 20
-9.449665915833
 40
11.464101615138
100
AcDbArc
 50
170.412046226009
 51
-171.999999999997
  0
ARC
  5
1A4
100
AcDbEntity
  8
1
  6
CONTINUOUS
 62
           7
100
AcDbCircle
 10
25.647166903354
 20
-9.449665915833
 40
11.464101615138
100
AcDbArc
 50
-171.999999999997
 51
-154.412046226003
  0
ARC
  5
1A3
100
AcDbEntity
  8
1
  6
CONTINUOUS
 62
           7
100
AcDbCircle
 10
5.912903577019
 20
-12.223135755954
 40
11.464101615138
100
AcDbArc
 50
-9.587953773991
 51
8.000000000003
  0
ARC
  5
1A2
100
AcDbEntity
  8
1
  6
CONTINUOUS
 62
           7
100
AcDbCircle
 10
14.951462400476
 20
-16.200067141856
 40
3.066987298108
100
AcDbArc
 50
-26.384247468039
 51
42.384247468044
  0
ARC
  5
1A1
100
AcDbEntity
  8
1
  6
CONTINUOUS
 62
           7
100
AcDbCircle
 10
18.054937371356
 20
-15.763902178971
 40
3.066987298108
100
AcDbArc
 50
153.615752531961
 51
-137.615752531955
  0
ARC
  5
1A0
100
AcDbEntity
  8
1
  6
CONTINUOUS
 62
           7
100
AcDbCircle
 10
7.201061426852
 20
-6.794878989051
 40
3.066987298108
100
AcDbArc
 50
153.61575253196
 51
-137.615752531955
  0
ARC
  5
19F
100
AcDbEntity
  8
1
  6
CONTINUOUS
 62
           7
100
AcDbCircle
 10
16.239620250309
 20
-10.771810374954
 40
11.464101615138
100
AcDbArc
 50
170.412046226009
 51
-171.999999999997
  0
ARC
  5
19E
100
AcDbEntity
  8
1
  6
CONTINUOUS
 62
           7
100
AcDbCircle
 10
16.239620250309
 20
-10.771810374954
 40
11.464101615138
100
AcDbArc
 50
-171.999999999997
 51
-154.412046226003
  0
ARC
  5
19D
100
AcDbEntity
  8
1
  6
CONTINUOUS
 62
           7
100
AcDbCircle
 10
8.647390718311
 20
-17.086046638092
 40
3.066987298108
100
AcDbArc
 50
153.615752531961
 51
-137.615752531955
  0
ARC
  5
19C
100
AcDbEntity
  8
1
  6
CONTINUOUS
 62
           7
100
AcDbCircle
 10
-98.989964577403
 20
83.544393917362
 40
3.066987298108
100
AcDbArc
 50
55.615752531957
 51
124.384247468042
  0
ARC
  5
19B
100
AcDbEntity
  8
1
  6
CONTINUOUS
 62
           7
100
AcDbCircle
 10
-93.793812154696
 20
75.147279600332
 40
11.464101615138
100
AcDbArc
 50
90.0
 51
107.587953773994
  0
ARC
  5
19A
100
AcDbEntity
  8
1
  6
CONTINUOUS
 62
           7
100
AcDbCircle
 10
-98.989964577403
 20
75.678368513577
 40
3.066987298108
100
AcDbArc
 50
-124.384247468042
 51
-55.615752531957
  0
ARC
  5
199
100
AcDbEntity
  8
1
  6
CONTINUOUS
 62
           7
100
AcDbCircle
 10
-93.793812154696
 20
84.075482830607
 40
11.464101615138
100
AcDbArc
 50
-107.587953773994
 51
-90.0
  0
ARC
  5
198
100
AcDbEntity
  8
1
  6
CONTINUOUS
 62
           7
100
AcDbCircle
 10
-93.793812154696
 20
84.075482830607
 40
11.464101615138
100
AcDbArc
 50
-90.0
 51
-72.412046226006
  0
ARC
  5
197
100
AcDbEntity
  8
1
  6
CONTINUOUS
 62
           7
100
AcDbCircle
 10
-88.59765973199
 20
75.678368513577
 40
3.066987298108
100
AcDbArc
 50
-124.384247468042
 51
-55.615752531957
  0
ARC
  5
196
100
AcDbEntity
  8
1
  6
CONTINUOUS
 62
           7
100
AcDbCircle
 10
-93.793812154696
 20
75.147279600332
 40
11.464101615138
100
AcDbArc
 50
72.412046226006
 51
90.0
  0
ARC
  5
195
100
AcDbEntity
  8
1
  6
CONTINUOUS
 62
           7
100
AcDbCircle
 10
-88.59765973199
 20
83.544393917362
 40
3.066987298108
100
AcDbArc
 50
55.615752531957
 51
124.384247468042
  0
ARC
  5
194
100
AcDbEntity
  8
1
  6
CONTINUOUS
 62
           7
100
AcDbCircle
 10
-73.021053490648
 20
94.755317993466
 40
4.856063222004
100
AcDbArc
 50
55.615752531957
 51
124.384247468043
  0
ARC
  5
193
100
AcDbEntity
  8
1
  6
CONTINUOUS
 62
           7
100
AcDbCircle
 10
-73.021053490648
 20
91.467444437474
 40
4.856063222004
100
AcDbArc
 50
-124.384247468042
 51
-55.615752531958
  0
ARC
  5
192
100
AcDbEntity
  8
1
  6
CONTINUOUS
 62
           7
100
AcDbCircle
 10
-64.793812154696
 20
104.762875439438
 40
18.151494223968
100
AcDbArc
 50
-107.587953773994
 51
-90.0
  0
ARC
  5
191
100
AcDbEntity
  8
1
  6
CONTINUOUS
 62
           7
100
AcDbCircle
 10
-64.793812154696
 20
81.459886991502
 40
18.151494223968
100
AcDbArc
 50
90.0
 51
107.587953773994
  0
ARC
  5
190
100
AcDbEntity
  8
1
  6
CONTINUOUS
 62
           7
100
AcDbCircle
 10
-78.793812154696
 20
76.295441724621
 40
10.508759813876
100
AcDbArc
 50
90.000000000002
 51
107.587953773995
  0
ARC
  5
18F
100
AcDbEntity
  8
1
  6
CONTINUOUS
 62
           7
100
AcDbCircle
 10
-83.556951875511
 20
83.992796515232
 40
2.811405023265
100
AcDbArc
 50
55.615752531955
 51
115.615752531953
  0
ARC
  5
18E
100
AcDbEntity
  8
1
  6
CONTINUOUS
 62
           7
100
AcDbCircle
 10
-83.556951875511
 20
81.115606561763
 40
2.811405023266
100
AcDbArc
 50
-124.384247468045
 51
-55.615752531961
  0
ARC
  5
18D
100
AcDbEntity
  8
1
  6
CONTINUOUS
 62
           7
100
AcDbCircle
 10
-78.793812154696
 20
88.812961352374
 40
10.508759813876
100
AcDbArc
 50
-107.587953773994
 51
-89.999999999998
  0
ARC
  5
18C
100
AcDbEntity
  8
1
  6
CONTINUOUS
 62
           7
100
AcDbCircle
 10
-78.793812154696
 20
66.102621401593
 40
10.508759813876
100
AcDbArc
 50
90.0
 51
107.587953773994
  0
ARC
  5
18B
100
AcDbEntity
  8
1
  6
CONTINUOUS
 62
           7
100
AcDbCircle
 10
-83.556951875511
 20
73.799976192204
 40
2.811405023265
100
AcDbArc
 50
55.615752531958
 51
124.384247468042
  0
ARC
  5
18A
100
AcDbEntity
  8
1
  6
CONTINUOUS
 62
           7
100
AcDbCircle
 10
15.04848993781
 20
14.505879305282
 40
10.508759813876
100
AcDbArc
 50
-54.587953773992
 51
-36.999999999996
  0
ARC
  5
189
100
AcDbEntity
  8
1
  6
CONTINUOUS
 62
           7
100
AcDbCircle
 10
18.329341765666
 20
6.069483033402
 40
2.811405023265
100
AcDbArc
 50
-71.384247468028
 51
-2.615752531956
  0
ARC
  5
188
100
AcDbEntity
  8
1
  6
CONTINUOUS
 62
           7
100
AcDbCircle
 10
16.031515699674
 20
7.801019171862
 40
2.811405023265
100
AcDbArc
 50
108.61575253196
 51
177.384247468045
  0
ARC
  5
187
100
AcDbEntity
  8
1
  6
CONTINUOUS
 62
           7
100
AcDbCircle
 10
25.045425610247
 20
6.972647940701
 40
10.508759813876
100
AcDbArc
 50
143.000000000004
 51
160.587953773998
  0
ARC
  5
186
100
AcDbEntity
  8
1
  6
CONTINUOUS
 62
           7
100
AcDbCircle
 10
-62.893812154697
 20
101.133134113216
 40
18.3
100
AcDbArc
 50
25.000000000003
 51
90.0
  0
LINE
  5
185
100
AcDbEntity
  8
1
  6
DOT_CENTER
 62
           2
100
AcDbLine
 10
-77.971661809733
 20
-33.58861878453
 11
-84.449398336471
 21
-33.58861878453
  0
LINE
  5
184
100
AcDbEntity
  8
1
  6
CONTINUOUS
 62
           7
100
AcDbLine
 10
-109.793812154696
 20
48.598875291298
 11
-109.793812154696
 21
54.11138121547
  0
LINE
  5
183
100
AcDbEntity
  8
1
  6
CONTINUOUS
 62
           7
100
AcDbLine
 10
-80.793812154696
 20
-29.08861878453
 11
-120.093812154696
 21
-29.08861878453
  0
LINE
  5
182
100
AcDbEntity
  8
1
  6
CONTINUOUS
 62
           7
100
AcDbLine
 10
-120.093812154696
 20
-31.58861878453
 11
-120.093812154696
 21
-29.08861878453
  0
LINE
  5
181
100
AcDbEntity
  8
1
  6
DOT_CENTER
 62
           2
100
AcDbLine
 10
-115.533768864488
 20
-33.58861878453
 11
-122.101178553698
 21
-33.58861878453
  0
LINE
  5
180
100
AcDbEntity
  8
1
  6
CONTINUOUS
 62
           7
100
AcDbLine
 10
-119.093812154696
 20
35.41138121547
 11
-119.093812154696
 21
-29.08861878453
  0
LINE
  5
17F
100
AcDbEntity
  8
1
  6
CONTINUOUS
 62
           7
100
AcDbLine
 10
-120.093812154696
 20
-59.588635920244
 11
-120.093812154696
 21
-35.58861878453
  0
LINE
  5
17E
100
AcDbEntity
  8
1
  6
CONTINUOUS
 62
           7
100
AcDbLine
 10
-80.793812154696
 20
-61.08861878453
 11
-118.586642297777
 21
-61.08861878453
  0
LINE
  5
17D
100
AcDbEntity
  8
1
  6
DOT_CENTER
 62
           2
100
AcDbLine
 10
-80.793812154696
 20
71.385970631528
 11
-80.793812154696
 21
-63.902487397669
  0
LINE
  5
17C
100
AcDbEntity
  8
1
  6
CONTINUOUS
 62
           7
100
AcDbLine
 10
-43.000982011615
 20
-61.08861878453
 11
-80.793812154696
 21
-61.08861878453
  0
LINE
  5
17B
100
AcDbEntity
  8
1
  6
CONTINUOUS
 62
           7
100
AcDbLine
 10
-41.493812154696
 20
-35.58861878453
 11
-41.493812154696
 21
-59.588635920244
  0
LINE
  5
17A
100
AcDbEntity
  8
1
  6
CONTINUOUS
 62
           7
100
AcDbLine
 10
-42.493812154696
 20
-29.08861878453
 11
-42.493812154696
 21
35.41138121547
  0
LINE
  5
179
100
AcDbEntity
  8
1
  6
DOT_CENTER
 62
           2
100
AcDbLine
 10
-39.486445755695
 20
-33.58861878453
 11
-46.053855444905
 21
-33.58861878453
  0
LINE
  5
178
100
AcDbEntity
  8
1
  6
CONTINUOUS
 62
           7
100
AcDbLine
 10
-41.493812154696
 20
-29.08861878453
 11
-41.493812154696
 21
-31.58861878453
  0
LINE
  5
177
100
AcDbEntity
  8
1
  6
CONTINUOUS
 62
           7
100
AcDbLine
 10
-41.493812154696
 20
-29.08861878453
 11
-80.793812154696
 21
-29.08861878453
  0
LINE
  5
176
100
AcDbEntity
  8
1
  6
CONTINUOUS
 62
           7
100
AcDbLine
 10
-51.793812154696
 20
54.11138121547
 11
-51.793812154696
 21
48.598875291298
  0
LINE
  5
175
100
AcDbEntity
  8
1
  6
CONTINUOUS
 62
           7
100
AcDbLine
 10
-59.308984597395
 20
87.459886991502
 11
-59.308984597395
 21
98.762875439438
  0
LINE
  5
174
100
AcDbEntity
  8
1
  6
CONTINUOUS
 62
           7
100
AcDbLine
 10
-53.824157040093
 20
87.459886991502
 11
-55.293812154696
 21
86.61138121547
  0
LINE
  5
173
100
AcDbEntity
  8
1
  6
CONTINUOUS
 62
           7
100
AcDbLine
 10
-55.293812154696
 20
86.61138121547
 11
-64.793812154696
 21
86.61138121547
  0
LINE
  5
172
100
AcDbEntity
  8
1
  6
CONTINUOUS
 62
           7
100
AcDbLine
 10
-64.793812154696
 20
99.61138121547
 11
-55.293812154696
 21
99.61138121547
  0
LINE
  5
171
100
AcDbEntity
  8
1
  6
CONTINUOUS
 62
           7
100
AcDbLine
 10
-55.293812154696
 20
99.61138121547
 11
-53.824157040093
 21
98.762875439438
  0
LINE
  5
170
100
AcDbEntity
  8
1
  6
CONTINUOUS
 62
           7
100
AcDbLine
 10
-53.824157040093
 20
98.762875439438
 11
-53.824157040093
 21
87.459886991502
  0
LINE
  5
16F
100
AcDbEntity
  8
1
  6
CONTINUOUS
 62
           7
100
AcDbLine
 10
-60.293812154696
 20
81.11138121547
 11
-60.595812154696
 21
80.61138121547
  0
LINE
  5
16E
100
AcDbEntity
  8
1
  6
DOT_CENTER
 62
           2
100
AcDbLine
 10
-64.793812154696
 20
102.925048014331
 11
-64.793812154696
 21
63.320177722352
  0
LINE
  5
16D
100
AcDbEntity
  8
1
  6
CONTINUOUS
 62
           7
100
AcDbLine
 10
-60.293812154696
 20
86.61138121547
 11
-60.293812154696
 21
81.11138121547
  0
LINE
  5
16C
100
AcDbEntity
  8
1
  6
CONTINUOUS
 62
           7
100
AcDbLine
 10
-80.793812154696
 20
56.457535061623
 11
-49.063042923927
 21
56.457535061623
  0
LINE
  5
16B
100
AcDbEntity
  8
1
  6
CONTINUOUS
 62
           7
100
AcDbLine
 10
-80.793812154696
 20
70.879330407901
 11
-48.293812154696
 21
70.879330407901
  0
LINE
  5
16A
100
AcDbEntity
  8
1
  6
CONTINUOUS
 62
           7
100
AcDbLine
 10
-77.093812154696
 20
66.11138121547
 11
-77.093812154696
 21
69.61138121547
  0
LINE
  5
169
100
AcDbEntity
  8
1
  6
CONTINUOUS
 62
           7
100
AcDbLine
 10
-78.293812154696
 20
70.879330407901
 11
-77.595886843493
 21
70.478601132482
  0
LINE
  5
168
100
AcDbEntity
  8
1
  6
CONTINUOUS
 62
           7
100
AcDbLine
 10
-79.063042923927
 20
56.457535061623
 11
-78.293812154696
 21
56.778350937487
  0
LINE
  5
167
100
AcDbEntity
  8
1
  6
CONTINUOUS
 62
           7
100
AcDbLine
 10
-77.093812154696
 20
58.61138121547
 11
-77.093812154696
 21
66.11138121547
  0
LINE
  5
166
100
AcDbEntity
  8
1
  6
CONTINUOUS
 62
           7
100
AcDbLine
 10
-73.093812154696
 20
58.61138121547
 11
-73.093812154696
 21
66.11138121547
  0
LINE
  5
165
100
AcDbEntity
  8
1
  6
CONTINUOUS
 62
           7
100
AcDbLine
 10
-75.063042923927
 20
56.457535061623
 11
-74.293812154696
 21
56.778350937487
  0
LINE
  5
164
100
AcDbEntity
  8
1
  6
CONTINUOUS
 62
           7
100
AcDbLine
 10
-74.293812154696
 20
70.879330407901
 11
-73.595886843493
 21
70.478601132482
  0
LINE
  5
163
100
AcDbEntity
  8
1
  6
CONTINUOUS
 62
           7
100
AcDbLine
 10
-73.093812154696
 20
66.11138121547
 11
-73.093812154696
 21
69.61138121547
  0
LINE
  5
162
100
AcDbEntity
  8
1
  6
CONTINUOUS
 62
           7
100
AcDbLine
 10
-69.093812154696
 20
66.11138121547
 11
-69.093812154696
 21
69.61138121547
  0
LINE
  5
161
100
AcDbEntity
  8
1
  6
CONTINUOUS
 62
           7
100
AcDbLine
 10
-70.293812154696
 20
70.879330407901
 11
-69.595886843493
 21
70.478601132482
  0
LINE
  5
160
100
AcDbEntity
  8
1
  6
CONTINUOUS
 62
           7
100
AcDbLine
 10
-71.063042923927
 20
56.457535061623
 11
-70.293812154696
 21
56.778350937487
  0
LINE
  5
15F
100
AcDbEntity
  8
1
  6
CONTINUOUS
 62
           7
100
AcDbLine
 10
-69.093812154696
 20
58.61138121547
 11
-69.093812154696
 21
66.11138121547
  0
LINE
  5
15E
100
AcDbEntity
  8
1
  6
CONTINUOUS
 62
           7
100
AcDbLine
 10
-65.093812154696
 20
58.61138121547
 11
-65.093812154696
 21
66.11138121547
  0
LINE
  5
15D
100
AcDbEntity
  8
1
  6
CONTINUOUS
 62
           7
100
AcDbLine
 10
-67.063042923927
 20
56.457535061623
 11
-66.293812154696
 21
56.778350937487
  0
LINE
  5
15C
100
AcDbEntity
  8
1
  6
CONTINUOUS
 62
           7
100
AcDbLine
 10
-66.293812154696
 20
70.879330407901
 11
-65.595886843493
 21
70.478601132482
  0
LINE
  5
15B
100
AcDbEntity
  8
1
  6
CONTINUOUS
 62
           7
100
AcDbLine
 10
-65.093812154696
 20
66.11138121547
 11
-65.093812154696
 21
69.61138121547
  0
LINE
  5
15A
100
AcDbEntity
  8
1
  6
CONTINUOUS
 62
           7
100
AcDbLine
 10
-61.093812154696
 20
66.11138121547
 11
-61.093812154696
 21
69.61138121547
  0
LINE
  5
159
100
AcDbEntity
  8
1
  6
CONTINUOUS
 62
           7
100
AcDbLine
 10
-62.293812154696
 20
70.879330407901
 11
-61.595886843493
 21
70.478601132482
  0
LINE
  5
158
100
AcDbEntity
  8
1
  6
CONTINUOUS
 62
           7
100
AcDbLine
 10
-63.063042923927
 20
56.457535061623
 11
-62.293812154696
 21
56.778350937487
  0
LINE
  5
157
100
AcDbEntity
  8
1
  6
CONTINUOUS
 62
           7
100
AcDbLine
 10
-61.093812154696
 20
58.61138121547
 11
-61.093812154696
 21
66.11138121547
  0
LINE
  5
156
100
AcDbEntity
  8
1
  6
CONTINUOUS
 62
           7
100
AcDbLine
 10
-58.093812154696
 20
58.61138121547
 11
-58.093812154696
 21
66.11138121547
  0
LINE
  5
155
100
AcDbEntity
  8
1
  6
CONTINUOUS
 62
           7
100
AcDbLine
 10
-60.063042923927
 20
56.457535061623
 11
-59.293812154696
 21
56.778350937487
  0
LINE
  5
154
100
AcDbEntity
  8
1
  6
CONTINUOUS
 62
           7
100
AcDbLine
 10
-59.293812154696
 20
70.879330407901
 11
-58.595886843493
 21
70.478601132482
  0
LINE
  5
153
100
AcDbEntity
  8
1
  6
CONTINUOUS
 62
           7
100
AcDbLine
 10
-58.093812154696
 20
66.11138121547
 11
-58.093812154696
 21
69.61138121547
  0
LINE
  5
152
100
AcDbEntity
  8
1
  6
CONTINUOUS
 62
           7
100
AcDbLine
 10
-55.093812154696
 20
66.11138121547
 11
-55.093812154696
 21
69.61138121547
  0
LINE
  5
151
100
AcDbEntity
  8
1
  6
CONTINUOUS
 62
           7
100
AcDbLine
 10
-56.293812154696
 20
70.879330407901
 11
-55.595886843493
 21
70.478601132482
  0
LINE
  5
150
100
AcDbEntity
  8
1
  6
CONTINUOUS
 62
           7
100
AcDbLine
 10
-57.063042923927
 20
56.457535061623
 11
-56.293812154696
 21
56.778350937487
  0
LINE
  5
14F
100
AcDbEntity
  8
1
  6
CONTINUOUS
 62
           7
100
AcDbLine
 10
-55.093812154696
 20
58.61138121547
 11
-55.093812154696
 21
66.11138121547
  0
LINE
  5
14E
100
AcDbEntity
  8
1
  6
CONTINUOUS
 62
           7
100
AcDbLine
 10
-53.093812154696
 20
58.61138121547
 11
-53.093812154696
 21
66.11138121547
  0
LINE
  5
14D
100
AcDbEntity
  8
1
  6
CONTINUOUS
 62
           7
100
AcDbLine
 10
-55.063042923927
 20
56.457535061623
 11
-54.293812154696
 21
56.778350937487
  0
LINE
  5
14C
100
AcDbEntity
  8
1
  6
CONTINUOUS
 62
           7
100
AcDbLine
 10
-54.293812154696
 20
70.879330407901
 11
-53.595886843493
 21
70.478601132482
  0
LINE
  5
14B
100
AcDbEntity
  8
1
  6
CONTINUOUS
 62
           7
100
AcDbLine
 10
-53.093812154696
 20
66.11138121547
 11
-53.093812154696
 21
69.61138121547
  0
LINE
  5
14A
100
AcDbEntity
  8
1
  6
CONTINUOUS
 62
           7
100
AcDbLine
 10
-51.093812154696
 20
66.11138121547
 11
-51.093812154696
 21
69.61138121547
  0
LINE
  5
149
100
AcDbEntity
  8
1
  6
CONTINUOUS
 62
           7
100
AcDbLine
 10
-52.293812154696
 20
70.879330407901
 11
-51.595886843493
 21
70.478601132482
  0
LINE
  5
148
100
AcDbEntity
  8
1
  6
CONTINUOUS
 62
           7
100
AcDbLine
 10
-53.063042923927
 20
56.457535061623
 11
-52.293812154696
 21
56.778350937487
  0
LINE
  5
147
100
AcDbEntity
  8
1
  6
CONTINUOUS
 62
           7
100
AcDbLine
 10
-51.093812154696
 20
58.61138121547
 11
-51.093812154696
 21
66.11138121547
  0
LINE
  5
146
100
AcDbEntity
  8
1
  6
CONTINUOUS
 62
           7
100
AcDbLine
 10
-49.093812154696
 20
58.61138121547
 11
-49.093812154696
 21
66.11138121547
  0
LINE
  5
145
100
AcDbEntity
  8
1
  6
CONTINUOUS
 62
           7
100
AcDbLine
 10
-51.063042923927
 20
56.457535061623
 11
-50.293812154696
 21
56.778350937487
  0
LINE
  5
144
100
AcDbEntity
  8
1
  6
CONTINUOUS
 62
           7
100
AcDbLine
 10
-50.293812154696
 20
70.879330407901
 11
-49.595886843493
 21
70.478601132482
  0
LINE
  5
143
100
AcDbEntity
  8
1
  6
CONTINUOUS
 62
           7
100
AcDbLine
 10
-49.093812154696
 20
66.11138121547
 11
-49.093812154696
 21
69.61138121547
  0
LINE
  5
142
100
AcDbEntity
  8
1
  6
CONTINUOUS
 62
           7
100
AcDbLine
 10
-47.093812154696
 20
58.61138121547
 11
-47.093812154696
 21
66.11138121547
  0
LINE
  5
141
100
AcDbEntity
  8
1
  6
CONTINUOUS
 62
           7
100
AcDbLine
 10
-49.063042923927
 20
56.457535061623
 11
-48.293812154696
 21
56.778350937487
  0
LINE
  5
140
100
AcDbEntity
  8
1
  6
CONTINUOUS
 62
           7
100
AcDbLine
 10
-47.093812154696
 20
66.11138121547
 11
-47.093812154696
 21
69.61138121547
  0
LINE
  5
13F
100
AcDbEntity
  8
1
  6
CONTINUOUS
 62
           7
100
AcDbLine
 10
-55.793812154696
 20
72.61138121547
 11
-51.293812154696
 21
72.61138121547
  0
LINE
  5
13E
100
AcDbEntity
  8
1
  6
CONTINUOUS
 62
           7
100
AcDbLine
 10
-55.793812154696
 20
72.61138121547
 11
-80.793812154696
 21
72.61138121547
  0
LINE
  5
13D
100
AcDbEntity
  8
1
  6
CONTINUOUS
 62
           7
100
AcDbLine
 10
-50.093812154696
 20
72.21138121547
 11
-48.493812154696
 21
71.01138121547
  0
LINE
  5
13C
100
AcDbEntity
  8
1
  6
CONTINUOUS
 62
           7
100
AcDbLine
 10
-48.293812154696
 20
70.879330407901
 11
-47.595886843493
 21
70.478601132482
  0
LINE
  5
13B
100
AcDbEntity
  8
1
  6
CONTINUOUS
 62
           7
100
AcDbLine
 10
-48.293812154696
 20
70.879330407901
 11
-47.595886843493
 21
70.478601132482
  0
LINE
  5
13A
100
AcDbEntity
  8
1
  6
CONTINUOUS
 62
           7
100
AcDbLine
 10
-80.793812154696
 20
54.11138121547
 11
-50.427786750912
 21
54.11138121547
  0
LINE
  5
139
100
AcDbEntity
  8
1
  6
CONTINUOUS
 62
           7
100
AcDbLine
 10
-71.661846143446
 20
80.61138121547
 11
-57.925778165946
 21
80.61138121547
  0
LINE
  5
138
100
AcDbEntity
  8
1
  6
CONTINUOUS
 62
           7
100
AcDbLine
 10
-111.159837558481
 20
54.11138121547
 11
-80.793812154696
 21
54.11138121547
  0
LINE
  5
137
100
AcDbEntity
  8
1
  6
CONTINUOUS
 62
           7
100
AcDbLine
 10
-113.9917374659
 20
70.478601132482
 11
-113.293812154696
 21
70.879330407901
  0
LINE
  5
136
100
AcDbEntity
  8
1
  6
CONTINUOUS
 62
           7
100
AcDbLine
 10
-113.9917374659
 20
70.478601132482
 11
-113.293812154696
 21
70.879330407901
  0
LINE
  5
135
100
AcDbEntity
  8
1
  6
CONTINUOUS
 62
           7
100
AcDbLine
 10
-113.093812154696
 20
71.01138121547
 11
-111.493812154696
 21
72.21138121547
  0
LINE
  5
134
100
AcDbEntity
  8
1
  6
CONTINUOUS
 62
           7
100
AcDbLine
 10
-80.793812154696
 20
72.61138121547
 11
-105.793812154696
 21
72.61138121547
  0
LINE
  5
133
100
AcDbEntity
  8
1
  6
CONTINUOUS
 62
           7
100
AcDbLine
 10
-110.293812154696
 20
72.61138121547
 11
-105.793812154696
 21
72.61138121547
  0
LINE
  5
132
100
AcDbEntity
  8
1
  6
CONTINUOUS
 62
           7
100
AcDbLine
 10
-114.493812154696
 20
69.61138121547
 11
-114.493812154696
 21
66.11138121547
  0
LINE
  5
131
100
AcDbEntity
  8
1
  6
CONTINUOUS
 62
           7
100
AcDbLine
 10
-113.293812154696
 20
56.778350937487
 11
-112.524581385465
 21
56.457535061623
  0
LINE
  5
130
100
AcDbEntity
  8
1
  6
CONTINUOUS
 62
           7
100
AcDbLine
 10
-114.493812154696
 20
66.11138121547
 11
-114.493812154696
 21
58.61138121547
  0
LINE
  5
12F
100
AcDbEntity
  8
1
  6
CONTINUOUS
 62
           7
100
AcDbLine
 10
-72.043812154696
 20
79.61138121547
 11
-72.043812154696
 21
76.61138121547
  0
LINE
  5
12E
100
AcDbEntity
  8
1
  6
CONTINUOUS
 62
           7
100
AcDbLine
 10
-57.543812154696
 20
79.61138121547
 11
-57.543812154696
 21
76.61138121547
  0
LINE
  5
12D
100
AcDbEntity
  8
1
  6
CONTINUOUS
 62
           7
100
AcDbLine
 10
-112.493812154696
 20
69.61138121547
 11
-112.493812154696
 21
66.11138121547
  0
LINE
  5
12C
100
AcDbEntity
  8
1
  6
CONTINUOUS
 62
           7
100
AcDbLine
 10
-111.9917374659
 20
70.478601132482
 11
-111.293812154696
 21
70.879330407901
  0
LINE
  5
12B
100
AcDbEntity
  8
1
  6
CONTINUOUS
 62
           7
100
AcDbLine
 10
-111.293812154696
 20
56.778350937487
 11
-110.524581385465
 21
56.457535061623
  0
LINE
  5
12A
100
AcDbEntity
  8
1
  6
CONTINUOUS
 62
           7
100
AcDbLine
 10
-112.493812154696
 20
66.11138121547
 11
-112.493812154696
 21
58.61138121547
  0
LINE
  5
129
100
AcDbEntity
  8
1
  6
CONTINUOUS
 62
           7
100
AcDbLine
 10
-110.493812154696
 20
66.11138121547
 11
-110.493812154696
 21
58.61138121547
  0
LINE
  5
128
100
AcDbEntity
  8
1
  6
CONTINUOUS
 62
           7
100
AcDbLine
 10
-109.293812154696
 20
56.778350937487
 11
-108.524581385465
 21
56.457535061623
  0
LINE
  5
127
100
AcDbEntity
  8
1
  6
CONTINUOUS
 62
           7
100
AcDbLine
 10
-109.9917374659
 20
70.478601132482
 11
-109.293812154696
 21
70.879330407901
  0
LINE
  5
126
100
AcDbEntity
  8
1
  6
CONTINUOUS
 62
           7
100
AcDbLine
 10
-110.493812154696
 20
69.61138121547
 11
-110.493812154696
 21
66.11138121547
  0
LINE
  5
125
100
AcDbEntity
  8
1
  6
CONTINUOUS
 62
           7
100
AcDbLine
 10
-108.493812154696
 20
69.61138121547
 11
-108.493812154696
 21
66.11138121547
  0
LINE
  5
124
100
AcDbEntity
  8
1
  6
CONTINUOUS
 62
           7
100
AcDbLine
 10
-107.9917374659
 20
70.478601132482
 11
-107.293812154696
 21
70.879330407901
  0
LINE
  5
123
100
AcDbEntity
  8
1
  6
CONTINUOUS
 62
           7
100
AcDbLine
 10
-107.293812154696
 20
56.778350937487
 11
-106.524581385465
 21
56.457535061623
  0
LINE
  5
122
100
AcDbEntity
  8
1
  6
CONTINUOUS
 62
           7
100
AcDbLine
 10
-108.493812154696
 20
66.11138121547
 11
-108.493812154696
 21
58.61138121547
  0
LINE
  5
121
100
AcDbEntity
  8
1
  6
CONTINUOUS
 62
           7
100
AcDbLine
 10
-106.493812154696
 20
66.11138121547
 11
-106.493812154696
 21
58.61138121547
  0
LINE
  5
120
100
AcDbEntity
  8
1
  6
CONTINUOUS
 62
           7
100
AcDbLine
 10
-105.293812154696
 20
56.778350937487
 11
-104.524581385465
 21
56.457535061623
  0
LINE
  5
11F
100
AcDbEntity
  8
1
  6
CONTINUOUS
 62
           7
100
AcDbLine
 10
-105.9917374659
 20
70.478601132482
 11
-105.293812154696
 21
70.879330407901
  0
LINE
  5
11E
100
AcDbEntity
  8
1
  6
CONTINUOUS
 62
           7
100
AcDbLine
 10
-106.493812154696
 20
69.61138121547
 11
-106.493812154696
 21
66.11138121547
  0
LINE
  5
11D
100
AcDbEntity
  8
1
  6
CONTINUOUS
 62
           7
100
AcDbLine
 10
-103.493812154696
 20
69.61138121547
 11
-103.493812154696
 21
66.11138121547
  0
LINE
  5
11C
100
AcDbEntity
  8
1
  6
CONTINUOUS
 62
           7
100
AcDbLine
 10
-102.9917374659
 20
70.478601132482
 11
-102.293812154696
 21
70.879330407901
  0
LINE
  5
11B
100
AcDbEntity
  8
1
  6
CONTINUOUS
 62
           7
100
AcDbLine
 10
-102.293812154696
 20
56.778350937487
 11
-101.524581385465
 21
56.457535061623
  0
LINE
  5
11A
100
AcDbEntity
  8
1
  6
CONTINUOUS
 62
           7
100
AcDbLine
 10
-103.493812154696
 20
66.11138121547
 11
-103.493812154696
 21
58.61138121547
  0
LINE
  5
119
100
AcDbEntity
  8
1
  6
CONTINUOUS
 62
           7
100
AcDbLine
 10
-100.493812154696
 20
66.11138121547
 11
-100.493812154696
 21
58.61138121547
  0
LINE
  5
118
100
AcDbEntity
  8
1
  6
CONTINUOUS
 62
           7
100
AcDbLine
 10
-99.293812154696
 20
56.778350937487
 11
-98.524581385465
 21
56.457535061623
  0
LINE
  5
117
100
AcDbEntity
  8
1
  6
CONTINUOUS
 62
           7
100
AcDbLine
 10
-99.9917374659
 20
70.478601132482
 11
-99.293812154696
 21
70.879330407901
  0
LINE
  5
116
100
AcDbEntity
  8
1
  6
CONTINUOUS
 62
           7
100
AcDbLine
 10
-100.493812154696
 20
69.61138121547
 11
-100.493812154696
 21
66.11138121547
  0
LINE
  5
115
100
AcDbEntity
  8
1
  6
CONTINUOUS
 62
           7
100
AcDbLine
 10
-96.493812154696
 20
69.61138121547
 11
-96.493812154696
 21
66.11138121547
  0
LINE
  5
114
100
AcDbEntity
  8
1
  6
CONTINUOUS
 62
           7
100
AcDbLine
 10
-95.9917374659
 20
70.478601132482
 11
-95.293812154696
 21
70.879330407901
  0
LINE
  5
113
100
AcDbEntity
  8
1
  6
CONTINUOUS
 62
           7
100
AcDbLine
 10
-95.293812154696
 20
56.778350937487
 11
-94.524581385465
 21
56.457535061623
  0
LINE
  5
112
100
AcDbEntity
  8
1
  6
CONTINUOUS
 62
           7
100
AcDbLine
 10
-96.493812154696
 20
66.11138121547
 11
-96.493812154696
 21
58.61138121547
  0
LINE
  5
111
100
AcDbEntity
  8
1
  6
CONTINUOUS
 62
           7
100
AcDbLine
 10
-92.493812154696
 20
66.11138121547
 11
-92.493812154696
 21
58.61138121547
  0
LINE
  5
110
100
AcDbEntity
  8
1
  6
CONTINUOUS
 62
           7
100
AcDbLine
 10
-91.293812154696
 20
56.778350937487
 11
-90.524581385465
 21
56.457535061623
  0
LINE
  5
10F
100
AcDbEntity
  8
1
  6
CONTINUOUS
 62
           7
100
AcDbLine
 10
-91.9917374659
 20
70.478601132482
 11
-91.293812154696
 21
70.879330407901
  0
LINE
  5
10E
100
AcDbEntity
  8
1
  6
CONTINUOUS
 62
           7
100
AcDbLine
 10
-92.493812154696
 20
69.61138121547
 11
-92.493812154696
 21
66.11138121547
  0
LINE
  5
10D
100
AcDbEntity
  8
1
  6
CONTINUOUS
 62
           7
100
AcDbLine
 10
-88.493812154696
 20
69.61138121547
 11
-88.493812154696
 21
66.11138121547
  0
LINE
  5
10C
100
AcDbEntity
  8
1
  6
CONTINUOUS
 62
           7
100
AcDbLine
 10
-87.9917374659
 20
70.478601132482
 11
-87.293812154696
 21
70.879330407901
  0
LINE
  5
10B
100
AcDbEntity
  8
1
  6
CONTINUOUS
 62
           7
100
AcDbLine
 10
-87.293812154696
 20
56.778350937487
 11
-86.524581385465
 21
56.457535061623
  0
LINE
  5
10A
100
AcDbEntity
  8
1
  6
CONTINUOUS
 62
           7
100
AcDbLine
 10
-88.493812154696
 20
66.11138121547
 11
-88.493812154696
 21
58.61138121547
  0
LINE
  5
109
100
AcDbEntity
  8
1
  6
CONTINUOUS
 62
           7
100
AcDbLine
 10
-84.493812154696
 20
66.11138121547
 11
-84.493812154696
 21
58.61138121547
  0
LINE
  5
108
100
AcDbEntity
  8
1
  6
CONTINUOUS
 62
           7
100
AcDbLine
 10
-83.293812154696
 20
56.778350937487
 11
-82.524581385465
 21
56.457535061623
  0
LINE
  5
107
100
AcDbEntity
  8
1
  6
CONTINUOUS
 62
           7
100
AcDbLine
 10
-83.9917374659
 20
70.478601132482
 11
-83.293812154696
 21
70.879330407901
  0
LINE
  5
106
100
AcDbEntity
  8
1
  6
CONTINUOUS
 62
           7
100
AcDbLine
 10
-84.493812154696
 20
69.61138121547
 11
-84.493812154696
 21
66.11138121547
  0
LINE
  5
105
100
AcDbEntity
  8
1
  6
CONTINUOUS
 62
           7
100
AcDbLine
 10
-113.293812154696
 20
70.879330407901
 11
-80.793812154696
 21
70.879330407901
  0
LINE
  5
104
100
AcDbEntity
  8
1
  6
CONTINUOUS
 62
           7
100
AcDbLine
 10
-112.524581385465
 20
56.457535061623
 11
-80.793812154696
 21
56.457535061623
  0
LINE
  5
103
100
AcDbEntity
  8
1
  6
CONTINUOUS
 62
           7
100
AcDbLine
 10
-97.293812154696
 20
86.61138121547
 11
-97.293812154696
 21
91.474694884569
  0
LINE
  5
102
100
AcDbEntity
  8
1
  6
CONTINUOUS
 62
           2
100
AcDbLine
 10
-96.752312154696
 20
86.61138121547
 11
-96.752312154696
 21
91.474694884569
  0
LINE
  5
101
100
AcDbEntity
  8
1
  6
CONTINUOUS
 62
           7
100
AcDbLine
 10
-87.793812154696
 20
91.974694884569
 11
-93.793812154696
 21
91.974694884569
  0
LINE
  5
100
100
AcDbEntity
  8
1
  6
CONTINUOUS
 62
           7
100
AcDbLine
 10
-87.793812154696
 20
95.974694884569
 11
-93.793812154696
 21
95.974694884569
  0
LINE
  5
FF
100
AcDbEntity
  8
1
  6
CONTINUOUS
 62
           7
100
AcDbLine
 10
-93.793812154696
 20
96.474694884569
 11
-88.293812154696
 21
96.474694884569
  0
LINE
  5
FE
100
AcDbEntity
  8
1
  6
CONTINUOUS
 62
           7
100
AcDbLine
 10
-87.793812154696
 20
95.974694884569
 11
-87.793812154696
 21
91.974694884569
  0
LINE
  5
FD
100
AcDbEntity
  8
1
  6
CONTINUOUS
 62
           7
100
AcDbLine
 10
-88.293812154696
 20
91.474694884569
 11
-93.793812154696
 21
91.474694884569
  0
LINE
  5
FC
100
AcDbEntity
  8
1
  6
CONTINUOUS
 62
           7
100
AcDbLine
 10
-90.293812154696
 20
91.474694884569
 11
-90.293812154696
 21
86.61138121547
  0
LINE
  5
FB
100
AcDbEntity
  8
1
  6
CONTINUOUS
 62
           2
100
AcDbLine
 10
-90.835312154696
 20
91.474694884569
 11
-90.835312154696
 21
86.61138121547
  0
LINE
  5
FA
100
AcDbEntity
  8
1
  6
CONTINUOUS
 62
           7
100
AcDbLine
 10
-87.793812154696
 20
95.974694884569
 11
-88.293812154696
 21
96.474694884569
  0
LINE
  5
F9
100
AcDbEntity
  8
1
  6
CONTINUOUS
 62
           7
100
AcDbLine
 10
-88.293812154696
 20
91.474694884569
 11
-87.793812154696
 21
91.974694884569
  0
LINE
  5
F8
100
AcDbEntity
  8
1
  6
CONTINUOUS
 62
           7
100
AcDbLine
 10
-93.793812154696
 20
91.974694884569
 11
-99.793812154696
 21
91.974694884569
  0
LINE
  5
F7
100
AcDbEntity
  8
1
  6
CONTINUOUS
 62
           7
100
AcDbLine
 10
-93.793812154696
 20
95.974694884569
 11
-99.793812154696
 21
95.974694884569
  0
LINE
  5
F6
100
AcDbEntity
  8
1
  6
CONTINUOUS
 62
           7
100
AcDbLine
 10
-99.793812154696
 20
91.974694884569
 11
-99.293812154696
 21
91.474694884569
  0
LINE
  5
F5
100
AcDbEntity
  8
1
  6
CONTINUOUS
 62
           7
100
AcDbLine
 10
-99.293812154696
 20
96.474694884569
 11
-99.793812154696
 21
95.974694884569
  0
LINE
  5
F4
100
AcDbEntity
  8
1
  6
CONTINUOUS
 62
           7
100
AcDbLine
 10
-93.793812154696
 20
91.474694884569
 11
-99.293812154696
 21
91.474694884569
  0
LINE
  5
F3
100
AcDbEntity
  8
1
  6
CONTINUOUS
 62
           7
100
AcDbLine
 10
-99.793812154696
 20
91.974694884569
 11
-99.793812154696
 21
95.974694884569
  0
LINE
  5
F2
100
AcDbEntity
  8
1
  6
CONTINUOUS
 62
           7
100
AcDbLine
 10
-99.293812154696
 20
96.474694884569
 11
-93.793812154696
 21
96.474694884569
  0
LINE
  5
F1
100
AcDbEntity
  8
1
  6
DOT_CENTER
 62
           2
100
AcDbLine
 10
-93.793812154696
 20
67.451065974001
 11
-93.793812154696
 21
97.659618832256
  0
LINE
  5
F0
100
AcDbEntity
  8
1
  6
DOT_CENTER
 62
           2
100
AcDbLine
 10
-98.043812154696
 20
85.757888852227
 11
-98.043812154696
 21
92.257359379503
  0
LINE
  5
EF
100
AcDbEntity
  8
1
  6
DOT_CENTER
 62
           2
100
AcDbLine
 10
-89.543812154696
 20
86.22391757232
 11
-89.543812154696
 21
92.408953394758
  0
LINE
  5
EE
100
AcDbEntity
  8
1
  6
CONTINUOUS
 62
           7
100
AcDbLine
 10
-74.510812154696
 20
78.304201538498
 11
-74.510812154696
 21
76.61138121547
  0
LINE
  5
ED
100
AcDbEntity
  8
1
  6
CONTINUOUS
 62
           7
100
AcDbLine
 10
-72.44295919361
 20
76.120141029346
 11
-72.44295919361
 21
74.869583881496
  0
LINE
  5
EC
100
AcDbEntity
  8
1
  6
CONTINUOUS
 62
           7
100
AcDbLine
 10
-72.44295919361
 20
76.120141029346
 11
-73.293812154696
 21
76.61138121547
  0
LINE
  5
EB
100
AcDbEntity
  8
1
  6
CONTINUOUS
 62
           7
100
AcDbLine
 10
-73.293812154696
 20
76.61138121547
 11
-78.793812154696
 21
76.61138121547
  0
LINE
  5
EA
100
AcDbEntity
  8
1
  6
CONTINUOUS
 62
           7
100
AcDbLine
 10
-75.618385674153
 20
76.120141029346
 11
-75.618385674153
 21
72.61138121547
  0
LINE
  5
E9
100
AcDbEntity
  8
1
  6
DOT_CENTER
 62
           2
100
AcDbLine
 10
-78.793812154696
 20
71.135820573099
 11
-78.793812154696
 21
85.344635206328
  0
LINE
  5
E8
100
AcDbEntity
  8
1
  6
CONTINUOUS
 62
           7
100
AcDbLine
 10
-72.95983755848
 20
86.61138121547
 11
-72.44295919361
 21
86.312961352374
  0
LINE
  5
E7
100
AcDbEntity
  8
1
  6
CONTINUOUS
 62
           7
100
AcDbLine
 10
-15.345138658223
 20
42.466163710676
 11
-46.308379651927
 21
108.867048303071
  0
LINE
  5
E6
100
AcDbEntity
  8
1
  6
CONTINUOUS
 62
           7
100
AcDbLine
 10
14.809083045739
 20
11.68115975885
 11
-13.970952074968
 21
33.368471786157
  0
LINE
  5
E5
100
AcDbEntity
  8
1
  6
CONTINUOUS
 62
           7
100
AcDbLine
 10
-11.082239963838
 20
37.201922234384
 11
17.697795156869
 21
15.514610207077
  0
LINE
  5
E4
100
AcDbEntity
  8
1
  6
CONTINUOUS
 62
           7
100
AcDbLine
 10
-81.193812154696
 20
87.304201538497
 11
-81.193812154697
 21
101.133134113215
  0
LINE
  5
E3
100
AcDbEntity
  8
1
  6
CONTINUOUS
 62
           7
100
AcDbLine
 10
-50.658657029703
 20
106.838480646716
 11
-19.695416035998
 21
40.43759605432
  0
LINE
  5
E2
100
AcDbEntity
  8
1
  6
CONTINUOUS
 62
           7
100
AcDbLine
 10
-76.393812154697
 20
101.133134113215
 11
-76.393812154696
 21
87.304201538497
  0
LINE
  5
E1
100
AcDbEntity
  8
1
  6
CONTINUOUS
 62
           7
100
AcDbLine
 10
19.962739483663
 20
17.689472776648
 11
20.867117434739
 21
18.073358441215
  0
LINE
  5
E0
100
AcDbEntity
  8
1
  6
CONTINUOUS
 62
           7
100
AcDbLine
 10
20.867117434739
 20
18.073358441215
 11
26.87087555694
 21
13.549202192394
  0
LINE
  5
DF
100
AcDbEntity
  8
1
  6
CONTINUOUS
 62
           7
100
AcDbLine
 10
26.87087555694
 20
13.549202192394
 11
26.751141319066
 21
12.574045079856
  0
LINE
  5
DE
100
AcDbEntity
  8
1
  6
CONTINUOUS
 62
           7
100
AcDbLine
 10
26.751141319066
 20
12.574045079856
 11
23.44115869173
 21
8.181549774596
  0
LINE
  5
DD
100
AcDbEntity
  8
1
  6
CONTINUOUS
 62
           7
100
AcDbLine
 10
24.959856196034
 20
11.013193845487
 11
18.956098073833
 21
15.537350094309
  0
LINE
  5
DC
100
AcDbEntity
  8
1
  6
CONTINUOUS
 62
           7
100
AcDbLine
 10
16.652756856327
 20
13.296977471388
 11
19.962739483663
 21
17.689472776648
  0
LINE
  5
DB
100
AcDbEntity
  8
1
  6
CONTINUOUS
 62
           7
100
AcDbLine
 10
-78.793812154696
 20
86.804201538497
 11
-74.627786750912
 21
86.804201538498
  0
LINE
  5
DA
100
AcDbEntity
  8
1
  6
CONTINUOUS
 62
           7
100
AcDbLine
 10
-75.618385674153
 20
78.795441724621
 11
-75.618385674153
 21
86.312961352374
  0
LINE
  5
D9
100
AcDbEntity
  8
1
  6
CONTINUOUS
 62
           7
100
AcDbLine
 10
-73.293812154696
 20
78.304201538498
 11
-78.793812154696
 21
78.304201538497
  0
LINE
  5
D8
100
AcDbEntity
  8
1
  6
CONTINUOUS
 62
           7
100
AcDbLine
 10
-72.44295919361
 20
78.795441724621
 11
-73.293812154696
 21
78.304201538498
  0
LINE
  5
D7
100
AcDbEntity
  8
1
  6
CONTINUOUS
 62
           7
100
AcDbLine
 10
-72.44295919361
 20
86.312961352374
 11
-72.44295919361
 21
78.795441724621
  0
LINE
  5
D6
100
AcDbEntity
  8
1
  6
CONTINUOUS
 62
           7
100
AcDbLine
 10
24.377226284942
 20
-28.037977194358
 11
27.724411412116
 21
-23.019084823222
  0
LINE
  5
D5
100
AcDbEntity
  8
1
  6
CONTINUOUS
 62
           7
100
AcDbLine
 10
34.712348830714
 20
-30.333578757569
 11
30.524519191238
 21
-27.716732364843
  0
LINE
  5
D4
100
AcDbEntity
  8
1
  6
CONTINUOUS
 62
           7
100
AcDbLine
 10
35.974223291526
 20
-28.174139425682
 11
32.930582092047
 21
-33.382707094193
  0
LINE
  5
D3
100
AcDbEntity
  8
1
  6
CONTINUOUS
 62
           2
100
AcDbLine
 10
35.481507347659
 20
-27.866256333163
 11
34.219632886847
 21
-30.025695665049
  0
LINE
  5
D2
100
AcDbEntity
  8
1
  6
CONTINUOUS
 62
           2
100
AcDbLine
 10
34.176882017591
 20
-31.249920385112
 11
34.219632886847
 21
-30.025695665049
  0
LINE
  5
D1
100
AcDbEntity
  8
1
  6
CONTINUOUS
 62
           2
100
AcDbLine
 10
26.829405495629
 20
-25.407769064637
 11
25.747820353485
 21
-25.982858085859
  0
LINE
  5
D0
100
AcDbEntity
  8
1
  6
CONTINUOUS
 62
           2
100
AcDbLine
 10
26.829405495629
 20
-25.407769064637
 11
28.217127355983
 21
-23.326967915741
  0
LINE
  5
CF
100
AcDbEntity
  8
1
  6
CONTINUOUS
 62
           7
100
AcDbLine
 10
30.524519191238
 20
-27.716732364843
 11
26.336689551762
 21
-25.099885972117
  0
LINE
  5
CE
100
AcDbEntity
  8
1
  6
CONTINUOUS
 62
           7
100
AcDbLine
 10
12.290535763846
 20
-53.077869019305
 11
5.313219965482
 21
-54.260395131969
  0
LINE
  5
CD
100
AcDbEntity
  8
1
  6
CONTINUOUS
 62
           7
100
AcDbLine
 10
12.730806125906
 20
-54.98488947073
 11
5.941250899071
 21
-56.980695969113
  0
LINE
  5
CC
100
AcDbEntity
  8
1
  6
CONTINUOUS
 62
           7
100
AcDbLine
 10
28.651294190062
 20
-50.305022752761
 11
16.112283476432
 21
-52.430153393876
  0
LINE
  5
CB
100
AcDbEntity
  8
1
  6
CONTINUOUS
 62
           7
100
AcDbLine
 10
16.449710057948
 20
-53.891708491054
 11
28.651294190062
 21
-50.305022752761
  0
LINE
  5
CA
100
AcDbEntity
  8
1
  6
CONTINUOUS
 62
           7
100
AcDbLine
 10
28.651294190062
 20
-50.305022752761
 11
31.764461815454
 21
-49.586291374416
  0
LINE
  5
C9
100
AcDbEntity
  8
1
  6
CONTINUOUS
 62
           7
100
AcDbLine
 10
11.043466066461
 20
-39.302430604637
 11
10.324734688116
 21
-36.189262979245
  0
LINE
  5
C8
100
AcDbEntity
  8
1
  6
DOT_CENTER
 62
           2
100
AcDbLine
 10
1.268721890127
 20
-74.535794960442
 11
36.593975678588
 21
-18.003571575624
  0
LINE
  5
C7
100
AcDbEntity
  8
1
  6
DOT_CENTER
 62
           2
100
AcDbLine
 10
36.097886561868
 20
-67.199675476325
 11
-6.769262958408
 21
-40.413307537392
  0
LINE
  5
C6
100
AcDbEntity
  8
1
  6
CONTINUOUS
 62
           7
100
AcDbLine
 10
22.7175675154
 20
-27.000907294643
 11
19.182238355558
 21
-32.658616620664
  0
LINE
  5
C5
100
AcDbEntity
  8
1
  6
CONTINUOUS
 62
           7
100
AcDbLine
 10
34.59024086159
 20
-34.419776993907
 11
22.7175675154
 21
-27.000907294643
  0
LINE
  5
C4
100
AcDbEntity
  8
1
  6
CONTINUOUS
 62
           7
100
AcDbLine
 10
31.054911701748
 20
-40.077486319928
 11
34.59024086159
 21
-34.419776993907
  0
LINE
  5
C3
100
AcDbEntity
  8
1
  6
CONTINUOUS
 62
           7
100
AcDbLine
 10
42.669870927965
 20
3.025299656452
 11
36.921319960638
 21
0.585184541124
  0
LINE
  5
C2
100
AcDbEntity
  8
1
  6
CONTINUOUS
 62
           7
100
AcDbLine
 10
34.458889627173
 20
-2.682570881502
 11
33.697815821542
 21
-8.881019611821
  0
LINE
  5
C1
100
AcDbEntity
  8
1
  6
CONTINUOUS
 62
           7
100
AcDbLine
 10
35.296559864158
 20
-12.647424546964
 11
40.284037025854
 21
-16.405758161955
  0
LINE
  5
C0
100
AcDbEntity
  8
1
  6
CONTINUOUS
 62
           7
100
AcDbLine
 10
44.345211401936
 20
-16.904407674472
 11
50.093762369262
 21
-14.464292559144
  0
LINE
  5
BF
100
AcDbEntity
  8
1
  6
CONTINUOUS
 62
           7
100
AcDbLine
 10
52.556192702727
 20
-11.196537136517
 11
53.317266508358
 21
-4.998088406199
  0
LINE
  5
BE
100
AcDbEntity
  8
1
  6
CONTINUOUS
 62
           7
100
AcDbLine
 10
51.718522465742
 20
-1.231683471056
 11
46.731045304047
 21
2.526650143935
  0
LINE
  5
BD
100
AcDbEntity
  8
1
  6
CONTINUOUS
 62
           7
100
AcDbLine
 10
66.052979722735
 20
-20.18315104634
 11
65.520467665012
 21
-20.409189004171
  0
LINE
  5
BC
100
AcDbEntity
  8
1
  6
CONTINUOUS
 62
           7
100
AcDbLine
 10
55.004183148546
 20
-23.786726564101
 11
53.242741192696
 21
-19.63702936515
  0
LINE
  5
BB
100
AcDbEntity
  8
1
  6
CONTINUOUS
 62
           7
100
AcDbLine
 10
64.20923168307
 20
-19.879415279208
 11
59.421199420252
 21
-8.599518145208
  0
LINE
  5
BA
100
AcDbEntity
  8
1
  6
CONTINUOUS
 62
           7
100
AcDbLine
 10
55.821710751016
 20
3.719302749837
 11
52.695861723102
 21
11.083341577456
  0
LINE
  5
B9
100
AcDbEntity
  8
1
  6
CONTINUOUS
 62
           7
100
AcDbLine
 10
51.38462574116
 20
11.613115302419
 11
45.167505301148
 21
8.974104246292
  0
LINE
  5
B8
100
AcDbEntity
  8
1
  6
CONTINUOUS
 62
           7
100
AcDbLine
 10
54.474409423583
 20
-25.097962546043
 11
53.941897365861
 21
-25.324000503874
  0
LINE
  5
B7
100
AcDbEntity
  8
1
  6
CONTINUOUS
 62
           7
100
AcDbLine
 10
65.520467665012
 20
-20.409189004171
 11
54.474409423583
 21
-25.097962546043
  0
LINE
  5
B6
100
AcDbEntity
  8
1
  6
CONTINUOUS
 62
           7
100
AcDbLine
 10
23.530299851301
 20
3.105834460145
 11
28.72787295193
 21
-0.810817800539
  0
LINE
  5
B5
100
AcDbEntity
  8
1
  6
CONTINUOUS
 62
           7
100
AcDbLine
 10
28.344820036517
 20
9.494918540524
 11
33.542393137146
 21
5.57826627984
  0
LINE
  5
B4
100
AcDbEntity
  8
1
  6
DOT_CENTER
 62
           2
100
AcDbLine
 10
14.455029352546
 20
14.953083932885
 11
34.510155374155
 21
-0.159537506019
  0
LINE
  5
B3
100
AcDbEntity
  8
1
  6
CONTINUOUS
 62
           7
100
AcDbLine
 10
25.768358840103
 20
-2.868754278512
 11
28.125007190327
 21
-2.537548952271
  0
LINE
  5
B2
100
AcDbEntity
  8
1
  6
CONTINUOUS
 62
           7
100
AcDbLine
 10
27.577609152584
 20
-15.742239172152
 11
28.254006079831
 21
-15.647177783407
  0
LINE
  5
B1
100
AcDbEntity
  8
1
  6
CONTINUOUS
 62
           7
100
AcDbLine
 10
42.37839711515
 20
-22.899661581166
 11
38.739597337227
 21
-28.722958510044
  0
LINE
  5
B0
100
AcDbEntity
  8
1
  6
CONTINUOUS
 62
           7
100
AcDbLine
 10
37.361629976838
 20
-29.041087341967
 11
26.337004726804
 21
-22.152136906936
  0
LINE
  5
AF
100
AcDbEntity
  8
1
  6
CONTINUOUS
 62
           7
100
AcDbLine
 10
26.01887589488
 20
-20.774169546547
 11
28.74761667839
 21
-16.407271449894
  0
LINE
  5
AE
100
AcDbEntity
  8
1
  6
CONTINUOUS
 62
           7
100
AcDbLine
 10
28.066152706473
 20
10.786754644356
 11
22.21169616125
 21
3.017628402616
  0
LINE
  5
AD
100
AcDbEntity
  8
1
  6
DOT_CENTER
 62
           2
100
AcDbLine
 10
30.793827057801
 20
-27.285749687039
 11
36.593975678588
 21
-18.003571575624
  0
LINE
  5
AC
100
AcDbEntity
  8
1
  6
CONTINUOUS
 62
           7
100
AcDbLine
 10
58.681368220076
 20
-33.089457880748
 11
68.346669181327
 21
-28.98678103161
  0
LINE
  5
AB
100
AcDbEntity
  8
1
  6
CONTINUOUS
 62
           7
100
AcDbLine
 10
68.346669181327
 20
-28.98678103161
 11
69.05047357494
 21
-27.2448040296
  0
LINE
  5
AA
100
AcDbEntity
  8
1
  6
CONTINUOUS
 62
           7
100
AcDbLine
 10
58.681368220076
 20
-33.089457880748
 11
56.939391218067
 21
-32.385653487134
  0
LINE
  5
A9
100
AcDbEntity
  8
1
  6
CONTINUOUS
 62
           2
100
AcDbLine
 10
58.061809218609
 20
-32.839139795702
 11
54.714503804324
 21
-24.953382416326
  0
LINE
  5
A8
100
AcDbEntity
  8
1
  6
CONTINUOUS
 62
           7
100
AcDbLine
 10
56.939391218067
 20
-32.385653487134
 11
53.941897365861
 21
-25.324000503874
  0
LINE
  5
A7
100
AcDbEntity
  8
1
  6
CONTINUOUS
 62
           2
100
AcDbLine
 10
65.249681852087
 20
-20.481464650766
 11
68.596987266372
 21
-28.367222030142
  0
LINE
  5
A6
100
AcDbEntity
  8
1
  6
CONTINUOUS
 62
           7
100
AcDbLine
 10
69.05047357494
 20
-27.2448040296
 11
66.052979722735
 21
-20.18315104634
  0
LINE
  5
A5
100
AcDbEntity
  8
1
  6
CONTINUOUS
 62
           2
100
AcDbLine
 10
27.958426303889
 20
10.140441493938
 11
26.01873243589
 21
11.602105664128
  0
LINE
  5
A4
100
AcDbEntity
  8
1
  6
CONTINUOUS
 62
           7
100
AcDbLine
 10
25.768358840103
 20
-2.868754278512
 11
27.577609152584
 21
-15.742239172152
  0
LINE
  5
A3
100
AcDbEntity
  8
1
  6
CONTINUOUS
 62
           7
100
AcDbLine
 10
50.464120887707
 20
11.22238417393
 11
49.682658630729
 21
13.063393880835
  0
LINE
  5
A2
100
AcDbEntity
  8
1
  6
CONTINUOUS
 62
           7
100
AcDbLine
 10
41.398114949657
 20
9.546813724431
 11
41.650467659354
 21
8.952307996269
  0
LINE
  5
A1
100
AcDbEntity
  8
1
  6
CONTINUOUS
 62
           7
100
AcDbLine
 10
26.368386964341
 20
12.066112895466
 11
28.073572959058
 21
10.781163082969
  0
LINE
  5
A0
100
AcDbEntity
  8
1
  6
DOT_CENTER
 62
           2
100
AcDbLine
 10
55.716580537197
 20
-12.668506311325
 11
64.535451860572
 21
-33.444465182389
  0
LINE
  5
9F
100
AcDbEntity
  8
1
  6
CONTINUOUS
 62
           7
100
AcDbLine
 10
20.731375583894
 20
-10.140535331093
 11
20.035510079094
 21
-5.189194987385
  0
LINE
  5
9E
100
AcDbEntity
  8
1
  6
CONTINUOUS
 62
           2
100
AcDbLine
 10
16.644934072668
 20
-6.212530999969
 11
20.110872313264
 21
-5.725425146608
  0
LINE
  5
9D
100
AcDbEntity
  8
1
  6
CONTINUOUS
 62
           2
100
AcDbLine
 10
20.96428795942
 20
-5.058663768831
 11
20.110872313264
 21
-5.725425146608
  0
LINE
  5
9C
100
AcDbEntity
  8
1
  6
CONTINUOUS
 62
           7
100
AcDbLine
 10
21.946459666097
 20
-4.415714751094
 11
22.016046216577
 21
-4.910848785465
  0
LINE
  5
9B
100
AcDbEntity
  8
1
  6
CONTINUOUS
 62
           7
100
AcDbLine
 10
22.314503291442
 20
-3.504774812517
 11
21.946459666097
 21
-4.415714751094
  0
LINE
  5
9A
100
AcDbEntity
  8
1
  6
CONTINUOUS
 62
           7
100
AcDbLine
 10
25.302656625607
 20
-3.084817248715
 11
22.314503291442
 21
-3.504774812517
  0
LINE
  5
99
100
AcDbEntity
  8
1
  6
CONTINUOUS
 62
           7
100
AcDbLine
 10
25.907531941063
 20
-3.859022347253
 11
25.302656625607
 21
-3.084817248715
  0
LINE
  5
98
100
AcDbEntity
  8
1
  6
CONTINUOUS
 62
           7
100
AcDbLine
 10
25.907531941063
 20
-3.859022347253
 11
26.191653826673
 21
-5.880654609589
  0
LINE
  5
97
100
AcDbEntity
  8
1
  6
CONTINUOUS
 62
           7
100
AcDbLine
 10
26.672983996344
 20
-9.305496725332
 11
26.191653826673
 21
-5.880654609589
  0
LINE
  5
96
100
AcDbEntity
  8
1
  6
CONTINUOUS
 62
           7
100
AcDbLine
 10
22.711911721377
 20
-9.862189129172
 11
22.016046216577
 21
-4.910848785465
  0
LINE
  5
95
100
AcDbEntity
  8
1
  6
CONTINUOUS
 62
           7
100
AcDbLine
 10
25.744590575775
 20
-6.229340697033
 11
22.75643724161
 21
-6.649298260835
  0
LINE
  5
94
100
AcDbEntity
  8
1
  6
CONTINUOUS
 62
           7
100
AcDbLine
 10
22.016046216577
 20
-4.910848785465
 11
16.569571838498
 21
-5.676300840745
  0
LINE
  5
93
100
AcDbEntity
  8
1
  6
CONTINUOUS
 62
           7
100
AcDbLine
 10
17.961302848099
 20
-15.578981528161
 11
23.407777226178
 21
-14.81352947288
  0
LINE
  5
92
100
AcDbEntity
  8
1
  6
DOT_CENTER
 62
           2
100
AcDbLine
 10
32.061891979113
 20
-8.548135099299
 11
4.362171087362
 21
-12.44107699445
  0
LINE
  5
91
100
AcDbEntity
  8
1
  6
CONTINUOUS
 62
           7
100
AcDbLine
 10
23.640305141946
 20
-12.938345157471
 11
26.628458476111
 21
-12.518387593669
  0
LINE
  5
90
100
AcDbEntity
  8
1
  6
CONTINUOUS
 62
           7
100
AcDbLine
 10
23.407777226178
 20
-14.81352947288
 11
22.711911721377
 21
-9.862189129172
  0
LINE
  5
8F
100
AcDbEntity
  8
1
  6
CONTINUOUS
 62
           7
100
AcDbLine
 10
27.154314166014
 20
-12.730338841075
 11
26.672983996344
 21
-9.305496725332
  0
LINE
  5
8E
100
AcDbEntity
  8
1
  6
CONTINUOUS
 62
           7
100
AcDbLine
 10
27.154314166014
 20
-12.730338841075
 11
27.438436051624
 21
-14.75197110341
  0
LINE
  5
8D
100
AcDbEntity
  8
1
  6
CONTINUOUS
 62
           7
100
AcDbLine
 10
27.070392426279
 20
-15.662911041987
 11
27.438436051624
 21
-14.75197110341
  0
LINE
  5
8C
100
AcDbEntity
  8
1
  6
CONTINUOUS
 62
           7
100
AcDbLine
 10
24.082239092114
 20
-16.082868605789
 11
27.070392426279
 21
-15.662911041987
  0
LINE
  5
8B
100
AcDbEntity
  8
1
  6
CONTINUOUS
 62
           7
100
AcDbLine
 10
23.477363776658
 20
-15.308663507251
 11
24.082239092114
 21
-16.082868605789
  0
LINE
  5
8A
100
AcDbEntity
  8
1
  6
CONTINUOUS
 62
           7
100
AcDbLine
 10
23.407777226178
 20
-14.81352947288
 11
23.477363776658
 21
-15.308663507251
  0
LINE
  5
89
100
AcDbEntity
  8
1
  6
CONTINUOUS
 62
           2
100
AcDbLine
 10
21.351878854525
 20
-14.555645515577
 11
22.356018969021
 21
-14.961344456246
  0
LINE
  5
88
100
AcDbEntity
  8
1
  6
CONTINUOUS
 62
           2
100
AcDbLine
 10
21.351878854525
 20
-14.555645515577
 11
17.885940613929
 21
-15.042751368937
  0
LINE
  5
87
100
AcDbEntity
  8
1
  6
CONTINUOUS
 62
           7
100
AcDbLine
 10
21.427241088695
 20
-15.0918756748
 11
20.731375583894
 21
-10.140535331093
  0
LINE
  5
86
100
AcDbEntity
  8
1
  6
CONTINUOUS
 62
           7
100
AcDbLine
 10
36.209034543744
 20
8.168933032643
 11
37.716095535847
 21
7.983889210473
  0
LINE
  5
85
100
AcDbEntity
  8
1
  6
CONTINUOUS
 62
           7
100
AcDbLine
 10
37.716095535847
 20
7.983889210473
 11
41.306064464312
 21
9.507740611582
  0
LINE
  5
84
100
AcDbEntity
  8
1
  6
CONTINUOUS
 62
           7
100
AcDbLine
 10
53.364678044538
 20
14.626318394792
 11
54.278461191402
 21
15.838949587921
  0
LINE
  5
83
100
AcDbEntity
  8
1
  6
CONTINUOUS
 62
           7
100
AcDbLine
 10
54.278461191402
 20
15.838949587921
 11
50.771647472344
 21
24.100484984465
  0
LINE
  5
82
100
AcDbEntity
  8
1
  6
CONTINUOUS
 62
           7
100
AcDbLine
 10
45.540386790193
 20
11.305103802633
 11
49.774709116074
 21
13.102466993684
  0
LINE
  5
81
100
AcDbEntity
  8
1
  6
CONTINUOUS
 62
           7
100
AcDbLine
 10
36.209034543744
 20
8.168933032643
 11
32.702220824686
 21
16.430468429187
  0
LINE
  5
80
100
AcDbEntity
  8
1
  6
CONTINUOUS
 62
           7
100
AcDbLine
 10
49.79223436628
 20
26.407837667504
 11
48.285173374177
 21
26.592881489673
  0
LINE
  5
7F
100
AcDbEntity
  8
1
  6
CONTINUOUS
 62
           7
100
AcDbLine
 10
48.285173374177
 20
26.592881489673
 11
46.516423298268
 21
25.842091626281
  0
LINE
  5
7E
100
AcDbEntity
  8
1
  6
CONTINUOUS
 62
           7
100
AcDbLine
 10
32.636590865486
 20
19.950452305355
 11
31.722807718623
 21
18.737821112226
  0
LINE
  5
7D
100
AcDbEntity
  8
1
  6
CONTINUOUS
 62
           7
100
AcDbLine
 10
31.722807718623
 20
18.737821112226
 11
32.702220824686
 21
16.430468429187
  0
LINE
  5
7C
100
AcDbEntity
  8
1
  6
CONTINUOUS
 62
           7
100
AcDbLine
 10
40.460882119832
 20
23.271666897514
 11
35.19329309595
 21
21.035708014734
  0
LINE
  5
7B
100
AcDbEntity
  8
1
  6
CONTINUOUS
 62
           7
100
AcDbLine
 10
50.771647472344
 20
24.100484984465
 11
49.79223436628
 21
26.407837667504
  0
LINE
  5
7A
100
AcDbEntity
  8
1
  6
CONTINUOUS
 62
           7
100
AcDbLine
 10
34.405340941395
 20
20.701242168747
 11
32.636590865486
 21
19.950452305355
  0
LINE
  5
79
100
AcDbEntity
  8
1
  6
CONTINUOUS
 62
           7
100
AcDbLine
 10
35.19329309595
 20
21.035708014734
 11
34.405340941395
 21
20.701242168747
  0
LINE
  5
78
100
AcDbEntity
  8
1
  6
CONTINUOUS
 62
           7
100
AcDbLine
 10
45.728471143713
 20
25.507625780294
 11
40.460882119832
 21
23.271666897514
  0
LINE
  5
77
100
AcDbEntity
  8
1
  6
CONTINUOUS
 62
           7
100
AcDbLine
 10
46.516423298268
 20
25.842091626281
 11
45.728471143713
 21
25.507625780294
  0
LINE
  5
76
100
AcDbEntity
  8
1
  6
DOT_CENTER
 62
           2
100
AcDbLine
 10
45.969916248678
 20
10.29319581167
 11
45.540386790193
 21
11.305103802633
  0
LINE
  5
75
100
AcDbEntity
  8
1
  6
DOT_CENTER
 62
           2
100
AcDbLine
 10
44.368193404725
 20
14.06661836299
 11
39.398689327741
 21
25.774036299721
  0
LINE
  5
74
100
AcDbEntity
  8
1
  6
DOT_CENTER
 62
           2
100
AcDbLine
 10
45.540386790193
 20
11.305103802633
 11
44.368193404725
 21
14.06661836299
  0
LINE
  5
73
100
AcDbEntity
  8
1
  6
CONTINUOUS
 62
           7
100
AcDbLine
 10
49.774709116074
 20
13.102466993684
 11
53.364678044538
 21
14.626318394792
  0
LINE
  5
72
100
AcDbEntity
  8
1
  6
CONTINUOUS
 62
           7
100
AcDbLine
 10
41.306064464312
 20
9.507740611582
 11
45.540386790193
 21
11.305103802633
  0
LINE
  5
71
100
AcDbEntity
  8
1
  6
CONTINUOUS
 62
           7
100
AcDbLine
 10
36.505891243003
 20
20.768119612152
 11
40.992118068124
 21
10.199231532569
  0
LINE
  5
70
100
AcDbEntity
  8
1
  6
CONTINUOUS
 62
           7
100
AcDbLine
 10
49.495377667022
 20
13.808651087995
 11
45.0091508419
 21
24.377539167578
  0
LINE
  5
6F
100
AcDbEntity
  8
1
  6
CONTINUOUS
 62
           7
100
AcDbLine
 10
13.861096668054
 20
-4.109799414619
 11
13.459594531313
 21
-5.103552074884
  0
LINE
  5
6E
100
AcDbEntity
  8
1
  6
CONTINUOUS
 62
           7
100
AcDbLine
 10
13.459594531313
 20
-5.103552074884
 11
14.294633137074
 21
-11.045160487333
  0
LINE
  5
6D
100
AcDbEntity
  8
1
  6
CONTINUOUS
 62
           7
100
AcDbLine
 10
17.265437343299
 20
-10.627641184453
 11
16.430398737538
 21
-4.686032772004
  0
LINE
  5
6C
100
AcDbEntity
  8
1
  6
CONTINUOUS
 62
           7
100
AcDbLine
 10
16.430398737538
 20
-4.686032772004
 11
15.77053475704
 21
-3.84144539178
  0
LINE
  5
6B
100
AcDbEntity
  8
1
  6
CONTINUOUS
 62
           7
100
AcDbLine
 10
15.77053475704
 20
-3.84144539178
 11
13.861096668054
 21
-4.109799414619
  0
LINE
  5
6A
100
AcDbEntity
  8
1
  6
CONTINUOUS
 62
           7
100
AcDbLine
 10
14.343206431874
 20
-7.540188630966
 11
16.25264452086
 21
-7.271834608127
  0
LINE
  5
69
100
AcDbEntity
  8
1
  6
CONTINUOUS
 62
           7
100
AcDbLine
 10
17.216864048499
 20
-14.132613040821
 11
15.307425959513
 21
-14.40096706366
  0
LINE
  5
68
100
AcDbEntity
  8
1
  6
CONTINUOUS
 62
           7
100
AcDbLine
 10
15.789535723333
 20
-17.831356280007
 11
17.698973812319
 21
-17.563002257168
  0
LINE
  5
67
100
AcDbEntity
  8
1
  6
CONTINUOUS
 62
           7
100
AcDbLine
 10
17.698973812319
 20
-17.563002257168
 11
18.100475949059
 21
-16.569249596902
  0
LINE
  5
66
100
AcDbEntity
  8
1
  6
CONTINUOUS
 62
           7
100
AcDbLine
 10
18.100475949059
 20
-16.569249596902
 11
17.265437343299
 21
-10.627641184453
  0
LINE
  5
65
100
AcDbEntity
  8
1
  6
CONTINUOUS
 62
           7
100
AcDbLine
 10
14.294633137074
 20
-11.045160487333
 11
15.129671742835
 21
-16.986768899783
  0
LINE
  5
64
100
AcDbEntity
  8
1
  6
CONTINUOUS
 62
           7
100
AcDbLine
 10
15.129671742835
 20
-16.986768899783
 11
15.789535723333
 21
-17.831356280007
  0
LINE
  5
63
100
AcDbEntity
  8
1
  6
CONTINUOUS
 62
           7
100
AcDbLine
 10
4.887086484029
 20
-12.367304946454
 11
4.052047878269
 21
-6.425696534005
  0
LINE
  5
62
100
AcDbEntity
  8
1
  6
CONTINUOUS
 62
           7
100
AcDbLine
 10
4.052047878269
 20
-6.425696534005
 11
4.453550015009
 21
-5.43194387374
  0
LINE
  5
61
100
AcDbEntity
  8
1
  6
CONTINUOUS
 62
           7
100
AcDbLine
 10
4.453550015009
 20
-5.43194387374
 11
12.340145540693
 21
-4.323555155599
  0
LINE
  5
60
100
AcDbEntity
  8
1
  6
CONTINUOUS
 62
           7
100
AcDbLine
 10
12.340145540693
 20
-4.323555155599
 11
13.304365068333
 21
-11.184333588293
  0
LINE
  5
5F
100
AcDbEntity
  8
1
  6
CONTINUOUS
 62
           7
100
AcDbLine
 10
12.469326462572
 20
-5.242725175844
 11
13.459594531313
 21
-5.103552074884
  0
LINE
  5
5E
100
AcDbEntity
  8
1
  6
CONTINUOUS
 62
           7
100
AcDbLine
 10
13.459594531313
 20
-5.103552074884
 11
14.294633137074
 21
-11.045160487333
  0
LINE
  5
5D
100
AcDbEntity
  8
1
  6
CONTINUOUS
 62
           7
100
AcDbLine
 10
4.935659778829
 20
-8.862333090087
 11
12.822255304513
 21
-7.753944371946
  0
LINE
  5
5C
100
AcDbEntity
  8
1
  6
CONTINUOUS
 62
           7
100
AcDbLine
 10
13.786474832152
 20
-14.61472280464
 11
5.899879306468
 21
-15.723111522781
  0
LINE
  5
5B
100
AcDbEntity
  8
1
  6
CONTINUOUS
 62
           7
100
AcDbLine
 10
14.294633137074
 20
-11.045160487333
 11
15.129671742835
 21
-16.986768899783
  0
LINE
  5
5A
100
AcDbEntity
  8
1
  6
CONTINUOUS
 62
           7
100
AcDbLine
 10
15.129671742835
 20
-16.986768899783
 11
14.139403674093
 21
-17.125942000743
  0
LINE
  5
59
100
AcDbEntity
  8
1
  6
CONTINUOUS
 62
           7
100
AcDbLine
 10
13.304365068333
 20
-11.184333588293
 11
14.268584595972
 21
-18.045112020987
  0
LINE
  5
58
100
AcDbEntity
  8
1
  6
CONTINUOUS
 62
           7
100
AcDbLine
 10
14.268584595972
 20
-18.045112020987
 11
6.381989070288
 21
-19.153500739128
  0
LINE
  5
57
100
AcDbEntity
  8
1
  6
CONTINUOUS
 62
           7
100
AcDbLine
 10
6.381989070288
 20
-19.153500739128
 11
5.72212508979
 21
-18.308913358904
  0
LINE
  5
56
100
AcDbEntity
  8
1
  6
CONTINUOUS
 62
           7
100
AcDbLine
 10
5.72212508979
 20
-18.308913358904
 11
4.887086484029
 21
-12.367304946454
  0
LINE
  5
55
100
AcDbEntity
  8
1
  6
CONTINUOUS
 62
           7
100
AcDbLine
 10
-99.793812154696
 20
72.61138121547
 11
-100.722015384972
 21
73.147279600332
  0
LINE
  5
54
100
AcDbEntity
  8
1
  6
CONTINUOUS
 62
           7
100
AcDbLine
 10
-100.722015384972
 20
73.147279600332
 11
-100.722015384972
 21
86.075482830607
  0
LINE
  5
53
100
AcDbEntity
  8
1
  6
CONTINUOUS
 62
           7
100
AcDbLine
 10
-100.722015384972
 20
86.075482830607
 11
-99.793812154696
 21
86.61138121547
  0
LINE
  5
52
100
AcDbEntity
  8
1
  6
CONTINUOUS
 62
           7
100
AcDbLine
 10
-99.793812154696
 20
86.61138121547
 11
-93.793812154696
 21
86.61138121547
  0
LINE
  5
51
100
AcDbEntity
  8
1
  6
CONTINUOUS
 62
           7
100
AcDbLine
 10
-97.257913769834
 20
73.147279600332
 11
-97.257913769834
 21
86.075482830607
  0
LINE
  5
50
100
AcDbEntity
  8
1
  6
CONTINUOUS
 62
           7
100
AcDbLine
 10
-90.329710539558
 20
86.075482830607
 11
-90.329710539558
 21
73.147279600332
  0
LINE
  5
4F
100
AcDbEntity
  8
1
  6
CONTINUOUS
 62
           7
100
AcDbLine
 10
-93.793812154696
 20
86.61138121547
 11
-87.793812154696
 21
86.61138121547
  0
LINE
  5
4E
100
AcDbEntity
  8
1
  6
CONTINUOUS
 62
           7
100
AcDbLine
 10
-87.793812154696
 20
86.61138121547
 11
-86.865608924421
 21
86.075482830607
  0
LINE
  5
4D
100
AcDbEntity
  8
1
  6
CONTINUOUS
 62
           7
100
AcDbLine
 10
-86.865608924421
 20
86.075482830607
 11
-86.865608924421
 21
73.147279600332
  0
LINE
  5
4C
100
AcDbEntity
  8
1
  6
CONTINUOUS
 62
           7
100
AcDbLine
 10
-86.865608924421
 20
73.147279600332
 11
-87.793812154696
 21
72.61138121547
  0
LINE
  5
4B
100
AcDbEntity
  8
1
  6
CONTINUOUS
 62
           7
100
AcDbLine
 10
18.05888417076
 20
15.993791513106
 11
16.253439101304
 21
13.597884982964
  0
LINE
  5
4A
100
AcDbEntity
  8
1
  6
CONTINUOUS
 62
           7
100
AcDbLine
 10
-75.793812154696
 20
87.304201538497
 11
-78.793812154696
 21
87.304201538497
  0
LINE
  5
49
100
AcDbEntity
  8
1
  6
CONTINUOUS
 62
           7
100
AcDbLine
 10
18.458201925783
 20
15.69288400153
 11
18.05888417076
 21
15.993791513106
  0
LINE
  5
48
100
AcDbEntity
  8
1
  6
CONTINUOUS
 62
           7
100
AcDbLine
 10
-75.793812154696
 20
86.804201538497
 11
-75.793812154696
 21
87.304201538497
  0
LINE
  5
47
100
AcDbEntity
  8
1
  6
CONTINUOUS
 62
           7
100
AcDbLine
 10
-75.763467269299
 20
87.459886991502
 11
-75.763467269299
 21
98.762875439438
  0
LINE
  5
46
100
AcDbEntity
  8
1
  6
CONTINUOUS
 62
           7
100
AcDbLine
 10
-75.763467269299
 20
98.762875439438
 11
-74.293812154696
 21
99.61138121547
  0
LINE
  5
45
100
AcDbEntity
  8
1
  6
CONTINUOUS
 62
           7
100
AcDbLine
 10
-74.293812154696
 20
99.61138121547
 11
-64.793812154696
 21
99.61138121547
  0
LINE
  5
44
100
AcDbEntity
  8
1
  6
CONTINUOUS
 62
           7
100
AcDbLine
 10
-64.793812154696
 20
86.61138121547
 11
-74.293812154696
 21
86.61138121547
  0
LINE
  5
43
100
AcDbEntity
  8
1
  6
CONTINUOUS
 62
           7
100
AcDbLine
 10
-74.293812154696
 20
86.61138121547
 11
-75.763467269299
 21
87.459886991502
  0
LINE
  5
42
100
AcDbEntity
  8
1
  6
CONTINUOUS
 62
           7
100
AcDbLine
 10
-70.278639711998
 20
98.762875439438
 11
-70.278639711998
 21
87.459886991502
  0
LINE
  5
41
100
AcDbEntity
  8
1
  6
CONTINUOUS
 62
           7
100
AcDbLine
 10
-69.293812154696
 20
81.11138121547
 11
-69.293812154696
 21
86.61138121547
  0
LINE
  5
40
100
AcDbEntity
  8
1
  6
CONTINUOUS
 62
           7
100
AcDbLine
 10
-68.991812154696
 20
80.61138121547
 11
-69.293812154696
 21
81.11138121547
  0
LINE
  5
3F
100
AcDbEntity
  8
1
  6
CONTINUOUS
 62
           7
100
AcDbLine
 10
-69.293812154696
 20
81.11138121547
 11
-60.293812154696
 21
81.11138121547
  0
LINE
  5
3E
100
AcDbEntity
  8
1
  6
CONTINUOUS
 62
           7
100
AcDbLine
 10
-81.793812154696
 20
87.304201538497
 11
-81.793812154696
 21
86.804201538497
  0
LINE
  5
3D
100
AcDbEntity
  8
1
  6
CONTINUOUS
 62
           7
100
AcDbLine
 10
-78.793812154696
 20
87.304201538497
 11
-81.793812154696
 21
87.304201538497
  0
LINE
  5
3C
100
AcDbEntity
  8
1
  6
CONTINUOUS
 62
           7
100
AcDbLine
 10
-85.144665115782
 20
78.795441724621
 11
-85.144665115782
 21
86.312961352374
  0
LINE
  5
3B
100
AcDbEntity
  8
1
  6
CONTINUOUS
 62
           7
100
AcDbLine
 10
-84.293812154696
 20
78.304201538498
 11
-85.144665115782
 21
78.795441724621
  0
LINE
  5
3A
100
AcDbEntity
  8
1
  6
CONTINUOUS
 62
           7
100
AcDbLine
 10
-78.793812154696
 20
78.304201538497
 11
-84.293812154696
 21
78.304201538498
  0
LINE
  5
39
100
AcDbEntity
  8
1
  6
CONTINUOUS
 62
           7
100
AcDbLine
 10
-81.969238635239
 20
86.312961352374
 11
-81.969238635239
 21
78.795441724621
  0
LINE
  5
38
100
AcDbEntity
  8
1
  6
CONTINUOUS
 62
           7
100
AcDbLine
 10
-84.293812154696
 20
86.804201538498
 11
-78.793812154696
 21
86.804201538497
  0
LINE
  5
37
100
AcDbEntity
  8
1
  6
CONTINUOUS
 62
           7
100
AcDbLine
 10
-85.144665115782
 20
86.312961352374
 11
-84.293812154696
 21
86.804201538498
  0
LINE
  5
36
100
AcDbEntity
  8
1
  6
CONTINUOUS
 62
           7
100
AcDbLine
 10
-81.969238635239
 20
72.61138121547
 11
-81.969238635239
 21
76.120141029346
  0
LINE
  5
35
100
AcDbEntity
  8
1
  6
CONTINUOUS
 62
           7
100
AcDbLine
 10
-78.793812154696
 20
76.61138121547
 11
-84.293812154696
 21
76.61138121547
  0
LINE
  5
34
100
AcDbEntity
  8
1
  6
CONTINUOUS
 62
           7
100
AcDbLine
 10
-84.293812154696
 20
76.61138121547
 11
-85.144665115782
 21
76.120141029346
  0
LINE
  5
33
100
AcDbEntity
  8
1
  6
CONTINUOUS
 62
           7
100
AcDbLine
 10
-85.144665115782
 20
72.61138121547
 11
-85.144665115782
 21
76.120141029346
  0
LINE
  5
32
100
AcDbEntity
  8
1
  6
CONTINUOUS
 62
           7
100
AcDbLine
 10
-83.076812154696
 20
76.61138121547
 11
-83.076812154696
 21
78.304201538498
  0
LINE
  5
31
100
AcDbEntity
  8
1
  6
CONTINUOUS
 62
           7
100
AcDbLine
 10
14.447994031848
 20
11.201978452822
 11
14.847311786871
 21
10.901070941246
  0
LINE
  5
30
100
AcDbEntity
  8
1
  6
CONTINUOUS
 62
           7
100
AcDbLine
 10
16.253439101304
 20
13.597884982964
 11
14.447994031848
 21
11.201978452822
  0
LINE
  5
2F
100
AcDbEntity
  8
1
  6
CONTINUOUS
 62
           7
100
AcDbLine
 10
22.219116413835
 20
3.012036841228
 11
20.513930419118
 21
4.296986653726
  0
LINE
  5
2E
100
AcDbEntity
  8
1
  6
CONTINUOUS
 62
           2
100
AcDbLine
 10
20.863584947569
 20
4.760993885063
 11
22.803278815568
 21
3.299329714873
  0
LINE
  5
2D
100
AcDbEntity
  8
1
  6
CONTINUOUS
 62
           7
100
AcDbLine
 10
13.342774228991
 20
8.904482166127
 11
16.652756856327
 21
13.296977471388
  0
LINE
  5
2C
100
AcDbEntity
  8
1
  6
CONTINUOUS
 62
           7
100
AcDbLine
 10
15.134059352022
 20
10.465333400496
 11
21.137817474223
 21
5.941177151675
  0
LINE
  5
2B
100
AcDbEntity
  8
1
  6
CONTINUOUS
 62
           7
100
AcDbLine
 10
23.44115869173
 20
8.181549774596
 11
20.131176064394
 21
3.789054469336
  0
LINE
  5
2A
100
AcDbEntity
  8
1
  6
CONTINUOUS
 62
           7
100
AcDbLine
 10
20.131176064394
 20
3.789054469336
 11
19.226798113318
 21
3.405168804769
  0
LINE
  5
29
100
AcDbEntity
  8
1
  6
CONTINUOUS
 62
           7
100
AcDbLine
 10
19.226798113318
 20
3.405168804769
 11
13.223039991117
 21
7.92932505359
  0
LINE
  5
28
100
AcDbEntity
  8
1
  6
CONTINUOUS
 62
           7
100
AcDbLine
 10
13.223039991117
 20
7.92932505359
 11
13.342774228991
 21
8.904482166127
  0
ENDSEC
  0
SECTION
  2
OBJECTS
  0
DICTIONARY
  5
19
100
AcDbDictionary
  3
ACAD_GROUP
350
1A
  3
ACAD_MLINESTYLE
350
1B
  0
DICTIONARY
  5
1A
102
{ACAD_REACTORS
330
19
102
}
100
AcDbDictionary
  0
DICTIONARY
  5
1B
102
{ACAD_REACTORS
330
19
102
}
100
AcDbDictionary
  3
STANDARD
350
1C
  0
MLINESTYLE
  5
1C
102
{ACAD_REACTORS
330
1B
102
}
100
AcDbMlineStyle
  2
STANDARD
 70
           0
  3

 62
           0
 51
90.0
 52
90.0
 71
           2
 49
0.5
 62
         256
  6
BYLAYER
 49
-0.5
 62
         256
  6
BYLAYER
  0
ENDSEC
  0
EOF
