  0
SECTION
  2
HEADER
  9
$ACADVER
  1
AC1014
  9
$ACADMAINTVER
 70
           0
  9
$DWGCODEPAGE
  3
DOS932
  9
$INSBASE
 10
0.0
 20
0.0
 30
0.0
  9
$EXTMIN
 10
1.000000000000E+20
 20
1.000000000000E+20
 30
1.000000000000E+20
  9
$EXTMAX
 10
-1.000000000000E+20
 20
-1.000000000000E+20
 30
-1.000000000000E+20
  9
$LIMMIN
 10
0.0
 20
0.0
  9
$LIMMAX
 10
0.0
 20
0.0
  9
$ORTHOMODE
 70
           0
  9
$REGENMODE
 70
           1
  9
$FILLMODE
 70
           1
  9
$QTEXTMODE
 70
           0
  9
$MIRRTEXT
 70
           1
  9
$DRAGMODE
 70
           2
  9
$LTSCALE
 40
1.0
  9
$OSMODE
 70
           0
  9
$ATTMODE
 70
           1
  9
$TEXTSIZE
 40
0.2
  9
$TRACEWID
 40
0.05
  9
$TEXTSTYLE
  7
STANDARD
  9
$CLAYER
  8
0
  9
$CELTYPE
  6
CONTINUOUS
  9
$CECOLOR
 62
         256
  9
$CELTSCALE
 40
1.0
  9
$DELOBJ
 70
           1
  9
$DISPSILH
 70
           0
  9
$DIMSCALE
 40
1.0
  9
$DIMASZ
 40
0.18
  9
$DIMEXO
 40
0.0625
  9
$DIMDLI
 40
0.38
  9
$DIMRND
 40
0.0
  9
$DIMDLE
 40
0.0
  9
$DIMEXE
 40
0.18
  9
$DIMTP
 40
0.0
  9
$DIMTM
 40
0.0
  9
$DIMTXT
 40
0.18
  9
$DIMCEN
 40
0.09
  9
$DIMTSZ
 40
0.0
  9
$DIMTOL
 70
           0
  9
$DIMLIM
 70
           0
  9
$DIMTIH
 70
           1
  9
$DIMTOH
 70
           1
  9
$DIMSE1
 70
           0
  9
$DIMSE2
 70
           0
  9
$DIMTAD
 70
           0
  9
$DIMZIN
 70
           0
  9
$DIMBLK
  1

  9
$DIMASO
 70
           1
  9
$DIMSHO
 70
           1
  9
$DIMPOST
  1

  9
$DIMAPOST
  1

  9
$DIMALT
 70
           0
  9
$DIMALTD
 70
           2
  9
$DIMALTF
 40
25.4
  9
$DIMLFAC
 40
1.0
  9
$DIMTOFL
 70
           0
  9
$DIMTVP
 40
0.0
  9
$DIMTIX
 70
           0
  9
$DIMSOXD
 70
           0
  9
$DIMSAH
 70
           0
  9
$DIMBLK1
  1

  9
$DIMBLK2
  1

  9
$DIMSTYLE
  2
STANDARD
  9
$DIMCLRD
 70
           0
  9
$DIMCLRE
 70
           0
  9
$DIMCLRT
 70
           0
  9
$DIMTFAC
 40
1.0
  9
$DIMGAP
 40
0.09
  9
$DIMJUST
 70
           0
  9
$DIMSD1
 70
           0
  9
$DIMSD2
 70
           0
  9
$DIMTOLJ
 70
           1
  9
$DIMTZIN
 70
           0
  9
$DIMALTZ
 70
           0
  9
$DIMALTTZ
 70
           0
  9
$DIMFIT
 70
           3
  9
$DIMUPT
 70
           0
  9
$DIMUNIT
 70
           2
  9
$DIMDEC
 70
           4
  9
$DIMTDEC
 70
           4
  9
$DIMALTU
 70
           2
  9
$DIMALTTD
 70
           2
  9
$DIMTXSTY
  7
STANDARD
  9
$DIMAUNIT
 70
           0
  9
$LUNITS
 70
           2
  9
$LUPREC
 70
           4
  9
$SKETCHINC
 40
0.1
  9
$FILLETRAD
 40
0.0
  9
$AUNITS
 70
           0
  9
$AUPREC
 70
           0
  9
$MENU
  1
acad
  9
$ELEVATION
 40
0.0
  9
$PELEVATION
 40
0.0
  9
$THICKNESS
 40
0.0
  9
$LIMCHECK
 70
           0
  9
$BLIPMODE
 70
           1
  9
$CHAMFERA
 40
0.0
  9
$CHAMFERB
 40
0.0
  9
$CHAMFERC
 40
0.0
  9
$CHAMFERD
 40
0.0
  9
$SKPOLY
 70
           0
  9
$TDCREATE
 40
0.000000000
  9
$TDUPDATE
 40
0.000000000
  9
$TDINDWG
 40
0.0000000000
  9
$TDUSRTIMER
 40
0.0000000000
  9
$USRTIMER
 70
           1
  9
$ANGBASE
 50
0.0
  9
$ANGDIR
 70
           0
  9
$PDMODE
 70
           0
  9
$PDSIZE
 40
0.0
  9
$PLINEWID
 40
0.0
  9
$COORDS
 70
           0
  9
$SPLFRAME
 70
           0
  9
$SPLINETYPE
 70
           6
  9
$SPLINESEGS
 70
           8
  9
$ATTDIA
 70
           0
  9
$ATTREQ
 70
           1
  9
$HANDLING
 70
           1
  9
$HANDSEED
  5
1FD
  9
$SURFTAB1
 70
           6
  9
$SURFTAB2
 70
           6
  9
$SURFTYPE
 70
           6
  9
$SURFU
 70
           6
  9
$SURFV
 70
           6
  9
$UCSNAME
  2

  9
$UCSORG
 10
0.0
 20
0.0
 30
0.0
  9
$UCSXDIR
 10
1.0
 20
0.0
 30
0.0
  9
$UCSYDIR
 10
0.0
 20
1.0
 30
0.0
  9
$PUCSNAME
  2

  9
$PUCSORG
 10
0.0
 20
0.0
 30
0.0
  9
$PUCSXDIR
 10
1.0
 20
0.0
 30
0.0
  9
$PUCSYDIR
 10
0.0
 20
1.0
 30
0.0
  9
$USERI1
 70
           0
  9
$USERI2
 70
           0
  9
$USERI3
 70
           0
  9
$USERI4
 70
           0
  9
$USERI5
 70
           0
  9
$USERR1
 40
0.0
  9
$USERR2
 40
0.0
  9
$USERR3
 40
0.0
  9
$USERR4
 40
0.0
  9
$USERR5
 40
0.0
  9
$WORLDVIEW
 70
           1
  9
$SHADEDGE
 70
           3
  9
$SHADEDIF
 70
          70
  9
$TILEMODE
 70
           1
  9
$MAXACTVP
 70
          16
  9
$PINSBASE
 10
0.0
 20
0.0
 30
0.0
  9
$PLIMCHECK
 70
           0
  9
$PEXTMIN
 10
1.000000000000E+20
 20
1.000000000000E+20
 30
1.000000000000E+20
  9
$PEXTMAX
 10
-1.000000000000E+20
 20
-1.000000000000E+20
 30
-1.000000000000E+20
  9
$PLIMMIN
 10
0.0
 20
0.0
  9
$PLIMMAX
 10
12.0
 20
9.0
  9
$UNITMODE
 70
           0
  9
$VISRETAIN
 70
           0
  9
$PLINEGEN
 70
           1
  9
$PSLTSCALE
 70
           0
  9
$TREEDEPTH
 70
        3020
  9
$PICKSTYLE
 70
           1
  9
$CMLSTYLE
  2
STANDARD
  9
$CMLJUST
 70
           0
  9
$CMLSCALE
 40
1.0
  9
$PROXYGRAPHICS
 70
           0
  9
$MEASUREMENT
 70
           0
  0
ENDSEC
  0
SECTION
  2
CLASSES
  0
CLASS
  1
LWPOLYLINE
  2
AcDbPolyline
  3
"AutoCAD"
 90
        0
280
           0
281
           1
  0
CLASS
  1
IMAGE
  2
AcDbRasterImage
  3
ISM
 90
      127
280
           0
281
           1
  0
CLASS
  1
OLE2FRAME
  2
AcDbOle2Frame
  3
""
 90
        0
280
           0
281
           1
  0
CLASS
  1
HATCH
  2
AcDbHatch
  3
"ACAD_SEDONA"
 90
        0
280
           0
281
           1
  0
CLASS
  1
DICTIONARYVAR
  2
AcDbDictionaryVar
  3
"AutoCAD"
 90
        0
280
           0
281
           0
  0
CLASS
  1
RASTERVARIABLES
  2
AcDbRasterVariables
  3
ISM
 90
        0
280
           0
281
           0
  0
CLASS
  1
IMAGEDEF
  2
AcDbRasterImageDef
  3
ISM
 90
        0
280
           0
281
           0
  0
CLASS
  1
IMAGEDEF_REACTOR
  2
AcDbRasterImageDefReactor
  3
ISM
 90
        1
280
           0
281
           0
  0
CLASS
  1
IDBUFFER
  2
AcDbIdBuffer
  3
"Acad"
 90
        0
280
           0
281
           0
  0
CLASS
  1
SPATIAL_FILTER
  2
AcDbSpatialFilter
  3
"Acad"
 90
        0
280
           0
281
           0
  0
CLASS
  1
XRECORD
  2
AcDbXrecord
  3
"<Built In>"
 90
        0
280
           0
281
           0
  0
CLASS
  1
SORTENTSTABLE
  2
AcDbSortentsTable
  3
"AutoCAD"
 90
        0
280
           0
281
           0
  0
CLASS
  1
LAYER_INDEX
  2
AcDbLayerIndex
  3
"Acad"
 90
        0
280
           0
281
           0
  0
CLASS
  1
SPATIAL_INDEX
  2
AcDbSpatialIndex
  3
"Acad"
 90
        0
280
           0
281
           0
  0
CLASS
  1
OBJECT_PTR
  2
CAseDLPNTableRecord
  3
"ASE-LPNTableRecord"
 90
        1
280
           0
281
           0
  0
CLASS
  1
LAYOUT
  2
AcDbLayout
  3
"AutoCAD 2000"
 90
        1
280
           0
281
           0
  0
CLASS
  1
PLOTSETTINGS
  2
AcDbPlotSettings
  3
"AutoCAD 2000"
 90
        1
280
           0
281
           0
  0
CLASS
  1
ACDBDICTIONARYWDFLT
  2
AcDbDictionaryWithDefault
  3
"AutoCAD 2000"
 90
        1
280
           0
281
           0
  0
CLASS
  1
ACDBPLACEHOLDER
  2
AcDbPlaceHolder
  3
"AutoCAD 2000"
 90
        1
280
           0
281
           0
  0
CLASS
  1
VBA_PROJECT
  2
AcDbVbaProject
  3
"acadvba"
 90
        1
280
           0
281
           0
  0
CLASS
  1
WIPEOUT
  2
AcDbWipeout
  3
WipeOut|AutoCAD Express Tool|expresstools@autodesk.com
 90
      127
280
           0
281
           1
  0
CLASS
  1
WIPEOUTVARIABLES
  2
AcDbWipeoutVariables
  3
WipeOut|AutoCAD Express Tool|expresstools@autodesk.com
 90
        0
280
           0
281
           0
  0
CLASS
  1
RTEXT
  2
RText
  3
RText|AutoCAD Express Tool|expresstools@autodesk.com
 90
        0
280
           0
281
           1
  0
CLASS
  1
ARCALIGNEDTEXT
  2
AcDbArcAlignedText
  3
ATEXT|AutoCAD Express Tool|expresstools@autodesk.com
 90
        0
280
           0
281
           1
  0
ENDSEC
  0
SECTION
  2
TABLES
  0
TABLE
  2
VPORT
  5
7
100
AcDbSymbolTable
 70
           1
  0
VPORT
  5
15
100
AcDbSymbolTableRecord
100
AcDbViewportTableRecord
  2
*ACTIVE
 70
           0
 10
0.0
 20
0.0
 11
1.0
 21
1.0
 12
6.591288
 22
4.579184
 13
0.0
 23
0.0
 14
1.0
 24
1.0
 15
0.0
 25
0.0
 16
0.0
 26
0.0
 36
1.0
 17
0.0
 27
0.0
 37
0.0
 40
9.158369
 41
0.688564
 42
50.0
 43
0.0
 44
0.0
 50
0.0
 51
0.0
 71
           0
 72
         100
 73
           1
 74
           1
 75
           0
 76
           0
 77
           0
 78
           0
  0
ENDTAB
  0
TABLE
  2
LTYPE
  5
4
100
AcDbSymbolTable
 70
          10
  0
LTYPE
  5
11
100
AcDbSymbolTableRecord
100
AcDbLinetypeTableRecord
  2
BYBLOCK
 70
          64
  3

 72
          65
 73
           0
 40
0.0
  0
LTYPE
  5
12
100
AcDbSymbolTableRecord
100
AcDbLinetypeTableRecord
  2
BYLAYER
 70
          64
  3

 72
          65
 73
           0
 40
0.0
  0
LTYPE
  5
13
100
AcDbSymbolTableRecord
100
AcDbLinetypeTableRecord
  2
CONTINUOUS
 70
          64
  3
Solid line
 72
          65
 73
           0
 40
0.0
  0
LTYPE
  5
1D
100
AcDbSymbolTableRecord
100
AcDbLinetypeTableRecord
  2
DASHED
 70
          64
  3
Dashed
 72
          65
 73
           2
 40
15.0
 49
12.0
 74
           0
 49
-3.0
 74
           0
  0
LTYPE
  5
1E
100
AcDbSymbolTableRecord
100
AcDbLinetypeTableRecord
  2
DOTTED
 70
          64
  3
Dotted
 72
          65
 73
           2
 40
3.5
 49
0.5
 74
           0
 49
-3.0
 74
           0
  0
LTYPE
  5
1F
100
AcDbSymbolTableRecord
100
AcDbLinetypeTableRecord
  2
DOT_CENTER
 70
          64
  3
Dot_Center
 72
          65
 73
           4
 40
2.0
 49
1.25
 74
           0
 49
-0.25
 74
           0
 49
0.25
 74
           0
 49
-0.25
 74
           0
  0
LTYPE
  5
20
100
AcDbSymbolTableRecord
100
AcDbLinetypeTableRecord
  2
LONG_DASHED
 70
          64
  3
Long_Dashed
 72
          65
 73
           2
 40
2.0
 49
1.5
 74
           0
 49
-0.5
 74
           0
  0
LTYPE
  5
21
100
AcDbSymbolTableRecord
100
AcDbLinetypeTableRecord
  2
DASH_CENTER
 70
          64
  3
Dash_Center
 72
          65
 73
           4
 40
36.0
 49
24.0
 74
           0
 49
-3.0
 74
           0
 49
6.0
 74
           0
 49
-3.0
 74
           0
  0
LTYPE
  5
22
100
AcDbSymbolTableRecord
100
AcDbLinetypeTableRecord
  2
PHANTOM
 70
          64
  3
Phantom
 72
          65
 73
           6
 40
2.5
 49
1.25
 74
           0
 49
-0.25
 74
           0
 49
0.25
 74
           0
 49
-0.25
 74
           0
 49
0.25
 74
           0
 49
-0.25
 74
           0
  0
LTYPE
  5
23
100
AcDbSymbolTableRecord
100
AcDbLinetypeTableRecord
  2
CENTER_DASH_DASH
 70
          64
  3
Center_Dash_Dash
 72
          65
 73
           6
 40
22.0
 49
12.0
 74
           0
 49
-3.0
 74
           0
 49
0.5
 74
           0
 49
-3.0
 74
           0
 49
0.5
 74
           0
 49
-3.0
 74
           0
  0
ENDTAB
  0
TABLE
  2
LAYER
  5
2
100
AcDbSymbolTable
 70
           2
  0
LAYER
  5
14
100
AcDbSymbolTableRecord
100
AcDbLayerTableRecord
  2
0
 70
           0
 62
           7
  6
CONTINUOUS
  0
LAYER
  5
24
100
AcDbSymbolTableRecord
100
AcDbLayerTableRecord
  2
1
 70
           0
 62
           7
  6
CONTINUOUS
  0
ENDTAB
  0
TABLE
  2
STYLE
  5
3
100
AcDbSymbolTable
 70
           2
  0
STYLE
  5
17
100
AcDbSymbolTableRecord
100
AcDbTextStyleTableRecord
  2
STANDARD
 70
           0
 40
0.0
 41
1.0
 50
0.0
 71
           0
 42
0.0
  3
txt
  4

  0
STYLE
  5
1E1
100
AcDbSymbolTableRecord
100
AcDbTextStyleTableRecord
  2
CONVERTER_1
 70
           0
 40
0.0
 41
0.9
 50
0.0
 71
           0
 42
0.0
  3
txt.shx
  4

  0
ENDTAB
  0
TABLE
  2
VIEW
  5
5
100
AcDbSymbolTable
 70
           0
  0
ENDTAB
  0
TABLE
  2
UCS
  5
6
100
AcDbSymbolTable
 70
           0
  0
ENDTAB
  0
TABLE
  2
APPID
  5
8
100
AcDbSymbolTable
 70
           1
  0
APPID
  5
16
100
AcDbSymbolTableRecord
100
AcDbRegAppTableRecord
  2
ACAD
 70
           0
  0
ENDTAB
  0
TABLE
  2
DIMSTYLE
  5
9
100
AcDbSymbolTable
 70
           4
  0
DIMSTYLE
105
18
100
AcDbSymbolTableRecord
100
AcDbDimStyleTableRecord
  2
STANDARD
 70
           0
  3

  4

  5

  6

  7

 40
1.0
 41
0.18
 42
0.0625
 43
0.38
 44
0.18
 45
0.0
 46
0.0
 47
0.0
 48
0.0
 71
           0
 72
           0
 73
           1
 74
           1
 75
           0
 76
           0
 77
           0
 78
           0
140
0.18
141
0.09
142
0.0
143
25.4
144
1.0
145
0.0
146
1.0
147
0.09
170
           0
171
           2
172
           0
173
           0
174
           0
175
           0
176
           0
177
           0
178
           0
270
           2
271
           4
272
           4
273
           2
274
           2
275
           0
280
           0
281
           0
282
           0
283
           1
284
           0
285
           0
286
           0
287
           0
288
           0
340
17
  0
DIMSTYLE
105
1E4
100
AcDbSymbolTableRecord
100
AcDbDimStyleTableRecord
  2
ME10_DIM_0
 70
           0
  3
{\Fgdt;n}<>
  4

  5

  6

  7

 40
1.0
 41
2.8
 42
0.8
 43
0.38
 44
1.0
 45
0.0
 46
0.0
 47
0.0
 48
0.0
 71
           0
 72
           0
 73
           0
 74
           0
 75
           0
 76
           0
 77
           1
 78
           8
140
2.8
141
0.09
142
0.0
143
25.4
144
1.0
145
0.0
146
1.0
147
0.09
170
           0
171
           2
172
           0
173
           1
174
           0
175
           0
176
           2
177
           2
178
           2
270
           2
271
           3
272
           4
273
           2
274
           2
275
           0
280
           0
281
           0
282
           0
283
           1
284
           0
285
           0
286
           0
287
           3
288
           0
340
17
  0
DIMSTYLE
105
1EF
100
AcDbSymbolTableRecord
100
AcDbDimStyleTableRecord
  2
ME10_DIM_1
 70
           0
  3

  4

  5

  6

  7

 40
1.0
 41
2.8
 42
0.8
 43
0.38
 44
1.0
 45
0.0
 46
0.0
 47
0.0
 48
0.0
 71
           0
 72
           0
 73
           0
 74
           0
 75
           0
 76
           0
 77
           1
 78
           8
140
2.8
141
0.09
142
0.0
143
25.4
144
1.0
145
0.0
146
1.0
147
0.09
170
           0
171
           2
172
           0
173
           1
174
           0
175
           0
176
           2
177
           2
178
           2
270
           2
271
           3
272
           4
273
           2
274
           2
275
           0
280
           0
281
           0
282
           0
283
           1
284
           0
285
           0
286
           0
287
           3
288
           0
340
17
  0
DIMSTYLE
105
1FA
100
AcDbSymbolTableRecord
100
AcDbDimStyleTableRecord
  2
ME10_DIM_2
 70
           0
  3

  4

  5

  6

  7

 40
1.0
 41
2.8
 42
0.8
 43
0.38
 44
1.0
 45
0.0
 46
0.0
 47
0.0
 48
0.0
 71
           0
 72
           0
 73
           0
 74
           0
 75
           0
 76
           0
 77
           1
 78
           8
140
2.8
141
0.09
142
0.0
143
25.4
144
1.0
145
0.0
146
1.0
147
0.09
170
           0
171
           2
172
           0
173
           1
174
           0
175
           0
176
           2
177
           2
178
           2
270
           2
271
           3
272
           4
273
           2
274
           2
275
           0
280
           0
281
           0
282
           0
283
           1
284
           0
285
           0
286
           0
287
           3
288
           0
340
17
  0
ENDTAB
  0
TABLE
  2
BLOCK_RECORD
  5
1
100
AcDbSymbolTable
 70
           3
  0
BLOCK_RECORD
  5
A
100
AcDbSymbolTableRecord
100
AcDbBlockTableRecord
  2
*MODEL_SPACE
  0
BLOCK_RECORD
  5
B
100
AcDbSymbolTableRecord
100
AcDbBlockTableRecord
  2
*PAPER_SPACE
  0
BLOCK_RECORD
  5
1DA
100
AcDbSymbolTableRecord
100
AcDbBlockTableRecord
  2
*D0
  0
BLOCK_RECORD
  5
1E6
100
AcDbSymbolTableRecord
100
AcDbBlockTableRecord
  2
*D1
  0
BLOCK_RECORD
  5
1F1
100
AcDbSymbolTableRecord
100
AcDbBlockTableRecord
  2
*D2
  0
ENDTAB
  0
ENDSEC
  0
SECTION
  2
BLOCKS
  0
BLOCK
  5
D
100
AcDbEntity
  8
0
100
AcDbBlockBegin
  2
*MODEL_SPACE
 70
           0
 10
0.0
 20
0.0
 30
0.0
  3
*MODEL_SPACE
  1

  0
ENDBLK
  5
E
100
AcDbEntity
  8
0
100
AcDbBlockEnd
  0
BLOCK
  5
F
100
AcDbEntity
 67
           1
  8
0
100
AcDbBlockBegin
  2
*PAPER_SPACE
 70
           0
 10
0.0
 20
0.0
 30
0.0
  3
*PAPER_SPACE
  1

  0
ENDBLK
  5
10
100
AcDbEntity
 67
           1
  8
0
100
AcDbBlockEnd
  0
BLOCK
  5
1DB
100
AcDbEntity
  8
0
100
AcDbBlockBegin
  2
*D0
 70
           1
 10
0.0
 20
0.0
 30
0.0
  3
*D0
  1

  0
LINE
  5
1DC
100
AcDbEntity
  8
0
  6
CONTINUOUS
 62
           2
100
AcDbLine
 10
-101.488883404909
 20
-130.7675325352
 11
12.511116595091
 21
-130.7675325352
  0
LINE
  5
1DD
100
AcDbEntity
  8
0
  6
CONTINUOUS
 62
           2
100
AcDbLine
 10
12.511116595091
 20
-22.449275510719
 11
12.511116595091
 21
-131.7675325352
  0
LINE
  5
1DE
100
AcDbEntity
  8
0
  6
CONTINUOUS
 62
           2
100
AcDbLine
 10
-101.488883404909
 20
-100.208539365144
 11
-101.488883404909
 21
-131.7675325352
  0
SOLID
  5
1DF
100
AcDbEntity
  8
0
 62
           2
100
AcDbTrace
 10
9.711116595091
 20
-131.136159528445
 11
9.711116595091
 21
-130.398905541955
 12
12.511116595091
 22
-130.7675325352
 13
12.511116595091
 23
-130.7675325352
  0
SOLID
  5
1E0
100
AcDbEntity
  8
0
 62
           2
100
AcDbTrace
 10
-98.688883404909
 20
-130.398905541955
 11
-98.688883404909
 21
-131.136159528445
 12
-101.488883404909
 22
-130.7675325352
 13
-101.488883404909
 23
-130.7675325352
  0
MTEXT
  5
1E2
100
AcDbEntity
  8
0
 62
           2
100
AcDbMText
 10
-45.453040694847
 20
-129.7675325352
 30
0.0
 40
2.8
 41
0.0
 71
           7
 72
           1
  1
\C2;{\Fgdt;n}\C2;114
  7
CONVERTER_1
  0
ENDBLK
  5
1E3
100
AcDbEntity
  8
0
100
AcDbBlockEnd
  0
BLOCK
  5
1E7
100
AcDbEntity
  8
0
100
AcDbBlockBegin
  2
*D1
 70
           1
 10
0.0
 20
0.0
 30
0.0
  3
*D1
  1

  0
LINE
  5
1E8
100
AcDbEntity
  8
0
  6
CONTINUOUS
 62
           2
100
AcDbLine
 10
-128.225971159379
 20
-107.672220631013
 11
-128.225971159379
 21
109.374308292886
  0
LINE
  5
1E9
100
AcDbEntity
  8
0
  6
CONTINUOUS
 62
           2
100
AcDbLine
 10
-4.810487787368
 20
109.374308292886
 11
-129.225971159379
 21
109.374308292886
  0
LINE
  5
1EA
100
AcDbEntity
  8
0
  6
CONTINUOUS
 62
           2
100
AcDbLine
 10
-45.288883404909
 20
-107.672220631013
 11
-129.225971159379
 21
-107.672220631013
  0
SOLID
  5
1EB
100
AcDbEntity
  8
0
 62
           2
100
AcDbTrace
 10
-127.857344166134
 20
106.574308292886
 11
-128.594598152624
 21
106.574308292886
 12
-128.225971159379
 22
109.374308292886
 13
-128.225971159379
 23
109.374308292886
  0
SOLID
  5
1EC
100
AcDbEntity
  8
0
 62
           2
100
AcDbTrace
 10
-128.594598152624
 20
-104.872220631013
 11
-127.857344166134
 21
-104.872220631013
 12
-128.225971159379
 22
-107.672220631013
 13
-128.225971159379
 23
-107.672220631013
  0
MTEXT
  5
1ED
100
AcDbEntity
  8
0
 62
           2
100
AcDbMText
 10
-129.225971159379
 20
12.156206865914
 30
0.0
 40
2.8
 41
0.0
 71
           7
 72
           1
  1
219
  7
CONVERTER_1
 11
0.0
 21
1.0
 31
0.0
  0
ENDBLK
  5
1EE
100
AcDbEntity
  8
0
100
AcDbBlockEnd
  0
BLOCK
  5
1F2
100
AcDbEntity
  8
0
100
AcDbBlockBegin
  2
*D2
 70
           1
 10
0.0
 20
0.0
 30
0.0
  3
*D2
  1

  0
LINE
  5
1F3
100
AcDbEntity
  8
0
  6
CONTINUOUS
 62
           2
100
AcDbLine
 10
-101.488883404909
 20
-148.52549996034
 11
100.317446186183
 21
-148.52549996034
  0
LINE
  5
1F4
100
AcDbEntity
  8
0
  6
CONTINUOUS
 62
           2
100
AcDbLine
 10
100.317446186183
 20
-48.107790826946
 11
100.317446186183
 21
-149.52549996034
  0
LINE
  5
1F5
100
AcDbEntity
  8
0
  6
CONTINUOUS
 62
           2
100
AcDbLine
 10
-101.488883404909
 20
-3.743564458763
 11
-101.488883404909
 21
-149.52549996034
  0
SOLID
  5
1F6
100
AcDbEntity
  8
0
 62
           2
100
AcDbTrace
 10
-98.688883404909
 20
-148.156872967095
 11
-98.688883404909
 21
-148.894126953585
 12
-101.488883404909
 22
-148.52549996034
 13
-101.488883404909
 23
-148.52549996034
  0
SOLID
  5
1F7
100
AcDbEntity
  8
0
 62
           2
100
AcDbTrace
 10
97.517446186183
 20
-148.894126953585
 11
97.517446186183
 21
-148.156872967095
 12
100.317446186183
 22
-148.52549996034
 13
100.317446186183
 23
-148.52549996034
  0
TEXT
  5
1F8
100
AcDbEntity
  8
0
 62
           2
100
AcDbText
 10
-7.598480661829
 20
-147.52549996034
 40
2.8
  1
184
 41
0.9
  7
CONVERTER_1
100
AcDbText
  0
ENDBLK
  5
1F9
100
AcDbEntity
  8
0
100
AcDbBlockEnd
  0
ENDSEC
  0
SECTION
  2
ENTITIES
  0
DIMENSION
  5
1FB
100
AcDbEntity
  8
0
100
AcDbDimension
  2
*D2
 10
-101.488883404909
 20
-148.52549996034
 11
-4.658480661829
 21
-146.12549996034
 31
0.0
  1
<>
  3
ME10_DIM_2
100
AcDbAlignedDimension
 13
100.317446186183
 23
-47.307790826946
 14
-101.488883404909
 24
-2.943564458763
100
AcDbRotatedDimension
  0
DIMENSION
  5
1F0
100
AcDbEntity
  8
0
100
AcDbDimension
  2
*D1
 10
-128.225971159379
 20
109.374308292886
 11
-130.625971159379
 21
15.096206865914
 31
0.0
 53
90.0
  1
<>
  3
ME10_DIM_1
100
AcDbAlignedDimension
 13
-44.488883404909
 23
-107.672220631013
 14
-4.010487787368
 24
109.374308292886
 50
90.0
100
AcDbRotatedDimension
  0
DIMENSION
  5
1E5
100
AcDbEntity
  8
0
100
AcDbDimension
  2
*D0
 10
12.511116595091
 20
-130.7675325352
 11
-37.725040694847
 21
-128.3675325352
 31
0.0
  1
<>
  3
ME10_DIM_0
100
AcDbAlignedDimension
 13
-101.488883404909
 23
-99.408539365144
 14
12.511116595091
 24
-21.649275510719
100
AcDbRotatedDimension
  0
ARC
  5
1D9
100
AcDbEntity
  8
1
  6
CONTINUOUS
 62
           7
100
AcDbCircle
 10
4.459116595091
 20
-100.672220631013
 40
7.0
100
AcDbArc
 50
-90.0
 51
0.0
  0
ARC
  5
1D8
100
AcDbEntity
  8
1
  6
CONTINUOUS
 62
           7
100
AcDbCircle
 10
-34.919139120696
 20
85.327779368987
 40
2.0
100
AcDbArc
 50
2.749999999999
 51
90.0
  0
ARC
  5
1D7
100
AcDbEntity
  8
1
  6
CONTINUOUS
 62
           7
100
AcDbCircle
 10
-21.001122128024
 20
66.327779368987
 40
11.0
100
AcDbArc
 50
-177.249999999999
 51
-122.058381869062
  0
ARC
  5
1D6
100
AcDbEntity
  8
1
  6
CONTINUOUS
 62
           7
100
AcDbCircle
 10
-10.488883404909
 20
52.327779368987
 40
3.0
100
AcDbArc
 50
19.471220634491
 51
90.0
  0
ARC
  5
1D5
100
AcDbEntity
  8
1
  6
CONTINUOUS
 62
           7
100
AcDbCircle
 10
-11.488883404909
 20
25.362926126133
 40
1.0
100
AcDbArc
 50
0.0
 51
90.0
  0
ARC
  5
1D4
100
AcDbEntity
  8
1
  6
CONTINUOUS
 62
           7
100
AcDbCircle
 10
-7.988883404908
 20
32.327779368987
 40
2.0
100
AcDbArc
 50
-90.0
 51
0.0
  0
ARC
  5
1D3
100
AcDbEntity
  8
1
  6
CONTINUOUS
 62
           7
100
AcDbCircle
 10
-25.912032466832
 20
30.778048670561
 40
1.6
100
AcDbArc
 50
36.520986898282
 51
127.5
  0
ARC
  5
1D2
100
AcDbEntity
  8
1
  6
CONTINUOUS
 62
           7
100
AcDbCircle
 10
-18.381010421389
 20
31.173421220148
 40
1.1
100
AcDbArc
 50
32.309879667265
 51
130.0
  0
ARC
  5
1D1
100
AcDbEntity
  8
1
  6
CONTINUOUS
 62
           7
100
AcDbCircle
 10
-34.740063197371
 20
30.324563071497
 40
2.0
100
AcDbArc
 50
42.5
 51
125.0
  0
ARC
  5
1D0
100
AcDbEntity
  8
1
  6
CONTINUOUS
 62
           7
100
AcDbCircle
 10
-12.278111602453
 20
31.856254681869
 40
0.5
100
AcDbArc
 50
24.999999999994
 51
132.500000000006
  0
ARC
  5
1CF
100
AcDbEntity
  8
1
  6
CONTINUOUS
 62
           7
100
AcDbCircle
 10
-8.236011267984
 20
31.776184988401
 40
0.45
100
AcDbArc
 50
6.342707971932
 51
135.0
  0
ARC
  5
1CE
100
AcDbEntity
  8
1
  6
CONTINUOUS
 62
           7
100
AcDbCircle
 10
85.584140624171
 20
-7.808302153466
 40
1.0
100
AcDbArc
 50
18.989583975888
 51
108.989583975889
  0
ARC
  5
1CD
100
AcDbEntity
  8
1
  6
CONTINUOUS
 62
           7
100
AcDbCircle
 10
62.78340917137
 20
-6.609790282947
 40
1.0
100
AcDbArc
 50
146.806032984502
 51
-131.010416024112
  0
ARC
  5
1CC
100
AcDbEntity
  8
1
  6
CONTINUOUS
 62
           7
100
AcDbCircle
 10
56.221446973785
 20
-14.155693285071
 40
1.0
100
AcDbArc
 50
48.989583975888
 51
131.173134967274
  0
ARC
  5
1CB
100
AcDbEntity
  8
1
  6
CONTINUOUS
 62
           7
100
AcDbCircle
 10
59.278157903921
 20
-33.510740324489
 40
1.0
100
AcDbArc
 50
-36.010416024111
 51
71.084281937493
  0
ARC
  5
1CA
100
AcDbEntity
  8
1
  6
CONTINUOUS
 62
           7
100
AcDbCircle
 10
58.498920207424
 20
-37.984611188257
 40
1.0
100
AcDbArc
 50
143.989583975887
 51
-126.010416024112
  0
ARC
  5
1C9
100
AcDbEntity
  8
1
  6
CONTINUOUS
 62
           7
100
AcDbCircle
 10
69.01475183534
 20
-45.627731308556
 40
1.0
100
AcDbArc
 50
-126.010416024112
 51
-36.010416024111
  0
ARC
  5
1C8
100
AcDbEntity
  8
1
  6
CONTINUOUS
 62
           7
100
AcDbCircle
 10
85.448073107183
 20
-42.754424765722
 40
1.0
100
AcDbArc
 50
-71.010416024112
 51
18.989583975887
  0
ARC
  5
1C7
100
AcDbEntity
  8
1
  6
CONTINUOUS
 62
           7
100
AcDbCircle
 10
96.795006062596
 20
-38.849669651074
 40
1.0
100
AcDbArc
 50
-161.010416024111
 51
-71.010416024111
  0
ARC
  5
1C6
100
AcDbEntity
  8
1
  6
CONTINUOUS
 62
           7
100
AcDbCircle
 10
88.207976072626
 20
-15.432976184358
 40
1.0
100
AcDbArc
 50
-10.504342839335
 51
18.989583975888
  0
ARC
  5
1C5
100
AcDbEntity
  8
1
  6
CONTINUOUS
 62
           7
100
AcDbCircle
 10
-80.741755541833
 20
31.776184988401
 40
0.45
100
AcDbArc
 50
44.999999999999
 51
173.657292028067
  0
ARC
  5
1C4
100
AcDbEntity
  8
1
  6
CONTINUOUS
 62
           7
100
AcDbCircle
 10
-76.699655207364
 20
31.856254681869
 40
0.5
100
AcDbArc
 50
47.499999999994
 51
155.000000000006
  0
ARC
  5
1C3
100
AcDbEntity
  8
1
  6
CONTINUOUS
 62
           7
100
AcDbCircle
 10
-54.237703612446
 20
30.324563071497
 40
2.0
100
AcDbArc
 50
55.0
 51
137.5
  0
ARC
  5
1C2
100
AcDbEntity
  8
1
  6
CONTINUOUS
 62
           7
100
AcDbCircle
 10
-70.596756388428
 20
31.173421220148
 40
1.1
100
AcDbArc
 50
50.0
 51
147.690120332735
  0
ARC
  5
1C1
100
AcDbEntity
  8
1
  6
CONTINUOUS
 62
           7
100
AcDbCircle
 10
-63.065734342985
 20
30.778048670561
 40
1.6
100
AcDbArc
 50
52.499999999999
 51
143.479013101718
  0
ARC
  5
1C0
100
AcDbEntity
  8
1
  6
CONTINUOUS
 62
           7
100
AcDbCircle
 10
-67.976644681793
 20
66.327779368987
 40
11.0
100
AcDbArc
 50
-54.319167986344
 51
-2.750000000001
  0
ARC
  5
1BF
100
AcDbEntity
  8
1
  6
CONTINUOUS
 62
           7
100
AcDbCircle
 10
-54.058627689121
 20
85.327779368987
 40
2.0
100
AcDbArc
 50
90.0
 51
177.250000000001
  0
ARC
  5
1BE
100
AcDbEntity
  8
1
  6
CONTINUOUS
 62
           7
100
AcDbCircle
 10
-80.988883404909
 20
32.327779368987
 40
2.0
100
AcDbArc
 50
180.0
 51
-90.0
  0
ARC
  5
1BD
100
AcDbEntity
  8
1
  6
CONTINUOUS
 62
           7
100
AcDbCircle
 10
-78.488883404909
 20
52.327779368987
 40
3.0
100
AcDbArc
 50
90.0
 51
160.528779365509
  0
ARC
  5
1BC
100
AcDbEntity
  8
1
  6
CONTINUOUS
 62
           7
100
AcDbCircle
 10
-5.488883404909
 20
-3.534473549672
 40
18.0
100
AcDbArc
 50
0.0
 51
59.420773127511
  0
ARC
  5
1BB
100
AcDbEntity
  8
1
  6
CONTINUOUS
 62
           7
100
AcDbCircle
 10
-77.488883404908
 20
25.362926126133
 40
1.0
100
AcDbArc
 50
90.0
 51
180.0
  0
ARC
  5
1BA
100
AcDbEntity
  8
1
  6
CONTINUOUS
 62
           7
100
AcDbCircle
 10
-2.488883404909
 20
24.892821070209
 40
8.0
100
AcDbArc
 50
180.0
 51
-120.579226872489
  0
ARC
  5
1B9
100
AcDbEntity
  8
1
  6
CONTINUOUS
 62
           7
100
AcDbCircle
 10
-86.488883404909
 20
24.892821070209
 40
8.0
100
AcDbArc
 50
-59.420773127511
 51
0.0
  0
ARC
  5
1B8
100
AcDbEntity
  8
1
  6
CONTINUOUS
 62
           7
100
AcDbCircle
 10
-83.488883404909
 20
-2.943564458763
 40
18.0
100
AcDbArc
 50
120.579226872489
 51
180.0
  0
ARC
  5
1B7
100
AcDbEntity
  8
1
  6
CONTINUOUS
 62
           7
100
AcDbCircle
 10
-93.436883404908
 20
-100.672220631013
 40
7.0
100
AcDbArc
 50
180.0
 51
-90.0
  0
SPLINE
  5
1B6
100
AcDbEntity
  8
1
  6
CONTINUOUS
 62
           7
100
AcDbSpline
210
0.0
220
0.0
230
1.0
 70
           0
 71
           4
 72
           8
 73
           4
 74
           3
 42
0.00000000001
 43
0.00000000001
 44
0.00000000001
 40
0.0
 40
0.0
 40
0.0
 40
0.0
 40
3.2400902806398406
 40
3.2400902806398406
 40
3.2400902806398406
 40
3.2400902806398406
 10
-20.48888340490857
 20
61.020599692014457
 30
0.0
 10
-19.411485231138581
 20
61.020599692014429
 30
0.0
 10
-18.340491278923189
 20
61.188360567079577
 30
0.0
 10
-17.31345692436556
 20
61.517999629688219
 30
0.0
 11
-20.48888340490857
 21
61.020599692014457
 31
0.0
 11
-18.88228373243243
 21
61.145685012373093
 31
0.0
 11
-17.31345692436556
 21
61.517999629688219
 31
0.0
  0
SPLINE
  5
1B5
100
AcDbEntity
  8
1
  6
CONTINUOUS
 62
           7
100
AcDbSpline
210
0.0
220
0.0
230
1.0
 70
           0
 71
           4
 72
          12
 73
           8
 74
          11
 42
0.00000000001
 43
0.00000000001
 44
0.00000000001
 40
0.0
 40
0.0
 40
0.0
 40
0.0
 40
0.7583555236639572
 40
1.5110946785731525
 40
1.891030629208202
 40
2.6437697841173899
 40
3.4021253077813327
 40
3.4021253077813327
 40
3.4021253077813327
 40
3.4021253077813327
 10
-17.31345692436556
 20
61.517999629688219
 30
0.0
 10
-17.003005488690679
 20
61.302890552242559
 30
0.0
 10
-16.653072976945221
 20
61.1530533498239
 30
0.0
 10
-15.91571165941158
 20
61.001677913446457
 30
0.0
 10
-15.53577570877653
 20
61.001677913446443
 30
0.0
 10
-14.79841439124289
 20
61.153053349823857
 30
0.0
 10
-14.448481879497439
 20
61.302890552242502
 30
0.0
 10
-14.138030443822551
 20
61.517999629688148
 30
0.0
 11
-17.31345692436556
 21
61.517999629688219
 31
0.0
 11
-16.924518314965361
 21
61.283690101370567
 31
0.0
 11
-16.591506350968775
 21
61.159769033713708
 31
0.0
 11
-16.214974058456928
 21
61.068120738721369
 31
0.0
 11
-15.864598683726078
 21
61.011879606884619
 31
0.0
 11
-15.725743684094056
 21
61.004228336805994
 31
0.0
 11
-15.58688868446203
 21
61.011879606884605
 31
0.0
 11
-15.236513309731182
 21
61.068120738721362
 31
0.0
 11
-14.859981017219335
 21
61.159769033713665
 31
0.0
 11
-14.526969053222757
 21
61.283690101370517
 31
0.0
 11
-14.138030443822551
 21
61.517999629688148
 31
0.0
  0
SPLINE
  5
1B4
100
AcDbEntity
  8
1
  6
CONTINUOUS
 62
           7
100
AcDbSpline
210
0.0
220
0.0
230
1.0
 70
           0
 71
           4
 72
          12
 73
           8
 74
          11
 42
0.00000000001
 43
0.00000000001
 44
0.00000000001
 40
0.0
 40
0.0
 40
0.0
 40
0.0
 40
0.7583555236639673
 40
1.5110946785731594
 40
1.8910306292082195
 40
2.643769784117401
 40
3.4021253077813425
 40
3.4021253077813425
 40
3.4021253077813425
 40
3.4021253077813425
 10
-14.13803044382257
 20
69.02319975433997
 30
0.0
 10
-14.448481879497461
 20
69.238308831785645
 30
0.0
 10
-14.798414391242909
 20
69.388146034204311
 30
0.0
 10
-15.53577570877655
 20
69.539521470581747
 30
0.0
 10
-15.91571165941161
 20
69.539521470581775
 30
0.0
 10
-16.653072976945239
 20
69.38814603420434
 30
0.0
 10
-17.0030054886907
 20
69.238308831785702
 30
0.0
 10
-17.313456924365578
 20
69.023199754340055
 30
0.0
 11
-14.13803044382257
 21
69.02319975433997
 31
0.0
 11
-14.526969053222777
 21
69.257509282657622
 31
0.0
 11
-14.85998101721936
 21
69.381430350314488
 31
0.0
 11
-15.236513309731203
 21
69.473078645306828
 31
0.0
 11
-15.586888684462052
 21
69.529319777143598
 31
0.0
 11
-15.725743684094082
 21
69.536971047222224
 31
0.0
 11
-15.864598683726111
 21
69.529319777143613
 31
0.0
 11
-16.214974058456956
 21
69.473078645306856
 31
0.0
 11
-16.5915063509688
 21
69.381430350314531
 31
0.0
 11
-16.924518314965379
 21
69.257509282657679
 31
0.0
 11
-17.313456924365578
 21
69.023199754340055
 31
0.0
  0
SPLINE
  5
1B3
100
AcDbEntity
  8
1
  6
CONTINUOUS
 62
           7
100
AcDbSpline
210
0.0
220
0.0
230
1.0
 70
           0
 71
           4
 72
           8
 73
           4
 74
           3
 42
0.00000000001
 43
0.00000000001
 44
0.00000000001
 40
0.0
 40
0.0
 40
0.0
 40
0.0
 40
3.2400902806398455
 40
3.2400902806398455
 40
3.2400902806398455
 40
3.2400902806398455
 10
-17.313456924365578
 20
69.023199754340055
 30
0.0
 10
-18.34049127892321
 20
69.352838816948747
 30
0.0
 10
-19.411485231138609
 20
69.520599692013946
 30
0.0
 10
-20.48888340490857
 20
69.520599692014258
 30
0.0
 11
-17.313456924365578
 21
69.023199754340055
 31
0.0
 11
-18.882283732432445
 21
69.395514371655281
 31
0.0
 11
-20.48888340490857
 21
69.520599692014258
 31
0.0
  0
SPLINE
  5
1B2
100
AcDbEntity
  8
1
  6
CONTINUOUS
 62
           7
100
AcDbSpline
210
0.0
220
0.0
230
1.0
 70
           0
 71
           4
 72
           8
 73
           4
 74
           3
 42
0.00000000001
 43
0.00000000001
 44
0.00000000001
 40
0.0
 40
0.0
 40
0.0
 40
0.0
 40
3.240090280639865
 40
3.240090280639865
 40
3.240090280639865
 40
3.240090280639865
 10
-20.48888340490857
 20
69.520599692014258
 30
0.0
 10
-21.566281578678581
 20
69.520599692013988
 30
0.0
 10
-22.63727553089398
 20
69.352838816948861
 30
0.0
 10
-23.664309885451601
 20
69.023199754340197
 30
0.0
 11
-20.48888340490857
 21
69.520599692014258
 31
0.0
 11
-22.095483077384728
 21
69.395514371655381
 31
0.0
 11
-23.664309885451601
 21
69.023199754340197
 31
0.0
  0
SPLINE
  5
1B1
100
AcDbEntity
  8
1
  6
CONTINUOUS
 62
           7
100
AcDbSpline
210
0.0
220
0.0
230
1.0
 70
           0
 71
           4
 72
          12
 73
           8
 74
          11
 42
0.00000000001
 43
0.00000000001
 44
0.00000000001
 40
0.0
 40
0.0
 40
0.0
 40
0.0
 40
0.7583555236639619
 40
1.5110946785731569
 40
1.8910306292082153
 40
2.6437697841174046
 40
3.4021253077813389
 40
3.4021253077813389
 40
3.4021253077813389
 40
3.4021253077813389
 10
-23.664309885451601
 20
69.023199754340197
 30
0.0
 10
-23.97476132112649
 20
69.238308831785872
 30
0.0
 10
-24.32469383287194
 20
69.388146034204524
 30
0.0
 10
-25.06205515040558
 20
69.539521470581974
 30
0.0
 10
-25.441991101040639
 20
69.539521470581988
 30
0.0
 10
-26.179352418574279
 20
69.388146034204567
 30
0.0
 10
-26.529284930319729
 20
69.238308831785929
 30
0.0
 10
-26.839736365994611
 20
69.023199754340283
 30
0.0
 11
-23.664309885451601
 21
69.023199754340197
 31
0.0
 11
-24.053248494851804
 21
69.25750928265785
 31
0.0
 11
-24.38626045884839
 21
69.381430350314716
 31
0.0
 11
-24.762792751360234
 21
69.473078645307069
 31
0.0
 11
-25.113168126091082
 21
69.529319777143826
 31
0.0
 11
-25.25202312572311
 21
69.536971047222451
 31
0.0
 11
-25.390878125355137
 21
69.529319777143812
 31
0.0
 11
-25.741253500085993
 21
69.473078645307069
 31
0.0
 11
-26.117785792597839
 21
69.381430350314758
 31
0.0
 11
-26.450797756594412
 21
69.257509282657907
 31
0.0
 11
-26.839736365994611
 21
69.023199754340283
 31
0.0
  0
SPLINE
  5
1B0
100
AcDbEntity
  8
1
  6
CONTINUOUS
 62
           7
100
AcDbSpline
210
0.0
220
0.0
230
1.0
 70
           0
 71
           4
 72
           8
 73
           4
 74
           3
 42
0.00000000001
 43
0.00000000001
 44
0.00000000001
 40
0.0
 40
0.0
 40
0.0
 40
0.0
 40
3.2400902806398633
 40
3.2400902806398633
 40
3.2400902806398633
 40
3.2400902806398633
 10
-23.66430988545158
 20
61.517999629688369
 30
0.0
 10
-22.637275530893952
 20
61.188360567079677
 30
0.0
 10
-21.566281578678549
 20
61.020599692014478
 30
0.0
 10
-20.48888340490857
 20
61.020599692014457
 30
0.0
 11
-23.66430988545158
 21
61.517999629688369
 31
0.0
 11
-22.095483077384706
 21
61.145685012373164
 31
0.0
 11
-20.48888340490857
 21
61.020599692014457
 31
0.0
  0
SPLINE
  5
1AF
100
AcDbEntity
  8
1
  6
CONTINUOUS
 62
           7
100
AcDbSpline
210
0.0
220
0.0
230
1.0
 70
           0
 71
           4
 72
          12
 73
           8
 74
          11
 42
0.00000000001
 43
0.00000000001
 44
0.00000000001
 40
0.0
 40
0.0
 40
0.0
 40
0.0
 40
0.7583555236639563
 40
1.5110946785731514
 40
1.8910306292082026
 40
2.6437697841173891
 40
3.4021253077813318
 40
3.4021253077813318
 40
3.4021253077813318
 40
3.4021253077813318
 10
-26.83973636599459
 20
61.517999629688447
 30
0.0
 10
-26.529284930319712
 20
61.302890552242793
 30
0.0
 10
-26.179352418574251
 20
61.153053349824127
 30
0.0
 10
-25.44199110104061
 20
61.001677913446677
 30
0.0
 10
-25.062055150405559
 20
61.00167791344667
 30
0.0
 10
-24.324693832871919
 20
61.153053349824077
 30
0.0
 10
-23.974761321126469
 20
61.302890552242722
 30
0.0
 10
-23.66430988545158
 20
61.517999629688369
 30
0.0
 11
-26.83973636599459
 21
61.517999629688447
 31
0.0
 11
-26.45079775659439
 21
61.283690101370802
 31
0.0
 11
-26.117785792597807
 21
61.159769033713943
 31
0.0
 11
-25.741253500085964
 21
61.068120738721603
 31
0.0
 11
-25.390878125355108
 21
61.011879606884847
 31
0.0
 11
-25.252023125723081
 21
61.004228336806214
 31
0.0
 11
-25.113168126091061
 21
61.011879606884833
 31
0.0
 11
-24.762792751360205
 21
61.068120738721568
 31
0.0
 11
-24.386260458848366
 21
61.1597690337139
 31
0.0
 11
-24.053248494851783
 21
61.283690101370723
 31
0.0
 11
-23.66430988545158
 21
61.517999629688369
 31
0.0
  0
CIRCLE
  5
1AE
100
AcDbEntity
  8
1
  6
CONTINUOUS
 62
           7
100
AcDbCircle
 10
76.10341467725
 20
-24.819058618696
 40
10.5
  0
CIRCLE
  5
1AD
100
AcDbEntity
  8
1
  6
CONTINUOUS
 62
           7
100
AcDbCircle
 10
76.10341467725
 20
-24.819058618696
 40
9.5
  0
CIRCLE
  5
1AC
100
AcDbEntity
  8
1
  6
CONTINUOUS
 62
           7
100
AcDbCircle
 10
76.10341467725
 20
-24.819058618696
 40
16.0
  0
CIRCLE
  5
1AB
100
AcDbEntity
  8
1
  6
CONTINUOUS
 62
           7
100
AcDbCircle
 10
76.10341467725
 20
-24.819058618696
 40
10.0
  0
CIRCLE
  5
1AA
100
AcDbEntity
  8
1
  6
CONTINUOUS
 62
           7
100
AcDbCircle
 10
76.10341467725
 20
-24.819058618696
 40
8.5
  0
CIRCLE
  5
1A9
100
AcDbEntity
  8
1
  6
CONTINUOUS
 62
           7
100
AcDbCircle
 10
43.749499275707
 20
-69.333382809789
 40
1.621625495812
  0
CIRCLE
  5
1A8
100
AcDbEntity
  8
1
  6
CONTINUOUS
 62
           7
100
AcDbCircle
 10
43.749499275707
 20
-69.333382809789
 40
18.726710859018
  0
CIRCLE
  5
1A7
100
AcDbEntity
  8
1
  6
CONTINUOUS
 62
           7
100
AcDbCircle
 10
43.749499275707
 20
-69.333382809789
 40
21.5
  0
CIRCLE
  5
1A6
100
AcDbEntity
  8
1
  6
CONTINUOUS
 62
           7
100
AcDbCircle
 10
-72.738883404909
 20
73.753095493941
 40
0.25
  0
CIRCLE
  5
1A5
100
AcDbEntity
  8
1
  6
CONTINUOUS
 62
           7
100
AcDbCircle
 10
-64.238883404909
 20
73.753095493941
 40
0.25
  0
ARC
  5
1A4
100
AcDbEntity
  8
1
  6
CONTINUOUS
 62
           7
100
AcDbCircle
 10
-36.261642068956
 20
87.471716146983
 40
4.856063222004
100
AcDbArc
 50
55.615752531958
 51
124.384247468042
  0
ARC
  5
1A3
100
AcDbEntity
  8
1
  6
CONTINUOUS
 62
           7
100
AcDbCircle
 10
-36.261642068956
 20
92.183842590991
 40
4.856063222004
100
AcDbArc
 50
-124.384247468042
 51
-55.615752531958
  0
ARC
  5
1A2
100
AcDbEntity
  8
1
  6
CONTINUOUS
 62
           7
100
AcDbCircle
 10
-44.488883404909
 20
74.176285145019
 40
18.151494223968
100
AcDbArc
 50
72.412046226006
 51
90.0
  0
ARC
  5
1A1
100
AcDbEntity
  8
1
  6
CONTINUOUS
 62
           7
100
AcDbCircle
 10
-44.488883404909
 20
105.479273592955
 40
18.151494223968
100
AcDbArc
 50
-90.0
 51
-72.412046226006
  0
ARC
  5
1A0
100
AcDbEntity
  8
1
  6
CONTINUOUS
 62
           7
100
AcDbCircle
 10
-44.488883404909
 20
88.676285145019
 40
18.151494223968
100
AcDbArc
 50
72.412046226006
 51
90.0
  0
ARC
  5
19F
100
AcDbEntity
  8
1
  6
CONTINUOUS
 62
           7
100
AcDbCircle
 10
-44.488883404909
 20
110.479273592955
 40
18.151494223968
100
AcDbArc
 50
-90.0
 51
-72.412046226006
  0
ARC
  5
19E
100
AcDbEntity
  8
1
  6
CONTINUOUS
 62
           7
100
AcDbCircle
 10
-36.261642068956
 20
101.971716146983
 40
4.856063222004
100
AcDbArc
 50
55.615752531957
 51
124.384247468042
  0
ARC
  5
19D
100
AcDbEntity
  8
1
  6
CONTINUOUS
 62
           7
100
AcDbCircle
 10
-36.261642068956
 20
97.183842590991
 40
4.856063222004
100
AcDbArc
 50
-124.384247468042
 51
-55.615752531958
  0
ARC
  5
19C
100
AcDbEntity
  8
1
  6
CONTINUOUS
 62
           7
100
AcDbCircle
 10
-12.988883404909
 20
28.416246977741
 40
1.0
100
AcDbArc
 50
112.860111733364
 51
-124.999999999998
  0
ARC
  5
19B
100
AcDbEntity
  8
1
  6
CONTINUOUS
 62
           7
100
AcDbCircle
 10
-44.837954680106
 20
29.148764311038
 40
3.194925432949
100
AcDbArc
 50
54.537561412158
 51
83.727453675595
  0
ARC
  5
19A
100
AcDbEntity
  8
1
  6
CONTINUOUS
 62
           7
100
AcDbCircle
 10
84.627780777358
 20
-0.640070342628
 40
4.089316397477
100
AcDbArc
 50
-105.394663492154
 51
-36.62616855607
  0
ARC
  5
199
100
AcDbEntity
  8
1
  6
CONTINUOUS
 62
           7
100
AcDbCircle
 10
74.433439861328
 20
7.69235081573
 40
15.285468820184
100
AcDbArc
 50
-88.598369798106
 51
-53.422462250118
  0
ARC
  5
198
100
AcDbEntity
  8
1
  6
CONTINUOUS
 62
           7
100
AcDbCircle
 10
71.525471184789
 20
-5.148893175751
 40
4.089316397477
100
AcDbArc
 50
-105.394663492154
 51
-36.62616855607
  0
ARC
  5
197
100
AcDbEntity
  8
1
  6
CONTINUOUS
 62
           7
100
AcDbCircle
 10
69.956616330331
 20
-0.589915639994
 40
4.089316397477
100
AcDbArc
 50
74.605336507846
 51
143.37383144393
  0
ARC
  5
196
100
AcDbEntity
  8
1
  6
CONTINUOUS
 62
           7
100
AcDbCircle
 10
80.15095724636
 20
-8.922336798352
 40
15.285468820184
100
AcDbArc
 50
91.401630201894
 51
126.577537749882
  0
ARC
  5
195
100
AcDbEntity
  8
1
  6
CONTINUOUS
 62
           7
100
AcDbCircle
 10
83.058925922899
 20
3.918907193129
 40
4.089316397477
100
AcDbArc
 50
74.605336507846
 51
143.37383144393
  0
ARC
  5
194
100
AcDbEntity
  8
1
  6
CONTINUOUS
 62
           7
100
AcDbCircle
 10
43.749499275707
 20
-69.333382809789
 40
14.476835164681
100
AcDbArc
 50
-36.010416024112
 51
-131.519490505576
  0
ARC
  5
193
100
AcDbEntity
  8
1
  6
CONTINUOUS
 62
           7
100
AcDbCircle
 10
43.749499275707
 20
-69.333382809789
 40
3.627477568531
100
AcDbArc
 50
27.859780197964
 51
53.989583975888
  0
ARC
  5
192
100
AcDbEntity
  8
1
  6
CONTINUOUS
 62
           7
100
AcDbCircle
 10
43.749499275707
 20
-69.333382809789
 40
3.627477568531
100
AcDbArc
 50
53.989583975888
 51
70.119387753812
  0
ARC
  5
191
100
AcDbEntity
  8
1
  6
CONTINUOUS
 62
           7
100
AcDbCircle
 10
43.749499275707
 20
-69.333382809789
 40
16.424694857919
100
AcDbArc
 50
-36.010416024112
 51
-131.010416024112
  0
ARC
  5
190
100
AcDbEntity
  8
1
  6
CONTINUOUS
 62
           7
100
AcDbCircle
 10
43.749499275707
 20
-69.333382809789
 40
16.424694857919
100
AcDbArc
 50
-42.690416024112
 51
-36.010416024112
  0
ARC
  5
18F
100
AcDbEntity
  8
1
  6
CONTINUOUS
 62
           7
100
AcDbCircle
 10
43.749499275707
 20
-69.333382809789
 40
14.476835164681
100
AcDbArc
 50
-42.690416024112
 51
-36.010416024112
  0
ARC
  5
18E
100
AcDbEntity
  8
1
  6
CONTINUOUS
 62
           7
100
AcDbCircle
 10
43.38747346978
 20
-21.892028753722
 40
3.066987298108
100
AcDbArc
 50
149.605336507846
 51
-141.62616855607
  0
ARC
  5
18D
100
AcDbEntity
  8
1
  6
CONTINUOUS
 62
           7
100
AcDbCircle
 10
52.125762122531
 20
-26.491359169606
 40
11.464101615138
100
AcDbArc
 50
166.401630201894
 51
-158.422462250118
  0
ARC
  5
18C
100
AcDbEntity
  8
1
  6
CONTINUOUS
 62
           7
100
AcDbCircle
 10
44.110519342247
 20
-32.259150083499
 40
3.066987298108
100
AcDbArc
 50
149.605336507846
 51
-141.62616855607
  0
ARC
  5
18B
100
AcDbEntity
  8
1
  6
CONTINUOUS
 62
           7
100
AcDbCircle
 10
49.73807218019
 20
-21.44911176267
 40
3.066987298108
100
AcDbArc
 50
-30.394663492153
 51
38.37383144393
  0
ARC
  5
18A
100
AcDbEntity
  8
1
  6
CONTINUOUS
 62
           7
100
AcDbCircle
 10
52.864452263021
 20
-21.231065099305
 40
3.066987298108
100
AcDbArc
 50
149.605336507846
 51
-141.62616855607
  0
ARC
  5
189
100
AcDbEntity
  8
1
  6
CONTINUOUS
 62
           7
100
AcDbCircle
 10
41.722829399906
 20
-27.216902676562
 40
11.464101615138
100
AcDbArc
 50
-13.598369798105
 51
21.577537749881
  0
ARC
  5
188
100
AcDbEntity
  8
1
  6
CONTINUOUS
 62
           7
100
AcDbCircle
 10
61.602740915772
 20
-25.830395515189
 40
11.464101615138
100
AcDbArc
 50
166.401630201894
 51
-158.422462250118
  0
ARC
  5
187
100
AcDbEntity
  8
1
  6
CONTINUOUS
 62
           7
100
AcDbCircle
 10
50.461118052657
 20
-31.816233092447
 40
3.066987298108
100
AcDbArc
 50
-30.394663492153
 51
38.373831443929
  0
ARC
  5
186
100
AcDbEntity
  8
1
  6
CONTINUOUS
 62
           7
100
AcDbCircle
 10
53.587498135488
 20
-31.598186429082
 40
3.066987298108
100
AcDbArc
 50
149.605336507846
 51
-141.62616855607
  0
ARC
  5
185
100
AcDbEntity
  8
1
  6
CONTINUOUS
 62
           7
100
AcDbCircle
 10
57.627499823594
 20
-21.332935048288
 40
2.811405023266
100
AcDbArc
 50
149.605336507846
 51
-141.626168556071
  0
ARC
  5
184
100
AcDbEntity
  8
1
  6
CONTINUOUS
 62
           7
100
AcDbCircle
 10
65.637597755282
 20
-25.548987929515
 40
10.508759813876
100
AcDbArc
 50
166.401630201894
 51
-158.422462250118
  0
ARC
  5
183
100
AcDbEntity
  8
1
  6
CONTINUOUS
 62
           7
100
AcDbCircle
 10
58.290291873356
 20
-30.836129600583
 40
2.811405023266
100
AcDbArc
 50
149.605336507846
 51
-141.62616855607
  0
ARC
  5
182
100
AcDbEntity
  8
1
  6
CONTINUOUS
 62
           7
100
AcDbCircle
 10
56.00862230818
 20
-21.445842254475
 40
2.811405023265
100
AcDbArc
 50
-30.394663492153
 51
38.37383144393
  0
ARC
  5
181
100
AcDbEntity
  8
1
  6
CONTINUOUS
 62
           7
100
AcDbCircle
 10
48.661316426253
 20
-26.732983925544
 40
10.508759813876
100
AcDbArc
 50
-13.598369798105
 51
21.577537749882
  0
ARC
  5
180
100
AcDbEntity
  8
1
  6
CONTINUOUS
 62
           7
100
AcDbCircle
 10
56.671414357942
 20
-30.949036806771
 40
2.811405023266
100
AcDbArc
 50
-30.394663492153
 51
38.373831443929
  0
ARC
  5
17F
100
AcDbEntity
  8
1
  6
CONTINUOUS
 62
           7
100
AcDbCircle
 10
-44.139812129711
 20
29.148764311038
 40
3.194925432949
100
AcDbArc
 50
96.272546324405
 51
125.462438587841
  0
ARC
  5
17E
100
AcDbEntity
  8
1
  6
CONTINUOUS
 62
           7
100
AcDbCircle
 10
-52.716124740861
 20
97.183842590991
 40
4.856063222004
100
AcDbArc
 50
-124.384247468042
 51
-55.615752531958
  0
ARC
  5
17D
100
AcDbEntity
  8
1
  6
CONTINUOUS
 62
           7
100
AcDbCircle
 10
-52.716124740861
 20
101.971716146983
 40
4.856063222004
100
AcDbArc
 50
55.615752531957
 51
124.384247468042
  0
ARC
  5
17C
100
AcDbEntity
  8
1
  6
CONTINUOUS
 62
           7
100
AcDbCircle
 10
-44.488883404909
 20
110.479273592955
 40
18.151494223968
100
AcDbArc
 50
-107.587953773994
 51
-90.0
  0
ARC
  5
17B
100
AcDbEntity
  8
1
  6
CONTINUOUS
 62
           7
100
AcDbCircle
 10
-44.488883404909
 20
88.676285145019
 40
18.151494223968
100
AcDbArc
 50
90.0
 51
107.587953773994
  0
ARC
  5
17A
100
AcDbEntity
  8
1
  6
DOT_CENTER
 62
           2
100
AcDbCircle
 10
-3.988883404909
 20
90.374320575767
 40
16.5
100
AcDbArc
 50
18.989583975888
 51
108.989583975888
  0
ARC
  5
179
100
AcDbEntity
  8
1
  6
DOT_CENTER
 62
           2
100
AcDbCircle
 10
-3.988883404909
 20
90.374320575767
 40
16.5
100
AcDbArc
 50
108.989583975888
 51
-179.999999999999
  0
ARC
  5
178
100
AcDbEntity
  8
1
  6
CONTINUOUS
 62
           7
100
AcDbCircle
 10
43.278736618011
 20
3.725476940799
 40
2.5
100
AcDbArc
 50
-161.010416024111
 51
-131.010416024112
  0
ARC
  5
177
100
AcDbEntity
  8
1
  6
CONTINUOUS
 62
           7
100
AcDbCircle
 10
43.278736618011
 20
3.725476940799
 40
2.5
100
AcDbArc
 50
48.989583975888
 51
-161.010416024111
  0
ARC
  5
176
100
AcDbEntity
  8
1
  6
CONTINUOUS
 62
           7
100
AcDbCircle
 10
-3.988883404909
 20
90.374320575767
 40
19.0
100
AcDbArc
 50
90.065149484246
 51
108.989583975888
  0
ARC
  5
175
100
AcDbEntity
  8
1
  6
CONTINUOUS
 62
           7
100
AcDbCircle
 10
-3.988883404909
 20
90.374320575767
 40
19.0
100
AcDbArc
 50
108.989583975888
 51
-179.999999999999
  0
ARC
  5
174
100
AcDbEntity
  8
1
  6
CONTINUOUS
 62
           7
100
AcDbCircle
 10
-3.988883404909
 20
90.374320575767
 40
14.0
100
AcDbArc
 50
18.989583975888
 51
108.989583975888
  0
ARC
  5
173
100
AcDbEntity
  8
1
  6
CONTINUOUS
 62
           7
100
AcDbCircle
 10
-3.988883404909
 20
90.374320575767
 40
14.0
100
AcDbArc
 50
108.989583975888
 51
-179.999999999999
  0
ARC
  5
172
100
AcDbEntity
  8
1
  6
CONTINUOUS
 62
           7
100
AcDbCircle
 10
-63.292730982202
 20
58.204057388264
 40
3.066987298108
100
AcDbArc
 50
-124.384247468042
 51
-110.31159710357
  0
ARC
  5
171
100
AcDbEntity
  8
1
  6
CONTINUOUS
 62
           7
100
AcDbCircle
 10
-68.488883404909
 20
66.405729556616
 40
11.27795018763
100
AcDbArc
 50
-107.887982798429
 51
-100.806410069008
  0
ARC
  5
170
100
AcDbEntity
  8
1
  6
CONTINUOUS
 62
           7
100
AcDbCircle
 10
-73.685035827615
 20
58.204057388264
 40
3.066987298108
100
AcDbArc
 50
-124.384247468042
 51
-110.31159710357
  0
ARC
  5
16F
100
AcDbEntity
  8
1
  6
CONTINUOUS
 62
           7
100
AcDbCircle
 10
-63.292730982202
 20
58.204057388264
 40
3.066987298108
100
AcDbArc
 50
-69.68840289643
 51
-55.615752531958
  0
ARC
  5
16E
100
AcDbEntity
  8
1
  6
CONTINUOUS
 62
           7
100
AcDbCircle
 10
-63.292730982202
 20
66.070082792049
 40
3.066987298108
100
AcDbArc
 50
55.615752531959
 51
124.384247468042
  0
ARC
  5
16D
100
AcDbEntity
  8
1
  6
CONTINUOUS
 62
           7
100
AcDbCircle
 10
-68.488883404909
 20
66.405729556616
 40
11.27795018763
100
AcDbArc
 50
-79.193589930992
 51
-72.112017201571
  0
ARC
  5
16C
100
AcDbEntity
  8
1
  6
CONTINUOUS
 62
           7
100
AcDbCircle
 10
-73.685035827615
 20
58.204057388264
 40
3.066987298108
100
AcDbArc
 50
-69.688402896429
 51
-55.615752531958
  0
ARC
  5
16B
100
AcDbEntity
  8
1
  6
CONTINUOUS
 62
           7
100
AcDbCircle
 10
-68.488883404909
 20
57.868410623697
 40
11.27795018763
100
AcDbArc
 50
72.112017201571
 51
107.887982798429
  0
ARC
  5
16A
100
AcDbEntity
  8
1
  6
CONTINUOUS
 62
           7
100
AcDbCircle
 10
-73.685035827615
 20
66.070082792049
 40
3.066987298108
100
AcDbArc
 50
55.615752531958
 51
124.384247468042
  0
ARC
  5
169
100
AcDbEntity
  8
1
  6
CONTINUOUS
 62
           7
100
AcDbCircle
 10
-44.488883404909
 20
105.479273592955
 40
18.151494223968
100
AcDbArc
 50
-107.587953773993
 51
-90.0
  0
ARC
  5
168
100
AcDbEntity
  8
1
  6
CONTINUOUS
 62
           7
100
AcDbCircle
 10
-44.488883404909
 20
74.176285145019
 40
18.151494223968
100
AcDbArc
 50
90.0
 51
107.587953773993
  0
ARC
  5
167
100
AcDbEntity
  8
1
  6
CONTINUOUS
 62
           7
100
AcDbCircle
 10
-52.716124740861
 20
92.183842590991
 40
4.856063222004
100
AcDbArc
 50
-124.384247468042
 51
-55.615752531958
  0
ARC
  5
166
100
AcDbEntity
  8
1
  6
CONTINUOUS
 62
           7
100
AcDbCircle
 10
-52.716124740861
 20
87.471716146983
 40
4.856063222004
100
AcDbArc
 50
55.615752531958
 51
124.384247468042
  0
ARC
  5
165
100
AcDbEntity
  8
1
  6
CONTINUOUS
 62
           7
100
AcDbCircle
 10
-75.988883404908
 20
28.416246977741
 40
1.0
100
AcDbArc
 50
-55.000000000001
 51
67.139888266635
  0
ARC
  5
164
100
AcDbEntity
  8
1
  6
CONTINUOUS
 62
           7
100
AcDbCircle
 10
-3.988883404909
 20
90.374320575767
 40
19.0
100
AcDbArc
 50
18.989583975888
 51
90.065149484246
  0
ARC
  5
163
100
AcDbEntity
  8
1
  6
CONTINUOUS
 62
           7
100
AcDbCircle
 10
51.329724902104
 20
-9.587930076663
 40
2.811405023266
100
AcDbArc
 50
104.605336507848
 51
173.373831443931
  0
ARC
  5
162
100
AcDbEntity
  8
1
  6
CONTINUOUS
 62
           7
100
AcDbCircle
 10
60.263628443372
 20
-11.044686160518
 40
10.508759813876
100
AcDbArc
 50
121.401630201893
 51
156.577537749882
  0
ARC
  5
161
100
AcDbEntity
  8
1
  6
CONTINUOUS
 62
           7
100
AcDbCircle
 10
57.580833460064
 20
-2.399492012896
 40
2.811405023265
100
AcDbArc
 50
104.605336507837
 51
173.373831443936
  0
ARC
  5
160
100
AcDbEntity
  8
1
  6
CONTINUOUS
 62
           7
100
AcDbCircle
 10
59.75193309082
 20
-4.28749318389
 40
2.811405023265
100
AcDbArc
 50
-75.394663492153
 51
-6.626168556066
  0
ARC
  5
15F
100
AcDbEntity
  8
1
  6
CONTINUOUS
 62
           7
100
AcDbCircle
 10
50.818029549552
 20
-2.830737100034
 40
10.508759813877
100
AcDbArc
 50
-58.598369798105
 51
-23.422462250119
  0
ARC
  5
15E
100
AcDbEntity
  8
1
  6
CONTINUOUS
 62
           7
100
AcDbCircle
 10
53.50082453286
 20
-11.475931247656
 40
2.811405023266
100
AcDbArc
 50
-75.39466349215
 51
-6.626168556074
  0
LINE
  5
15D
100
AcDbEntity
  8
1
  6
CONTINUOUS
 62
           7
100
AcDbLine
 10
4.459116595091
 20
-107.672220631013
 11
-44.488883404909
 21
-107.672220631013
  0
LINE
  5
15C
100
AcDbEntity
  8
1
  6
CONTINUOUS
 62
           7
100
AcDbLine
 10
-23.664309885452
 20
69.02319975434
 11
-23.664309885452
 21
61.517999629688
  0
LINE
  5
15B
100
AcDbEntity
  8
1
  6
CONTINUOUS
 62
           7
100
AcDbLine
 10
-17.313456924366
 20
61.517999629688
 11
-17.313456924366
 21
69.02319975434
  0
LINE
  5
15A
100
AcDbEntity
  8
1
  6
CONTINUOUS
 62
           7
100
AcDbLine
 10
-34.988883404909
 20
92.327779368987
 11
-33.519228290306
 21
91.479273592955
  0
LINE
  5
159
100
AcDbEntity
  8
1
  6
CONTINUOUS
 62
           7
100
AcDbLine
 10
-34.988883404909
 20
87.327779368987
 11
-54.058627689121
 21
87.327779368987
  0
LINE
  5
158
100
AcDbEntity
  8
1
  6
CONTINUOUS
 62
           7
100
AcDbLine
 10
-33.519228290306
 20
88.176285145019
 11
-34.988883404909
 21
87.327779368987
  0
LINE
  5
157
100
AcDbEntity
  8
1
  6
CONTINUOUS
 62
           7
100
AcDbLine
 10
-33.519228290306
 20
91.479273592955
 11
-33.519228290306
 21
88.176285145019
  0
LINE
  5
156
100
AcDbEntity
  8
1
  6
CONTINUOUS
 62
           7
100
AcDbLine
 10
-39.004055847607
 20
88.176285145019
 11
-39.004055847607
 21
91.479273592955
  0
LINE
  5
155
100
AcDbEntity
  8
1
  6
CONTINUOUS
 62
           7
100
AcDbLine
 10
-39.004055847607
 20
93.176285145019
 11
-39.004055847607
 21
105.979273592955
  0
LINE
  5
154
100
AcDbEntity
  8
1
  6
CONTINUOUS
 62
           7
100
AcDbLine
 10
-34.988883404909
 20
106.827779368987
 11
-33.519228290306
 21
105.979273592955
  0
LINE
  5
153
100
AcDbEntity
  8
1
  6
CONTINUOUS
 62
           7
100
AcDbLine
 10
-33.519228290306
 20
93.176285145019
 11
-34.988883404909
 21
92.327779368987
  0
LINE
  5
152
100
AcDbEntity
  8
1
  6
CONTINUOUS
 62
           7
100
AcDbLine
 10
-33.519228290306
 20
105.979273592955
 11
-33.519228290306
 21
93.176285145019
  0
LINE
  5
151
100
AcDbEntity
  8
1
  6
CONTINUOUS
 62
           7
100
AcDbLine
 10
-32.921442347726
 20
85.423735626029
 11
-31.988454379358
 21
65.800019955252
  0
LINE
  5
150
100
AcDbEntity
  8
1
  6
CONTINUOUS
 62
           7
100
AcDbLine
 10
-44.488883404909
 20
55.327779368987
 11
-11.13056153475
 21
55.327779368987
  0
LINE
  5
14F
100
AcDbEntity
  8
1
  6
CONTINUOUS
 62
           7
100
AcDbLine
 10
-44.488883404909
 20
29.720774720479
 11
-12.288883404909
 21
26.705327112233
  0
LINE
  5
14E
100
AcDbEntity
  8
1
  6
CONTINUOUS
 62
           7
100
AcDbLine
 10
-10.488883404909
 20
24.892821070209
 11
-10.488883404909
 21
25.362926126133
  0
LINE
  5
14D
100
AcDbEntity
  8
1
  6
CONTINUOUS
 62
           7
100
AcDbLine
 10
-13.58871126499
 20
29.217038403415
 11
-12.002408769002
 21
30.327779368987
  0
LINE
  5
14C
100
AcDbEntity
  8
1
  6
CONTINUOUS
 62
           7
100
AcDbLine
 10
-13.56245984126
 20
27.597094933452
 11
-11.749689347941
 21
26.327779368987
  0
LINE
  5
14B
100
AcDbEntity
  8
1
  6
CONTINUOUS
 62
           7
100
AcDbLine
 10
-44.488883404909
 20
26.362926126133
 11
-11.488883404909
 21
26.362926126133
  0
LINE
  5
14A
100
AcDbEntity
  8
1
  6
CONTINUOUS
 62
           7
100
AcDbLine
 10
-5.988883404908
 20
32.327779368987
 11
-5.988883404909
 21
53.327779368987
  0
LINE
  5
149
100
AcDbEntity
  8
1
  6
CONTINUOUS
 62
           7
100
AcDbLine
 10
-5.988883404909
 20
53.327779368987
 11
-8.488883404909
 21
53.327779368987
  0
LINE
  5
148
100
AcDbEntity
  8
1
  6
CONTINUOUS
 62
           7
100
AcDbLine
 10
-7.988883404908
 20
30.327779368987
 11
-44.488883404909
 21
30.327779368987
  0
LINE
  5
147
100
AcDbEntity
  8
1
  6
CONTINUOUS
 62
           7
100
AcDbLine
 10
-8.488883404909
 20
53.327779368987
 11
-44.488883404909
 21
53.327779368987
  0
LINE
  5
146
100
AcDbEntity
  8
1
  6
CONTINUOUS
 62
           7
100
AcDbLine
 10
-37.924291595157
 20
53.327779368987
 11
-37.924291595157
 21
30.536491521509
  0
LINE
  5
145
100
AcDbEntity
  8
1
  6
CONTINUOUS
 62
           7
100
AcDbLine
 10
-28.855123283196
 20
53.327779368987
 11
-28.855123283196
 21
30.536491521509
  0
LINE
  5
144
100
AcDbEntity
  8
1
  6
CONTINUOUS
 62
           7
100
AcDbLine
 10
-20.851369887518
 20
53.327779368987
 11
-20.851369887518
 21
30.536491521509
  0
LINE
  5
143
100
AcDbEntity
  8
1
  6
CONTINUOUS
 62
           7
100
AcDbLine
 10
-14.458473975213
 20
53.327779368987
 11
-14.458473975213
 21
30.536491521509
  0
LINE
  5
142
100
AcDbEntity
  8
1
  6
CONTINUOUS
 62
           7
100
AcDbLine
 10
-7.664442397936
 20
53.327779368987
 11
-7.664442397936
 21
30.707435996075
  0
LINE
  5
141
100
AcDbEntity
  8
1
  6
CONTINUOUS
 62
           2
100
AcDbLine
 10
-41.536940819365
 20
30.536491521509
 11
-37.924291595157
 21
30.536491521509
  0
LINE
  5
140
100
AcDbEntity
  8
1
  6
CONTINUOUS
 62
           2
100
AcDbLine
 10
-32.22157643296
 20
30.536491521509
 11
-28.855123283196
 21
30.536491521509
  0
LINE
  5
13F
100
AcDbEntity
  8
1
  6
CONTINUOUS
 62
           2
100
AcDbLine
 10
-23.742208744009
 20
30.536491521509
 11
-20.851369887518
 21
30.536491521509
  0
LINE
  5
13E
100
AcDbEntity
  8
1
  6
CONTINUOUS
 62
           2
100
AcDbLine
 10
-16.676692647697
 20
30.536491521509
 11
-14.458473975213
 21
30.536491521509
  0
LINE
  5
13D
100
AcDbEntity
  8
1
  6
CONTINUOUS
 62
           2
100
AcDbLine
 10
-11.111006974345
 20
30.536491521509
 11
-10.112100837944
 21
30.536491521509
  0
LINE
  5
13C
100
AcDbEntity
  8
1
  6
CONTINUOUS
 62
           7
100
AcDbLine
 10
-41.536940819365
 20
30.536491521509
 11
-41.536940819365
 21
53.327779368987
  0
LINE
  5
13B
100
AcDbEntity
  8
1
  6
CONTINUOUS
 62
           7
100
AcDbLine
 10
-32.22157643296
 20
30.536491521509
 11
-32.22157643296
 21
53.327779368987
  0
LINE
  5
13A
100
AcDbEntity
  8
1
  6
CONTINUOUS
 62
           7
100
AcDbLine
 10
-23.742208744009
 20
30.536491521509
 11
-23.742208744009
 21
53.327779368987
  0
LINE
  5
139
100
AcDbEntity
  8
1
  6
CONTINUOUS
 62
           7
100
AcDbLine
 10
-16.676692647697
 20
30.536491521509
 11
-16.676692647697
 21
53.327779368987
  0
LINE
  5
138
100
AcDbEntity
  8
1
  6
CONTINUOUS
 62
           7
100
AcDbLine
 10
-11.111006974345
 20
30.536491521509
 11
-11.111006974345
 21
53.327779368987
  0
LINE
  5
137
100
AcDbEntity
  8
1
  6
CONTINUOUS
 62
           7
100
AcDbLine
 10
-10.112100837944
 20
30.536491521509
 11
-10.112100837944
 21
53.327779368987
  0
LINE
  5
136
100
AcDbEntity
  8
1
  6
CONTINUOUS
 62
           7
100
AcDbLine
 10
-28.855123283196
 20
30.536491521509
 11
-26.886050753246
 21
32.047414015027
  0
LINE
  5
135
100
AcDbEntity
  8
1
  6
CONTINUOUS
 62
           7
100
AcDbLine
 10
-24.626210180793
 20
31.730236177685
 11
-23.742208744009
 21
30.536491521509
  0
LINE
  5
134
100
AcDbEntity
  8
1
  6
CONTINUOUS
 62
           7
100
AcDbLine
 10
-20.851369887518
 20
30.536491521509
 11
-19.088076792044
 21
32.016070107579
  0
LINE
  5
133
100
AcDbEntity
  8
1
  6
CONTINUOUS
 62
           7
100
AcDbLine
 10
-17.451323772481
 20
31.761369121617
 11
-16.676692647697
 21
30.536491521509
  0
LINE
  5
132
100
AcDbEntity
  8
1
  6
CONTINUOUS
 62
           7
100
AcDbLine
 10
-41.536940819365
 20
30.536491521509
 11
-42.984357600017
 21
31.751018408314
  0
LINE
  5
131
100
AcDbEntity
  8
1
  6
CONTINUOUS
 62
           7
100
AcDbLine
 10
-37.924291595157
 20
30.536491521509
 11
-35.887216070073
 21
31.962867160075
  0
LINE
  5
130
100
AcDbEntity
  8
1
  6
CONTINUOUS
 62
           7
100
AcDbLine
 10
-33.265508523751
 20
31.675743486728
 11
-32.22157643296
 21
30.536491521509
  0
LINE
  5
12F
100
AcDbEntity
  8
1
  6
CONTINUOUS
 62
           7
100
AcDbLine
 10
-14.458473975213
 20
30.536491521509
 11
-12.615906706261
 21
32.224893350274
  0
LINE
  5
12E
100
AcDbEntity
  8
1
  6
CONTINUOUS
 62
           7
100
AcDbLine
 10
-11.824957708935
 20
32.067563812739
 11
-11.111006974345
 21
30.536491521509
  0
LINE
  5
12D
100
AcDbEntity
  8
1
  6
CONTINUOUS
 62
           7
100
AcDbLine
 10
-10.112100837944
 20
30.536491521509
 11
-8.554209319518
 21
32.094383039935
  0
LINE
  5
12C
100
AcDbEntity
  8
1
  6
CONTINUOUS
 62
           7
100
AcDbLine
 10
-7.788765770203
 20
31.825898816608
 11
-7.664442397936
 21
30.707435996075
  0
LINE
  5
12B
100
AcDbEntity
  8
1
  6
CONTINUOUS
 62
           7
100
AcDbLine
 10
-53.988883404909
 20
106.827779368987
 11
-34.988883404909
 21
106.827779368987
  0
LINE
  5
12A
100
AcDbEntity
  8
1
  6
CONTINUOUS
 62
           7
100
AcDbLine
 10
-24.771883404909
 20
61.020599692014
 11
-24.771883404909
 21
59.327779368987
  0
LINE
  5
129
100
AcDbEntity
  8
1
  6
DOT_CENTER
 62
           2
100
AcDbLine
 10
61.563519873217
 20
-25.833130952736
 11
39.778068287181
 21
-27.352538351188
  0
LINE
  5
128
100
AcDbEntity
  8
1
  6
DOT_CENTER
 62
           2
100
AcDbLine
 10
87.875966137958
 20
-31.370647998228
 11
95.324695002252
 21
-53.016109632718
  0
LINE
  5
127
100
AcDbEntity
  8
1
  6
DOT_CENTER
 62
           2
100
AcDbLine
 10
68.618483970644
 20
-35.117244414343
 11
29.214762063823
 21
-89.331086217622
  0
LINE
  5
126
100
AcDbEntity
  8
1
  6
CONTINUOUS
 62
           7
100
AcDbLine
 10
83.662374099225
 20
-5.296965174167
 11
84.313166618333
 21
-7.188120666735
  0
LINE
  5
125
100
AcDbEntity
  8
1
  6
CONTINUOUS
 62
           7
100
AcDbLine
 10
75.152174382666
 20
-8.225531510153
 11
75.36233073274
 21
-8.836230502646
  0
LINE
  5
124
100
AcDbEntity
  8
1
  6
DOT_CENTER
 62
           2
100
AcDbLine
 10
74.652047299646
 20
7.057093578512
 11
80.849884161902
 21
-10.9533673287
  0
LINE
  5
123
100
AcDbEntity
  8
1
  6
CONTINUOUS
 62
           7
100
AcDbLine
 10
83.542204998554
 20
-4.582662615125
 11
79.777065170846
 21
6.358558521251
  0
LINE
  5
122
100
AcDbEntity
  8
1
  6
CONTINUOUS
 62
           7
100
AcDbLine
 10
71.042192109134
 20
3.352676632502
 11
74.807331936842
 21
-7.588544503873
  0
LINE
  5
121
100
AcDbEntity
  8
1
  6
CONTINUOUS
 62
           7
100
AcDbLine
 10
70.439895405986
 20
-9.091485448248
 11
66.674755578278
 21
1.849735688128
  0
LINE
  5
120
100
AcDbEntity
  8
1
  6
CONTINUOUS
 62
           7
100
AcDbLine
 10
71.84265227067
 20
-9.364418418592
 11
70.439895405986
 21
-9.091485448248
  0
LINE
  5
11F
100
AcDbEntity
  8
1
  6
CONTINUOUS
 62
           7
100
AcDbLine
 10
86.97189621122
 20
-4.158078265728
 11
71.84265227067
 21
-9.364418418592
  0
LINE
  5
11E
100
AcDbEntity
  8
1
  6
CONTINUOUS
 62
           7
100
AcDbLine
 10
87.909641529411
 20
-3.07972167075
 11
86.97189621122
 21
-4.158078265728
  0
LINE
  5
11D
100
AcDbEntity
  8
1
  6
CONTINUOUS
 62
           7
100
AcDbLine
 10
84.144501701702
 20
7.861499465626
 11
87.909641529411
 21
-3.07972167075
  0
LINE
  5
11C
100
AcDbEntity
  8
1
  6
CONTINUOUS
 62
           7
100
AcDbLine
 10
82.741744837018
 20
8.134432435969
 11
84.144501701702
 21
7.861499465626
  0
LINE
  5
11B
100
AcDbEntity
  8
1
  6
CONTINUOUS
 62
           7
100
AcDbLine
 10
67.612500896468
 20
2.928092283105
 11
82.741744837018
 21
8.134432435969
  0
LINE
  5
11A
100
AcDbEntity
  8
1
  6
CONTINUOUS
 62
           7
100
AcDbLine
 10
66.674755578278
 20
1.849735688128
 11
67.612500896468
 21
2.928092283105
  0
LINE
  5
119
100
AcDbEntity
  8
1
  6
CONTINUOUS
 62
           7
100
AcDbLine
 10
45.368332556461
 20
-69.238261530409
 11
46.956530008616
 21
-67.63822871993
  0
LINE
  5
118
100
AcDbEntity
  8
1
  6
CONTINUOUS
 62
           7
100
AcDbLine
 10
43.618984475644
 20
-67.717018019393
 11
44.983064216178
 21
-65.922091111937
  0
LINE
  5
117
100
AcDbEntity
  8
1
  6
CONTINUOUS
 62
           7
100
AcDbLine
 10
32.971676599253
 20
-81.727298233523
 11
43.666399328203
 21
-70.952877683938
  0
LINE
  5
116
100
AcDbEntity
  8
1
  6
CONTINUOUS
 62
           7
100
AcDbLine
 10
32.971676599253
 20
-81.727298233523
 11
42.157218727778
 21
-69.640485244421
  0
LINE
  5
115
100
AcDbEntity
  8
1
  6
CONTINUOUS
 62
           7
100
AcDbLine
 10
55.822110248222
 20
-80.469929199135
 11
52.892371389801
 21
-77.767351208363
  0
LINE
  5
114
100
AcDbEntity
  8
1
  6
CONTINUOUS
 62
           7
100
AcDbLine
 10
60.168791729658
 20
-68.91215070351
 11
56.184215465283
 21
-69.014373832623
  0
LINE
  5
113
100
AcDbEntity
  8
1
  6
CONTINUOUS
 62
           7
100
AcDbLine
 10
31.31478308613
 20
-69.652391786956
 11
27.330206821755
 21
-69.754614916069
  0
LINE
  5
112
100
AcDbEntity
  8
1
  6
CONTINUOUS
 62
           7
100
AcDbLine
 10
31.676888303191
 20
-58.196836420444
 11
34.606627161612
 21
-60.899414411216
  0
LINE
  5
111
100
AcDbEntity
  8
1
  6
CONTINUOUS
 62
           7
100
AcDbLine
 10
43.066074744167
 20
-56.913364116063
 11
42.847078417645
 21
-52.933497512304
  0
LINE
  5
110
100
AcDbEntity
  8
1
  6
CONTINUOUS
 62
           7
100
AcDbLine
 10
51.911797772986
 20
-59.947179280985
 11
54.52732195216
 21
-56.939467386056
  0
LINE
  5
10F
100
AcDbEntity
  8
1
  6
DOT_CENTER
 62
           2
100
AcDbLine
 10
63.338174963502
 20
-83.570830362862
 11
23.803848942426
 21
-54.836478830264
  0
LINE
  5
10E
100
AcDbEntity
  8
1
  6
DOT_CENTER
 62
           2
100
AcDbLine
 10
67.103442553527
 20
-45.474784163256
 11
63.168903704436
 21
-42.615081373631
  0
LINE
  5
10D
100
AcDbEntity
  8
1
  6
CONTINUOUS
 62
           2
100
AcDbLine
 10
65.226834240135
 20
-47.201405307874
 11
64.488195834162
 21
-49.320054819361
  0
LINE
  5
10C
100
AcDbEntity
  8
1
  6
CONTINUOUS
 62
           7
100
AcDbLine
 10
65.696811022891
 20
-47.542993984019
 11
61.699072912071
 21
-44.637356686691
  0
LINE
  5
10B
100
AcDbEntity
  8
1
  6
CONTINUOUS
 62
           7
100
AcDbLine
 10
67.103442553527
 20
-45.474784163256
 11
63.710647301632
 21
-50.463306250937
  0
LINE
  5
10A
100
AcDbEntity
  8
1
  6
CONTINUOUS
 62
           2
100
AcDbLine
 10
65.226834240135
 20
-47.201405307874
 11
66.633465770772
 21
-45.133195487111
  0
LINE
  5
109
100
AcDbEntity
  8
1
  6
CONTINUOUS
 62
           7
100
AcDbLine
 10
65.286042709821
 20
-51.608335647356
 11
61.36368244779
 21
-57.004938010048
  0
LINE
  5
108
100
AcDbEntity
  8
1
  6
CONTINUOUS
 62
           7
100
AcDbLine
 10
53.961300956681
 20
-43.377283210111
 11
50.03894069465
 21
-48.773885572802
  0
LINE
  5
107
100
AcDbEntity
  8
1
  6
CONTINUOUS
 62
           7
100
AcDbLine
 10
65.286042709821
 20
-51.608335647356
 11
53.961300956681
 21
-43.377283210111
  0
LINE
  5
106
100
AcDbEntity
  8
1
  6
DOT_CENTER
 62
           2
100
AcDbLine
 10
63.168903704436
 20
-42.615081373631
 11
59.234364855345
 21
-39.755378584005
  0
LINE
  5
105
100
AcDbEntity
  8
1
  6
CONTINUOUS
 62
           2
100
AcDbLine
 10
56.384114642453
 20
-43.429843925488
 11
58.171311584006
 21
-42.073308065509
  0
LINE
  5
104
100
AcDbEntity
  8
1
  6
CONTINUOUS
 62
           7
100
AcDbLine
 10
61.699072912071
 20
-44.637356686691
 11
57.701334801251
 21
-41.731719389363
  0
LINE
  5
103
100
AcDbEntity
  8
1
  6
CONTINUOUS
 62
           7
100
AcDbLine
 10
55.53669636487
 20
-44.52231260653
 11
59.234364855345
 21
-39.755378584005
  0
LINE
  5
102
100
AcDbEntity
  8
1
  6
CONTINUOUS
 62
           2
100
AcDbLine
 10
59.7043416381
 20
-40.096967260151
 11
58.171311584006
 21
-42.073308065509
  0
LINE
  5
101
100
AcDbEntity
  8
1
  6
CONTINUOUS
 62
           7
100
AcDbLine
 10
53.576600959561
 20
-32.404746704068
 11
52.74169950135
 21
-20.433826123132
  0
LINE
  5
100
100
AcDbEntity
  8
1
  6
CONTINUOUS
 62
           7
100
AcDbLine
 10
53.507025838044
 20
-31.40716998899
 11
55.5021792682
 21
-31.268019745955
  0
LINE
  5
FF
100
AcDbEntity
  8
1
  6
CONTINUOUS
 62
           7
100
AcDbLine
 10
48.751392641038
 20
-20.712126609202
 11
49.748969356116
 21
-20.642551487684
  0
LINE
  5
FE
100
AcDbEntity
  8
1
  6
CONTINUOUS
 62
           7
100
AcDbLine
 10
49.748969356116
 20
-20.642551487684
 11
50.583870814327
 21
-32.61347206862
  0
LINE
  5
FD
100
AcDbEntity
  8
1
  6
CONTINUOUS
 62
           7
100
AcDbLine
 10
50.583870814327
 20
-32.61347206862
 11
49.586294099249
 21
-32.683047190138
  0
LINE
  5
FC
100
AcDbEntity
  8
1
  6
CONTINUOUS
 62
           7
100
AcDbLine
 10
48.927828079321
 20
-23.241879789744
 11
40.983025751545
 21
-23.795983127396
  0
LINE
  5
FB
100
AcDbEntity
  8
1
  6
CONTINUOUS
 62
           7
100
AcDbLine
 10
49.409858660966
 20
-30.153294009595
 11
41.46505633319
 21
-30.707397347247
  0
LINE
  5
FA
100
AcDbEntity
  8
1
  6
CONTINUOUS
 62
           7
100
AcDbLine
 10
41.706071624012
 20
-34.163104457172
 11
49.650873951789
 21
-33.609001119521
  0
LINE
  5
F9
100
AcDbEntity
  8
1
  6
CONTINUOUS
 62
           7
100
AcDbLine
 10
49.650873951789
 20
-33.609001119521
 11
48.686812788499
 21
-19.786172679819
  0
LINE
  5
F8
100
AcDbEntity
  8
1
  6
CONTINUOUS
 62
           7
100
AcDbLine
 10
48.686812788499
 20
-19.786172679819
 11
40.742010460723
 21
-20.34027601747
  0
LINE
  5
F7
100
AcDbEntity
  8
1
  6
CONTINUOUS
 62
           7
100
AcDbLine
 10
40.742010460723
 20
-20.34027601747
 11
40.271990562875
 21
-21.303515142101
  0
LINE
  5
F6
100
AcDbEntity
  8
1
  6
CONTINUOUS
 62
           7
100
AcDbLine
 10
40.271990562875
 20
-21.303515142101
 11
41.106892021086
 21
-33.274435723037
  0
LINE
  5
F5
100
AcDbEntity
  8
1
  6
CONTINUOUS
 62
           7
100
AcDbLine
 10
41.106892021086
 20
-33.274435723037
 11
41.706071624012
 21
-34.163104457172
  0
LINE
  5
F4
100
AcDbEntity
  8
1
  6
CONTINUOUS
 62
           7
100
AcDbLine
 10
52.383535189247
 20
-23.000864498922
 11
50.460004544786
 21
-23.135019472979
  0
LINE
  5
F3
100
AcDbEntity
  8
1
  6
CONTINUOUS
 62
           7
100
AcDbLine
 10
52.865565770892
 20
-29.912278718773
 11
50.942035126431
 21
-30.04643369283
  0
LINE
  5
F2
100
AcDbEntity
  8
1
  6
CONTINUOUS
 62
           7
100
AcDbLine
 10
51.183050417253
 20
-33.502140802755
 11
53.106581061714
 21
-33.367985828698
  0
LINE
  5
F1
100
AcDbEntity
  8
1
  6
CONTINUOUS
 62
           7
100
AcDbLine
 10
53.106581061714
 20
-33.367985828698
 11
53.576600959561
 21
-32.404746704068
  0
LINE
  5
F0
100
AcDbEntity
  8
1
  6
CONTINUOUS
 62
           7
100
AcDbLine
 10
52.74169950135
 20
-20.433826123132
 11
52.142519898425
 21
-19.545157388996
  0
LINE
  5
EF
100
AcDbEntity
  8
1
  6
CONTINUOUS
 62
           7
100
AcDbLine
 10
52.142519898425
 20
-19.545157388996
 11
50.218989253964
 21
-19.679312363053
  0
LINE
  5
EE
100
AcDbEntity
  8
1
  6
CONTINUOUS
 62
           7
100
AcDbLine
 10
50.218989253964
 20
-19.679312363053
 11
49.748969356116
 21
-20.642551487684
  0
LINE
  5
ED
100
AcDbEntity
  8
1
  6
CONTINUOUS
 62
           7
100
AcDbLine
 10
49.748969356116
 20
-20.642551487684
 11
50.583870814327
 21
-32.61347206862
  0
LINE
  5
EC
100
AcDbEntity
  8
1
  6
CONTINUOUS
 62
           7
100
AcDbLine
 10
50.583870814327
 20
-32.61347206862
 11
51.183050417253
 21
-33.502140802755
  0
LINE
  5
EB
100
AcDbEntity
  8
1
  6
CONTINUOUS
 62
           2
100
AcDbLine
 10
52.84894955117
 20
-21.971590629424
 11
54.806428053024
 21
-21.292252595174
  0
LINE
  5
EA
100
AcDbEntity
  8
1
  6
CONTINUOUS
 62
           2
100
AcDbLine
 10
53.469350909742
 20
-30.866982197775
 11
55.5021792682
 21
-31.268019745955
  0
LINE
  5
E9
100
AcDbEntity
  8
1
  6
CONTINUOUS
 62
           7
100
AcDbLine
 10
54.806428053024
 20
-21.292252595174
 11
52.811274622868
 21
-21.43140283821
  0
LINE
  5
E8
100
AcDbEntity
  8
1
  6
CONTINUOUS
 62
           7
100
AcDbLine
 10
58.212699383229
 20
-19.700550745275
 11
55.202492065292
 21
-19.910495040057
  0
LINE
  5
E7
100
AcDbEntity
  8
1
  6
CONTINUOUS
 62
           7
100
AcDbLine
 10
58.433630066482
 20
-22.868282262706
 11
55.423422748546
 21
-23.078226557489
  0
LINE
  5
E6
100
AcDbEntity
  8
1
  6
CONTINUOUS
 62
           7
100
AcDbLine
 10
58.87549143299
 20
-29.20374529757
 11
55.865284115053
 21
-29.413689592352
  0
LINE
  5
E5
100
AcDbEntity
  8
1
  6
CONTINUOUS
 62
           7
100
AcDbLine
 10
59.096422116244
 20
-32.371476815002
 11
56.086214798307
 21
-32.581421109784
  0
LINE
  5
E4
100
AcDbEntity
  8
1
  6
CONTINUOUS
 62
           7
100
AcDbLine
 10
55.202492065292
 20
-19.910495040057
 11
54.771640492265
 21
-20.793464237635
  0
LINE
  5
E3
100
AcDbEntity
  8
1
  6
CONTINUOUS
 62
           7
100
AcDbLine
 10
54.771640492265
 20
-20.793464237635
 11
55.154303660612
 21
-26.280136170564
  0
LINE
  5
E2
100
AcDbEntity
  8
1
  6
CONTINUOUS
 62
           7
100
AcDbLine
 10
56.086214798307
 20
-32.581421109784
 11
55.536966828958
 21
-31.766808103493
  0
LINE
  5
E1
100
AcDbEntity
  8
1
  6
CONTINUOUS
 62
           7
100
AcDbLine
 10
55.536966828958
 20
-31.766808103493
 11
55.154303660612
 21
-26.280136170564
  0
LINE
  5
E0
100
AcDbEntity
  8
1
  6
CONTINUOUS
 62
           7
100
AcDbLine
 10
58.761947352577
 20
-20.515163751565
 11
58.212699383229
 21
-19.700550745275
  0
LINE
  5
DF
100
AcDbEntity
  8
1
  6
CONTINUOUS
 62
           7
100
AcDbLine
 10
59.144610520924
 20
-26.001835684494
 11
58.761947352577
 21
-20.515163751565
  0
LINE
  5
DE
100
AcDbEntity
  8
1
  6
CONTINUOUS
 62
           7
100
AcDbLine
 10
59.52727368927
 20
-31.488507617423
 11
59.096422116244
 21
-32.371476815002
  0
LINE
  5
DD
100
AcDbEntity
  8
1
  6
CONTINUOUS
 62
           7
100
AcDbLine
 10
59.144610520924
 20
-26.001835684494
 11
59.52727368927
 21
-31.488507617423
  0
LINE
  5
DC
100
AcDbEntity
  8
1
  6
CONTINUOUS
 62
           7
100
AcDbLine
 10
59.602334851361
 20
-32.564743862155
 11
58.69237223106
 21
-19.517587036487
  0
LINE
  5
DB
100
AcDbEntity
  8
1
  6
CONTINUOUS
 62
           6
100
AcDbLine
 10
57.095861048207
 20
-1.844094809387
 11
50.712384222396
 21
-9.184749249853
  0
LINE
  5
DA
100
AcDbEntity
  8
1
  6
CONTINUOUS
 62
           6
100
AcDbLine
 10
56.276194080104
 20
-1.901261770131
 11
57.095861048207
 21
-1.844094809387
  0
LINE
  5
D9
100
AcDbEntity
  8
1
  6
CONTINUOUS
 62
           6
100
AcDbLine
 10
50.712384222396
 20
-9.184749249853
 11
50.655217261652
 21
-8.36508228175
  0
LINE
  5
D8
100
AcDbEntity
  8
1
  6
CONTINUOUS
 62
           6
100
AcDbLine
 10
61.55832618159
 20
-6.49463530844
 11
56.276194080104
 21
-1.901261770131
  0
LINE
  5
D7
100
AcDbEntity
  8
1
  6
CONTINUOUS
 62
           6
100
AcDbLine
 10
55.937349363139
 20
-12.95845582006
 11
50.655217261652
 21
-8.36508228175
  0
LINE
  5
D6
100
AcDbEntity
  8
1
  6
CONTINUOUS
 62
           6
100
AcDbLine
 10
50.712384222396
 20
-9.184749249853
 11
55.563110380826
 21
-13.402969610425
  0
LINE
  5
D5
100
AcDbEntity
  8
1
  6
CONTINUOUS
 62
           6
100
AcDbLine
 10
57.095861048207
 20
-1.844094809387
 11
61.946587206637
 21
-6.062315169959
  0
LINE
  5
D4
100
AcDbEntity
  8
1
  6
CONTINUOUS
 62
           6
100
AcDbLine
 10
50.655217261652
 20
-8.36508228175
 11
56.276194080104
 21
-1.901261770131
  0
LINE
  5
D3
100
AcDbEntity
  8
1
  6
CONTINUOUS
 62
           7
100
AcDbLine
 10
87.876479778319
 20
-51.589029413898
 11
100.317446186183
 21
-47.307790826946
  0
LINE
  5
D2
100
AcDbEntity
  8
1
  6
CONTINUOUS
 62
           7
100
AcDbLine
 10
88.964433527317
 20
-52.119904766539
 11
87.876479778319
 21
-51.589029413898
  0
LINE
  5
D1
100
AcDbEntity
  8
1
  6
CONTINUOUS
 62
           7
100
AcDbLine
 10
99.786570833542
 20
-48.395744575944
 11
100.317446186183
 21
-47.307790826946
  0
LINE
  5
D0
100
AcDbEntity
  8
1
  6
CONTINUOUS
 62
           2
100
AcDbLine
 10
96.858004497556
 20
-39.885544859384
 11
99.786570833542
 21
-48.395744575944
  0
LINE
  5
CF
100
AcDbEntity
  8
1
  6
CONTINUOUS
 62
           2
100
AcDbLine
 10
88.964433527317
 20
-52.119904766539
 11
86.035867191331
 21
-43.60970504998
  0
LINE
  5
CE
100
AcDbEntity
  8
1
  6
CONTINUOUS
 62
           7
100
AcDbLine
 10
85.226452640512
 20
-43.888244248158
 11
87.876479778319
 21
-51.589029413898
  0
LINE
  5
CD
100
AcDbEntity
  8
1
  6
CONTINUOUS
 62
           7
100
AcDbLine
 10
100.317446186183
 20
-47.307790826946
 11
97.667419048375
 21
-39.607005661206
  0
LINE
  5
CC
100
AcDbEntity
  8
1
  6
CONTINUOUS
 62
           7
100
AcDbLine
 10
88.964433527317
 20
-52.119904766539
 11
99.786570833542
 21
-48.395744575944
  0
LINE
  5
CB
100
AcDbEntity
  8
1
  6
CONTINUOUS
 62
           7
100
AcDbLine
 10
73.860820314173
 20
-40.661115635469
 11
69.823661960564
 21
-46.215663625502
  0
LINE
  5
CA
100
AcDbEntity
  8
1
  6
CONTINUOUS
 62
           7
100
AcDbLine
 10
62.127212951611
 20
-7.364380583159
 11
67.038136892555
 21
-11.63494929397
  0
LINE
  5
C9
100
AcDbEntity
  8
1
  6
CONTINUOUS
 62
           6
100
AcDbLine
 10
61.93957618527
 20
-6.056218344017
 11
55.556099359459
 21
-13.396872784483
  0
LINE
  5
C8
100
AcDbEntity
  8
1
  6
CONTINUOUS
 62
           7
100
AcDbLine
 10
85.773469366737
 20
-43.700002512006
 11
97.12040232215
 21
-39.795247397358
  0
LINE
  5
C7
100
AcDbEntity
  8
1
  6
CONTINUOUS
 62
           7
100
AcDbLine
 10
85.226452640512
 20
-43.888244248158
 11
85.773469366737
 21
-43.700002512006
  0
LINE
  5
C6
100
AcDbEntity
  8
1
  6
CONTINUOUS
 62
           7
100
AcDbLine
 10
57.6900100822
 20
-37.396678871311
 11
60.087068029145
 21
-34.098672641435
  0
LINE
  5
C5
100
AcDbEntity
  8
1
  6
CONTINUOUS
 62
           7
100
AcDbLine
 10
68.426819518394
 20
-46.43664143378
 11
57.910987890478
 21
-38.793521313481
  0
LINE
  5
C4
100
AcDbEntity
  8
1
  6
CONTINUOUS
 62
           7
100
AcDbLine
 10
61.066413759833
 20
-19.352011572109
 11
58.69237223106
 21
-19.517587036487
  0
LINE
  5
C3
100
AcDbEntity
  8
1
  6
CONTINUOUS
 62
           7
100
AcDbLine
 10
78.872280771301
 20
-9.060461582373
 11
85.258744364617
 21
-6.862724407181
  0
LINE
  5
C2
100
AcDbEntity
  8
1
  6
CONTINUOUS
 62
           7
100
AcDbLine
 10
56.877643193543
 20
-13.401102984858
 11
61.788567134487
 21
-17.671671695669
  0
LINE
  5
C1
100
AcDbEntity
  8
1
  6
CONTINUOUS
 62
           7
100
AcDbLine
 10
86.529718370456
 20
-7.482905893912
 11
89.15355381891
 21
-15.107579924804
  0
LINE
  5
C0
100
AcDbEntity
  8
1
  6
CONTINUOUS
 62
           7
100
AcDbLine
 10
97.12040232215
 20
-39.795247397358
 11
97.667419048375
 21
-39.607005661206
  0
LINE
  5
BF
100
AcDbEntity
  8
1
  6
CONTINUOUS
 62
           7
100
AcDbLine
 10
86.393650853467
 20
-42.429028506168
 11
84.926742839071
 21
-38.166301036095
  0
LINE
  5
BE
100
AcDbEntity
  8
1
  6
CONTINUOUS
 62
           7
100
AcDbLine
 10
95.849428316311
 20
-39.175065910628
 11
91.862011713573
 21
-27.587924712747
  0
LINE
  5
BD
100
AcDbEntity
  8
1
  6
CONTINUOUS
 62
           7
100
AcDbLine
 10
-17.488883404909
 20
70.020599692014
 11
-17.488883404909
 21
69.520599692014
  0
LINE
  5
BC
100
AcDbEntity
  8
1
  6
CONTINUOUS
 62
           7
100
AcDbLine
 10
-23.488883404909
 20
70.020599692014
 11
-17.488883404909
 21
70.020599692014
  0
LINE
  5
BB
100
AcDbEntity
  8
1
  6
CONTINUOUS
 62
           7
100
AcDbLine
 10
-23.488883404909
 20
69.520599692014
 11
-23.488883404909
 21
70.020599692014
  0
LINE
  5
BA
100
AcDbEntity
  8
1
  6
CONTINUOUS
 62
           7
100
AcDbLine
 10
-64.988883404909
 20
74.003095493941
 11
-64.988883404909
 21
69.137070090157
  0
LINE
  5
B9
100
AcDbEntity
  8
1
  6
CONTINUOUS
 62
           7
100
AcDbLine
 10
-71.988883404909
 20
71.503095493941
 11
-64.988883404909
 21
71.503095493941
  0
LINE
  5
B8
100
AcDbEntity
  8
1
  6
CONTINUOUS
 62
           2
100
AcDbLine
 10
-71.447383404909
 20
71.503095493941
 11
-71.447383404909
 21
69.137070090157
  0
LINE
  5
B7
100
AcDbEntity
  8
1
  6
CONTINUOUS
 62
           2
100
AcDbLine
 10
-65.530383404909
 20
71.503095493941
 11
-64.988883404909
 21
74.003095493941
  0
LINE
  5
B6
100
AcDbEntity
  8
1
  6
CONTINUOUS
 62
           2
100
AcDbLine
 10
-71.447383404909
 20
71.503095493941
 11
-71.988883404909
 21
74.003095493941
  0
LINE
  5
B5
100
AcDbEntity
  8
1
  6
CONTINUOUS
 62
           7
100
AcDbLine
 10
-73.988883404909
 20
79.003095493941
 11
-62.988883404909
 21
79.003095493941
  0
LINE
  5
B4
100
AcDbEntity
  8
1
  6
CONTINUOUS
 62
           7
100
AcDbLine
 10
-62.488883404909
 20
78.503095493941
 11
-62.488883404909
 21
74.503095493941
  0
LINE
  5
B3
100
AcDbEntity
  8
1
  6
CONTINUOUS
 62
           7
100
AcDbLine
 10
-62.988883404909
 20
74.003095493941
 11
-73.988883404909
 21
74.003095493941
  0
LINE
  5
B2
100
AcDbEntity
  8
1
  6
CONTINUOUS
 62
           7
100
AcDbLine
 10
-74.488883404909
 20
74.503095493941
 11
-74.488883404909
 21
78.503095493941
  0
LINE
  5
B1
100
AcDbEntity
  8
1
  6
CONTINUOUS
 62
           7
100
AcDbLine
 10
-74.488883404909
 20
74.503095493941
 11
-73.988883404909
 21
74.003095493941
  0
LINE
  5
B0
100
AcDbEntity
  8
1
  6
CONTINUOUS
 62
           7
100
AcDbLine
 10
-74.488883404909
 20
78.503095493941
 11
-73.988883404909
 21
79.003095493941
  0
LINE
  5
AF
100
AcDbEntity
  8
1
  6
CONTINUOUS
 62
           7
100
AcDbLine
 10
-62.488883404909
 20
78.503095493941
 11
-62.988883404909
 21
79.003095493941
  0
LINE
  5
AE
100
AcDbEntity
  8
1
  6
CONTINUOUS
 62
           7
100
AcDbLine
 10
-62.988883404909
 20
74.003095493941
 11
-62.488883404909
 21
74.503095493941
  0
LINE
  5
AD
100
AcDbEntity
  8
1
  6
CONTINUOUS
 62
           7
100
AcDbLine
 10
-74.488883404909
 20
78.503095493941
 11
-62.488883404909
 21
78.503095493941
  0
LINE
  5
AC
100
AcDbEntity
  8
1
  6
CONTINUOUS
 62
           7
100
AcDbLine
 10
-62.488883404909
 20
74.503095493941
 11
-74.488883404909
 21
74.503095493941
  0
LINE
  5
AB
100
AcDbEntity
  8
1
  6
CONTINUOUS
 62
           2
100
AcDbLine
 10
-62.988883404909
 20
78.503095493941
 11
-62.988883404909
 21
74.503095493941
  0
LINE
  5
AA
100
AcDbEntity
  8
1
  6
CONTINUOUS
 62
           2
100
AcDbLine
 10
-63.488883404909
 20
74.503095493941
 11
-63.488883404909
 21
78.503095493941
  0
LINE
  5
A9
100
AcDbEntity
  8
1
  6
CONTINUOUS
 62
           2
100
AcDbLine
 10
-63.988883404909
 20
78.503095493941
 11
-63.988883404909
 21
74.503095493941
  0
LINE
  5
A8
100
AcDbEntity
  8
1
  6
CONTINUOUS
 62
           2
100
AcDbLine
 10
-64.488883404909
 20
74.503095493941
 11
-64.488883404909
 21
78.503095493941
  0
LINE
  5
A7
100
AcDbEntity
  8
1
  6
CONTINUOUS
 62
           2
100
AcDbLine
 10
-65.488883404909
 20
78.503095493941
 11
-65.488883404909
 21
74.503095493941
  0
LINE
  5
A6
100
AcDbEntity
  8
1
  6
CONTINUOUS
 62
           2
100
AcDbLine
 10
-66.488883404909
 20
74.503095493941
 11
-66.488883404909
 21
78.503095493941
  0
LINE
  5
A5
100
AcDbEntity
  8
1
  6
CONTINUOUS
 62
           2
100
AcDbLine
 10
-67.488883404909
 20
78.503095493941
 11
-67.488883404909
 21
74.503095493941
  0
LINE
  5
A4
100
AcDbEntity
  8
1
  6
CONTINUOUS
 62
           2
100
AcDbLine
 10
-69.488883404909
 20
78.503095493941
 11
-69.488883404909
 21
74.503095493941
  0
LINE
  5
A3
100
AcDbEntity
  8
1
  6
CONTINUOUS
 62
           2
100
AcDbLine
 10
-70.488883404909
 20
74.503095493941
 11
-70.488883404909
 21
78.503095493941
  0
LINE
  5
A2
100
AcDbEntity
  8
1
  6
CONTINUOUS
 62
           2
100
AcDbLine
 10
-71.488883404909
 20
78.503095493941
 11
-71.488883404909
 21
74.503095493941
  0
LINE
  5
A1
100
AcDbEntity
  8
1
  6
CONTINUOUS
 62
           2
100
AcDbLine
 10
-72.488883404909
 20
74.503095493941
 11
-72.488883404909
 21
78.503095493941
  0
LINE
  5
A0
100
AcDbEntity
  8
1
  6
CONTINUOUS
 62
           2
100
AcDbLine
 10
-72.988883404909
 20
78.503095493941
 11
-72.988883404909
 21
74.503095493941
  0
LINE
  5
9F
100
AcDbEntity
  8
1
  6
CONTINUOUS
 62
           2
100
AcDbLine
 10
-73.488883404909
 20
74.503095493941
 11
-73.488883404909
 21
78.503095493941
  0
LINE
  5
9E
100
AcDbEntity
  8
1
  6
CONTINUOUS
 62
           2
100
AcDbLine
 10
-73.988883404909
 20
78.503095493941
 11
-73.988883404909
 21
74.503095493941
  0
LINE
  5
9D
100
AcDbEntity
  8
1
  6
DOT_CENTER
 62
           2
100
AcDbLine
 10
-72.988883404909
 20
69.137070090157
 11
-72.988883404909
 21
73.753095493941
  0
LINE
  5
9C
100
AcDbEntity
  8
1
  6
DOT_CENTER
 62
           2
100
AcDbLine
 10
-72.488883404909
 20
73.753095493941
 11
-72.488883404909
 21
69.137070090157
  0
LINE
  5
9B
100
AcDbEntity
  8
1
  6
DOT_CENTER
 62
           2
100
AcDbLine
 10
-64.488883404909
 20
73.753095493941
 11
-64.488883404909
 21
69.137070090157
  0
LINE
  5
9A
100
AcDbEntity
  8
1
  6
DOT_CENTER
 62
           2
100
AcDbLine
 10
-63.988883404909
 20
69.137070090157
 11
-63.988883404909
 21
73.753095493941
  0
LINE
  5
99
100
AcDbEntity
  8
1
  6
DOT_CENTER
 62
           2
100
AcDbLine
 10
-64.238883404909
 20
74.19512923428
 11
-64.238883404909
 21
68.739109774675
  0
LINE
  5
98
100
AcDbEntity
  8
1
  6
DOT_CENTER
 62
           2
100
AcDbLine
 10
-72.738883404909
 20
68.698240715053
 11
-72.738883404909
 21
74.297301883336
  0
LINE
  5
97
100
AcDbEntity
  8
1
  6
CONTINUOUS
 62
           7
100
AcDbLine
 10
-71.988883404909
 20
69.137070090157
 11
-71.988883404909
 21
74.003095493941
  0
LINE
  5
96
100
AcDbEntity
  8
1
  6
CONTINUOUS
 62
           2
100
AcDbLine
 10
-65.530383404909
 20
69.137070090157
 11
-65.530383404909
 21
71.503095493941
  0
LINE
  5
95
100
AcDbEntity
  8
1
  6
CONTINUOUS
 62
           7
100
AcDbLine
 10
-81.313324411881
 20
30.707435996075
 11
-81.189001039614
 21
31.825898816608
  0
LINE
  5
94
100
AcDbEntity
  8
1
  6
CONTINUOUS
 62
           7
100
AcDbLine
 10
-80.423557490299
 20
32.094383039935
 11
-78.865665971873
 21
30.536491521509
  0
LINE
  5
93
100
AcDbEntity
  8
1
  6
CONTINUOUS
 62
           7
100
AcDbLine
 10
-77.866759835472
 20
30.536491521509
 11
-77.152809100882
 21
32.067563812739
  0
LINE
  5
92
100
AcDbEntity
  8
1
  6
CONTINUOUS
 62
           7
100
AcDbLine
 10
-76.361860103556
 20
32.224893350274
 11
-74.519292834604
 21
30.536491521509
  0
LINE
  5
91
100
AcDbEntity
  8
1
  6
CONTINUOUS
 62
           7
100
AcDbLine
 10
-56.756190376857
 20
30.536491521509
 11
-55.712258286066
 21
31.675743486728
  0
LINE
  5
90
100
AcDbEntity
  8
1
  6
CONTINUOUS
 62
           7
100
AcDbLine
 10
-53.090550739744
 20
31.962867160075
 11
-51.05347521466
 21
30.536491521509
  0
LINE
  5
8F
100
AcDbEntity
  8
1
  6
CONTINUOUS
 62
           7
100
AcDbLine
 10
-45.9934092098
 20
31.751018408314
 11
-47.440825990452
 21
30.536491521509
  0
LINE
  5
8E
100
AcDbEntity
  8
1
  6
CONTINUOUS
 62
           7
100
AcDbLine
 10
-72.30107416212
 20
30.536491521509
 11
-71.526443037336
 21
31.761369121617
  0
LINE
  5
8D
100
AcDbEntity
  8
1
  6
CONTINUOUS
 62
           7
100
AcDbLine
 10
-69.889690017773
 20
32.016070107579
 11
-68.126396922299
 21
30.536491521509
  0
LINE
  5
8C
100
AcDbEntity
  8
1
  6
CONTINUOUS
 62
           7
100
AcDbLine
 10
-65.235558065808
 20
30.536491521509
 11
-64.351556629024
 21
31.730236177685
  0
LINE
  5
8B
100
AcDbEntity
  8
1
  6
CONTINUOUS
 62
           7
100
AcDbLine
 10
-62.091716056571
 20
32.047414015027
 11
-60.122643526621
 21
30.536491521509
  0
LINE
  5
8A
100
AcDbEntity
  8
1
  6
CONTINUOUS
 62
           7
100
AcDbLine
 10
-78.865665971873
 20
53.327779368987
 11
-78.865665971873
 21
30.536491521509
  0
LINE
  5
89
100
AcDbEntity
  8
1
  6
CONTINUOUS
 62
           7
100
AcDbLine
 10
-77.866759835472
 20
53.327779368987
 11
-77.866759835472
 21
30.536491521509
  0
LINE
  5
88
100
AcDbEntity
  8
1
  6
CONTINUOUS
 62
           7
100
AcDbLine
 10
-72.30107416212
 20
53.327779368987
 11
-72.30107416212
 21
30.536491521509
  0
LINE
  5
87
100
AcDbEntity
  8
1
  6
CONTINUOUS
 62
           7
100
AcDbLine
 10
-65.235558065808
 20
53.327779368987
 11
-65.235558065808
 21
30.536491521509
  0
LINE
  5
86
100
AcDbEntity
  8
1
  6
CONTINUOUS
 62
           7
100
AcDbLine
 10
-56.756190376857
 20
53.327779368987
 11
-56.756190376857
 21
30.536491521509
  0
LINE
  5
85
100
AcDbEntity
  8
1
  6
CONTINUOUS
 62
           7
100
AcDbLine
 10
-47.440825990452
 20
53.327779368987
 11
-47.440825990452
 21
30.536491521509
  0
LINE
  5
84
100
AcDbEntity
  8
1
  6
CONTINUOUS
 62
           2
100
AcDbLine
 10
-78.865665971873
 20
30.536491521509
 11
-77.866759835472
 21
30.536491521509
  0
LINE
  5
83
100
AcDbEntity
  8
1
  6
CONTINUOUS
 62
           2
100
AcDbLine
 10
-74.519292834604
 20
30.536491521509
 11
-72.30107416212
 21
30.536491521509
  0
LINE
  5
82
100
AcDbEntity
  8
1
  6
CONTINUOUS
 62
           2
100
AcDbLine
 10
-68.126396922299
 20
30.536491521509
 11
-65.235558065808
 21
30.536491521509
  0
LINE
  5
81
100
AcDbEntity
  8
1
  6
CONTINUOUS
 62
           2
100
AcDbLine
 10
-60.122643526621
 20
30.536491521509
 11
-56.756190376857
 21
30.536491521509
  0
LINE
  5
80
100
AcDbEntity
  8
1
  6
CONTINUOUS
 62
           2
100
AcDbLine
 10
-51.05347521466
 20
30.536491521509
 11
-47.440825990452
 21
30.536491521509
  0
LINE
  5
7F
100
AcDbEntity
  8
1
  6
CONTINUOUS
 62
           7
100
AcDbLine
 10
-81.313324411881
 20
30.707435996075
 11
-81.313324411881
 21
53.327779368987
  0
LINE
  5
7E
100
AcDbEntity
  8
1
  6
CONTINUOUS
 62
           7
100
AcDbLine
 10
-74.519292834604
 20
30.536491521509
 11
-74.519292834604
 21
53.327779368987
  0
LINE
  5
7D
100
AcDbEntity
  8
1
  6
CONTINUOUS
 62
           7
100
AcDbLine
 10
-68.126396922299
 20
30.536491521509
 11
-68.126396922299
 21
53.327779368987
  0
LINE
  5
7C
100
AcDbEntity
  8
1
  6
CONTINUOUS
 62
           7
100
AcDbLine
 10
-60.122643526621
 20
30.536491521509
 11
-60.122643526621
 21
53.327779368987
  0
LINE
  5
7B
100
AcDbEntity
  8
1
  6
CONTINUOUS
 62
           7
100
AcDbLine
 10
-51.05347521466
 20
30.536491521509
 11
-51.05347521466
 21
53.327779368987
  0
LINE
  5
7A
100
AcDbEntity
  8
1
  6
CONTINUOUS
 62
           7
100
AcDbLine
 10
-44.488883404909
 20
53.327779368987
 11
-80.488883404909
 21
53.327779368987
  0
LINE
  5
79
100
AcDbEntity
  8
1
  6
CONTINUOUS
 62
           7
100
AcDbLine
 10
-77.847205275067
 20
55.327779368987
 11
-44.488883404909
 21
55.327779368987
  0
LINE
  5
78
100
AcDbEntity
  8
1
  6
CONTINUOUS
 62
           7
100
AcDbLine
 10
-44.488883404909
 20
30.327779368987
 11
-80.988883404909
 21
30.327779368987
  0
LINE
  5
77
100
AcDbEntity
  8
1
  6
CONTINUOUS
 62
           7
100
AcDbLine
 10
-80.488883404909
 20
53.327779368987
 11
-82.988883404909
 21
53.327779368987
  0
LINE
  5
76
100
AcDbEntity
  8
1
  6
CONTINUOUS
 62
           7
100
AcDbLine
 10
-56.989312430459
 20
65.800019955252
 11
-56.056324462091
 21
85.423735626029
  0
LINE
  5
75
100
AcDbEntity
  8
1
  6
CONTINUOUS
 62
           7
100
AcDbLine
 10
-82.988883404909
 20
53.327779368987
 11
-82.988883404909
 21
32.327779368987
  0
LINE
  5
74
100
AcDbEntity
  8
1
  6
CONTINUOUS
 62
           7
100
AcDbLine
 10
-78.488883404909
 20
55.327779368987
 11
-65.369056142804
 21
55.327779368987
  0
LINE
  5
73
100
AcDbEntity
  8
1
  6
CONTINUOUS
 62
           7
100
AcDbLine
 10
-14.138030443823
 20
55.327779368987
 11
-14.138030443823
 21
58.836539182863
  0
LINE
  5
72
100
AcDbEntity
  8
1
  6
CONTINUOUS
 62
           7
100
AcDbLine
 10
-14.138030443823
 20
58.836539182863
 11
-14.988883404909
 21
59.327779368987
  0
LINE
  5
71
100
AcDbEntity
  8
1
  6
CONTINUOUS
 62
           7
100
AcDbLine
 10
-14.988883404909
 20
59.327779368987
 11
-20.488883404909
 21
59.327779368987
  0
LINE
  5
70
100
AcDbEntity
  8
1
  6
CONTINUOUS
 62
           7
100
AcDbLine
 10
-25.988883404909
 20
59.327779368987
 11
-26.839736365994
 21
58.836539182863
  0
LINE
  5
6F
100
AcDbEntity
  8
1
  6
CONTINUOUS
 62
           7
100
AcDbLine
 10
-26.839736365994
 20
58.836539182863
 11
-26.839736365994
 21
55.327779368987
  0
LINE
  5
6E
100
AcDbEntity
  8
1
  6
CONTINUOUS
 62
           7
100
AcDbLine
 10
-20.488883404909
 20
59.327779368987
 11
-25.988883404909
 21
59.327779368987
  0
LINE
  5
6D
100
AcDbEntity
  8
1
  6
CONTINUOUS
 62
           7
100
AcDbLine
 10
-16.205883404909
 20
61.020599692014
 11
-16.205883404909
 21
59.327779368987
  0
LINE
  5
6C
100
AcDbEntity
  8
1
  6
CONTINUOUS
 62
           7
100
AcDbLine
 10
-55.458538519511
 20
93.176285145019
 11
-55.458538519511
 21
105.979273592955
  0
LINE
  5
6B
100
AcDbEntity
  8
1
  6
CONTINUOUS
 62
           7
100
AcDbLine
 10
-53.988883404909
 20
92.327779368987
 11
-55.458538519511
 21
93.176285145019
  0
LINE
  5
6A
100
AcDbEntity
  8
1
  6
CONTINUOUS
 62
           7
100
AcDbLine
 10
-55.458538519511
 20
105.979273592955
 11
-53.988883404909
 21
106.827779368987
  0
LINE
  5
69
100
AcDbEntity
  8
1
  6
CONTINUOUS
 62
           7
100
AcDbLine
 10
-49.97371096221
 20
105.979273592955
 11
-49.97371096221
 21
93.176285145019
  0
LINE
  5
68
100
AcDbEntity
  8
1
  6
DOT_CENTER
 62
           2
100
AcDbLine
 10
-68.488883404909
 20
80.791898966632
 11
-68.488883404909
 21
54.12057874248
  0
LINE
  5
67
100
AcDbEntity
  8
1
  6
DOT_CENTER
 62
           2
100
AcDbLine
 10
-68.488883404909
 20
54.12057874248
 11
-68.488883404909
 21
49.74393366997
  0
LINE
  5
66
100
AcDbEntity
  8
1
  6
DOT_CENTER
 62
           2
100
AcDbLine
 10
-44.488883404909
 20
113.951491969569
 11
-44.488883404909
 21
-116.259771766695
  0
LINE
  5
65
100
AcDbEntity
  8
1
  6
CONTINUOUS
 62
           7
100
AcDbLine
 10
50.365231561284
 20
-6.41264859694
 11
49.987936411178
 21
-6.084550487061
  0
LINE
  5
64
100
AcDbEntity
  8
1
  6
CONTINUOUS
 62
           7
100
AcDbLine
 10
-20.488883404909
 20
61.020599692014
 11
-25.988883404909
 21
61.020599692014
  0
LINE
  5
63
100
AcDbEntity
  8
1
  6
CONTINUOUS
 62
           7
100
AcDbLine
 10
53.597015619849
 20
-1.934303835892
 11
53.925113729729
 21
-1.557008685786
  0
LINE
  5
62
100
AcDbEntity
  8
1
  6
CONTINUOUS
 62
           7
100
AcDbLine
 10
49.987936411178
 20
-6.084550487061
 11
53.597015619849
 21
-1.934303835892
  0
LINE
  5
61
100
AcDbEntity
  8
1
  6
CONTINUOUS
 62
           7
100
AcDbLine
 10
53.925113729729
 20
-1.557008685786
 11
54.302408879835
 21
-1.885106795665
  0
LINE
  5
60
100
AcDbEntity
  8
1
  6
CONTINUOUS
 62
           7
100
AcDbLine
 10
50.365231561284
 20
-6.41264859694
 11
55.942899429231
 21
0.001368954866
  0
LINE
  5
5F
100
AcDbEntity
  8
1
  6
CONTINUOUS
 62
           7
100
AcDbLine
 10
55.138758563693
 20
-13.876792215418
 11
54.209746987534
 21
-14.196487653633
  0
LINE
  5
5E
100
AcDbEntity
  8
1
  6
CONTINUOUS
 62
           7
100
AcDbLine
 10
62.356916981037
 20
-5.576298913082
 11
55.138758563693
 21
-13.876792215418
  0
LINE
  5
5D
100
AcDbEntity
  8
1
  6
CONTINUOUS
 62
           7
100
AcDbLine
 10
62.544558398148
 20
-4.611903568611
 11
62.356916981037
 21
-5.576298913082
  0
LINE
  5
5C
100
AcDbEntity
  8
1
  6
CONTINUOUS
 62
           7
100
AcDbLine
 10
56.87191100539
 20
0.32106439308
 11
62.544558398148
 21
-4.611903568611
  0
LINE
  5
5B
100
AcDbEntity
  8
1
  6
CONTINUOUS
 62
           7
100
AcDbLine
 10
55.942899429231
 20
0.001368954866
 11
56.87191100539
 21
0.32106439308
  0
LINE
  5
5A
100
AcDbEntity
  8
1
  6
CONTINUOUS
 62
           7
100
AcDbLine
 10
48.724741011888
 20
-8.299124347471
 11
50.365231561284
 21
-6.41264859694
  0
LINE
  5
59
100
AcDbEntity
  8
1
  6
CONTINUOUS
 62
           7
100
AcDbLine
 10
48.537099594776
 20
-9.263519691941
 11
48.724741011888
 21
-8.299124347471
  0
LINE
  5
58
100
AcDbEntity
  8
1
  6
CONTINUOUS
 62
           7
100
AcDbLine
 10
54.209746987534
 20
-14.196487653633
 11
48.537099594776
 21
-9.263519691941
  0
LINE
  5
57
100
AcDbEntity
  8
1
  6
CONTINUOUS
 62
           7
100
AcDbLine
 10
-20.488883404909
 20
69.520599692014
 11
-14.988883404909
 21
69.520599692014
  0
LINE
  5
56
100
AcDbEntity
  8
1
  6
CONTINUOUS
 62
           7
100
AcDbLine
 10
-25.988883404909
 20
61.020599692014
 11
-26.839736365995
 21
61.511839878138
  0
LINE
  5
55
100
AcDbEntity
  8
1
  6
CONTINUOUS
 62
           7
100
AcDbLine
 10
-14.988883404909
 20
61.020599692014
 11
-20.488883404909
 21
61.020599692014
  0
LINE
  5
54
100
AcDbEntity
  8
1
  6
CONTINUOUS
 62
           7
100
AcDbLine
 10
-14.138030443823
 20
61.511839878138
 11
-14.988883404909
 21
61.020599692014
  0
LINE
  5
53
100
AcDbEntity
  8
1
  6
CONTINUOUS
 62
           7
100
AcDbLine
 10
-14.138030443823
 20
69.029359505891
 11
-14.138030443823
 21
61.511839878138
  0
LINE
  5
52
100
AcDbEntity
  8
1
  6
CONTINUOUS
 62
           7
100
AcDbLine
 10
-14.988883404909
 20
69.520599692014
 11
-14.138030443823
 21
69.029359505891
  0
LINE
  5
51
100
AcDbEntity
  8
1
  6
CONTINUOUS
 62
           7
100
AcDbLine
 10
-25.988883404909
 20
69.520599692014
 11
-20.488883404909
 21
69.520599692014
  0
LINE
  5
50
100
AcDbEntity
  8
1
  6
CONTINUOUS
 62
           7
100
AcDbLine
 10
-26.839736365995
 20
69.029359505891
 11
-25.988883404909
 21
69.520599692014
  0
LINE
  5
4F
100
AcDbEntity
  8
1
  6
CONTINUOUS
 62
           7
100
AcDbLine
 10
-26.839736365995
 20
61.511839878138
 11
-26.839736365995
 21
69.029359505891
  0
LINE
  5
4E
100
AcDbEntity
  8
1
  6
DOT_CENTER
 62
           2
100
AcDbLine
 10
-20.488883404909
 20
46.524825893709
 11
-20.488883404909
 21
90.374320575767
  0
LINE
  5
4D
100
AcDbEntity
  8
1
  6
DOT_CENTER
 62
           2
100
AcDbLine
 10
44.092227266896
 20
1.361532575089
 11
11.613149408784
 21
95.743358858409
  0
LINE
  5
4C
100
AcDbEntity
  8
1
  6
DOT_CENTER
 62
           2
100
AcDbLine
 10
41.384461297417
 20
1.547162376022
 11
45.173011938605
 21
5.903791505577
  0
LINE
  5
4B
100
AcDbEntity
  8
1
  6
CONTINUOUS
 62
           7
100
AcDbLine
 10
53.597015619849
 20
-1.934303835892
 11
44.919227167407
 21
5.61195269133
  0
LINE
  5
4A
100
AcDbEntity
  8
1
  6
CONTINUOUS
 62
           7
100
AcDbLine
 10
41.638246068614
 20
1.839001190269
 11
50.316034521057
 21
-5.707255336954
  0
LINE
  5
49
100
AcDbEntity
  8
1
  6
CONTINUOUS
 62
           7
100
AcDbLine
 10
13.977093774495
 20
96.556849507294
 11
45.424706821303
 21
5.172384573429
  0
LINE
  5
48
100
AcDbEntity
  8
1
  6
CONTINUOUS
 62
           7
100
AcDbLine
 10
9.249205043073
 20
94.929868209524
 11
40.9147922523
 21
2.911986291914
  0
LINE
  5
47
100
AcDbEntity
  8
1
  6
CONTINUOUS
 62
           7
100
AcDbLine
 10
-17.988883404909
 20
90.374320575767
 11
-17.988883404909
 21
70.020599692014
  0
LINE
  5
46
100
AcDbEntity
  8
1
  6
CONTINUOUS
 62
           7
100
AcDbLine
 10
-22.988883404909
 20
70.020599692014
 11
-22.988883404909
 21
90.374320575767
  0
LINE
  5
45
100
AcDbEntity
  8
1
  6
CONTINUOUS
 62
           7
100
AcDbLine
 10
-71.952985020046
 20
55.672968475019
 11
-71.952985020046
 21
68.601171705294
  0
LINE
  5
44
100
AcDbEntity
  8
1
  6
CONTINUOUS
 62
           7
100
AcDbLine
 10
-74.819201565317
 20
55.327779368987
 11
-75.417086635184
 21
55.672968475019
  0
LINE
  5
43
100
AcDbEntity
  8
1
  6
CONTINUOUS
 62
           7
100
AcDbLine
 10
-65.024781789771
 20
68.601171705294
 11
-65.024781789771
 21
55.672968475019
  0
LINE
  5
42
100
AcDbEntity
  8
1
  6
CONTINUOUS
 62
           7
100
AcDbLine
 10
-61.560680174633
 20
55.672968475019
 11
-62.1585652445
 21
55.327779368987
  0
LINE
  5
41
100
AcDbEntity
  8
1
  6
CONTINUOUS
 62
           7
100
AcDbLine
 10
-61.560680174633
 20
68.601171705294
 11
-61.560680174633
 21
55.672968475019
  0
LINE
  5
40
100
AcDbEntity
  8
1
  6
CONTINUOUS
 62
           7
100
AcDbLine
 10
-62.488883404909
 20
69.137070090157
 11
-61.560680174633
 21
68.601171705294
  0
LINE
  5
3F
100
AcDbEntity
  8
1
  6
CONTINUOUS
 62
           7
100
AcDbLine
 10
-74.488883404909
 20
69.137070090157
 11
-62.488883404909
 21
69.137070090157
  0
LINE
  5
3E
100
AcDbEntity
  8
1
  6
CONTINUOUS
 62
           7
100
AcDbLine
 10
-75.417086635184
 20
68.601171705294
 11
-74.488883404909
 21
69.137070090157
  0
LINE
  5
3D
100
AcDbEntity
  8
1
  6
CONTINUOUS
 62
           7
100
AcDbLine
 10
-75.417086635184
 20
55.672968475019
 11
-75.417086635184
 21
68.601171705294
  0
LINE
  5
3C
100
AcDbEntity
  8
1
  6
CONTINUOUS
 62
           7
100
AcDbLine
 10
-49.97371096221
 20
91.479273592955
 11
-49.97371096221
 21
88.176285145019
  0
LINE
  5
3B
100
AcDbEntity
  8
1
  6
CONTINUOUS
 62
           7
100
AcDbLine
 10
-53.988883404909
 20
92.327779368987
 11
-34.988883404909
 21
92.327779368987
  0
LINE
  5
3A
100
AcDbEntity
  8
1
  6
CONTINUOUS
 62
           7
100
AcDbLine
 10
-55.458538519511
 20
88.176285145019
 11
-55.458538519511
 21
91.479273592955
  0
LINE
  5
39
100
AcDbEntity
  8
1
  6
CONTINUOUS
 62
           7
100
AcDbLine
 10
-53.988883404909
 20
87.327779368987
 11
-55.458538519511
 21
88.176285145019
  0
LINE
  5
38
100
AcDbEntity
  8
1
  6
CONTINUOUS
 62
           7
100
AcDbLine
 10
-55.458538519511
 20
91.479273592955
 11
-53.988883404909
 21
92.327779368987
  0
LINE
  5
37
100
AcDbEntity
  8
1
  6
CONTINUOUS
 62
           7
100
AcDbLine
 10
3.668244213371
 20
11.962203958185
 11
-6.558717901922
 21
18.005408844495
  0
LINE
  5
36
100
AcDbEntity
  8
1
  6
CONTINUOUS
 62
           7
100
AcDbLine
 10
-77.488883404908
 20
26.362926126133
 11
-44.488883404909
 21
26.362926126133
  0
LINE
  5
35
100
AcDbEntity
  8
1
  6
CONTINUOUS
 62
           7
100
AcDbLine
 10
-77.228077461876
 20
26.327779368987
 11
-75.415306968557
 21
27.597094933452
  0
LINE
  5
34
100
AcDbEntity
  8
1
  6
CONTINUOUS
 62
           7
100
AcDbLine
 10
-76.975358040815
 20
30.327779368987
 11
-75.389055544827
 21
29.217038403415
  0
LINE
  5
33
100
AcDbEntity
  8
1
  6
CONTINUOUS
 62
           7
100
AcDbLine
 10
-78.488883404908
 20
25.362926126133
 11
-78.488883404909
 21
24.892821070209
  0
LINE
  5
32
100
AcDbEntity
  8
1
  6
CONTINUOUS
 62
           7
100
AcDbLine
 10
-92.646011023188
 20
12.553113049094
 11
-82.419048907895
 21
18.005408844495
  0
LINE
  5
31
100
AcDbEntity
  8
1
  6
CONTINUOUS
 62
           7
100
AcDbLine
 10
-100.436883404909
 20
-100.672220631013
 11
-101.488883404909
 21
-2.943564458763
  0
LINE
  5
30
100
AcDbEntity
  8
1
  6
CONTINUOUS
 62
           7
100
AcDbLine
 10
-44.488883404909
 20
-107.672220631013
 11
-93.436883404908
 21
-107.672220631013
  0
LINE
  5
2F
100
AcDbEntity
  8
1
  6
CONTINUOUS
 62
           7
100
AcDbLine
 10
11.562816251437
 20
-100.672220631013
 11
12.511116595091
 21
-3.534473549672
  0
LINE
  5
2E
100
AcDbEntity
  8
1
  6
CONTINUOUS
 62
           7
100
AcDbLine
 10
54.788208152736
 20
-2.075081628175
 11
60.460855545495
 21
-7.008049589867
  0
LINE
  5
2D
100
AcDbEntity
  8
1
  6
CONTINUOUS
 62
           7
100
AcDbLine
 10
56.293449840188
 20
-11.800341632377
 11
50.62080244743
 21
-6.867373670686
  0
LINE
  5
2C
100
AcDbEntity
  8
1
  6
CONTINUOUS
 62
           7
100
AcDbLine
 10
-76.688883404908
 20
26.705327112233
 11
-44.488883404909
 21
29.720774720479
  0
LINE
  5
2B
100
AcDbEntity
  8
1
  6
DOT_CENTER
 62
           2
100
AcDbLine
 10
64.677911226529
 20
-14.88337276229
 11
40.966700149834
 21
5.7360376251
  0
POINT
  5
2A
100
AcDbEntity
  8
1
 62
           6
100
AcDbPoint
 10
12.511116595091
 20
-99.408539365144
  0
POINT
  5
29
100
AcDbEntity
  8
1
 62
           6
100
AcDbPoint
 10
12.511116595091
 20
-21.649275510719
  0
POINT
  5
28
100
AcDbEntity
  8
1
 62
           6
100
AcDbPoint
 10
-101.488883404909
 20
-99.408539365144
  0
ENDSEC
  0
SECTION
  2
OBJECTS
  0
DICTIONARY
  5
19
100
AcDbDictionary
  3
ACAD_GROUP
350
1A
  3
ACAD_MLINESTYLE
350
1B
  0
DICTIONARY
  5
1A
102
{ACAD_REACTORS
330
19
102
}
100
AcDbDictionary
  0
DICTIONARY
  5
1B
102
{ACAD_REACTORS
330
19
102
}
100
AcDbDictionary
  3
STANDARD
350
1C
  0
MLINESTYLE
  5
1C
102
{ACAD_REACTORS
330
1B
102
}
100
AcDbMlineStyle
  2
STANDARD
 70
           0
  3

 62
           0
 51
90.0
 52
90.0
 71
           2
 49
0.5
 62
         256
  6
BYLAYER
 49
-0.5
 62
         256
  6
BYLAYER
  0
ENDSEC
  0
EOF
