  0
SECTION
  2
HEADER
  9
$ACADVER
  1
AC1014
  9
$ACADMAINTVER
 70
           0
  9
$DWGCODEPAGE
  3
DOS932
  9
$INSBASE
 10
0.0
 20
0.0
 30
0.0
  9
$EXTMIN
 10
1.000000000000E+20
 20
1.000000000000E+20
 30
1.000000000000E+20
  9
$EXTMAX
 10
-1.000000000000E+20
 20
-1.000000000000E+20
 30
-1.000000000000E+20
  9
$LIMMIN
 10
0.0
 20
0.0
  9
$LIMMAX
 10
0.0
 20
0.0
  9
$ORTHOMODE
 70
           0
  9
$REGENMODE
 70
           1
  9
$FILLMODE
 70
           1
  9
$QTEXTMODE
 70
           0
  9
$MIRRTEXT
 70
           1
  9
$DRAGMODE
 70
           2
  9
$LTSCALE
 40
1.0
  9
$OSMODE
 70
           0
  9
$ATTMODE
 70
           1
  9
$TEXTSIZE
 40
0.2
  9
$TRACEWID
 40
0.05
  9
$TEXTSTYLE
  7
STANDARD
  9
$CLAYER
  8
0
  9
$CELTYPE
  6
CONTINUOUS
  9
$CECOLOR
 62
         256
  9
$CELTSCALE
 40
1.0
  9
$DELOBJ
 70
           1
  9
$DISPSILH
 70
           0
  9
$DIMSCALE
 40
1.0
  9
$DIMASZ
 40
0.18
  9
$DIMEXO
 40
0.0625
  9
$DIMDLI
 40
0.38
  9
$DIMRND
 40
0.0
  9
$DIMDLE
 40
0.0
  9
$DIMEXE
 40
0.18
  9
$DIMTP
 40
0.0
  9
$DIMTM
 40
0.0
  9
$DIMTXT
 40
0.18
  9
$DIMCEN
 40
0.09
  9
$DIMTSZ
 40
0.0
  9
$DIMTOL
 70
           0
  9
$DIMLIM
 70
           0
  9
$DIMTIH
 70
           1
  9
$DIMTOH
 70
           1
  9
$DIMSE1
 70
           0
  9
$DIMSE2
 70
           0
  9
$DIMTAD
 70
           0
  9
$DIMZIN
 70
           0
  9
$DIMBLK
  1

  9
$DIMASO
 70
           1
  9
$DIMSHO
 70
           1
  9
$DIMPOST
  1

  9
$DIMAPOST
  1

  9
$DIMALT
 70
           0
  9
$DIMALTD
 70
           2
  9
$DIMALTF
 40
25.4
  9
$DIMLFAC
 40
1.0
  9
$DIMTOFL
 70
           0
  9
$DIMTVP
 40
0.0
  9
$DIMTIX
 70
           0
  9
$DIMSOXD
 70
           0
  9
$DIMSAH
 70
           0
  9
$DIMBLK1
  1

  9
$DIMBLK2
  1

  9
$DIMSTYLE
  2
STANDARD
  9
$DIMCLRD
 70
           0
  9
$DIMCLRE
 70
           0
  9
$DIMCLRT
 70
           0
  9
$DIMTFAC
 40
1.0
  9
$DIMGAP
 40
0.09
  9
$DIMJUST
 70
           0
  9
$DIMSD1
 70
           0
  9
$DIMSD2
 70
           0
  9
$DIMTOLJ
 70
           1
  9
$DIMTZIN
 70
           0
  9
$DIMALTZ
 70
           0
  9
$DIMALTTZ
 70
           0
  9
$DIMFIT
 70
           3
  9
$DIMUPT
 70
           0
  9
$DIMUNIT
 70
           2
  9
$DIMDEC
 70
           4
  9
$DIMTDEC
 70
           4
  9
$DIMALTU
 70
           2
  9
$DIMALTTD
 70
           2
  9
$DIMTXSTY
  7
STANDARD
  9
$DIMAUNIT
 70
           0
  9
$LUNITS
 70
           2
  9
$LUPREC
 70
           4
  9
$SKETCHINC
 40
0.1
  9
$FILLETRAD
 40
0.0
  9
$AUNITS
 70
           0
  9
$AUPREC
 70
           0
  9
$MENU
  1
acad
  9
$ELEVATION
 40
0.0
  9
$PELEVATION
 40
0.0
  9
$THICKNESS
 40
0.0
  9
$LIMCHECK
 70
           0
  9
$BLIPMODE
 70
           1
  9
$CHAMFERA
 40
0.0
  9
$CHAMFERB
 40
0.0
  9
$CHAMFERC
 40
0.0
  9
$CHAMFERD
 40
0.0
  9
$SKPOLY
 70
           0
  9
$TDCREATE
 40
0.000000000
  9
$TDUPDATE
 40
0.000000000
  9
$TDINDWG
 40
0.0000000000
  9
$TDUSRTIMER
 40
0.0000000000
  9
$USRTIMER
 70
           1
  9
$ANGBASE
 50
0.0
  9
$ANGDIR
 70
           0
  9
$PDMODE
 70
           0
  9
$PDSIZE
 40
0.0
  9
$PLINEWID
 40
0.0
  9
$COORDS
 70
           0
  9
$SPLFRAME
 70
           0
  9
$SPLINETYPE
 70
           6
  9
$SPLINESEGS
 70
           8
  9
$ATTDIA
 70
           0
  9
$ATTREQ
 70
           1
  9
$HANDLING
 70
           1
  9
$HANDSEED
  5
181
  9
$SURFTAB1
 70
           6
  9
$SURFTAB2
 70
           6
  9
$SURFTYPE
 70
           6
  9
$SURFU
 70
           6
  9
$SURFV
 70
           6
  9
$UCSNAME
  2

  9
$UCSORG
 10
0.0
 20
0.0
 30
0.0
  9
$UCSXDIR
 10
1.0
 20
0.0
 30
0.0
  9
$UCSYDIR
 10
0.0
 20
1.0
 30
0.0
  9
$PUCSNAME
  2

  9
$PUCSORG
 10
0.0
 20
0.0
 30
0.0
  9
$PUCSXDIR
 10
1.0
 20
0.0
 30
0.0
  9
$PUCSYDIR
 10
0.0
 20
1.0
 30
0.0
  9
$USERI1
 70
           0
  9
$USERI2
 70
           0
  9
$USERI3
 70
           0
  9
$USERI4
 70
           0
  9
$USERI5
 70
           0
  9
$USERR1
 40
0.0
  9
$USERR2
 40
0.0
  9
$USERR3
 40
0.0
  9
$USERR4
 40
0.0
  9
$USERR5
 40
0.0
  9
$WORLDVIEW
 70
           1
  9
$SHADEDGE
 70
           3
  9
$SHADEDIF
 70
          70
  9
$TILEMODE
 70
           1
  9
$MAXACTVP
 70
          16
  9
$PINSBASE
 10
0.0
 20
0.0
 30
0.0
  9
$PLIMCHECK
 70
           0
  9
$PEXTMIN
 10
1.000000000000E+20
 20
1.000000000000E+20
 30
1.000000000000E+20
  9
$PEXTMAX
 10
-1.000000000000E+20
 20
-1.000000000000E+20
 30
-1.000000000000E+20
  9
$PLIMMIN
 10
0.0
 20
0.0
  9
$PLIMMAX
 10
12.0
 20
9.0
  9
$UNITMODE
 70
           0
  9
$VISRETAIN
 70
           0
  9
$PLINEGEN
 70
           1
  9
$PSLTSCALE
 70
           0
  9
$TREEDEPTH
 70
        3020
  9
$PICKSTYLE
 70
           1
  9
$CMLSTYLE
  2
STANDARD
  9
$CMLJUST
 70
           0
  9
$CMLSCALE
 40
1.0
  9
$PROXYGRAPHICS
 70
           0
  9
$MEASUREMENT
 70
           0
  0
ENDSEC
  0
SECTION
  2
CLASSES
  0
CLASS
  1
LWPOLYLINE
  2
AcDbPolyline
  3
"AutoCAD"
 90
        0
280
           0
281
           1
  0
CLASS
  1
IMAGE
  2
AcDbRasterImage
  3
ISM
 90
      127
280
           0
281
           1
  0
CLASS
  1
OLE2FRAME
  2
AcDbOle2Frame
  3
""
 90
        0
280
           0
281
           1
  0
CLASS
  1
HATCH
  2
AcDbHatch
  3
"ACAD_SEDONA"
 90
        0
280
           0
281
           1
  0
CLASS
  1
DICTIONARYVAR
  2
AcDbDictionaryVar
  3
"AutoCAD"
 90
        0
280
           0
281
           0
  0
CLASS
  1
RASTERVARIABLES
  2
AcDbRasterVariables
  3
ISM
 90
        0
280
           0
281
           0
  0
CLASS
  1
IMAGEDEF
  2
AcDbRasterImageDef
  3
ISM
 90
        0
280
           0
281
           0
  0
CLASS
  1
IMAGEDEF_REACTOR
  2
AcDbRasterImageDefReactor
  3
ISM
 90
        1
280
           0
281
           0
  0
CLASS
  1
IDBUFFER
  2
AcDbIdBuffer
  3
"Acad"
 90
        0
280
           0
281
           0
  0
CLASS
  1
SPATIAL_FILTER
  2
AcDbSpatialFilter
  3
"Acad"
 90
        0
280
           0
281
           0
  0
CLASS
  1
XRECORD
  2
AcDbXrecord
  3
"<Built In>"
 90
        0
280
           0
281
           0
  0
CLASS
  1
SORTENTSTABLE
  2
AcDbSortentsTable
  3
"AutoCAD"
 90
        0
280
           0
281
           0
  0
CLASS
  1
LAYER_INDEX
  2
AcDbLayerIndex
  3
"Acad"
 90
        0
280
           0
281
           0
  0
CLASS
  1
SPATIAL_INDEX
  2
AcDbSpatialIndex
  3
"Acad"
 90
        0
280
           0
281
           0
  0
CLASS
  1
OBJECT_PTR
  2
CAseDLPNTableRecord
  3
"ASE-LPNTableRecord"
 90
        1
280
           0
281
           0
  0
CLASS
  1
LAYOUT
  2
AcDbLayout
  3
"AutoCAD 2000"
 90
        1
280
           0
281
           0
  0
CLASS
  1
PLOTSETTINGS
  2
AcDbPlotSettings
  3
"AutoCAD 2000"
 90
        1
280
           0
281
           0
  0
CLASS
  1
ACDBDICTIONARYWDFLT
  2
AcDbDictionaryWithDefault
  3
"AutoCAD 2000"
 90
        1
280
           0
281
           0
  0
CLASS
  1
ACDBPLACEHOLDER
  2
AcDbPlaceHolder
  3
"AutoCAD 2000"
 90
        1
280
           0
281
           0
  0
CLASS
  1
VBA_PROJECT
  2
AcDbVbaProject
  3
"acadvba"
 90
        1
280
           0
281
           0
  0
CLASS
  1
WIPEOUT
  2
AcDbWipeout
  3
WipeOut|AutoCAD Express Tool|expresstools@autodesk.com
 90
      127
280
           0
281
           1
  0
CLASS
  1
WIPEOUTVARIABLES
  2
AcDbWipeoutVariables
  3
WipeOut|AutoCAD Express Tool|expresstools@autodesk.com
 90
        0
280
           0
281
           0
  0
CLASS
  1
RTEXT
  2
RText
  3
RText|AutoCAD Express Tool|expresstools@autodesk.com
 90
        0
280
           0
281
           1
  0
CLASS
  1
ARCALIGNEDTEXT
  2
AcDbArcAlignedText
  3
ATEXT|AutoCAD Express Tool|expresstools@autodesk.com
 90
        0
280
           0
281
           1
  0
ENDSEC
  0
SECTION
  2
TABLES
  0
TABLE
  2
VPORT
  5
7
100
AcDbSymbolTable
 70
           1
  0
VPORT
  5
15
100
AcDbSymbolTableRecord
100
AcDbViewportTableRecord
  2
*ACTIVE
 70
           0
 10
0.0
 20
0.0
 11
1.0
 21
1.0
 12
6.591288
 22
4.579184
 13
0.0
 23
0.0
 14
1.0
 24
1.0
 15
0.0
 25
0.0
 16
0.0
 26
0.0
 36
1.0
 17
0.0
 27
0.0
 37
0.0
 40
9.158369
 41
0.688564
 42
50.0
 43
0.0
 44
0.0
 50
0.0
 51
0.0
 71
           0
 72
         100
 73
           1
 74
           1
 75
           0
 76
           0
 77
           0
 78
           0
  0
ENDTAB
  0
TABLE
  2
LTYPE
  5
4
100
AcDbSymbolTable
 70
          10
  0
LTYPE
  5
11
100
AcDbSymbolTableRecord
100
AcDbLinetypeTableRecord
  2
BYBLOCK
 70
          64
  3

 72
          65
 73
           0
 40
0.0
  0
LTYPE
  5
12
100
AcDbSymbolTableRecord
100
AcDbLinetypeTableRecord
  2
BYLAYER
 70
          64
  3

 72
          65
 73
           0
 40
0.0
  0
LTYPE
  5
13
100
AcDbSymbolTableRecord
100
AcDbLinetypeTableRecord
  2
CONTINUOUS
 70
          64
  3
Solid line
 72
          65
 73
           0
 40
0.0
  0
LTYPE
  5
1D
100
AcDbSymbolTableRecord
100
AcDbLinetypeTableRecord
  2
DASHED
 70
          64
  3
Dashed
 72
          65
 73
           2
 40
15.0
 49
12.0
 74
           0
 49
-3.0
 74
           0
  0
LTYPE
  5
1E
100
AcDbSymbolTableRecord
100
AcDbLinetypeTableRecord
  2
DOTTED
 70
          64
  3
Dotted
 72
          65
 73
           2
 40
3.5
 49
0.5
 74
           0
 49
-3.0
 74
           0
  0
LTYPE
  5
1F
100
AcDbSymbolTableRecord
100
AcDbLinetypeTableRecord
  2
DOT_CENTER
 70
          64
  3
Dot_Center
 72
          65
 73
           4
 40
2.0
 49
1.25
 74
           0
 49
-0.25
 74
           0
 49
0.25
 74
           0
 49
-0.25
 74
           0
  0
LTYPE
  5
20
100
AcDbSymbolTableRecord
100
AcDbLinetypeTableRecord
  2
LONG_DASHED
 70
          64
  3
Long_Dashed
 72
          65
 73
           2
 40
2.0
 49
1.5
 74
           0
 49
-0.5
 74
           0
  0
LTYPE
  5
21
100
AcDbSymbolTableRecord
100
AcDbLinetypeTableRecord
  2
DASH_CENTER
 70
          64
  3
Dash_Center
 72
          65
 73
           4
 40
36.0
 49
24.0
 74
           0
 49
-3.0
 74
           0
 49
6.0
 74
           0
 49
-3.0
 74
           0
  0
LTYPE
  5
22
100
AcDbSymbolTableRecord
100
AcDbLinetypeTableRecord
  2
PHANTOM
 70
          64
  3
Phantom
 72
          65
 73
           6
 40
2.5
 49
1.25
 74
           0
 49
-0.25
 74
           0
 49
0.25
 74
           0
 49
-0.25
 74
           0
 49
0.25
 74
           0
 49
-0.25
 74
           0
  0
LTYPE
  5
23
100
AcDbSymbolTableRecord
100
AcDbLinetypeTableRecord
  2
CENTER_DASH_DASH
 70
          64
  3
Center_Dash_Dash
 72
          65
 73
           6
 40
22.0
 49
12.0
 74
           0
 49
-3.0
 74
           0
 49
0.5
 74
           0
 49
-3.0
 74
           0
 49
0.5
 74
           0
 49
-3.0
 74
           0
  0
ENDTAB
  0
TABLE
  2
LAYER
  5
2
100
AcDbSymbolTable
 70
           2
  0
LAYER
  5
14
100
AcDbSymbolTableRecord
100
AcDbLayerTableRecord
  2
0
 70
           0
 62
           7
  6
CONTINUOUS
  0
LAYER
  5
24
100
AcDbSymbolTableRecord
100
AcDbLayerTableRecord
  2
1
 70
           0
 62
           7
  6
CONTINUOUS
  0
ENDTAB
  0
TABLE
  2
STYLE
  5
3
100
AcDbSymbolTable
 70
           3
  0
STYLE
  5
17
100
AcDbSymbolTableRecord
100
AcDbTextStyleTableRecord
  2
STANDARD
 70
           0
 40
0.0
 41
1.0
 50
0.0
 71
           0
 42
0.0
  3
txt
  4

  0
STYLE
  5
16F
100
AcDbSymbolTableRecord
100
AcDbTextStyleTableRecord
  2
CONVERTER_1
 70
           0
 40
0.0
 41
0.9
 50
0.0
 71
           0
 42
0.0
  3
txt.shx
  4

  0
STYLE
  5
17B
100
AcDbSymbolTableRecord
100
AcDbTextStyleTableRecord
  2
CONVERTER_2
 70
           0
 40
0.0
 41
0.89
 50
0.0
 71
           0
 42
0.0
  3
MS Mincho.ttf
  4

1001
ACAD
1000
MS Mincho
1071
    32785
  0
ENDTAB
  0
TABLE
  2
VIEW
  5
5
100
AcDbSymbolTable
 70
           0
  0
ENDTAB
  0
TABLE
  2
UCS
  5
6
100
AcDbSymbolTable
 70
           0
  0
ENDTAB
  0
TABLE
  2
APPID
  5
8
100
AcDbSymbolTable
 70
           1
  0
APPID
  5
16
100
AcDbSymbolTableRecord
100
AcDbRegAppTableRecord
  2
ACAD
 70
           0
  0
ENDTAB
  0
TABLE
  2
DIMSTYLE
  5
9
100
AcDbSymbolTable
 70
           3
  0
DIMSTYLE
105
18
100
AcDbSymbolTableRecord
100
AcDbDimStyleTableRecord
  2
STANDARD
 70
           0
  3

  4

  5

  6

  7

 40
1.0
 41
0.18
 42
0.0625
 43
0.38
 44
0.18
 45
0.0
 46
0.0
 47
0.0
 48
0.0
 71
           0
 72
           0
 73
           1
 74
           1
 75
           0
 76
           0
 77
           0
 78
           0
140
0.18
141
0.09
142
0.0
143
25.4
144
1.0
145
0.0
146
1.0
147
0.09
170
           0
171
           2
172
           0
173
           0
174
           0
175
           0
176
           0
177
           0
178
           0
270
           2
271
           4
272
           4
273
           2
274
           2
275
           0
280
           0
281
           0
282
           0
283
           1
284
           0
285
           0
286
           0
287
           0
288
           0
340
17
  0
DIMSTYLE
105
172
100
AcDbSymbolTableRecord
100
AcDbDimStyleTableRecord
  2
ME10_DIM_0
 70
           0
  3

  4

  5

  6

  7

 40
1.0
 41
2.8
 42
0.8
 43
0.38
 44
1.0
 45
0.0
 46
0.0
 47
0.0
 48
0.0
 71
           0
 72
           0
 73
           0
 74
           0
 75
           0
 76
           0
 77
           1
 78
           8
140
2.8
141
0.09
142
0.0
143
25.4
144
1.0
145
0.0
146
1.0
147
0.09
170
           0
171
           2
172
           0
173
           1
174
           0
175
           0
176
           2
177
           2
178
           2
270
           2
271
           0
272
           4
273
           2
274
           2
275
           0
280
           0
281
           0
282
           0
283
           1
284
           0
285
           0
286
           0
287
           3
288
           0
340
17
  0
DIMSTYLE
105
17E
100
AcDbSymbolTableRecord
100
AcDbDimStyleTableRecord
  2
ME10_DIM_1
 70
           0
  3
ó<>
  4

  5

  6

  7

 40
1.0
 41
2.8
 42
0.8
 43
0.38
 44
1.0
 45
0.0
 46
0.0
 47
0.0
 48
0.0
 71
           0
 72
           0
 73
           0
 74
           0
 75
           0
 76
           0
 77
           1
 78
           8
140
2.8
141
0.09
142
0.0
143
25.4
144
1.0
145
0.0
146
1.0
147
0.09
170
           0
171
           2
172
           0
173
           1
174
           0
175
           0
176
           2
177
           2
178
           2
270
           2
271
           3
272
           4
273
           2
274
           2
275
           0
280
           0
281
           0
282
           0
283
           1
284
           0
285
           0
286
           0
287
           3
288
           0
340
17
  0
ENDTAB
  0
TABLE
  2
BLOCK_RECORD
  5
1
100
AcDbSymbolTable
 70
           2
  0
BLOCK_RECORD
  5
A
100
AcDbSymbolTableRecord
100
AcDbBlockTableRecord
  2
*MODEL_SPACE
  0
BLOCK_RECORD
  5
B
100
AcDbSymbolTableRecord
100
AcDbBlockTableRecord
  2
*PAPER_SPACE
  0
BLOCK_RECORD
  5
168
100
AcDbSymbolTableRecord
100
AcDbBlockTableRecord
  2
*D0
  0
BLOCK_RECORD
  5
174
100
AcDbSymbolTableRecord
100
AcDbBlockTableRecord
  2
*D1
  0
ENDTAB
  0
ENDSEC
  0
SECTION
  2
BLOCKS
  0
BLOCK
  5
D
100
AcDbEntity
  8
0
100
AcDbBlockBegin
  2
*MODEL_SPACE
 70
           0
 10
0.0
 20
0.0
 30
0.0
  3
*MODEL_SPACE
  1

  0
ENDBLK
  5
E
100
AcDbEntity
  8
0
100
AcDbBlockEnd
  0
BLOCK
  5
F
100
AcDbEntity
 67
           1
  8
0
100
AcDbBlockBegin
  2
*PAPER_SPACE
 70
           0
 10
0.0
 20
0.0
 30
0.0
  3
*PAPER_SPACE
  1

  0
ENDBLK
  5
10
100
AcDbEntity
 67
           1
  8
0
100
AcDbBlockEnd
  0
BLOCK
  5
169
100
AcDbEntity
  8
0
100
AcDbBlockBegin
  2
*D0
 70
           1
 10
0.0
 20
0.0
 30
0.0
  3
*D0
  1

  0
LINE
  5
16A
100
AcDbEntity
  8
0
  6
CONTINUOUS
 62
           2
100
AcDbLine
 10
-106.725978180019
 20
314.975184405851
 11
99.774021819981
 21
314.975184405851
  0
LINE
  5
16B
100
AcDbEntity
  8
0
  6
CONTINUOUS
 62
           2
100
AcDbLine
 10
99.774021819981
 20
242.309315293438
 11
99.774021819981
 21
315.975184405851
  0
LINE
  5
16C
100
AcDbEntity
  8
0
  6
CONTINUOUS
 62
           2
100
AcDbLine
 10
-106.725978180019
 20
287.36715773333
 11
-106.725978180019
 21
315.975184405851
  0
SOLID
  5
16D
100
AcDbEntity
  8
0
 62
           2
100
AcDbTrace
 10
-103.925978180019
 20
315.343811399095
 11
-103.925978180019
 21
314.606557412606
 12
-106.725978180019
 22
314.975184405851
 13
-106.725978180019
 23
314.975184405851
  0
SOLID
  5
16E
100
AcDbEntity
  8
0
 62
           2
100
AcDbTrace
 10
96.974021819981
 20
314.606557412606
 11
96.974021819981
 21
315.343811399095
 12
99.774021819981
 22
314.975184405851
 13
99.774021819981
 23
314.975184405851
  0
TEXT
  5
170
100
AcDbEntity
  8
0
 62
           2
100
AcDbText
 10
-9.820852249617
 20
315.975184405851
 40
2.8
  1
207
 41
0.9
  7
CONVERTER_1
100
AcDbText
  0
ENDBLK
  5
171
100
AcDbEntity
  8
0
100
AcDbBlockEnd
  0
BLOCK
  5
175
100
AcDbEntity
  8
0
100
AcDbBlockBegin
  2
*D1
 70
           1
 10
0.0
 20
0.0
 30
0.0
  3
*D1
  1

  0
LINE
  5
176
100
AcDbEntity
  8
0
  6
CONTINUOUS
 62
           2
100
AcDbLine
 10
-130.660729245269
 20
181.130815293438
 11
-130.660729245269
 21
288.730815293438
  0
LINE
  5
177
100
AcDbEntity
  8
0
  6
CONTINUOUS
 62
           2
100
AcDbLine
 10
-106.025978180019
 20
288.730815293438
 11
-131.660729245269
 21
288.730815293438
  0
LINE
  5
178
100
AcDbEntity
  8
0
  6
CONTINUOUS
 62
           2
100
AcDbLine
 10
-106.025978180019
 20
181.130815293438
 11
-131.660729245269
 21
181.130815293438
  0
SOLID
  5
179
100
AcDbEntity
  8
0
 62
           2
100
AcDbTrace
 10
-131.029356238514
 20
183.930815293438
 11
-130.292102252024
 21
183.930815293438
 12
-130.660729245269
 22
181.130815293438
 13
-130.660729245269
 23
181.130815293438
  0
SOLID
  5
17A
100
AcDbEntity
  8
0
 62
           2
100
AcDbTrace
 10
-130.292102252024
 20
285.930815293438
 11
-131.029356238514
 21
285.930815293438
 12
-130.660729245269
 22
288.730815293438
 13
-130.660729245269
 23
288.730815293438
  0
MTEXT
  5
17C
100
AcDbEntity
  8
0
 62
           2
100
AcDbMText
 10
-131.660729245269
 20
231.196934895645
 30
0.0
 40
2.8
 41
0.0
 71
           7
 72
           1
  1
\C2;ó\C2;107.6\C2;
  7
CONVERTER_2
 11
0.0
 21
1.0
 31
0.0
  0
ENDBLK
  5
17D
100
AcDbEntity
  8
0
100
AcDbBlockEnd
  0
ENDSEC
  0
SECTION
  2
ENTITIES
  0
DIMENSION
  5
17F
100
AcDbEntity
  8
0
100
AcDbDimension
  2
*D1
 10
-130.660729245269
 20
181.130815293438
 11
-133.060729245269
 21
236.467934895645
 31
0.0
 53
90.0
  1
<>
  3
ME10_DIM_1
100
AcDbAlignedDimension
 13
-105.225978180019
 23
288.730815293438
 14
-105.225978180019
 24
181.130815293438
 50
90.0
100
AcDbRotatedDimension
  0
DIMENSION
  5
173
100
AcDbEntity
  8
0
100
AcDbDimension
  2
*D0
 10
-106.725978180019
 20
314.975184405851
 11
-6.460852249617
 21
317.375184405851
 31
0.0
  1
<>
  3
ME10_DIM_0
100
AcDbAlignedDimension
 13
99.774021819981
 23
241.509315293438
 14
-106.725978180019
 24
286.56715773333
100
AcDbRotatedDimension
  0
ARC
  5
167
100
AcDbEntity
  8
1
  6
CONTINUOUS
 62
           7
100
AcDbCircle
 10
37.415131389256
 20
191.031215129244
 40
2.0
100
AcDbArc
 50
-86.0
 51
-15.142252942377
  0
ARC
  5
166
100
AcDbEntity
  8
1
  6
CONTINUOUS
 62
           7
100
AcDbCircle
 10
32.974021819981
 20
189.216999648451
 40
0.5
100
AcDbArc
 50
180.0
 51
-85.999999999996
  0
ARC
  5
165
100
AcDbEntity
  8
1
  6
CONTINUOUS
 62
           7
100
AcDbCircle
 10
47.057891210185
 20
217.430815293438
 40
2.0
100
AcDbArc
 50
90.0
 51
173.388785623627
  0
ARC
  5
164
100
AcDbEntity
  8
1
  6
CENTER_DASH_DASH
 62
           7
100
AcDbCircle
 10
78.474021819981
 20
227.271276833563
 40
1.0
100
AcDbArc
 50
-87.98652450461
 51
0.0
  0
ARC
  5
163
100
AcDbEntity
  8
1
  6
CONTINUOUS
 62
           7
100
AcDbCircle
 10
-105.225978180019
 20
182.630815293438
 40
1.5
100
AcDbArc
 50
180.0
 51
-90.0
  0
ARC
  5
162
100
AcDbEntity
  8
1
  6
CONTINUOUS
 62
           7
100
AcDbCircle
 10
37.2828730542
 20
203.226827982475
 40
15.0
100
AcDbArc
 50
-89.218562507478
 51
-32.50381183008
  0
ARC
  5
161
100
AcDbEntity
  8
1
  6
CONTINUOUS
 62
           7
100
AcDbCircle
 10
39.182563525005
 20
219.199177007884
 40
20.0
100
AcDbArc
 50
-16.937396419809
 51
0.0
  0
ARC
  5
160
100
AcDbEntity
  8
1
  6
CONTINUOUS
 62
           7
100
AcDbCircle
 10
29.682563525005
 20
221.88642380922
 40
40.0
100
AcDbArc
 50
-25.773398524237
 51
0.0
  0
ARC
  5
15F
100
AcDbEntity
  8
1
  6
CONTINUOUS
 62
           7
100
AcDbCircle
 10
40.179411305588
 20
201.873069076972
 40
20.0
100
AcDbArc
 50
-87.830742410271
 51
-41.388013471773
  0
ARC
  5
15E
100
AcDbEntity
  8
1
  6
CONTINUOUS
 62
           7
100
AcDbCircle
 10
20.203647561228
 20
190.930815293438
 40
2.0
100
AcDbArc
 50
90.0
 51
124.656033118227
  0
ARC
  5
15D
100
AcDbEntity
  8
1
  6
CONTINUOUS
 62
           7
100
AcDbCircle
 10
20.203647561228
 20
278.930815293438
 40
2.0
100
AcDbArc
 50
-124.656033118227
 51
-90.0
  0
ARC
  5
15C
100
AcDbEntity
  8
1
  6
CONTINUOUS
 62
           7
100
AcDbCircle
 10
255.497519310424
 20
238.065933161887
 40
1.5
100
AcDbArc
 50
2.083618701984
 51
92.083618701984
  0
ARC
  5
15B
100
AcDbEntity
  8
1
  6
CONTINUOUS
 62
           7
100
AcDbCircle
 10
255.497519310424
 20
238.065933161887
 40
1.5
100
AcDbArc
 50
2.083618701984
 51
92.083618701984
  0
ARC
  5
15A
100
AcDbEntity
  8
1
  6
CONTINUOUS
 62
           7
100
AcDbCircle
 10
255.606593285356
 20
235.067916672941
 40
1.5
100
AcDbArc
 50
-87.916381298017
 51
2.083618701979
  0
ARC
  5
159
100
AcDbEntity
  8
1
  6
CONTINUOUS
 62
           7
100
AcDbCircle
 10
255.606593285356
 20
235.067916672941
 40
1.5
100
AcDbArc
 50
-87.916381298017
 51
2.083618701979
  0
ARC
  5
158
100
AcDbEntity
  8
1
  6
CONTINUOUS
 62
           7
100
AcDbCircle
 10
40.179411305588
 20
267.988561509904
 40
20.0
100
AcDbArc
 50
41.388013471773
 51
87.830742410271
  0
ARC
  5
157
100
AcDbEntity
  8
1
  6
CONTINUOUS
 62
           7
100
AcDbCircle
 10
29.682563525005
 20
247.975206777656
 40
40.0
100
AcDbArc
 50
0.0
 51
25.773398524237
  0
ARC
  5
156
100
AcDbEntity
  8
1
  6
CONTINUOUS
 62
           7
100
AcDbCircle
 10
39.182563525005
 20
250.662453578992
 40
20.0
100
AcDbArc
 50
0.0
 51
16.937396419809
  0
ARC
  5
155
100
AcDbEntity
  8
1
  6
CONTINUOUS
 62
           7
100
AcDbCircle
 10
37.2828730542
 20
266.634802604401
 40
15.0
100
AcDbArc
 50
32.50381183008
 51
89.218562507478
  0
ARC
  5
154
100
AcDbEntity
  8
1
  6
CONTINUOUS
 62
           7
100
AcDbCircle
 10
204.081808963699
 20
286.522965859198
 40
2.0
100
AcDbArc
 50
97.180755781458
 51
180.0
  0
ARC
  5
153
100
AcDbEntity
  8
1
  6
CONTINUOUS
 62
           7
100
AcDbCircle
 10
217.081808963699
 20
286.522965859198
 40
2.0
100
AcDbArc
 50
0.0
 51
82.819244218542
  0
ARC
  5
152
100
AcDbEntity
  8
1
  6
CONTINUOUS
 62
           7
100
AcDbCircle
 10
204.081808963699
 20
183.338664727679
 40
2.0
100
AcDbArc
 50
180.0
 51
-97.180755781458
  0
ARC
  5
151
100
AcDbEntity
  8
1
  6
CONTINUOUS
 62
           7
100
AcDbCircle
 10
217.081808963699
 20
183.338664727679
 40
2.0
100
AcDbArc
 50
-82.819244218541
 51
0.0
  0
ARC
  5
150
100
AcDbEntity
  8
1
  6
CONTINUOUS
 62
           7
100
AcDbCircle
 10
-105.225978180019
 20
287.230815293438
 40
1.5
100
AcDbArc
 50
90.0
 51
180.0
  0
ARC
  5
14F
100
AcDbEntity
  8
1
  6
CENTER_DASH_DASH
 62
           7
100
AcDbCircle
 10
78.474021819981
 20
242.590353753314
 40
1.0
100
AcDbArc
 50
0.0
 51
87.986524504611
  0
ARC
  5
14E
100
AcDbEntity
  8
1
  6
CONTINUOUS
 62
           7
100
AcDbCircle
 10
47.057891210185
 20
252.430815293438
 40
2.0
100
AcDbArc
 50
-173.388785623627
 51
-90.0
  0
ARC
  5
14D
100
AcDbEntity
  8
1
  6
CONTINUOUS
 62
           7
100
AcDbCircle
 10
32.974021819981
 20
280.644630938426
 40
0.5
100
AcDbArc
 50
85.999999999996
 51
180.0
  0
ARC
  5
14C
100
AcDbEntity
  8
1
  6
CONTINUOUS
 62
           7
100
AcDbCircle
 10
37.415131389256
 20
278.830415457633
 40
2.0
100
AcDbArc
 50
15.142252942373
 51
86.000000000001
  0
CIRCLE
  5
14B
100
AcDbEntity
  8
1
  6
CONTINUOUS
 62
           7
100
AcDbCircle
 10
210.581808963699
 20
234.930815293438
 40
53.8
  0
CIRCLE
  5
14A
100
AcDbEntity
  8
1
  6
CONTINUOUS
 62
           7
100
AcDbCircle
 10
183.581808963699
 20
234.930815293438
 40
1.25
  0
CIRCLE
  5
149
100
AcDbEntity
  8
1
  6
CONTINUOUS
 62
           2
100
AcDbCircle
 10
210.581808963699
 20
234.930815293438
 40
4.55
  0
CIRCLE
  5
148
100
AcDbEntity
  8
1
  6
CONTINUOUS
 62
           2
100
AcDbCircle
 10
210.581808963699
 20
234.930815293438
 40
3.34422863406
  0
CIRCLE
  5
147
100
AcDbEntity
  8
1
  6
CONTINUOUS
 62
           2
100
AcDbCircle
 10
210.581808963699
 20
234.930815293438
 40
2.25
  0
CIRCLE
  5
146
100
AcDbEntity
  8
1
  6
CONTINUOUS
 62
           2
100
AcDbCircle
 10
210.581808963699
 20
234.928486722154
 40
6.5785
  0
CIRCLE
  5
145
100
AcDbEntity
  8
1
  6
CONTINUOUS
 62
           7
100
AcDbCircle
 10
210.581808963699
 20
234.928486722154
 40
5.7225
  0
CIRCLE
  5
144
100
AcDbEntity
  8
1
  6
CONTINUOUS
 62
           2
100
AcDbCircle
 10
210.581808963699
 20
234.928486722154
 40
8.0
  0
CIRCLE
  5
143
100
AcDbEntity
  8
1
  6
CONTINUOUS
 62
           2
100
AcDbCircle
 10
210.581808963699
 20
234.928486722154
 40
5.7225
  0
ARC
  5
142
100
AcDbEntity
  8
1
  6
CONTINUOUS
 62
           7
100
AcDbCircle
 10
-103.931346816904
 20
234.930815293439
 40
150.000000000003
100
AcDbArc
 50
-17.167942772526
 51
-6.611214376374
  0
ARC
  5
141
100
AcDbEntity
  8
1
  6
CONTINUOUS
 62
           7
100
AcDbCircle
 10
83.700821300353
 20
227.521984305076
 40
4.226806092613
100
AcDbArc
 50
155.673558729222
 51
-155.673558729223
  0
ARC
  5
140
100
AcDbEntity
  8
1
  6
CONTINUOUS
 62
           7
100
AcDbCircle
 10
78.262269177693
 20
227.521984305076
 40
4.213099773554
100
AcDbArc
 50
-24.410734928045
 51
24.410734928046
  0
ARC
  5
13F
100
AcDbEntity
  8
1
  6
CONTINUOUS
 62
           7
100
AcDbCircle
 10
65.143629237131
 20
235.136608195979
 40
17.331614402427
100
AcDbArc
 50
-11.96436521624
 51
-0.680337190751
  0
ARC
  5
13E
100
AcDbEntity
  8
1
  6
CONTINUOUS
 62
           7
100
AcDbCircle
 10
97.102430933201
 20
235.169627206168
 40
17.630026630516
100
AcDbArc
 50
-179.223862024807
 51
-168.131435568202
  0
ARC
  5
13D
100
AcDbEntity
  8
1
  6
CONTINUOUS
 62
           7
100
AcDbCircle
 10
85.71432508243
 20
234.741187692325
 40
14.060975463282
100
AcDbArc
 50
-18.360673320999
 51
0.772719547007
  0
ARC
  5
13C
100
AcDbEntity
  8
1
  6
CONTINUOUS
 62
           7
100
AcDbCircle
 10
100.287690463515
 20
234.65671685221
 40
13.516448134133
100
AcDbArc
 50
178.838026064422
 51
-161.250072290428
  0
ARC
  5
13B
100
AcDbEntity
  8
1
  6
CONTINUOUS
 62
           7
100
AcDbCircle
 10
90.838988312776
 20
228.002612063163
 40
4.069244416324
100
AcDbArc
 50
145.422130132279
 51
-145.42213013228
  0
ARC
  5
13A
100
AcDbEntity
  8
1
  6
CONTINUOUS
 62
           7
100
AcDbCircle
 10
95.77028065891
 20
228.002612063163
 40
4.018984403318
100
AcDbArc
 50
-35.073238447596
 51
35.073238447597
  0
ARC
  5
139
100
AcDbEntity
  8
1
  6
CONTINUOUS
 62
           7
100
AcDbCircle
 10
-15.052557566381
 20
241.930815293438
 40
60.0
100
AcDbArc
 50
-90.0
 51
-55.343966881771
  0
ARC
  5
138
100
AcDbEntity
  8
1
  6
CONTINUOUS
 62
           7
100
AcDbCircle
 10
-12.475113124784
 20
234.930815293445
 40
74.000000000018
100
AcDbArc
 50
-32.50381183008
 51
-16.93739641981
  0
ARC
  5
137
100
AcDbEntity
  8
1
  6
CONTINUOUS
 62
           7
100
AcDbCircle
 10
2.666941177806
 20
234.930815293438
 40
70.0
100
AcDbArc
 50
-41.388013471773
 51
-25.773398524237
  0
ARC
  5
136
100
AcDbEntity
  8
1
  6
CONTINUOUS
 62
           7
100
AcDbCircle
 10
244.364131514035
 20
278.688003650033
 40
40.0
100
AcDbArc
 50
-123.256120433288
 51
-95.604041503766
  0
ARC
  5
135
100
AcDbEntity
  8
1
  6
CONTINUOUS
 62
           7
100
AcDbCircle
 10
244.084387521799
 20
279.178156795028
 40
40.0
100
AcDbArc
 50
-124.138917529034
 51
-88.702609445879
  0
ARC
  5
134
100
AcDbEntity
  8
1
  6
CONTINUOUS
 62
           7
100
AcDbCircle
 10
247.211174803176
 20
193.23501744524
 40
40.0
100
AcDbArc
 50
92.869846849843
 51
129.352095695921
  0
ARC
  5
133
100
AcDbEntity
  8
1
  6
CONTINUOUS
 62
           7
100
AcDbCircle
 10
247.454560803767
 20
193.744203129894
 40
40.0
100
AcDbArc
 50
99.77127890773
 51
129.164078162766
  0
ARC
  5
132
100
AcDbEntity
  8
1
  6
CONTINUOUS
 62
           7
100
AcDbCircle
 10
2.666941177806
 20
234.930815293438
 40
70.0
100
AcDbArc
 50
25.773398524237
 51
41.388013471773
  0
ARC
  5
131
100
AcDbEntity
  8
1
  6
CONTINUOUS
 62
           7
100
AcDbCircle
 10
-12.475113124784
 20
234.930815293432
 40
74.000000000018
100
AcDbArc
 50
16.93739641981
 51
32.50381183008
  0
ARC
  5
130
100
AcDbEntity
  8
1
  6
CONTINUOUS
 62
           2
100
AcDbCircle
 10
210.581808963699
 20
234.930815293438
 40
9.25
100
AcDbArc
 50
90.0
 51
144.17522563135
  0
ARC
  5
12F
100
AcDbEntity
  8
1
  6
CONTINUOUS
 62
           2
100
AcDbCircle
 10
210.581808963699
 20
234.930815293438
 40
9.25
100
AcDbArc
 50
-90.0
 51
-35.824774368651
  0
ARC
  5
12E
100
AcDbEntity
  8
1
  6
CONTINUOUS
 62
           2
100
AcDbCircle
 10
210.581808963699
 20
234.930815293438
 40
9.25
100
AcDbArc
 50
-144.175225631349
 51
-90.0
  0
ARC
  5
12D
100
AcDbEntity
  8
1
  6
CONTINUOUS
 62
           2
100
AcDbCircle
 10
210.581808963699
 20
234.930815293438
 40
9.25
100
AcDbArc
 50
35.824774368651
 51
90.0
  0
ARC
  5
12C
100
AcDbEntity
  8
1
  6
CONTINUOUS
 62
           7
100
AcDbCircle
 10
256.581808963699
 20
265.534123938093
 40
40.0
100
AcDbArc
 50
-179.296140190536
 51
-145.543103621335
  0
ARC
  5
12B
100
AcDbEntity
  8
1
  6
CONTINUOUS
 62
           7
100
AcDbCircle
 10
164.581808963699
 20
265.534123938093
 40
40.0
100
AcDbArc
 50
-34.456896378665
 51
-0.703859809464
  0
ARC
  5
12A
100
AcDbEntity
  8
1
  6
CONTINUOUS
 62
           7
100
AcDbCircle
 10
169.079330939283
 20
280.009031111742
 40
35.518630406686
100
AcDbArc
 50
-1.728002141858
 51
11.367101411723
  0
ARC
  5
129
100
AcDbEntity
  8
1
  6
CONTINUOUS
 62
           7
100
AcDbCircle
 10
202.412225201777
 20
286.582508445747
 40
1.549048757952
100
AcDbArc
 50
16.002762299646
 51
74.658532085154
  0
ARC
  5
128
100
AcDbEntity
  8
1
  6
CONTINUOUS
 62
           7
100
AcDbCircle
 10
210.581808963699
 20
234.930815293438
 40
15.25
100
AcDbArc
 50
148.75710017452
 51
180.0
  0
ARC
  5
127
100
AcDbEntity
  8
1
  6
CONTINUOUS
 62
           7
100
AcDbCircle
 10
210.581808963699
 20
234.930815293438
 40
54.0
100
AcDbArc
 50
90.0
 51
97.180755781458
  0
ARC
  5
126
100
AcDbEntity
  8
1
  6
CONTINUOUS
 62
           7
100
AcDbCircle
 10
202.134949816082
 20
278.691968076155
 40
2.446893109256
100
AcDbArc
 50
-0.301873473238
 51
84.471103476072
  0
ARC
  5
125
100
AcDbEntity
  8
1
  6
CONTINUOUS
 62
           7
100
AcDbCircle
 10
210.581808963699
 20
234.930815293438
 40
12.0
100
AcDbArc
 50
90.0
 51
180.0
  0
ARC
  5
124
100
AcDbEntity
  8
1
  6
CONTINUOUS
 62
           7
100
AcDbCircle
 10
210.581808963699
 20
234.930815293438
 40
13.0
100
AcDbArc
 50
90.0
 51
180.0
  0
ARC
  5
123
100
AcDbEntity
  8
1
  6
CONTINUOUS
 62
           7
100
AcDbCircle
 10
252.084286988115
 20
280.009031111742
 40
35.518630406686
100
AcDbArc
 50
168.632898588277
 51
-178.271997858141
  0
ARC
  5
122
100
AcDbEntity
  8
1
  6
CONTINUOUS
 62
           7
100
AcDbCircle
 10
218.75139272562
 20
286.582508445747
 40
1.549048757952
100
AcDbArc
 50
105.341467914848
 51
163.997237700355
  0
ARC
  5
121
100
AcDbEntity
  8
1
  6
CONTINUOUS
 62
           7
100
AcDbCircle
 10
210.581808963699
 20
234.930815293438
 40
15.25
100
AcDbArc
 50
0.0
 51
31.24289982548
  0
ARC
  5
120
100
AcDbEntity
  8
1
  6
CONTINUOUS
 62
           7
100
AcDbCircle
 10
210.581808963699
 20
234.930815293438
 40
54.0
100
AcDbArc
 50
82.819244218542
 51
90.0
  0
ARC
  5
11F
100
AcDbEntity
  8
1
  6
CONTINUOUS
 62
           7
100
AcDbCircle
 10
219.028668111316
 20
278.691968076155
 40
2.446893109256
100
AcDbArc
 50
95.528896523928
 51
-179.698126526762
  0
ARC
  5
11E
100
AcDbEntity
  8
1
  6
CONTINUOUS
 62
           7
100
AcDbCircle
 10
210.581808963699
 20
234.930815293438
 40
12.0
100
AcDbArc
 50
0.0
 51
90.0
  0
ARC
  5
11D
100
AcDbEntity
  8
1
  6
CONTINUOUS
 62
           7
100
AcDbCircle
 10
210.581808963699
 20
234.930815293438
 40
13.0
100
AcDbArc
 50
0.0
 51
90.0
  0
ARC
  5
11C
100
AcDbEntity
  8
1
  6
CONTINUOUS
 62
           7
100
AcDbCircle
 10
256.581808963699
 20
204.327506648783
 40
40.0
100
AcDbArc
 50
145.543103621335
 51
179.296140190536
  0
ARC
  5
11B
100
AcDbEntity
  8
1
  6
CONTINUOUS
 62
           7
100
AcDbCircle
 10
164.581808963699
 20
204.327506648783
 40
40.0
100
AcDbArc
 50
0.703859809464
 51
34.456896378665
  0
ARC
  5
11A
100
AcDbEntity
  8
1
  6
CONTINUOUS
 62
           7
100
AcDbCircle
 10
169.079330939283
 20
189.852599475135
 40
35.518630406686
100
AcDbArc
 50
-11.367101411723
 51
1.728002141859
  0
ARC
  5
119
100
AcDbEntity
  8
1
  6
CONTINUOUS
 62
           7
100
AcDbCircle
 10
202.412225201777
 20
183.27912214113
 40
1.549048757952
100
AcDbArc
 50
-74.658532085154
 51
-16.002762299646
  0
ARC
  5
118
100
AcDbEntity
  8
1
  6
CONTINUOUS
 62
           7
100
AcDbCircle
 10
210.581808963699
 20
234.930815293438
 40
15.25
100
AcDbArc
 50
180.0
 51
-148.757100174519
  0
ARC
  5
117
100
AcDbEntity
  8
1
  6
CONTINUOUS
 62
           7
100
AcDbCircle
 10
210.581808963699
 20
234.930815293438
 40
54.0
100
AcDbArc
 50
-97.180755781458
 51
-90.0
  0
ARC
  5
116
100
AcDbEntity
  8
1
  6
CONTINUOUS
 62
           7
100
AcDbCircle
 10
202.134949816082
 20
191.169662510721
 40
2.446893109256
100
AcDbArc
 50
-84.471103476072
 51
0.301873473237
  0
ARC
  5
115
100
AcDbEntity
  8
1
  6
CONTINUOUS
 62
           7
100
AcDbCircle
 10
210.581808963699
 20
234.930815293438
 40
12.0
100
AcDbArc
 50
180.0
 51
-90.0
  0
ARC
  5
114
100
AcDbEntity
  8
1
  6
CONTINUOUS
 62
           7
100
AcDbCircle
 10
210.581808963699
 20
234.930815293438
 40
13.0
100
AcDbArc
 50
180.0
 51
-90.0
  0
ARC
  5
113
100
AcDbEntity
  8
1
  6
CONTINUOUS
 62
           7
100
AcDbCircle
 10
252.084286988115
 20
189.852599475135
 40
35.518630406686
100
AcDbArc
 50
178.271997858141
 51
-168.632898588277
  0
ARC
  5
112
100
AcDbEntity
  8
1
  6
CONTINUOUS
 62
           7
100
AcDbCircle
 10
218.75139272562
 20
183.27912214113
 40
1.549048757952
100
AcDbArc
 50
-163.997237700355
 51
-105.341467914848
  0
ARC
  5
111
100
AcDbEntity
  8
1
  6
CONTINUOUS
 62
           7
100
AcDbCircle
 10
210.581808963699
 20
234.930815293438
 40
15.25
100
AcDbArc
 50
-31.242899825481
 51
0.0
  0
ARC
  5
110
100
AcDbEntity
  8
1
  6
CONTINUOUS
 62
           7
100
AcDbCircle
 10
210.581808963699
 20
234.930815293438
 40
54.0
100
AcDbArc
 50
-90.0
 51
-82.819244218542
  0
ARC
  5
10F
100
AcDbEntity
  8
1
  6
CONTINUOUS
 62
           7
100
AcDbCircle
 10
219.028668111316
 20
191.169662510721
 40
2.446893109256
100
AcDbArc
 50
179.698126526762
 51
-95.528896523928
  0
ARC
  5
10E
100
AcDbEntity
  8
1
  6
CONTINUOUS
 62
           7
100
AcDbCircle
 10
210.581808963699
 20
234.930815293438
 40
12.0
100
AcDbArc
 50
-90.0
 51
0.0
  0
ARC
  5
10D
100
AcDbEntity
  8
1
  6
CONTINUOUS
 62
           7
100
AcDbCircle
 10
210.581808963699
 20
234.930815293438
 40
13.0
100
AcDbArc
 50
-90.0
 51
0.0
  0
ARC
  5
10C
100
AcDbEntity
  8
1
  6
CONTINUOUS
 62
           7
100
AcDbCircle
 10
210.581808963699
 20
234.930815293438
 40
53.0
100
AcDbArc
 50
-81.076252282524
 51
81.076252282524
  0
ARC
  5
10B
100
AcDbEntity
  8
1
  6
CONTINUOUS
 62
           7
100
AcDbCircle
 10
210.581808963699
 20
234.930815293438
 40
53.0
100
AcDbArc
 50
98.923747717476
 51
-98.923747717476
  0
ARC
  5
10A
100
AcDbEntity
  8
1
  6
CONTINUOUS
 62
           7
100
AcDbCircle
 10
-15.052557566381
 20
227.930815293438
 40
60.0
100
AcDbArc
 50
55.343966881771
 51
90.0
  0
ARC
  5
109
100
AcDbEntity
  8
1
  6
CONTINUOUS
 62
           7
100
AcDbCircle
 10
95.77028065891
 20
241.859018523714
 40
4.018984403318
100
AcDbArc
 50
-35.073238447596
 51
35.073238447596
  0
ARC
  5
108
100
AcDbEntity
  8
1
  6
CONTINUOUS
 62
           7
100
AcDbCircle
 10
90.838988312776
 20
241.859018523714
 40
4.069244416324
100
AcDbArc
 50
145.42213013228
 51
-145.42213013228
  0
ARC
  5
107
100
AcDbEntity
  8
1
  6
CONTINUOUS
 62
           7
100
AcDbCircle
 10
100.287690463515
 20
235.204913734666
 40
13.516448134133
100
AcDbArc
 50
161.250072290428
 51
-178.838026064421
  0
ARC
  5
106
100
AcDbEntity
  8
1
  6
CONTINUOUS
 62
           7
100
AcDbCircle
 10
85.71432508243
 20
235.120442894552
 40
14.060975463282
100
AcDbArc
 50
-0.772719547004
 51
18.360673321
  0
ARC
  5
105
100
AcDbEntity
  8
1
  6
CONTINUOUS
 62
           7
100
AcDbCircle
 10
97.102430933201
 20
234.692003380709
 40
17.630026630516
100
AcDbArc
 50
168.131435568202
 51
179.223862024807
  0
ARC
  5
104
100
AcDbEntity
  8
1
  6
CONTINUOUS
 62
           7
100
AcDbCircle
 10
65.143629237131
 20
234.725022390898
 40
17.331614402427
100
AcDbArc
 50
0.68033719075
 51
11.96436521624
  0
ARC
  5
103
100
AcDbEntity
  8
1
  6
CONTINUOUS
 62
           7
100
AcDbCircle
 10
78.262269177693
 20
242.3396462818
 40
4.213099773554
100
AcDbArc
 50
-24.410734928046
 51
24.410734928045
  0
ARC
  5
102
100
AcDbEntity
  8
1
  6
CONTINUOUS
 62
           7
100
AcDbCircle
 10
83.700821300353
 20
242.3396462818
 40
4.226806092613
100
AcDbArc
 50
155.673558729223
 51
-155.673558729222
  0
ARC
  5
101
100
AcDbEntity
  8
1
  6
CONTINUOUS
 62
           7
100
AcDbCircle
 10
-103.931346816904
 20
234.930815293438
 40
150.000000000003
100
AcDbArc
 50
6.611214376374
 51
17.167942772526
  0
ARC
  5
100
100
AcDbEntity
  8
1
  6
CONTINUOUS
 62
           7
100
AcDbCircle
 10
210.581808963699
 20
234.930815293438
 40
46.25
100
AcDbArc
 50
-80.631281506
 51
-1.337520802492
  0
ARC
  5
FF
100
AcDbEntity
  8
1
  6
CONTINUOUS
 62
           7
100
AcDbCircle
 10
210.581808963699
 20
234.930815293438
 40
45.760512316395
100
AcDbArc
 50
-81.288867824866
 51
-1.801297511539
  0
ARC
  5
FE
100
AcDbEntity
  8
1
  6
CONTINUOUS
 62
           7
100
AcDbCircle
 10
210.581808963699
 20
234.930815293438
 40
46.25
100
AcDbArc
 50
99.882410428865
 51
-99.299735458784
  0
ARC
  5
FD
100
AcDbEntity
  8
1
  6
CONTINUOUS
 62
           7
100
AcDbCircle
 10
210.581808963699
 20
234.930815293438
 40
45.760512316395
100
AcDbArc
 50
99.226144227743
 51
-99.054120550389
  0
ARC
  5
FC
100
AcDbEntity
  8
1
  6
CONTINUOUS
 62
           7
100
AcDbCircle
 10
210.581808963699
 20
234.930815293438
 40
45.760512316395
100
AcDbArc
 50
6.139678827224
 51
80.983783854292
  0
ARC
  5
FB
100
AcDbEntity
  8
1
  6
CONTINUOUS
 62
           7
100
AcDbCircle
 10
210.581808963699
 20
234.930815293438
 40
46.25
100
AcDbArc
 50
5.582373920463
 51
80.75753864676
  0
ARC
  5
FA
100
AcDbEntity
  8
1
  6
CONTINUOUS
 62
           2
100
AcDbCircle
 10
210.581808963699
 20
234.930815293438
 40
9.15
100
AcDbArc
 50
-59.020736883085
 51
-51.732033918986
  0
ARC
  5
F9
100
AcDbEntity
  8
1
  6
CONTINUOUS
 62
           2
100
AcDbCircle
 10
210.581808963699
 20
234.930815293438
 40
9.15
100
AcDbArc
 50
-8.267966081015
 51
-0.979263116916
  0
ARC
  5
F8
100
AcDbEntity
  8
1
  6
CONTINUOUS
 62
           2
100
AcDbCircle
 10
210.581808963699
 20
234.930815293438
 40
9.15
100
AcDbArc
 50
-68.273544712464
 51
-60.994294851935
  0
ARC
  5
F7
100
AcDbEntity
  8
1
  6
CONTINUOUS
 62
           2
100
AcDbCircle
 10
210.581808963699
 20
234.930815293438
 40
9.15
100
AcDbArc
 50
0.979263116915
 51
8.267966081015
  0
ARC
  5
F6
100
AcDbEntity
  8
1
  6
CONTINUOUS
 62
           2
100
AcDbCircle
 10
210.581808963699
 20
234.930815293438
 40
9.15
100
AcDbArc
 50
51.732033918985
 51
59.020736883085
  0
ARC
  5
F5
100
AcDbEntity
  8
1
  6
CONTINUOUS
 62
           2
100
AcDbCircle
 10
210.581808963699
 20
234.930815293438
 40
9.15
100
AcDbArc
 50
60.994294851934
 51
68.273544712464
  0
ARC
  5
F4
100
AcDbEntity
  8
1
  6
CONTINUOUS
 62
           2
100
AcDbCircle
 10
210.581808963699
 20
234.930815293438
 40
9.15
100
AcDbArc
 50
-119.005705148065
 51
-111.726455287536
  0
ARC
  5
F3
100
AcDbEntity
  8
1
  6
CONTINUOUS
 62
           2
100
AcDbCircle
 10
210.581808963699
 20
234.930815293438
 40
9.15
100
AcDbArc
 50
-128.267966081014
 51
-120.979263116915
  0
ARC
  5
F2
100
AcDbEntity
  8
1
  6
CONTINUOUS
 62
           2
100
AcDbCircle
 10
210.581808963699
 20
234.930815293438
 40
9.15
100
AcDbArc
 50
-179.020736883084
 51
-171.732033918984
  0
ARC
  5
F1
100
AcDbEntity
  8
1
  6
CONTINUOUS
 62
           2
100
AcDbCircle
 10
210.581808963699
 20
234.930815293438
 40
9.15
100
AcDbArc
 50
171.732033918985
 51
179.020736883084
  0
ARC
  5
F0
100
AcDbEntity
  8
1
  6
CONTINUOUS
 62
           2
100
AcDbCircle
 10
210.581808963699
 20
234.930815293438
 40
9.15
100
AcDbArc
 50
120.979263116915
 51
128.267966081015
  0
ARC
  5
EF
100
AcDbEntity
  8
1
  6
CONTINUOUS
 62
           2
100
AcDbCircle
 10
210.581808963699
 20
234.930815293438
 40
9.15
100
AcDbArc
 50
111.726455287536
 51
119.005705148066
  0
LINE
  5
EE
100
AcDbEntity
  8
1
  6
CONTINUOUS
 62
           7
100
AcDbLine
 10
45.334021819981
 20
219.900234314785
 11
45.334021819981
 21
234.930815293438
  0
LINE
  5
ED
100
AcDbEntity
  8
1
  6
CONTINUOUS
 62
           7
100
AcDbLine
 10
38.974021819981
 20
190.654787059241
 11
38.974021819981
 21
234.930815293438
  0
LINE
  5
EC
100
AcDbEntity
  8
1
  6
CONTINUOUS
 62
           7
100
AcDbLine
 10
47.474021819981
 20
234.930815293438
 11
47.474021819981
 21
219.430815293438
  0
LINE
  5
EB
100
AcDbEntity
  8
1
  6
CONTINUOUS
 62
           7
100
AcDbLine
 10
37.554644336744
 20
189.036087028724
 11
33.008900056853
 21
188.718217623321
  0
LINE
  5
EA
100
AcDbEntity
  8
1
  6
CONTINUOUS
 62
           7
100
AcDbLine
 10
39.345691906346
 20
190.508782272454
 11
39.385202554777
 21
190.654787059241
  0
LINE
  5
E9
100
AcDbEntity
  8
1
  6
CONTINUOUS
 62
           7
100
AcDbLine
 10
47.474021819981
 20
219.430815293438
 11
47.057891210185
 21
219.430815293438
  0
LINE
  5
E8
100
AcDbEntity
  8
1
  6
CONTINUOUS
 62
           7
100
AcDbLine
 10
32.474021819981
 20
234.930815293438
 11
32.474021819981
 21
189.216999648451
  0
LINE
  5
E7
100
AcDbEntity
  8
1
  6
CONTINUOUS
 62
           7
100
AcDbLine
 10
47.474021819981
 20
219.430815293438
 11
47.474021819981
 21
223.732622983251
  0
LINE
  5
E6
100
AcDbEntity
  8
1
  6
CENTER_DASH_DASH
 62
           7
100
AcDbLine
 10
79.474021819981
 20
227.815815293438
 11
79.474021819981
 21
227.271276833563
  0
LINE
  5
E5
100
AcDbEntity
  8
1
  6
CONTINUOUS
 62
           7
100
AcDbLine
 10
71.682563525005
 20
226.031896837755
 11
78.509156364206
 21
226.271894242259
  0
LINE
  5
E4
100
AcDbEntity
  8
1
  6
CONTINUOUS
 62
           7
100
AcDbLine
 10
79.474021819981
 20
235.055815293438
 11
79.474021819981
 21
227.815815293438
  0
LINE
  5
E3
100
AcDbEntity
  8
1
  6
CONTINUOUS
 62
           7
100
AcDbLine
 10
86.774021819981
 20
230.430815293438
 11
82.774021819981
 21
230.430815293438
  0
LINE
  5
E2
100
AcDbEntity
  8
1
  6
CONTINUOUS
 62
           2
100
AcDbLine
 10
82.774021819981
 20
230.430815293438
 11
82.774021819981
 21
230.930815293438
  0
LINE
  5
E1
100
AcDbEntity
  8
1
  6
CONTINUOUS
 62
           2
100
AcDbLine
 10
82.774021819981
 20
230.930815293438
 11
84.526980399863
 21
230.430815293438
  0
LINE
  5
E0
100
AcDbEntity
  8
1
  6
CONTINUOUS
 62
           2
100
AcDbLine
 10
82.774021819981
 20
234.930815293438
 11
82.774021819981
 21
230.930815293438
  0
LINE
  5
DF
100
AcDbEntity
  8
1
  6
CONTINUOUS
 62
           7
100
AcDbLine
 10
82.474021819981
 20
230.430815293438
 11
82.774021819981
 21
230.430815293438
  0
LINE
  5
DE
100
AcDbEntity
  8
1
  6
CONTINUOUS
 62
           2
100
AcDbLine
 10
82.474021819981
 20
230.930815293438
 11
82.774021819981
 21
230.930815293438
  0
LINE
  5
DD
100
AcDbEntity
  8
1
  6
CONTINUOUS
 62
           7
100
AcDbLine
 10
82.474021819981
 20
229.430815293438
 11
82.474021819981
 21
234.930815293438
  0
LINE
  5
DC
100
AcDbEntity
  8
1
  6
CONTINUOUS
 62
           7
100
AcDbLine
 10
79.474021819981
 20
229.430815293438
 11
79.474021819981
 21
234.930815293438
  0
LINE
  5
DB
100
AcDbEntity
  8
1
  6
CONTINUOUS
 62
           7
100
AcDbLine
 10
79.474021819981
 20
226.430815293438
 11
79.474021819981
 21
229.430815293438
  0
LINE
  5
DA
100
AcDbEntity
  8
1
  6
CONTINUOUS
 62
           7
100
AcDbLine
 10
82.474021819981
 20
226.430815293438
 11
82.474021819981
 21
229.430815293438
  0
LINE
  5
D9
100
AcDbEntity
  8
1
  6
CONTINUOUS
 62
           7
100
AcDbLine
 10
82.098744145008
 20
225.780815293438
 11
79.849299494954
 21
225.780815293438
  0
LINE
  5
D8
100
AcDbEntity
  8
1
  6
CONTINUOUS
 62
           7
100
AcDbLine
 10
79.849299494954
 20
225.780815293438
 11
79.474021819981
 21
226.430815293438
  0
LINE
  5
D7
100
AcDbEntity
  8
1
  6
CONTINUOUS
 62
           7
100
AcDbLine
 10
82.098744145008
 20
225.780815293438
 11
82.474021819981
 21
226.430815293438
  0
LINE
  5
D6
100
AcDbEntity
  8
1
  6
CONTINUOUS
 62
           7
100
AcDbLine
 10
79.849299494954
 20
231.54370738255
 11
82.098744145008
 21
231.54370738255
  0
LINE
  5
D5
100
AcDbEntity
  8
1
  6
CONTINUOUS
 62
           7
100
AcDbLine
 10
79.849299494954
 20
229.263153316715
 11
82.098744145008
 21
229.263153316715
  0
LINE
  5
D4
100
AcDbEntity
  8
1
  6
CONTINUOUS
 62
           7
100
AcDbLine
 10
79.849299494954
 20
229.263153316715
 11
79.849299494954
 21
231.54370738255
  0
LINE
  5
D3
100
AcDbEntity
  8
1
  6
CONTINUOUS
 62
           7
100
AcDbLine
 10
82.098744145008
 20
229.263153316715
 11
82.098744145008
 21
231.54370738255
  0
LINE
  5
D2
100
AcDbEntity
  8
1
  6
CONTINUOUS
 62
           7
100
AcDbLine
 10
87.488552999797
 20
230.312013139921
 11
99.059490640165
 21
230.312013139921
  0
LINE
  5
D1
100
AcDbEntity
  8
1
  6
CONTINUOUS
 62
           7
100
AcDbLine
 10
99.774021819981
 20
234.930815293439
 11
99.774021819981
 21
228.352315293438
  0
LINE
  5
D0
100
AcDbEntity
  8
1
  6
CONTINUOUS
 62
           7
100
AcDbLine
 10
99.059490640165
 20
225.693210986404
 11
87.488552999797
 21
225.693210986404
  0
LINE
  5
CF
100
AcDbEntity
  8
1
  6
CONTINUOUS
 62
           7
100
AcDbLine
 10
86.774021819981
 20
226.930815293438
 11
87.488552999797
 21
225.693210986404
  0
LINE
  5
CE
100
AcDbEntity
  8
1
  6
CONTINUOUS
 62
           7
100
AcDbLine
 10
99.774021819981
 20
226.930815293438
 11
99.059490640165
 21
225.693210986404
  0
LINE
  5
CD
100
AcDbEntity
  8
1
  6
CONTINUOUS
 62
           7
100
AcDbLine
 10
86.774021819981
 20
234.930815293438
 11
86.774021819981
 21
226.930815293438
  0
LINE
  5
CC
100
AcDbEntity
  8
1
  6
CONTINUOUS
 62
           7
100
AcDbLine
 10
99.774021819981
 20
228.352315293438
 11
99.774021819981
 21
226.930815293438
  0
LINE
  5
CB
100
AcDbEntity
  8
1
  6
CONTINUOUS
 62
           7
100
AcDbLine
 10
21.024021819981
 20
190.530815293438
 11
21.024021819981
 21
191.930815293438
  0
LINE
  5
CA
100
AcDbEntity
  8
1
  6
CONTINUOUS
 62
           7
100
AcDbLine
 10
26.024021819981
 20
190.530815293438
 11
22.774021819981
 21
190.530815293438
  0
LINE
  5
C9
100
AcDbEntity
  8
1
  6
CONTINUOUS
 62
           7
100
AcDbLine
 10
22.774021819981
 20
190.530815293438
 11
21.024021819981
 21
190.530815293438
  0
LINE
  5
C8
100
AcDbEntity
  8
1
  6
CONTINUOUS
 62
           7
100
AcDbLine
 10
22.774021819981
 20
188.027539259146
 11
22.774021819981
 21
190.530815293438
  0
LINE
  5
C7
100
AcDbEntity
  8
1
  6
CONTINUOUS
 62
           7
100
AcDbLine
 10
26.024021819981
 20
180.430815293438
 11
23.351372089171
 21
180.430815293438
  0
LINE
  5
C6
100
AcDbEntity
  8
1
  6
CONTINUOUS
 62
           7
100
AcDbLine
 10
28.696671550791
 20
180.430815293438
 11
26.024021819981
 21
180.430815293438
  0
LINE
  5
C5
100
AcDbEntity
  8
1
  6
CONTINUOUS
 62
           7
100
AcDbLine
 10
29.282774157728
 20
181.445974787102
 11
28.696671550791
 21
180.430815293438
  0
LINE
  5
C4
100
AcDbEntity
  8
1
  6
CONTINUOUS
 62
           7
100
AcDbLine
 10
29.274021819981
 20
190.530815293438
 11
26.024021819981
 21
190.530815293438
  0
LINE
  5
C3
100
AcDbEntity
  8
1
  6
CONTINUOUS
 62
           7
100
AcDbLine
 10
31.024021819981
 20
190.530815293438
 11
29.274021819981
 21
190.530815293438
  0
LINE
  5
C2
100
AcDbEntity
  8
1
  6
CONTINUOUS
 62
           7
100
AcDbLine
 10
31.024021819981
 20
191.930815293438
 11
31.024021819981
 21
190.530815293438
  0
LINE
  5
C1
100
AcDbEntity
  8
1
  6
DOT_CENTER
 62
           2
100
AcDbLine
 10
26.024021819981
 20
177.479032067885
 11
26.024021819981
 21
200.230369363091
  0
LINE
  5
C0
100
AcDbEntity
  8
1
  6
CONTINUOUS
 62
           7
100
AcDbLine
 10
-81.450421248073
 20
181.930815293438
 11
-15.052557566381
 21
181.930815293438
  0
LINE
  5
BF
100
AcDbEntity
  8
1
  6
CONTINUOUS
 62
           7
100
AcDbLine
 10
-89.725978180019
 20
181.930815293438
 11
-81.450421248073
 21
181.930815293438
  0
LINE
  5
BE
100
AcDbEntity
  8
1
  6
CONTINUOUS
 62
           7
100
AcDbLine
 10
-106.725978180019
 20
183.294472853546
 11
-106.725978180019
 21
234.930815293438
  0
LINE
  5
BD
100
AcDbEntity
  8
1
  6
CONTINUOUS
 62
           7
100
AcDbLine
 10
-89.725978180019
 20
181.930815293438
 11
-89.725978180019
 21
181.130815293438
  0
LINE
  5
BC
100
AcDbEntity
  8
1
  6
CONTINUOUS
 62
           7
100
AcDbLine
 10
-106.725978180019
 20
183.294472853546
 11
-106.725978180019
 21
182.630815293438
  0
LINE
  5
BB
100
AcDbEntity
  8
1
  6
CONTINUOUS
 62
           7
100
AcDbLine
 10
-89.725978180019
 20
181.130815293438
 11
-105.225978180019
 21
181.130815293438
  0
LINE
  5
BA
100
AcDbEntity
  8
1
  6
CONTINUOUS
 62
           7
100
AcDbLine
 10
-89.725978180019
 20
234.930815293438
 11
-89.725978180019
 21
181.930815293438
  0
LINE
  5
B9
100
AcDbEntity
  8
1
  6
CONTINUOUS
 62
           7
100
AcDbLine
 10
20.274021819981
 20
234.930815293438
 11
20.274021819981
 21
191.930815293438
  0
LINE
  5
B8
100
AcDbEntity
  8
1
  6
CONTINUOUS
 62
           7
100
AcDbLine
 10
29.274021819981
 20
190.530815293438
 11
29.274021819981
 21
188.116196027747
  0
LINE
  5
B7
100
AcDbEntity
  8
1
  6
CONTINUOUS
 62
           7
100
AcDbLine
 10
23.351372089171
 20
180.430815293438
 11
22.90475253158
 21
181.204383058839
  0
LINE
  5
B6
100
AcDbEntity
  8
1
  6
CONTINUOUS
 62
           7
100
AcDbLine
 10
20.274021819981
 20
191.930815293438
 11
32.474021819981
 21
191.930815293438
  0
LINE
  5
B5
100
AcDbEntity
  8
1
  6
CONTINUOUS
 62
           7
100
AcDbLine
 10
69.682563525005
 20
222.527953535496
 11
69.682563525005
 21
234.930815293438
  0
LINE
  5
B4
100
AcDbEntity
  8
1
  6
CONTINUOUS
 62
           7
100
AcDbLine
 10
15.682563525005
 20
187.930815293438
 11
37.487446568986
 21
188.228223058115
  0
LINE
  5
B3
100
AcDbEntity
  8
1
  6
CONTINUOUS
 62
           7
100
AcDbLine
 10
71.682563525005
 20
225.430815293438
 11
71.682563525005
 21
234.930815293438
  0
LINE
  5
B2
100
AcDbEntity
  8
1
  6
CONTINUOUS
 62
           7
100
AcDbLine
 10
69.682563525005
 20
221.930815293438
 11
69.682563525005
 21
221.88642380922
  0
LINE
  5
B1
100
AcDbEntity
  8
1
  6
CONTINUOUS
 62
           7
100
AcDbLine
 10
59.182563525005
 20
219.830815293438
 11
59.182563525005
 21
219.199177007884
  0
LINE
  5
B0
100
AcDbEntity
  8
1
  6
CONTINUOUS
 62
           7
100
AcDbLine
 10
54.682563525005
 20
219.930815293438
 11
59.182563525005
 21
219.830815293438
  0
LINE
  5
AF
100
AcDbEntity
  8
1
  6
CONTINUOUS
 62
           7
100
AcDbLine
 10
71.682563525005
 20
225.430815293438
 11
71.682563525005
 21
222.930815293438
  0
LINE
  5
AE
100
AcDbEntity
  8
1
  6
CONTINUOUS
 62
           7
100
AcDbLine
 10
69.682563525005
 20
221.930815293438
 11
71.682563525005
 21
222.930815293438
  0
LINE
  5
AD
100
AcDbEntity
  8
1
  6
CONTINUOUS
 62
           7
100
AcDbLine
 10
15.682563525005
 20
187.930815293438
 11
15.682563525005
 21
180.930815293438
  0
LINE
  5
AC
100
AcDbEntity
  8
1
  6
CONTINUOUS
 62
           7
100
AcDbLine
 10
15.682563525005
 20
180.930815293438
 11
40.93644416149
 21
181.887401681184
  0
LINE
  5
AB
100
AcDbEntity
  8
1
  6
CONTINUOUS
 62
           7
100
AcDbLine
 10
59.182563525005
 20
234.930815293438
 11
59.182563525005
 21
219.830815293438
  0
LINE
  5
AA
100
AcDbEntity
  8
1
  6
CONTINUOUS
 62
           7
100
AcDbLine
 10
54.224084203037
 20
219.753318412591
 11
54.705500973195
 21
219.777389251099
  0
LINE
  5
A9
100
AcDbEntity
  8
1
  6
CONTINUOUS
 62
           7
100
AcDbLine
 10
54.682563525005
 20
219.930815293438
 11
54.705500973195
 21
219.777389251099
  0
LINE
  5
A8
100
AcDbEntity
  8
1
  6
CONTINUOUS
 62
           7
100
AcDbLine
 10
54.163437268963
 20
219.750286065887
 11
47.774021819981
 21
219.430815293438
  0
LINE
  5
A7
100
AcDbEntity
  8
1
  6
CONTINUOUS
 62
           7
100
AcDbLine
 10
20.274021819981
 20
192.930815293438
 11
20.203647561228
 21
192.930815293438
  0
LINE
  5
A6
100
AcDbEntity
  8
1
  6
CONTINUOUS
 62
           7
100
AcDbLine
 10
20.203647561228
 20
276.930815293438
 11
20.274021819981
 21
276.930815293438
  0
LINE
  5
A5
100
AcDbEntity
  8
1
  6
CONTINUOUS
 62
           7
100
AcDbLine
 10
257.051064542363
 20
236.62146190488
 11
256.996527554897
 21
238.120470149353
  0
LINE
  5
A4
100
AcDbEntity
  8
1
  6
CONTINUOUS
 62
           7
100
AcDbLine
 10
245.538707187556
 20
239.20460360908
 11
255.442982322958
 21
239.56494140636
  0
LINE
  5
A3
100
AcDbEntity
  8
1
  6
CONTINUOUS
 62
           7
100
AcDbLine
 10
255.661130272822
 20
233.568908428468
 11
245.756855137419
 21
233.208570631188
  0
LINE
  5
A2
100
AcDbEntity
  8
1
  6
CONTINUOUS
 62
           7
100
AcDbLine
 10
257.105601529829
 20
235.122453660407
 11
257.051064542363
 21
236.62146190488
  0
LINE
  5
A1
100
AcDbEntity
  8
1
  6
CONTINUOUS
 62
           7
100
AcDbLine
 10
47.774021819981
 20
250.430815293438
 11
54.163437268963
 21
250.111344520989
  0
LINE
  5
A0
100
AcDbEntity
  8
1
  6
CONTINUOUS
 62
           7
100
AcDbLine
 10
54.705500973195
 20
250.084241335778
 11
54.682563525005
 21
249.930815293438
  0
LINE
  5
9F
100
AcDbEntity
  8
1
  6
CONTINUOUS
 62
           7
100
AcDbLine
 10
54.705500973195
 20
250.084241335778
 11
54.224084203037
 21
250.108312174285
  0
LINE
  5
9E
100
AcDbEntity
  8
1
  6
CONTINUOUS
 62
           7
100
AcDbLine
 10
59.182563525005
 20
250.030815293438
 11
59.182563525005
 21
234.930815293438
  0
LINE
  5
9D
100
AcDbEntity
  8
1
  6
CONTINUOUS
 62
           7
100
AcDbLine
 10
40.93644416149
 20
287.974228905693
 11
15.682563525005
 21
288.930815293438
  0
LINE
  5
9C
100
AcDbEntity
  8
1
  6
CONTINUOUS
 62
           7
100
AcDbLine
 10
15.682563525005
 20
288.930815293438
 11
15.682563525005
 21
281.930815293438
  0
LINE
  5
9B
100
AcDbEntity
  8
1
  6
CONTINUOUS
 62
           7
100
AcDbLine
 10
71.682563525005
 20
246.930815293438
 11
69.682563525005
 21
247.930815293438
  0
LINE
  5
9A
100
AcDbEntity
  8
1
  6
CONTINUOUS
 62
           7
100
AcDbLine
 10
71.682563525005
 20
246.930815293438
 11
71.682563525005
 21
244.430815293438
  0
LINE
  5
99
100
AcDbEntity
  8
1
  6
CONTINUOUS
 62
           7
100
AcDbLine
 10
59.182563525005
 20
250.030815293438
 11
54.682563525005
 21
249.930815293438
  0
LINE
  5
98
100
AcDbEntity
  8
1
  6
CONTINUOUS
 62
           7
100
AcDbLine
 10
59.182563525005
 20
219.830815293438
 11
54.682563525005
 21
249.930815293438
  0
LINE
  5
97
100
AcDbEntity
  8
1
  6
CONTINUOUS
 62
           7
100
AcDbLine
 10
59.182563525005
 20
250.662453578992
 11
59.182563525005
 21
250.030815293438
  0
LINE
  5
96
100
AcDbEntity
  8
1
  6
CONTINUOUS
 62
           7
100
AcDbLine
 10
69.682563525005
 20
247.975206777656
 11
69.682563525005
 21
247.930815293438
  0
LINE
  5
95
100
AcDbEntity
  8
1
  6
CONTINUOUS
 62
           7
100
AcDbLine
 10
71.682563525005
 20
234.930815293438
 11
71.682563525005
 21
244.430815293438
  0
LINE
  5
94
100
AcDbEntity
  8
1
  6
CONTINUOUS
 62
           7
100
AcDbLine
 10
37.487446568986
 20
281.633407528762
 11
15.682563525005
 21
281.930815293438
  0
LINE
  5
93
100
AcDbEntity
  8
1
  6
CONTINUOUS
 62
           2
100
AcDbLine
 10
203.081808963699
 20
240.344917250365
 11
203.081808963699
 21
238.939774581273
  0
LINE
  5
92
100
AcDbEntity
  8
1
  6
CONTINUOUS
 62
           2
100
AcDbLine
 10
203.081808963699
 20
229.516713336511
 11
203.081808963699
 21
230.921856005603
  0
LINE
  5
91
100
AcDbEntity
  8
1
  6
CONTINUOUS
 62
           7
100
AcDbLine
 10
216.581808963699
 20
278.679076224252
 11
216.581808963699
 21
265.042749451551
  0
LINE
  5
90
100
AcDbEntity
  8
1
  6
CONTINUOUS
 62
           7
100
AcDbLine
 10
204.581808963699
 20
265.042749451551
 11
204.581808963699
 21
278.679076224252
  0
LINE
  5
8F
100
AcDbEntity
  8
1
  6
CONTINUOUS
 62
           7
100
AcDbLine
 10
202.081808963699
 20
281.155808533027
 11
202.081808963699
 21
286.522965859198
  0
LINE
  5
8E
100
AcDbEntity
  8
1
  6
CONTINUOUS
 62
           7
100
AcDbLine
 10
202.081808963699
 20
281.155808533027
 11
202.370702481017
 21
281.127477585292
  0
LINE
  5
8D
100
AcDbEntity
  8
1
  6
CONTINUOUS
 62
           7
100
AcDbLine
 10
219.081808963699
 20
286.522965859198
 11
219.081808963699
 21
281.155808533027
  0
LINE
  5
8C
100
AcDbEntity
  8
1
  6
CONTINUOUS
 62
           7
100
AcDbLine
 10
218.792915446381
 20
281.127477585292
 11
219.081808963699
 21
281.155808533027
  0
LINE
  5
8B
100
AcDbEntity
  8
1
  6
CONTINUOUS
 62
           7
100
AcDbLine
 10
216.581808963699
 20
204.818881135325
 11
216.581808963699
 21
191.182554362625
  0
LINE
  5
8A
100
AcDbEntity
  8
1
  6
CONTINUOUS
 62
           7
100
AcDbLine
 10
204.581808963699
 20
191.182554362625
 11
204.581808963699
 21
204.818881135325
  0
LINE
  5
89
100
AcDbEntity
  8
1
  6
CONTINUOUS
 62
           7
100
AcDbLine
 10
202.081808963699
 20
183.338664727679
 11
202.081808963699
 21
188.70582205385
  0
LINE
  5
88
100
AcDbEntity
  8
1
  6
CONTINUOUS
 62
           7
100
AcDbLine
 10
202.370702481017
 20
188.734153001584
 11
202.081808963699
 21
188.70582205385
  0
LINE
  5
87
100
AcDbEntity
  8
1
  6
CONTINUOUS
 62
           7
100
AcDbLine
 10
219.081808963699
 20
188.70582205385
 11
219.081808963699
 21
183.338664727679
  0
LINE
  5
86
100
AcDbEntity
  8
1
  6
CONTINUOUS
 62
           7
100
AcDbLine
 10
219.081808963699
 20
188.70582205385
 11
218.792915446381
 21
188.734153001584
  0
LINE
  5
85
100
AcDbEntity
  8
1
  6
CONTINUOUS
 62
           7
100
AcDbLine
 10
69.682563525005
 20
234.930815293438
 11
69.682563525005
 21
247.33367705138
  0
LINE
  5
84
100
AcDbEntity
  8
1
  6
CONTINUOUS
 62
           2
100
AcDbLine
 10
218.081808963699
 20
230.921856005604
 11
218.081808963699
 21
229.516713336511
  0
LINE
  5
83
100
AcDbEntity
  8
1
  6
CONTINUOUS
 62
           2
100
AcDbLine
 10
218.081808963699
 20
239.116525945781
 11
218.081808963699
 21
240.344917250365
  0
LINE
  5
82
100
AcDbEntity
  8
1
  6
CONTINUOUS
 62
           7
100
AcDbLine
 10
32.474021819981
 20
277.930815293438
 11
20.274021819981
 21
277.930815293438
  0
LINE
  5
81
100
AcDbEntity
  8
1
  6
CONTINUOUS
 62
           7
100
AcDbLine
 10
22.90475253158
 20
288.657247528038
 11
23.351372089171
 21
289.430815293438
  0
LINE
  5
80
100
AcDbEntity
  8
1
  6
CONTINUOUS
 62
           7
100
AcDbLine
 10
29.274021819981
 20
281.74543455913
 11
29.274021819981
 21
279.330815293438
  0
LINE
  5
7F
100
AcDbEntity
  8
1
  6
CONTINUOUS
 62
           7
100
AcDbLine
 10
20.274021819981
 20
277.930815293438
 11
20.274021819981
 21
234.930815293438
  0
LINE
  5
7E
100
AcDbEntity
  8
1
  6
CONTINUOUS
 62
           7
100
AcDbLine
 10
-89.725978180019
 20
287.930815293438
 11
-89.725978180019
 21
234.930815293438
  0
LINE
  5
7D
100
AcDbEntity
  8
1
  6
CONTINUOUS
 62
           7
100
AcDbLine
 10
-105.225978180019
 20
288.730815293438
 11
-89.725978180019
 21
288.730815293438
  0
LINE
  5
7C
100
AcDbEntity
  8
1
  6
CONTINUOUS
 62
           7
100
AcDbLine
 10
-106.725978180019
 20
287.230815293438
 11
-106.725978180019
 21
286.56715773333
  0
LINE
  5
7B
100
AcDbEntity
  8
1
  6
CONTINUOUS
 62
           7
100
AcDbLine
 10
-89.725978180019
 20
288.730815293438
 11
-89.725978180019
 21
287.930815293438
  0
LINE
  5
7A
100
AcDbEntity
  8
1
  6
CONTINUOUS
 62
           7
100
AcDbLine
 10
-106.725978180019
 20
234.930815293438
 11
-106.725978180019
 21
286.56715773333
  0
LINE
  5
79
100
AcDbEntity
  8
1
  6
CONTINUOUS
 62
           7
100
AcDbLine
 10
-81.450421248073
 20
287.930815293438
 11
-89.725978180019
 21
287.930815293438
  0
LINE
  5
78
100
AcDbEntity
  8
1
  6
CONTINUOUS
 62
           7
100
AcDbLine
 10
-15.052557566381
 20
287.930815293438
 11
-81.450421248073
 21
287.930815293438
  0
LINE
  5
77
100
AcDbEntity
  8
1
  6
DOT_CENTER
 62
           2
100
AcDbLine
 10
26.024021819981
 20
269.631261223786
 11
26.024021819981
 21
292.382598518991
  0
LINE
  5
76
100
AcDbEntity
  8
1
  6
CONTINUOUS
 62
           7
100
AcDbLine
 10
31.024021819981
 20
279.330815293438
 11
31.024021819981
 21
277.930815293438
  0
LINE
  5
75
100
AcDbEntity
  8
1
  6
CONTINUOUS
 62
           7
100
AcDbLine
 10
29.274021819981
 20
279.330815293438
 11
31.024021819981
 21
279.330815293438
  0
LINE
  5
74
100
AcDbEntity
  8
1
  6
CONTINUOUS
 62
           7
100
AcDbLine
 10
26.024021819981
 20
279.330815293438
 11
29.274021819981
 21
279.330815293438
  0
LINE
  5
73
100
AcDbEntity
  8
1
  6
CONTINUOUS
 62
           7
100
AcDbLine
 10
28.696671550791
 20
289.430815293438
 11
29.282774157728
 21
288.415655799775
  0
LINE
  5
72
100
AcDbEntity
  8
1
  6
CONTINUOUS
 62
           7
100
AcDbLine
 10
26.024021819981
 20
289.430815293438
 11
28.696671550791
 21
289.430815293438
  0
LINE
  5
71
100
AcDbEntity
  8
1
  6
CONTINUOUS
 62
           7
100
AcDbLine
 10
23.351372089171
 20
289.430815293438
 11
26.024021819981
 21
289.430815293438
  0
LINE
  5
70
100
AcDbEntity
  8
1
  6
CONTINUOUS
 62
           7
100
AcDbLine
 10
22.774021819981
 20
279.330815293438
 11
22.774021819981
 21
281.834091327731
  0
LINE
  5
6F
100
AcDbEntity
  8
1
  6
CONTINUOUS
 62
           7
100
AcDbLine
 10
21.024021819981
 20
279.330815293438
 11
22.774021819981
 21
279.330815293438
  0
LINE
  5
6E
100
AcDbEntity
  8
1
  6
CONTINUOUS
 62
           7
100
AcDbLine
 10
22.774021819981
 20
279.330815293438
 11
26.024021819981
 21
279.330815293438
  0
LINE
  5
6D
100
AcDbEntity
  8
1
  6
CONTINUOUS
 62
           7
100
AcDbLine
 10
21.024021819981
 20
277.930815293438
 11
21.024021819981
 21
279.330815293438
  0
LINE
  5
6C
100
AcDbEntity
  8
1
  6
CONTINUOUS
 62
           7
100
AcDbLine
 10
99.774021819981
 20
242.930815293438
 11
99.774021819981
 21
241.509315293438
  0
LINE
  5
6B
100
AcDbEntity
  8
1
  6
CONTINUOUS
 62
           7
100
AcDbLine
 10
86.774021819981
 20
242.930815293438
 11
86.774021819981
 21
234.930815293438
  0
LINE
  5
6A
100
AcDbEntity
  8
1
  6
CONTINUOUS
 62
           7
100
AcDbLine
 10
99.059490640165
 20
244.168419600472
 11
99.774021819981
 21
242.930815293438
  0
LINE
  5
69
100
AcDbEntity
  8
1
  6
CONTINUOUS
 62
           7
100
AcDbLine
 10
87.488552999797
 20
244.168419600472
 11
86.774021819981
 21
242.930815293438
  0
LINE
  5
68
100
AcDbEntity
  8
1
  6
CONTINUOUS
 62
           7
100
AcDbLine
 10
87.488552999797
 20
244.168419600472
 11
99.059490640165
 21
244.168419600472
  0
LINE
  5
67
100
AcDbEntity
  8
1
  6
CONTINUOUS
 62
           7
100
AcDbLine
 10
99.774021819981
 20
241.509315293438
 11
99.774021819981
 21
234.930815293439
  0
LINE
  5
66
100
AcDbEntity
  8
1
  6
CONTINUOUS
 62
           7
100
AcDbLine
 10
99.059490640165
 20
239.549617446955
 11
87.488552999797
 21
239.549617446955
  0
LINE
  5
65
100
AcDbEntity
  8
1
  6
CONTINUOUS
 62
           7
100
AcDbLine
 10
82.098744145008
 20
238.317923204326
 11
82.098744145008
 21
240.598477270162
  0
LINE
  5
64
100
AcDbEntity
  8
1
  6
CONTINUOUS
 62
           7
100
AcDbLine
 10
79.849299494954
 20
238.317923204326
 11
79.849299494954
 21
240.598477270162
  0
LINE
  5
63
100
AcDbEntity
  8
1
  6
CONTINUOUS
 62
           7
100
AcDbLine
 10
82.098744145008
 20
240.598477270162
 11
79.849299494954
 21
240.598477270162
  0
LINE
  5
62
100
AcDbEntity
  8
1
  6
CONTINUOUS
 62
           7
100
AcDbLine
 10
82.098744145008
 20
238.317923204326
 11
79.849299494954
 21
238.317923204326
  0
LINE
  5
61
100
AcDbEntity
  8
1
  6
CONTINUOUS
 62
           7
100
AcDbLine
 10
82.474021819981
 20
243.430815293438
 11
82.098744145008
 21
244.080815293438
  0
LINE
  5
60
100
AcDbEntity
  8
1
  6
CONTINUOUS
 62
           7
100
AcDbLine
 10
79.474021819981
 20
243.430815293438
 11
79.849299494954
 21
244.080815293438
  0
LINE
  5
5F
100
AcDbEntity
  8
1
  6
CONTINUOUS
 62
           7
100
AcDbLine
 10
79.849299494954
 20
244.080815293438
 11
82.098744145008
 21
244.080815293438
  0
LINE
  5
5E
100
AcDbEntity
  8
1
  6
CONTINUOUS
 62
           7
100
AcDbLine
 10
82.474021819981
 20
240.430815293438
 11
82.474021819981
 21
243.430815293438
  0
LINE
  5
5D
100
AcDbEntity
  8
1
  6
CONTINUOUS
 62
           7
100
AcDbLine
 10
79.474021819981
 20
240.430815293438
 11
79.474021819981
 21
243.430815293438
  0
LINE
  5
5C
100
AcDbEntity
  8
1
  6
CONTINUOUS
 62
           7
100
AcDbLine
 10
79.474021819981
 20
234.930815293438
 11
79.474021819981
 21
240.430815293438
  0
LINE
  5
5B
100
AcDbEntity
  8
1
  6
CONTINUOUS
 62
           7
100
AcDbLine
 10
82.474021819981
 20
234.930815293438
 11
82.474021819981
 21
240.430815293438
  0
LINE
  5
5A
100
AcDbEntity
  8
1
  6
CONTINUOUS
 62
           2
100
AcDbLine
 10
82.774021819981
 20
238.930815293438
 11
82.474021819981
 21
238.930815293438
  0
LINE
  5
59
100
AcDbEntity
  8
1
  6
CONTINUOUS
 62
           7
100
AcDbLine
 10
82.774021819981
 20
239.430815293438
 11
82.474021819981
 21
239.430815293438
  0
LINE
  5
58
100
AcDbEntity
  8
1
  6
CONTINUOUS
 62
           2
100
AcDbLine
 10
82.774021819981
 20
238.930815293438
 11
82.774021819981
 21
234.930815293438
  0
LINE
  5
57
100
AcDbEntity
  8
1
  6
CONTINUOUS
 62
           2
100
AcDbLine
 10
84.526980399863
 20
239.430815293438
 11
82.774021819981
 21
238.930815293438
  0
LINE
  5
56
100
AcDbEntity
  8
1
  6
CONTINUOUS
 62
           2
100
AcDbLine
 10
82.774021819981
 20
238.930815293438
 11
82.774021819981
 21
239.430815293438
  0
LINE
  5
55
100
AcDbEntity
  8
1
  6
CONTINUOUS
 62
           7
100
AcDbLine
 10
82.774021819981
 20
239.430815293438
 11
86.774021819981
 21
239.430815293438
  0
LINE
  5
54
100
AcDbEntity
  8
1
  6
CONTINUOUS
 62
           7
100
AcDbLine
 10
79.474021819981
 20
242.045815293438
 11
79.474021819981
 21
234.805815293438
  0
LINE
  5
53
100
AcDbEntity
  8
1
  6
CONTINUOUS
 62
           7
100
AcDbLine
 10
78.509156364206
 20
243.589736344618
 11
71.682563525005
 21
243.829733749121
  0
LINE
  5
52
100
AcDbEntity
  8
1
  6
CENTER_DASH_DASH
 62
           7
100
AcDbLine
 10
79.474021819981
 20
242.590353753314
 11
79.474021819981
 21
242.045815293438
  0
LINE
  5
51
100
AcDbEntity
  8
1
  6
CONTINUOUS
 62
           7
100
AcDbLine
 10
47.474021819981
 20
246.129007603625
 11
47.474021819981
 21
250.430815293438
  0
LINE
  5
50
100
AcDbEntity
  8
1
  6
CONTINUOUS
 62
           7
100
AcDbLine
 10
32.474021819981
 20
280.644630938426
 11
32.474021819981
 21
234.930815293438
  0
LINE
  5
4F
100
AcDbEntity
  8
1
  6
CONTINUOUS
 62
           7
100
AcDbLine
 10
47.057891210185
 20
250.430815293438
 11
47.474021819981
 21
250.430815293438
  0
LINE
  5
4E
100
AcDbEntity
  8
1
  6
CONTINUOUS
 62
           7
100
AcDbLine
 10
39.385202554777
 20
279.206843527636
 11
39.345691906346
 21
279.352848314422
  0
LINE
  5
4D
100
AcDbEntity
  8
1
  6
CONTINUOUS
 62
           7
100
AcDbLine
 10
33.008900056853
 20
281.143412963556
 11
37.554644336744
 21
280.825543558153
  0
LINE
  5
4C
100
AcDbEntity
  8
1
  6
CONTINUOUS
 62
           7
100
AcDbLine
 10
217.696808963699
 20
230.055633245555
 11
217.99941126999
 21
229.435656732323
  0
LINE
  5
4B
100
AcDbEntity
  8
1
  6
DOT_CENTER
 62
           2
100
AcDbLine
 10
183.581808963699
 20
232.124767699016
 11
183.581808963699
 21
237.710222843862
  0
LINE
  5
4A
100
AcDbEntity
  8
1
  6
CONTINUOUS
 62
           7
100
AcDbLine
 10
47.474021819981
 20
250.430815293438
 11
47.474021819981
 21
234.930815293438
  0
LINE
  5
49
100
AcDbEntity
  8
1
  6
CONTINUOUS
 62
           7
100
AcDbLine
 10
38.974021819981
 20
234.930815293438
 11
38.974021819981
 21
279.206843527636
  0
LINE
  5
48
100
AcDbEntity
  8
1
  6
CONTINUOUS
 62
           7
100
AcDbLine
 10
45.334021819981
 20
234.930815293438
 11
45.334021819981
 21
249.961396272091
  0
LINE
  5
47
100
AcDbEntity
  8
1
  6
CONTINUOUS
 62
           7
100
AcDbLine
 10
217.99933684151
 20
240.425821364277
 11
217.696808963699
 21
239.805997341321
  0
LINE
  5
46
100
AcDbEntity
  8
1
  6
CONTINUOUS
 62
           7
100
AcDbLine
 10
203.164206657408
 20
229.435656732323
 11
203.466808963699
 21
230.055633245555
  0
LINE
  5
45
100
AcDbEntity
  8
1
  6
CONTINUOUS
 62
           7
100
AcDbLine
 10
203.466808963699
 20
239.805997341321
 11
203.164281085888
 21
240.425821364277
  0
LINE
  5
44
100
AcDbEntity
  8
1
  6
CONTINUOUS
 62
           7
100
AcDbLine
 10
207.909159232889
 20
180.430815293438
 11
207.572019393592
 21
181.014758624356
  0
LINE
  5
43
100
AcDbEntity
  8
1
  6
CONTINUOUS
 62
           7
100
AcDbLine
 10
210.581808963699
 20
180.430815293438
 11
207.909159232889
 21
180.430815293438
  0
LINE
  5
42
100
AcDbEntity
  8
1
  6
CONTINUOUS
 62
           7
100
AcDbLine
 10
213.254458694509
 20
180.430815293438
 11
210.581808963699
 21
180.430815293438
  0
LINE
  5
41
100
AcDbEntity
  8
1
  6
CONTINUOUS
 62
           7
100
AcDbLine
 10
213.591598533806
 20
181.014758624356
 11
213.254458694509
 21
180.430815293438
  0
LINE
  5
40
100
AcDbEntity
  8
1
  6
CONTINUOUS
 62
           7
100
AcDbLine
 10
207.572019393592
 20
288.84687196252
 11
207.909159232889
 21
289.430815293438
  0
LINE
  5
3F
100
AcDbEntity
  8
1
  6
CONTINUOUS
 62
           7
100
AcDbLine
 10
207.909159232889
 20
289.430815293438
 11
210.581808963699
 21
289.430815293438
  0
LINE
  5
3E
100
AcDbEntity
  8
1
  6
CONTINUOUS
 62
           7
100
AcDbLine
 10
210.581808963699
 20
289.430815293438
 11
213.254458694509
 21
289.430815293438
  0
LINE
  5
3D
100
AcDbEntity
  8
1
  6
CONTINUOUS
 62
           7
100
AcDbLine
 10
213.254458694509
 20
289.430815293438
 11
213.591598533806
 21
288.84687196252
  0
LINE
  5
3C
100
AcDbEntity
  8
1
  6
CONTINUOUS
 62
           2
100
AcDbLine
 10
219.636707007434
 20
233.615018417942
 11
216.248771505966
 21
227.746941996634
  0
LINE
  5
3B
100
AcDbEntity
  8
1
  6
CONTINUOUS
 62
           2
100
AcDbLine
 10
213.968916874587
 20
226.430815293438
 11
210.581808963699
 21
226.430815293438
  0
LINE
  5
3A
100
AcDbEntity
  8
1
  6
CONTINUOUS
 62
           2
100
AcDbLine
 10
216.248771505966
 20
242.114688590243
 11
219.636707007434
 21
236.246612168934
  0
LINE
  5
39
100
AcDbEntity
  8
1
  6
CONTINUOUS
 62
           2
100
AcDbLine
 10
216.248771505966
 20
242.114688590243
 11
219.636707007434
 21
236.246612168934
  0
LINE
  5
38
100
AcDbEntity
  8
1
  6
CONTINUOUS
 62
           2
100
AcDbLine
 10
210.581808963699
 20
243.430815293438
 11
213.968916874587
 21
243.430815293438
  0
LINE
  5
37
100
AcDbEntity
  8
1
  6
CONTINUOUS
 62
           2
100
AcDbLine
 10
210.581808963699
 20
226.430815293438
 11
207.194701052811
 21
226.430815293438
  0
LINE
  5
36
100
AcDbEntity
  8
1
  6
CONTINUOUS
 62
           2
100
AcDbLine
 10
204.914846421431
 20
227.746941996634
 11
201.526910919964
 21
233.615018417942
  0
LINE
  5
35
100
AcDbEntity
  8
1
  6
CONTINUOUS
 62
           2
100
AcDbLine
 10
201.526910919964
 20
236.246612168934
 11
204.914846421431
 21
242.114688590243
  0
LINE
  5
34
100
AcDbEntity
  8
1
  6
CONTINUOUS
 62
           2
100
AcDbLine
 10
201.526910919964
 20
236.246612168934
 11
204.914846421431
 21
242.114688590243
  0
LINE
  5
33
100
AcDbEntity
  8
1
  6
CONTINUOUS
 62
           2
100
AcDbLine
 10
201.526910919964
 20
236.246612168934
 11
204.914846421431
 21
242.114688590243
  0
LINE
  5
32
100
AcDbEntity
  8
1
  6
CONTINUOUS
 62
           2
100
AcDbLine
 10
207.194701052811
 20
243.430815293438
 11
210.581808963699
 21
243.430815293438
  0
LINE
  5
31
100
AcDbEntity
  8
1
  6
CONTINUOUS
 62
           2
100
AcDbLine
 10
219.819413270733
 20
234.928486722154
 11
215.200611117216
 21
242.928486722154
  0
LINE
  5
30
100
AcDbEntity
  8
1
  6
CONTINUOUS
 62
           7
100
AcDbLine
 10
205.963006810182
 20
226.928486722154
 11
215.200611117216
 21
226.928486722154
  0
LINE
  5
2F
100
AcDbEntity
  8
1
  6
CONTINUOUS
 62
           7
100
AcDbLine
 10
201.344204656665
 20
234.928486722154
 11
205.963006810182
 21
226.928486722154
  0
LINE
  5
2E
100
AcDbEntity
  8
1
  6
CONTINUOUS
 62
           7
100
AcDbLine
 10
205.963006810182
 20
242.928486722154
 11
201.344204656665
 21
234.928486722154
  0
LINE
  5
2D
100
AcDbEntity
  8
1
  6
CONTINUOUS
 62
           7
100
AcDbLine
 10
215.200611117216
 20
242.928486722154
 11
205.963006810182
 21
242.928486722154
  0
LINE
  5
2C
100
AcDbEntity
  8
1
  6
CONTINUOUS
 62
           7
100
AcDbLine
 10
219.819413270733
 20
234.928486722154
 11
215.200611117216
 21
242.928486722154
  0
LINE
  5
2B
100
AcDbEntity
  8
1
  6
CONTINUOUS
 62
           7
100
AcDbLine
 10
215.200611117216
 20
226.928486722154
 11
219.819413270733
 21
234.928486722154
  0
LINE
  5
2A
100
AcDbEntity
  8
1
  6
DOT_CENTER
 62
           2
100
AcDbLine
 10
210.581808963699
 20
175.552277145946
 11
210.581808963699
 21
294.723050081256
  0
LINE
  5
29
100
AcDbEntity
  8
1
  6
DOT_CENTER
 62
           2
100
AcDbLine
 10
269.581126183456
 20
234.930815293438
 11
150.535319042437
 21
234.930815293438
  0
LINE
  5
28
100
AcDbEntity
  8
1
  6
DOT_CENTER
 62
           2
100
AcDbLine
 10
101.915480837788
 20
234.930815293438
 11
-110.921685528023
 21
234.930815293438
  0
ENDSEC
  0
SECTION
  2
OBJECTS
  0
DICTIONARY
  5
19
100
AcDbDictionary
  3
ACAD_GROUP
350
1A
  3
ACAD_MLINESTYLE
350
1B
  0
DICTIONARY
  5
1A
102
{ACAD_REACTORS
330
19
102
}
100
AcDbDictionary
  0
DICTIONARY
  5
1B
102
{ACAD_REACTORS
330
19
102
}
100
AcDbDictionary
  3
STANDARD
350
1C
  0
MLINESTYLE
  5
1C
102
{ACAD_REACTORS
330
1B
102
}
100
AcDbMlineStyle
  2
STANDARD
 70
           0
  3

 62
           0
 51
90.0
 52
90.0
 71
           2
 49
0.5
 62
         256
  6
BYLAYER
 49
-0.5
 62
         256
  6
BYLAYER
  0
ENDSEC
  0
EOF
