  0
SECTION
  2
HEADER
  9
$ACADVER
  1
AC1014
  9
$ACADMAINTVER
 70
           0
  9
$DWGCODEPAGE
  3
DOS932
  9
$INSBASE
 10
0.0
 20
0.0
 30
0.0
  9
$EXTMIN
 10
1.000000000000E+20
 20
1.000000000000E+20
 30
1.000000000000E+20
  9
$EXTMAX
 10
-1.000000000000E+20
 20
-1.000000000000E+20
 30
-1.000000000000E+20
  9
$LIMMIN
 10
0.0
 20
0.0
  9
$LIMMAX
 10
0.0
 20
0.0
  9
$ORTHOMODE
 70
           0
  9
$REGENMODE
 70
           1
  9
$FILLMODE
 70
           1
  9
$QTEXTMODE
 70
           0
  9
$MIRRTEXT
 70
           1
  9
$DRAGMODE
 70
           2
  9
$LTSCALE
 40
1.0
  9
$OSMODE
 70
           0
  9
$ATTMODE
 70
           1
  9
$TEXTSIZE
 40
0.2
  9
$TRACEWID
 40
0.05
  9
$TEXTSTYLE
  7
STANDARD
  9
$CLAYER
  8
0
  9
$CELTYPE
  6
CONTINUOUS
  9
$CECOLOR
 62
         256
  9
$CELTSCALE
 40
1.0
  9
$DELOBJ
 70
           1
  9
$DISPSILH
 70
           0
  9
$DIMSCALE
 40
1.0
  9
$DIMASZ
 40
0.18
  9
$DIMEXO
 40
0.0625
  9
$DIMDLI
 40
0.38
  9
$DIMRND
 40
0.0
  9
$DIMDLE
 40
0.0
  9
$DIMEXE
 40
0.18
  9
$DIMTP
 40
0.0
  9
$DIMTM
 40
0.0
  9
$DIMTXT
 40
0.18
  9
$DIMCEN
 40
0.09
  9
$DIMTSZ
 40
0.0
  9
$DIMTOL
 70
           0
  9
$DIMLIM
 70
           0
  9
$DIMTIH
 70
           1
  9
$DIMTOH
 70
           1
  9
$DIMSE1
 70
           0
  9
$DIMSE2
 70
           0
  9
$DIMTAD
 70
           0
  9
$DIMZIN
 70
           0
  9
$DIMBLK
  1

  9
$DIMASO
 70
           1
  9
$DIMSHO
 70
           1
  9
$DIMPOST
  1

  9
$DIMAPOST
  1

  9
$DIMALT
 70
           0
  9
$DIMALTD
 70
           2
  9
$DIMALTF
 40
25.4
  9
$DIMLFAC
 40
1.0
  9
$DIMTOFL
 70
           0
  9
$DIMTVP
 40
0.0
  9
$DIMTIX
 70
           0
  9
$DIMSOXD
 70
           0
  9
$DIMSAH
 70
           0
  9
$DIMBLK1
  1

  9
$DIMBLK2
  1

  9
$DIMSTYLE
  2
STANDARD
  9
$DIMCLRD
 70
           0
  9
$DIMCLRE
 70
           0
  9
$DIMCLRT
 70
           0
  9
$DIMTFAC
 40
1.0
  9
$DIMGAP
 40
0.09
  9
$DIMJUST
 70
           0
  9
$DIMSD1
 70
           0
  9
$DIMSD2
 70
           0
  9
$DIMTOLJ
 70
           1
  9
$DIMTZIN
 70
           0
  9
$DIMALTZ
 70
           0
  9
$DIMALTTZ
 70
           0
  9
$DIMFIT
 70
           3
  9
$DIMUPT
 70
           0
  9
$DIMUNIT
 70
           2
  9
$DIMDEC
 70
           4
  9
$DIMTDEC
 70
           4
  9
$DIMALTU
 70
           2
  9
$DIMALTTD
 70
           2
  9
$DIMTXSTY
  7
STANDARD
  9
$DIMAUNIT
 70
           0
  9
$LUNITS
 70
           2
  9
$LUPREC
 70
           4
  9
$SKETCHINC
 40
0.1
  9
$FILLETRAD
 40
0.0
  9
$AUNITS
 70
           0
  9
$AUPREC
 70
           0
  9
$MENU
  1
acad
  9
$ELEVATION
 40
0.0
  9
$PELEVATION
 40
0.0
  9
$THICKNESS
 40
0.0
  9
$LIMCHECK
 70
           0
  9
$BLIPMODE
 70
           1
  9
$CHAMFERA
 40
0.0
  9
$CHAMFERB
 40
0.0
  9
$CHAMFERC
 40
0.0
  9
$CHAMFERD
 40
0.0
  9
$SKPOLY
 70
           0
  9
$TDCREATE
 40
0.000000000
  9
$TDUPDATE
 40
0.000000000
  9
$TDINDWG
 40
0.0000000000
  9
$TDUSRTIMER
 40
0.0000000000
  9
$USRTIMER
 70
           1
  9
$ANGBASE
 50
0.0
  9
$ANGDIR
 70
           0
  9
$PDMODE
 70
           0
  9
$PDSIZE
 40
0.0
  9
$PLINEWID
 40
0.0
  9
$COORDS
 70
           0
  9
$SPLFRAME
 70
           0
  9
$SPLINETYPE
 70
           6
  9
$SPLINESEGS
 70
           8
  9
$ATTDIA
 70
           0
  9
$ATTREQ
 70
           1
  9
$HANDLING
 70
           1
  9
$HANDSEED
  5
181
  9
$SURFTAB1
 70
           6
  9
$SURFTAB2
 70
           6
  9
$SURFTYPE
 70
           6
  9
$SURFU
 70
           6
  9
$SURFV
 70
           6
  9
$UCSNAME
  2

  9
$UCSORG
 10
0.0
 20
0.0
 30
0.0
  9
$UCSXDIR
 10
1.0
 20
0.0
 30
0.0
  9
$UCSYDIR
 10
0.0
 20
1.0
 30
0.0
  9
$PUCSNAME
  2

  9
$PUCSORG
 10
0.0
 20
0.0
 30
0.0
  9
$PUCSXDIR
 10
1.0
 20
0.0
 30
0.0
  9
$PUCSYDIR
 10
0.0
 20
1.0
 30
0.0
  9
$USERI1
 70
           0
  9
$USERI2
 70
           0
  9
$USERI3
 70
           0
  9
$USERI4
 70
           0
  9
$USERI5
 70
           0
  9
$USERR1
 40
0.0
  9
$USERR2
 40
0.0
  9
$USERR3
 40
0.0
  9
$USERR4
 40
0.0
  9
$USERR5
 40
0.0
  9
$WORLDVIEW
 70
           1
  9
$SHADEDGE
 70
           3
  9
$SHADEDIF
 70
          70
  9
$TILEMODE
 70
           1
  9
$MAXACTVP
 70
          16
  9
$PINSBASE
 10
0.0
 20
0.0
 30
0.0
  9
$PLIMCHECK
 70
           0
  9
$PEXTMIN
 10
1.000000000000E+20
 20
1.000000000000E+20
 30
1.000000000000E+20
  9
$PEXTMAX
 10
-1.000000000000E+20
 20
-1.000000000000E+20
 30
-1.000000000000E+20
  9
$PLIMMIN
 10
0.0
 20
0.0
  9
$PLIMMAX
 10
12.0
 20
9.0
  9
$UNITMODE
 70
           0
  9
$VISRETAIN
 70
           0
  9
$PLINEGEN
 70
           1
  9
$PSLTSCALE
 70
           0
  9
$TREEDEPTH
 70
        3020
  9
$PICKSTYLE
 70
           1
  9
$CMLSTYLE
  2
STANDARD
  9
$CMLJUST
 70
           0
  9
$CMLSCALE
 40
1.0
  9
$PROXYGRAPHICS
 70
           0
  9
$MEASUREMENT
 70
           0
  0
ENDSEC
  0
SECTION
  2
CLASSES
  0
CLASS
  1
LWPOLYLINE
  2
AcDbPolyline
  3
"AutoCAD"
 90
        0
280
           0
281
           1
  0
CLASS
  1
IMAGE
  2
AcDbRasterImage
  3
ISM
 90
      127
280
           0
281
           1
  0
CLASS
  1
OLE2FRAME
  2
AcDbOle2Frame
  3
""
 90
        0
280
           0
281
           1
  0
CLASS
  1
HATCH
  2
AcDbHatch
  3
"ACAD_SEDONA"
 90
        0
280
           0
281
           1
  0
CLASS
  1
DICTIONARYVAR
  2
AcDbDictionaryVar
  3
"AutoCAD"
 90
        0
280
           0
281
           0
  0
CLASS
  1
RASTERVARIABLES
  2
AcDbRasterVariables
  3
ISM
 90
        0
280
           0
281
           0
  0
CLASS
  1
IMAGEDEF
  2
AcDbRasterImageDef
  3
ISM
 90
        0
280
           0
281
           0
  0
CLASS
  1
IMAGEDEF_REACTOR
  2
AcDbRasterImageDefReactor
  3
ISM
 90
        1
280
           0
281
           0
  0
CLASS
  1
IDBUFFER
  2
AcDbIdBuffer
  3
"Acad"
 90
        0
280
           0
281
           0
  0
CLASS
  1
SPATIAL_FILTER
  2
AcDbSpatialFilter
  3
"Acad"
 90
        0
280
           0
281
           0
  0
CLASS
  1
XRECORD
  2
AcDbXrecord
  3
"<Built In>"
 90
        0
280
           0
281
           0
  0
CLASS
  1
SORTENTSTABLE
  2
AcDbSortentsTable
  3
"AutoCAD"
 90
        0
280
           0
281
           0
  0
CLASS
  1
LAYER_INDEX
  2
AcDbLayerIndex
  3
"Acad"
 90
        0
280
           0
281
           0
  0
CLASS
  1
SPATIAL_INDEX
  2
AcDbSpatialIndex
  3
"Acad"
 90
        0
280
           0
281
           0
  0
CLASS
  1
OBJECT_PTR
  2
CAseDLPNTableRecord
  3
"ASE-LPNTableRecord"
 90
        1
280
           0
281
           0
  0
CLASS
  1
LAYOUT
  2
AcDbLayout
  3
"AutoCAD 2000"
 90
        1
280
           0
281
           0
  0
CLASS
  1
PLOTSETTINGS
  2
AcDbPlotSettings
  3
"AutoCAD 2000"
 90
        1
280
           0
281
           0
  0
CLASS
  1
ACDBDICTIONARYWDFLT
  2
AcDbDictionaryWithDefault
  3
"AutoCAD 2000"
 90
        1
280
           0
281
           0
  0
CLASS
  1
ACDBPLACEHOLDER
  2
AcDbPlaceHolder
  3
"AutoCAD 2000"
 90
        1
280
           0
281
           0
  0
CLASS
  1
VBA_PROJECT
  2
AcDbVbaProject
  3
"acadvba"
 90
        1
280
           0
281
           0
  0
CLASS
  1
WIPEOUT
  2
AcDbWipeout
  3
WipeOut|AutoCAD Express Tool|expresstools@autodesk.com
 90
      127
280
           0
281
           1
  0
CLASS
  1
WIPEOUTVARIABLES
  2
AcDbWipeoutVariables
  3
WipeOut|AutoCAD Express Tool|expresstools@autodesk.com
 90
        0
280
           0
281
           0
  0
CLASS
  1
RTEXT
  2
RText
  3
RText|AutoCAD Express Tool|expresstools@autodesk.com
 90
        0
280
           0
281
           1
  0
CLASS
  1
ARCALIGNEDTEXT
  2
AcDbArcAlignedText
  3
ATEXT|AutoCAD Express Tool|expresstools@autodesk.com
 90
        0
280
           0
281
           1
  0
ENDSEC
  0
SECTION
  2
TABLES
  0
TABLE
  2
VPORT
  5
7
100
AcDbSymbolTable
 70
           1
  0
VPORT
  5
15
100
AcDbSymbolTableRecord
100
AcDbViewportTableRecord
  2
*ACTIVE
 70
           0
 10
0.0
 20
0.0
 11
1.0
 21
1.0
 12
6.591288
 22
4.579184
 13
0.0
 23
0.0
 14
1.0
 24
1.0
 15
0.0
 25
0.0
 16
0.0
 26
0.0
 36
1.0
 17
0.0
 27
0.0
 37
0.0
 40
9.158369
 41
0.688564
 42
50.0
 43
0.0
 44
0.0
 50
0.0
 51
0.0
 71
           0
 72
         100
 73
           1
 74
           1
 75
           0
 76
           0
 77
           0
 78
           0
  0
ENDTAB
  0
TABLE
  2
LTYPE
  5
4
100
AcDbSymbolTable
 70
          10
  0
LTYPE
  5
11
100
AcDbSymbolTableRecord
100
AcDbLinetypeTableRecord
  2
BYBLOCK
 70
          64
  3

 72
          65
 73
           0
 40
0.0
  0
LTYPE
  5
12
100
AcDbSymbolTableRecord
100
AcDbLinetypeTableRecord
  2
BYLAYER
 70
          64
  3

 72
          65
 73
           0
 40
0.0
  0
LTYPE
  5
13
100
AcDbSymbolTableRecord
100
AcDbLinetypeTableRecord
  2
CONTINUOUS
 70
          64
  3
Solid line
 72
          65
 73
           0
 40
0.0
  0
LTYPE
  5
1D
100
AcDbSymbolTableRecord
100
AcDbLinetypeTableRecord
  2
DASHED
 70
          64
  3
Dashed
 72
          65
 73
           2
 40
15.0
 49
12.0
 74
           0
 49
-3.0
 74
           0
  0
LTYPE
  5
1E
100
AcDbSymbolTableRecord
100
AcDbLinetypeTableRecord
  2
DOTTED
 70
          64
  3
Dotted
 72
          65
 73
           2
 40
3.5
 49
0.5
 74
           0
 49
-3.0
 74
           0
  0
LTYPE
  5
1F
100
AcDbSymbolTableRecord
100
AcDbLinetypeTableRecord
  2
DOT_CENTER
 70
          64
  3
Dot_Center
 72
          65
 73
           4
 40
2.0
 49
1.25
 74
           0
 49
-0.25
 74
           0
 49
0.25
 74
           0
 49
-0.25
 74
           0
  0
LTYPE
  5
20
100
AcDbSymbolTableRecord
100
AcDbLinetypeTableRecord
  2
LONG_DASHED
 70
          64
  3
Long_Dashed
 72
          65
 73
           2
 40
2.0
 49
1.5
 74
           0
 49
-0.5
 74
           0
  0
LTYPE
  5
21
100
AcDbSymbolTableRecord
100
AcDbLinetypeTableRecord
  2
DASH_CENTER
 70
          64
  3
Dash_Center
 72
          65
 73
           4
 40
36.0
 49
24.0
 74
           0
 49
-3.0
 74
           0
 49
6.0
 74
           0
 49
-3.0
 74
           0
  0
LTYPE
  5
22
100
AcDbSymbolTableRecord
100
AcDbLinetypeTableRecord
  2
PHANTOM
 70
          64
  3
Phantom
 72
          65
 73
           6
 40
2.5
 49
1.25
 74
           0
 49
-0.25
 74
           0
 49
0.25
 74
           0
 49
-0.25
 74
           0
 49
0.25
 74
           0
 49
-0.25
 74
           0
  0
LTYPE
  5
23
100
AcDbSymbolTableRecord
100
AcDbLinetypeTableRecord
  2
CENTER_DASH_DASH
 70
          64
  3
Center_Dash_Dash
 72
          65
 73
           6
 40
22.0
 49
12.0
 74
           0
 49
-3.0
 74
           0
 49
0.5
 74
           0
 49
-3.0
 74
           0
 49
0.5
 74
           0
 49
-3.0
 74
           0
  0
ENDTAB
  0
TABLE
  2
LAYER
  5
2
100
AcDbSymbolTable
 70
           2
  0
LAYER
  5
14
100
AcDbSymbolTableRecord
100
AcDbLayerTableRecord
  2
0
 70
           0
 62
           7
  6
CONTINUOUS
  0
LAYER
  5
24
100
AcDbSymbolTableRecord
100
AcDbLayerTableRecord
  2
1
 70
           0
 62
           7
  6
CONTINUOUS
  0
ENDTAB
  0
TABLE
  2
STYLE
  5
3
100
AcDbSymbolTable
 70
           3
  0
STYLE
  5
17
100
AcDbSymbolTableRecord
100
AcDbTextStyleTableRecord
  2
STANDARD
 70
           0
 40
0.0
 41
1.0
 50
0.0
 71
           0
 42
0.0
  3
txt
  4

  0
STYLE
  5
16F
100
AcDbSymbolTableRecord
100
AcDbTextStyleTableRecord
  2
CONVERTER_1
 70
           0
 40
0.0
 41
0.9
 50
0.0
 71
           0
 42
0.0
  3
txt.shx
  4

  0
STYLE
  5
17B
100
AcDbSymbolTableRecord
100
AcDbTextStyleTableRecord
  2
CONVERTER_2
 70
           0
 40
0.0
 41
0.89
 50
0.0
 71
           0
 42
0.0
  3
MS Mincho.ttf
  4

1001
ACAD
1000
MS Mincho
1071
    32785
  0
ENDTAB
  0
TABLE
  2
VIEW
  5
5
100
AcDbSymbolTable
 70
           0
  0
ENDTAB
  0
TABLE
  2
UCS
  5
6
100
AcDbSymbolTable
 70
           0
  0
ENDTAB
  0
TABLE
  2
APPID
  5
8
100
AcDbSymbolTable
 70
           1
  0
APPID
  5
16
100
AcDbSymbolTableRecord
100
AcDbRegAppTableRecord
  2
ACAD
 70
           0
  0
ENDTAB
  0
TABLE
  2
DIMSTYLE
  5
9
100
AcDbSymbolTable
 70
           3
  0
DIMSTYLE
105
18
100
AcDbSymbolTableRecord
100
AcDbDimStyleTableRecord
  2
STANDARD
 70
           0
  3

  4

  5

  6

  7

 40
1.0
 41
0.18
 42
0.0625
 43
0.38
 44
0.18
 45
0.0
 46
0.0
 47
0.0
 48
0.0
 71
           0
 72
           0
 73
           1
 74
           1
 75
           0
 76
           0
 77
           0
 78
           0
140
0.18
141
0.09
142
0.0
143
25.4
144
1.0
145
0.0
146
1.0
147
0.09
170
           0
171
           2
172
           0
173
           0
174
           0
175
           0
176
           0
177
           0
178
           0
270
           2
271
           4
272
           4
273
           2
274
           2
275
           0
280
           0
281
           0
282
           0
283
           1
284
           0
285
           0
286
           0
287
           0
288
           0
340
17
  0
DIMSTYLE
105
172
100
AcDbSymbolTableRecord
100
AcDbDimStyleTableRecord
  2
ME10_DIM_0
 70
           0
  3

  4

  5

  6

  7

 40
1.0
 41
2.8
 42
0.8
 43
0.38
 44
1.0
 45
0.0
 46
0.0
 47
0.0
 48
0.0
 71
           0
 72
           0
 73
           0
 74
           0
 75
           0
 76
           0
 77
           1
 78
           8
140
2.8
141
0.09
142
0.0
143
25.4
144
1.0
145
0.0
146
1.0
147
0.09
170
           0
171
           2
172
           0
173
           1
174
           0
175
           0
176
           2
177
           2
178
           2
270
           2
271
           0
272
           4
273
           2
274
           2
275
           0
280
           0
281
           0
282
           0
283
           1
284
           0
285
           0
286
           0
287
           3
288
           0
340
17
  0
DIMSTYLE
105
17E
100
AcDbSymbolTableRecord
100
AcDbDimStyleTableRecord
  2
ME10_DIM_1
 70
           0
  3
ó<>
  4

  5

  6

  7

 40
1.0
 41
2.8
 42
0.8
 43
0.38
 44
1.0
 45
0.0
 46
0.0
 47
0.0
 48
0.0
 71
           0
 72
           0
 73
           0
 74
           0
 75
           0
 76
           0
 77
           1
 78
           8
140
2.8
141
0.09
142
0.0
143
25.4
144
1.0
145
0.0
146
1.0
147
0.09
170
           0
171
           2
172
           0
173
           1
174
           0
175
           0
176
           2
177
           2
178
           2
270
           2
271
           3
272
           4
273
           2
274
           2
275
           0
280
           0
281
           0
282
           0
283
           1
284
           0
285
           0
286
           0
287
           3
288
           0
340
17
  0
ENDTAB
  0
TABLE
  2
BLOCK_RECORD
  5
1
100
AcDbSymbolTable
 70
           2
  0
BLOCK_RECORD
  5
A
100
AcDbSymbolTableRecord
100
AcDbBlockTableRecord
  2
*MODEL_SPACE
  0
BLOCK_RECORD
  5
B
100
AcDbSymbolTableRecord
100
AcDbBlockTableRecord
  2
*PAPER_SPACE
  0
BLOCK_RECORD
  5
168
100
AcDbSymbolTableRecord
100
AcDbBlockTableRecord
  2
*D0
  0
BLOCK_RECORD
  5
174
100
AcDbSymbolTableRecord
100
AcDbBlockTableRecord
  2
*D1
  0
ENDTAB
  0
ENDSEC
  0
SECTION
  2
BLOCKS
  0
BLOCK
  5
D
100
AcDbEntity
  8
0
100
AcDbBlockBegin
  2
*MODEL_SPACE
 70
           0
 10
0.0
 20
0.0
 30
0.0
  3
*MODEL_SPACE
  1

  0
ENDBLK
  5
E
100
AcDbEntity
  8
0
100
AcDbBlockEnd
  0
BLOCK
  5
F
100
AcDbEntity
 67
           1
  8
0
100
AcDbBlockBegin
  2
*PAPER_SPACE
 70
           0
 10
0.0
 20
0.0
 30
0.0
  3
*PAPER_SPACE
  1

  0
ENDBLK
  5
10
100
AcDbEntity
 67
           1
  8
0
100
AcDbBlockEnd
  0
BLOCK
  5
169
100
AcDbEntity
  8
0
100
AcDbBlockBegin
  2
*D0
 70
           1
 10
0.0
 20
0.0
 30
0.0
  3
*D0
  1

  0
LINE
  5
16A
100
AcDbEntity
  8
0
  6
CONTINUOUS
 62
           2
100
AcDbLine
 10
-110.503869801776
 20
-52.761967466814
 11
-110.503869801776
 21
125.778032533186
  0
LINE
  5
16B
100
AcDbEntity
  8
0
  6
CONTINUOUS
 62
           2
100
AcDbLine
 10
-23.281601693355
 20
125.778032533186
 11
-111.503869801776
 21
125.778032533186
  0
LINE
  5
16C
100
AcDbEntity
  8
0
  6
CONTINUOUS
 62
           2
100
AcDbLine
 10
-68.339444133248
 20
-52.761967466814
 11
-111.503869801776
 21
-52.761967466814
  0
SOLID
  5
16D
100
AcDbEntity
  8
0
 62
           2
100
AcDbTrace
 10
-110.872496795021
 20
-49.961967466814
 11
-110.135242808532
 21
-49.961967466814
 12
-110.503869801776
 22
-52.761967466814
 13
-110.503869801776
 23
-52.761967466814
  0
SOLID
  5
16E
100
AcDbEntity
  8
0
 62
           2
100
AcDbTrace
 10
-110.135242808532
 20
122.978032533186
 11
-110.872496795021
 21
122.978032533186
 12
-110.503869801776
 22
125.778032533186
 13
-110.503869801776
 23
125.778032533186
  0
MTEXT
  5
170
100
AcDbEntity
  8
0
 62
           2
100
AcDbMText
 10
-111.503869801776
 20
31.810229193798
 30
0.0
 40
2.8
 41
0.0
 71
           7
 72
           1
  1
179
  7
CONVERTER_1
 11
0.0
 21
1.0
 31
0.0
  0
ENDBLK
  5
171
100
AcDbEntity
  8
0
100
AcDbBlockEnd
  0
BLOCK
  5
175
100
AcDbEntity
  8
0
100
AcDbBlockBegin
  2
*D1
 70
           1
 10
0.0
 20
0.0
 30
0.0
  3
*D1
  1

  0
LINE
  5
176
100
AcDbEntity
  8
0
  6
CONTINUOUS
 62
           2
100
AcDbLine
 10
-69.703101693355
 20
-67.15063219627
 11
37.896898306645
 21
-67.15063219627
  0
LINE
  5
177
100
AcDbEntity
  8
0
  6
CONTINUOUS
 62
           2
100
AcDbLine
 10
37.896898306645
 20
-52.061967466814
 11
37.896898306645
 21
-68.15063219627
  0
LINE
  5
178
100
AcDbEntity
  8
0
  6
CONTINUOUS
 62
           2
100
AcDbLine
 10
-69.703101693355
 20
-52.061967466814
 11
-69.703101693355
 21
-68.15063219627
  0
SOLID
  5
179
100
AcDbEntity
  8
0
 62
           2
100
AcDbTrace
 10
-66.903101693355
 20
-66.782005203025
 11
-66.903101693355
 21
-67.519259189515
 12
-69.703101693355
 22
-67.15063219627
 13
-69.703101693355
 23
-67.15063219627
  0
SOLID
  5
17A
100
AcDbEntity
  8
0
 62
           2
100
AcDbTrace
 10
35.096898306645
 20
-67.519259189515
 11
35.096898306645
 21
-66.782005203025
 12
37.896898306645
 22
-67.15063219627
 13
37.896898306645
 23
-67.15063219627
  0
MTEXT
  5
17C
100
AcDbEntity
  8
0
 62
           2
100
AcDbMText
 10
-20.006357729495
 20
-66.15063219627
 30
0.0
 40
2.8
 41
0.0
 71
           7
 72
           1
  1
\C2;ó\C2;107.6\C2;
  7
CONVERTER_2
  0
ENDBLK
  5
17D
100
AcDbEntity
  8
0
100
AcDbBlockEnd
  0
ENDSEC
  0
SECTION
  2
ENTITIES
  0
DIMENSION
  5
17F
100
AcDbEntity
  8
0
100
AcDbDimension
  2
*D1
 10
-69.703101693355
 20
-67.15063219627
 11
-14.735357729495
 21
-64.75063219627
 31
0.0
  1
<>
  3
ME10_DIM_1
100
AcDbAlignedDimension
 13
37.896898306645
 23
-51.261967466814
 14
-69.703101693355
 24
-51.261967466814
100
AcDbRotatedDimension
  0
DIMENSION
  5
173
100
AcDbEntity
  8
0
100
AcDbDimension
  2
*D0
 10
-110.503869801776
 20
-52.761967466814
 11
-112.903869801776
 21
34.750229193798
 31
0.0
 53
90.0
  1
<>
  3
ME10_DIM_0
100
AcDbAlignedDimension
 13
-22.481601693355
 23
125.778032533186
 14
-67.539444133248
 24
-52.761967466814
 50
90.0
100
AcDbRotatedDimension
  0
ARC
  5
167
100
AcDbEntity
  8
1
  6
CONTINUOUS
 62
           7
100
AcDbCircle
 10
17.15464452311
 20
66.183422018794
 40
20.0
100
AcDbArc
 50
2.169257589729
 51
48.611986528227
  0
ARC
  5
166
100
AcDbEntity
  8
1
  6
CONTINUOUS
 62
           7
100
AcDbCircle
 10
-2.858710209137
 20
55.68657423821
 40
40.0
100
AcDbArc
 50
64.226601475763
 51
90.0
  0
ARC
  5
165
100
AcDbEntity
  8
1
  6
CONTINUOUS
 62
           7
100
AcDbCircle
 10
-0.171463407802
 20
65.18657423821
 40
20.0
100
AcDbArc
 50
73.062603580191
 51
90.0
  0
ARC
  5
164
100
AcDbEntity
  8
1
  6
CONTINUOUS
 62
           7
100
AcDbCircle
 10
15.800885617608
 20
63.286883767405
 40
15.0
100
AcDbArc
 50
0.781437492522
 51
57.49618816992
  0
ARC
  5
163
100
AcDbEntity
  8
1
  6
CONTINUOUS
 62
           7
100
AcDbCircle
 10
36.396898306645
 20
-51.261967466814
 40
1.5
100
AcDbArc
 50
-90.0
 51
0.0
  0
ARC
  5
162
100
AcDbEntity
  8
1
  6
CONTINUOUS
 62
           7
100
AcDbCircle
 10
28.096898306645
 20
46.507658274433
 40
2.0
100
AcDbArc
 50
180.0
 51
-145.343966881772
  0
ARC
  5
161
100
AcDbEntity
  8
1
  6
CENTER_DASH_DASH
 62
           2
100
AcDbCircle
 10
-8.24356323348
 20
104.778032533186
 40
1.0
100
AcDbArc
 50
2.013475495388
 51
90.0
  0
ARC
  5
160
100
AcDbEntity
  8
1
  6
CONTINUOUS
 62
           7
100
AcDbCircle
 10
1.596898306645
 20
73.36190192339
 40
2.0
100
AcDbArc
 50
180.0
 51
-96.611214376373
  0
ARC
  5
15F
100
AcDbEntity
  8
1
  6
CONTINUOUS
 62
           7
100
AcDbCircle
 10
29.810713951632
 20
59.278032533186
 40
0.5
100
AcDbArc
 50
-90.0
 51
4.000000000006
  0
ARC
  5
15E
100
AcDbEntity
  8
1
  6
CONTINUOUS
 62
           7
100
AcDbCircle
 10
27.996498470839
 20
63.719142102461
 40
2.0
100
AcDbArc
 50
3.999999999999
 51
74.857747057626
  0
ARC
  5
15D
100
AcDbEntity
  8
1
  6
CONTINUOUS
 62
           7
100
AcDbCircle
 10
-59.80270185755
 20
63.719142102461
 40
2.0
100
AcDbArc
 50
105.142252942374
 51
176.000000000001
  0
ARC
  5
15C
100
AcDbEntity
  8
1
  6
CONTINUOUS
 62
           7
100
AcDbCircle
 10
-61.616917338343
 20
59.278032533186
 40
0.5
100
AcDbArc
 50
175.999999999994
 51
-90.0
  0
ARC
  5
15B
100
AcDbEntity
  8
1
  6
CONTINUOUS
 62
           7
100
AcDbCircle
 10
-33.403101693355
 20
73.36190192339
 40
2.0
100
AcDbArc
 50
-83.388785623628
 51
0.0
  0
ARC
  5
15A
100
AcDbEntity
  8
1
  6
CENTER_DASH_DASH
 62
           2
100
AcDbCircle
 10
-23.562640153231
 20
104.778032533186
 40
1.0
100
AcDbArc
 50
90.0
 51
177.986524504611
  0
ARC
  5
159
100
AcDbEntity
  8
1
  6
CONTINUOUS
 62
           7
100
AcDbCircle
 10
-59.903101693355
 20
46.507658274433
 40
2.0
100
AcDbArc
 50
-34.656033118227
 51
0.0
  0
ARC
  5
158
100
AcDbEntity
  8
1
  6
CONTINUOUS
 62
           7
100
AcDbCircle
 10
-68.203101693355
 20
-51.261967466814
 40
1.5
100
AcDbArc
 50
180.0
 51
-90.0
  0
ARC
  5
157
100
AcDbEntity
  8
1
  6
CONTINUOUS
 62
           7
100
AcDbCircle
 10
35.689048872404
 20
225.960077359315
 40
2.0
100
AcDbArc
 50
7.180755781458
 51
90.0
  0
ARC
  5
156
100
AcDbEntity
  8
1
  6
CONTINUOUS
 62
           7
100
AcDbCircle
 10
35.689048872404
 20
212.960077359315
 40
2.0
100
AcDbArc
 50
-90.0
 51
-7.180755781458
  0
ARC
  5
155
100
AcDbEntity
  8
1
  6
CONTINUOUS
 62
           7
100
AcDbCircle
 10
-67.495252259115
 20
225.960077359315
 40
2.0
100
AcDbArc
 50
90.0
 51
172.819244218541
  0
ARC
  5
154
100
AcDbEntity
  8
1
  6
CONTINUOUS
 62
           7
100
AcDbCircle
 10
-67.495252259115
 20
212.960077359315
 40
2.0
100
AcDbArc
 50
-172.819244218541
 51
-90.0
  0
ARC
  5
153
100
AcDbEntity
  8
1
  6
CONTINUOUS
 62
           7
100
AcDbCircle
 10
-47.607089004318
 20
63.286883767405
 40
15.0
100
AcDbArc
 50
122.50381183008
 51
179.218562507478
  0
ARC
  5
152
100
AcDbEntity
  8
1
  6
CONTINUOUS
 62
           7
100
AcDbCircle
 10
-31.634739978909
 20
65.18657423821
 40
20.0
100
AcDbArc
 50
90.0
 51
106.937396419809
  0
ARC
  5
151
100
AcDbEntity
  8
1
  6
CONTINUOUS
 62
           7
100
AcDbCircle
 10
-28.947493177574
 20
55.68657423821
 40
40.0
100
AcDbArc
 50
90.0
 51
115.773398524237
  0
ARC
  5
150
100
AcDbEntity
  8
1
  6
CONTINUOUS
 62
           7
100
AcDbCircle
 10
-48.960847909821
 20
66.183422018794
 40
20.0
100
AcDbArc
 50
131.388013471773
 51
177.830742410271
  0
ARC
  5
14F
100
AcDbEntity
  8
1
  6
CONTINUOUS
 62
           7
100
AcDbCircle
 10
-16.040203072858
 20
264.484861680972
 40
1.5
100
AcDbArc
 50
2.083618701985
 51
92.08361870198
  0
ARC
  5
14E
100
AcDbEntity
  8
1
  6
CONTINUOUS
 62
           7
100
AcDbCircle
 10
-16.040203072858
 20
264.484861680972
 40
1.5
100
AcDbArc
 50
2.083618701985
 51
92.08361870198
  0
ARC
  5
14D
100
AcDbEntity
  8
1
  6
CONTINUOUS
 62
           7
100
AcDbCircle
 10
-19.038219561804
 20
264.37578770604
 40
1.5
100
AcDbArc
 50
92.083618701983
 51
-177.916381298017
  0
ARC
  5
14C
100
AcDbEntity
  8
1
  6
CONTINUOUS
 62
           7
100
AcDbCircle
 10
-19.038219561804
 20
264.37578770604
 40
1.5
100
AcDbArc
 50
92.083618701983
 51
-177.916381298017
  0
CIRCLE
  5
14B
100
AcDbEntity
  8
1
  6
CONTINUOUS
 62
           2
100
AcDbCircle
 10
-15.903101693355
 20
219.460077359315
 40
2.25
  0
CIRCLE
  5
14A
100
AcDbEntity
  8
1
  6
CONTINUOUS
 62
           2
100
AcDbCircle
 10
-15.903101693355
 20
219.460077359315
 40
3.34422863406
  0
CIRCLE
  5
149
100
AcDbEntity
  8
1
  6
CONTINUOUS
 62
           2
100
AcDbCircle
 10
-15.903101693355
 20
219.460077359315
 40
4.55
  0
CIRCLE
  5
148
100
AcDbEntity
  8
1
  6
CONTINUOUS
 62
           2
100
AcDbCircle
 10
-15.900773122071
 20
219.460077359315
 40
5.7225
  0
CIRCLE
  5
147
100
AcDbEntity
  8
1
  6
CONTINUOUS
 62
           2
100
AcDbCircle
 10
-15.900773122071
 20
219.460077359315
 40
8.0
  0
CIRCLE
  5
146
100
AcDbEntity
  8
1
  6
CONTINUOUS
 62
           7
100
AcDbCircle
 10
-15.900773122071
 20
219.460077359315
 40
5.7225
  0
CIRCLE
  5
145
100
AcDbEntity
  8
1
  6
CONTINUOUS
 62
           2
100
AcDbCircle
 10
-15.900773122071
 20
219.460077359315
 40
6.5785
  0
CIRCLE
  5
144
100
AcDbEntity
  8
1
  6
CONTINUOUS
 62
           7
100
AcDbCircle
 10
-15.903101693355
 20
192.460077359315
 40
1.25
  0
CIRCLE
  5
143
100
AcDbEntity
  8
1
  6
CONTINUOUS
 62
           7
100
AcDbCircle
 10
-15.903101693355
 20
219.460077359315
 40
53.8
  0
ARC
  5
142
100
AcDbEntity
  8
1
  6
CONTINUOUS
 62
           7
100
AcDbCircle
 10
-15.903101693355
 20
28.670951891012
 40
70.0
100
AcDbArc
 50
48.611986528227
 51
64.226601475763
  0
ARC
  5
141
100
AcDbEntity
  8
1
  6
CONTINUOUS
 62
           7
100
AcDbCircle
 10
-15.903101693362
 20
13.528897588421
 40
74.000000000018
100
AcDbArc
 50
57.49618816992
 51
73.06260358019
  0
ARC
  5
140
100
AcDbEntity
  8
1
  6
CONTINUOUS
 62
           7
100
AcDbCircle
 10
-22.903101693355
 20
11.251453146824
 40
60.0
100
AcDbArc
 50
0.0
 51
34.656033118229
  0
ARC
  5
13F
100
AcDbEntity
  8
1
  6
CONTINUOUS
 62
           7
100
AcDbCircle
 10
-8.97489846308
 20
121.774291372115
 40
4.018984403318
100
AcDbArc
 50
54.926761552404
 51
125.073238447596
  0
ARC
  5
13E
100
AcDbEntity
  8
1
  6
CONTINUOUS
 62
           7
100
AcDbCircle
 10
-8.97489846308
 20
116.842999025981
 40
4.069244416324
100
AcDbArc
 50
-124.57786986772
 51
-55.422130132281
  0
ARC
  5
13D
100
AcDbEntity
  8
1
  6
CONTINUOUS
 62
           7
100
AcDbCircle
 10
-15.629003252127
 20
126.29170117672
 40
13.516448134133
100
AcDbArc
 50
-91.161973935578
 51
-71.250072290428
  0
ARC
  5
13C
100
AcDbEntity
  8
1
  6
CONTINUOUS
 62
           7
100
AcDbCircle
 10
-15.713474092242
 20
111.718335795635
 40
14.060975463282
100
AcDbArc
 50
71.639326679
 51
90.772719547007
  0
ARC
  5
13B
100
AcDbEntity
  8
1
  6
CONTINUOUS
 62
           7
100
AcDbCircle
 10
-16.141913606085
 20
123.406441646406
 40
17.630026630516
100
AcDbArc
 50
-89.223862024807
 51
-78.131435568202
  0
ARC
  5
13A
100
AcDbEntity
  8
1
  6
CONTINUOUS
 62
           7
100
AcDbCircle
 10
-16.108894595896
 20
91.447639950336
 40
17.331614402427
100
AcDbArc
 50
78.03563478376
 51
89.319662809249
  0
ARC
  5
139
100
AcDbEntity
  8
1
  6
CONTINUOUS
 62
           7
100
AcDbCircle
 10
-8.494270704994
 20
104.566279890898
 40
4.213099773554
100
AcDbArc
 50
65.589265071955
 51
114.410734928045
  0
ARC
  5
138
100
AcDbEntity
  8
1
  6
CONTINUOUS
 62
           7
100
AcDbCircle
 10
-8.494270704994
 20
110.004832013558
 40
4.226806092613
100
AcDbArc
 50
-114.326441270777
 51
-65.673558729223
  0
ARC
  5
137
100
AcDbEntity
  8
1
  6
CONTINUOUS
 62
           7
100
AcDbCircle
 10
-15.903101693356
 20
-77.627336103698
 40
150.000000000003
100
AcDbArc
 50
72.832057227474
 51
83.388785623626
  0
ARC
  5
136
100
AcDbEntity
  8
1
  6
CONTINUOUS
 62
           2
100
AcDbCircle
 10
-15.903101693355
 20
219.460077359315
 40
9.15
100
AcDbArc
 50
-158.273544712463
 51
-150.994294851934
  0
ARC
  5
135
100
AcDbEntity
  8
1
  6
CONTINUOUS
 62
           2
100
AcDbCircle
 10
-15.903101693355
 20
219.460077359315
 40
9.15
100
AcDbArc
 50
-149.020736883085
 51
-141.732033918985
  0
ARC
  5
134
100
AcDbEntity
  8
1
  6
CONTINUOUS
 62
           2
100
AcDbCircle
 10
-15.903101693355
 20
219.460077359315
 40
9.15
100
AcDbArc
 50
-98.267966081015
 51
-90.979263116915
  0
ARC
  5
133
100
AcDbEntity
  8
1
  6
CONTINUOUS
 62
           2
100
AcDbCircle
 10
-15.903101693355
 20
219.460077359315
 40
9.15
100
AcDbArc
 50
-89.020736883084
 51
-81.732033918985
  0
ARC
  5
132
100
AcDbEntity
  8
1
  6
CONTINUOUS
 62
           2
100
AcDbCircle
 10
-15.903101693355
 20
219.460077359315
 40
9.15
100
AcDbArc
 50
-38.267966081014
 51
-30.979263116915
  0
ARC
  5
131
100
AcDbEntity
  8
1
  6
CONTINUOUS
 62
           2
100
AcDbCircle
 10
-15.903101693355
 20
219.460077359315
 40
9.15
100
AcDbArc
 50
-29.005705148065
 51
-21.726455287536
  0
ARC
  5
130
100
AcDbEntity
  8
1
  6
CONTINUOUS
 62
           2
100
AcDbCircle
 10
-15.903101693355
 20
219.460077359315
 40
9.15
100
AcDbArc
 50
150.994294851934
 51
158.273544712464
  0
ARC
  5
12F
100
AcDbEntity
  8
1
  6
CONTINUOUS
 62
           2
100
AcDbCircle
 10
-15.903101693355
 20
219.460077359315
 40
9.15
100
AcDbArc
 50
141.732033918985
 51
149.020736883085
  0
ARC
  5
12E
100
AcDbEntity
  8
1
  6
CONTINUOUS
 62
           2
100
AcDbCircle
 10
-15.903101693355
 20
219.460077359315
 40
9.15
100
AcDbArc
 50
90.979263116915
 51
98.267966081015
  0
ARC
  5
12D
100
AcDbEntity
  8
1
  6
CONTINUOUS
 62
           2
100
AcDbCircle
 10
-15.903101693355
 20
219.460077359315
 40
9.15
100
AcDbArc
 50
21.726455287536
 51
29.005705148066
  0
ARC
  5
12C
100
AcDbEntity
  8
1
  6
CONTINUOUS
 62
           2
100
AcDbCircle
 10
-15.903101693355
 20
219.460077359315
 40
9.15
100
AcDbArc
 50
81.732033918985
 51
89.020736883084
  0
ARC
  5
12B
100
AcDbEntity
  8
1
  6
CONTINUOUS
 62
           2
100
AcDbCircle
 10
-15.903101693355
 20
219.460077359315
 40
9.15
100
AcDbArc
 50
30.979263116915
 51
38.267966081014
  0
ARC
  5
12A
100
AcDbEntity
  8
1
  6
CONTINUOUS
 62
           7
100
AcDbCircle
 10
-15.903101693355
 20
219.460077359315
 40
46.25
100
AcDbArc
 50
95.582373920463
 51
170.75753864676
  0
ARC
  5
129
100
AcDbEntity
  8
1
  6
CONTINUOUS
 62
           7
100
AcDbCircle
 10
-15.903101693355
 20
219.460077359315
 40
45.760512316395
100
AcDbArc
 50
96.139678827224
 51
170.983783854292
  0
ARC
  5
128
100
AcDbEntity
  8
1
  6
CONTINUOUS
 62
           7
100
AcDbCircle
 10
-15.903101693355
 20
219.460077359315
 40
45.760512316395
100
AcDbArc
 50
-170.773855772257
 51
-9.054120550389
  0
ARC
  5
127
100
AcDbEntity
  8
1
  6
CONTINUOUS
 62
           7
100
AcDbCircle
 10
-15.903101693355
 20
219.460077359315
 40
46.25
100
AcDbArc
 50
-170.117589571135
 51
-9.299735458784
  0
ARC
  5
126
100
AcDbEntity
  8
1
  6
CONTINUOUS
 62
           7
100
AcDbCircle
 10
-15.903101693355
 20
219.460077359315
 40
45.760512316395
100
AcDbArc
 50
8.711132175134
 51
88.198702488461
  0
ARC
  5
125
100
AcDbEntity
  8
1
  6
CONTINUOUS
 62
           7
100
AcDbCircle
 10
-15.903101693355
 20
219.460077359315
 40
46.25
100
AcDbArc
 50
9.368718494
 51
88.662479197508
  0
ARC
  5
124
100
AcDbEntity
  8
1
  6
CONTINUOUS
 62
           7
100
AcDbCircle
 10
-15.903101693355
 20
-77.627336103698
 40
150.000000000003
100
AcDbArc
 50
96.611214376374
 51
107.167942772526
  0
ARC
  5
123
100
AcDbEntity
  8
1
  6
CONTINUOUS
 62
           7
100
AcDbCircle
 10
-23.311932681717
 20
110.004832013558
 40
4.226806092613
100
AcDbArc
 50
-114.326441270777
 51
-65.673558729223
  0
ARC
  5
122
100
AcDbEntity
  8
1
  6
CONTINUOUS
 62
           7
100
AcDbCircle
 10
-23.311932681717
 20
104.566279890898
 40
4.213099773554
100
AcDbArc
 50
65.589265071955
 51
114.410734928045
  0
ARC
  5
121
100
AcDbEntity
  8
1
  6
CONTINUOUS
 62
           7
100
AcDbCircle
 10
-15.697308790815
 20
91.447639950336
 40
17.331614402427
100
AcDbArc
 50
90.68033719075
 51
101.96436521624
  0
ARC
  5
120
100
AcDbEntity
  8
1
  6
CONTINUOUS
 62
           7
100
AcDbCircle
 10
-15.664289780626
 20
123.406441646406
 40
17.630026630516
100
AcDbArc
 50
-101.868564431797
 51
-90.776137975192
  0
ARC
  5
11F
100
AcDbEntity
  8
1
  6
CONTINUOUS
 62
           7
100
AcDbCircle
 10
-16.092729294469
 20
111.718335795635
 40
14.060975463282
100
AcDbArc
 50
89.227280452995
 51
108.360673320999
  0
ARC
  5
11E
100
AcDbEntity
  8
1
  6
CONTINUOUS
 62
           7
100
AcDbCircle
 10
-16.177200134584
 20
126.29170117672
 40
13.516448134133
100
AcDbArc
 50
-108.749927709572
 51
-88.838026064422
  0
ARC
  5
11D
100
AcDbEntity
  8
1
  6
CONTINUOUS
 62
           7
100
AcDbCircle
 10
-22.831304923631
 20
116.842999025981
 40
4.069244416324
100
AcDbArc
 50
-124.577869867719
 51
-55.42213013228
  0
ARC
  5
11C
100
AcDbEntity
  8
1
  6
CONTINUOUS
 62
           7
100
AcDbCircle
 10
-22.831304923631
 20
121.774291372115
 40
4.018984403318
100
AcDbArc
 50
54.926761552403
 51
125.073238447595
  0
ARC
  5
11B
100
AcDbEntity
  8
1
  6
CONTINUOUS
 62
           7
100
AcDbCircle
 10
-8.903101693355
 20
11.251453146824
 40
60.0
100
AcDbArc
 50
145.34396688177
 51
180.0
  0
ARC
  5
11A
100
AcDbEntity
  8
1
  6
CONTINUOUS
 62
           7
100
AcDbCircle
 10
-15.903101693355
 20
219.460077359315
 40
53.0
100
AcDbArc
 50
-171.076252282524
 51
-8.923747717476
  0
ARC
  5
119
100
AcDbEntity
  8
1
  6
CONTINUOUS
 62
           7
100
AcDbCircle
 10
-15.903101693355
 20
219.460077359315
 40
53.0
100
AcDbArc
 50
8.923747717476
 51
171.076252282524
  0
ARC
  5
118
100
AcDbEntity
  8
1
  6
CONTINUOUS
 62
           7
100
AcDbCircle
 10
-15.903101693355
 20
219.460077359315
 40
13.0
100
AcDbArc
 50
0.0
 51
90.0
  0
ARC
  5
117
100
AcDbEntity
  8
1
  6
CONTINUOUS
 62
           7
100
AcDbCircle
 10
-15.903101693355
 20
219.460077359315
 40
12.0
100
AcDbArc
 50
0.0
 51
90.0
  0
ARC
  5
116
100
AcDbEntity
  8
1
  6
CONTINUOUS
 62
           7
100
AcDbCircle
 10
27.858051089361
 20
227.906936506932
 40
2.446893109256
100
AcDbArc
 50
-90.301873473237
 51
-5.528896523931
  0
ARC
  5
115
100
AcDbEntity
  8
1
  6
CONTINUOUS
 62
           7
100
AcDbCircle
 10
-15.903101693355
 20
219.460077359315
 40
54.0
100
AcDbArc
 50
0.0
 51
7.180755781458
  0
ARC
  5
114
100
AcDbEntity
  8
1
  6
CONTINUOUS
 62
           7
100
AcDbCircle
 10
-15.903101693355
 20
219.460077359315
 40
15.25
100
AcDbArc
 50
58.757100174519
 51
90.0
  0
ARC
  5
113
100
AcDbEntity
  8
1
  6
CONTINUOUS
 62
           7
100
AcDbCircle
 10
35.748591458953
 20
227.629661121236
 40
1.549048757952
100
AcDbArc
 50
-73.997237700355
 51
-15.341467914849
  0
ARC
  5
112
100
AcDbEntity
  8
1
  6
CONTINUOUS
 62
           7
100
AcDbCircle
 10
29.175114124948
 20
260.962555383731
 40
35.518630406686
100
AcDbArc
 50
-91.728002141858
 51
-78.632898588277
  0
ARC
  5
111
100
AcDbEntity
  8
1
  6
CONTINUOUS
 62
           7
100
AcDbCircle
 10
-15.903101693355
 20
219.460077359315
 40
13.0
100
AcDbArc
 50
-90.0
 51
0.0
  0
ARC
  5
110
100
AcDbEntity
  8
1
  6
CONTINUOUS
 62
           7
100
AcDbCircle
 10
-15.903101693355
 20
219.460077359315
 40
12.0
100
AcDbArc
 50
-90.0
 51
0.0
  0
ARC
  5
10F
100
AcDbEntity
  8
1
  6
CONTINUOUS
 62
           7
100
AcDbCircle
 10
27.858051089361
 20
211.013218211698
 40
2.446893109256
100
AcDbArc
 50
5.528896523931
 51
90.301873473237
  0
ARC
  5
10E
100
AcDbEntity
  8
1
  6
CONTINUOUS
 62
           7
100
AcDbCircle
 10
-15.903101693355
 20
219.460077359315
 40
54.0
100
AcDbArc
 50
-7.180755781458
 51
0.0
  0
ARC
  5
10D
100
AcDbEntity
  8
1
  6
CONTINUOUS
 62
           7
100
AcDbCircle
 10
-15.903101693355
 20
219.460077359315
 40
15.25
100
AcDbArc
 50
-90.0
 51
-58.75710017452
  0
ARC
  5
10C
100
AcDbEntity
  8
1
  6
CONTINUOUS
 62
           7
100
AcDbCircle
 10
35.748591458953
 20
211.290493597393
 40
1.549048757952
100
AcDbArc
 50
15.341467914845
 51
73.997237700354
  0
ARC
  5
10B
100
AcDbEntity
  8
1
  6
CONTINUOUS
 62
           7
100
AcDbCircle
 10
29.175114124948
 20
177.957599334899
 40
35.518630406686
100
AcDbArc
 50
78.632898588277
 51
91.728002141858
  0
ARC
  5
10A
100
AcDbEntity
  8
1
  6
CONTINUOUS
 62
           7
100
AcDbCircle
 10
14.700206951299
 20
173.460077359315
 40
40.0
100
AcDbArc
 50
90.703859809464
 51
124.456896378665
  0
ARC
  5
109
100
AcDbEntity
  8
1
  6
CONTINUOUS
 62
           7
100
AcDbCircle
 10
14.700206951299
 20
265.460077359314
 40
40.0
100
AcDbArc
 50
-124.456896378665
 51
-90.703859809464
  0
ARC
  5
108
100
AcDbEntity
  8
1
  6
CONTINUOUS
 62
           7
100
AcDbCircle
 10
-15.903101693355
 20
219.460077359315
 40
13.0
100
AcDbArc
 50
90.0
 51
180.0
  0
ARC
  5
107
100
AcDbEntity
  8
1
  6
CONTINUOUS
 62
           7
100
AcDbCircle
 10
-15.903101693355
 20
219.460077359315
 40
12.0
100
AcDbArc
 50
90.0
 51
180.0
  0
ARC
  5
106
100
AcDbEntity
  8
1
  6
CONTINUOUS
 62
           7
100
AcDbCircle
 10
-59.664254476072
 20
227.906936506932
 40
2.446893109256
100
AcDbArc
 50
-174.471103476069
 51
-89.698126526763
  0
ARC
  5
105
100
AcDbEntity
  8
1
  6
CONTINUOUS
 62
           7
100
AcDbCircle
 10
-15.903101693355
 20
219.460077359315
 40
54.0
100
AcDbArc
 50
172.819244218541
 51
180.0
  0
ARC
  5
104
100
AcDbEntity
  8
1
  6
CONTINUOUS
 62
           7
100
AcDbCircle
 10
-15.903101693355
 20
219.460077359315
 40
15.25
100
AcDbArc
 50
90.0
 51
121.24289982548
  0
ARC
  5
103
100
AcDbEntity
  8
1
  6
CONTINUOUS
 62
           7
100
AcDbCircle
 10
-67.554794845664
 20
227.629661121236
 40
1.549048757952
100
AcDbArc
 50
-164.65853208515
 51
-106.002762299643
  0
ARC
  5
102
100
AcDbEntity
  8
1
  6
CONTINUOUS
 62
           7
100
AcDbCircle
 10
-60.981317511659
 20
260.962555383731
 40
35.518630406686
100
AcDbArc
 50
-101.367101411723
 51
-88.271997858141
  0
ARC
  5
101
100
AcDbEntity
  8
1
  6
CONTINUOUS
 62
           7
100
AcDbCircle
 10
-15.903101693355
 20
219.460077359315
 40
13.0
100
AcDbArc
 50
180.0
 51
-90.0
  0
ARC
  5
100
100
AcDbEntity
  8
1
  6
CONTINUOUS
 62
           7
100
AcDbCircle
 10
-15.903101693355
 20
219.460077359315
 40
12.0
100
AcDbArc
 50
180.0
 51
-90.0
  0
ARC
  5
FF
100
AcDbEntity
  8
1
  6
CONTINUOUS
 62
           7
100
AcDbCircle
 10
-59.664254476072
 20
211.013218211698
 40
2.446893109256
100
AcDbArc
 50
89.698126526763
 51
174.471103476069
  0
ARC
  5
FE
100
AcDbEntity
  8
1
  6
CONTINUOUS
 62
           7
100
AcDbCircle
 10
-15.903101693355
 20
219.460077359315
 40
54.0
100
AcDbArc
 50
180.0
 51
-172.819244218541
  0
ARC
  5
FD
100
AcDbEntity
  8
1
  6
CONTINUOUS
 62
           7
100
AcDbCircle
 10
-15.903101693355
 20
219.460077359315
 40
15.25
100
AcDbArc
 50
-121.24289982548
 51
-90.0
  0
ARC
  5
FC
100
AcDbEntity
  8
1
  6
CONTINUOUS
 62
           7
100
AcDbCircle
 10
-67.554794845664
 20
211.290493597393
 40
1.549048757952
100
AcDbArc
 50
106.002762299643
 51
164.658532085154
  0
ARC
  5
FB
100
AcDbEntity
  8
1
  6
CONTINUOUS
 62
           7
100
AcDbCircle
 10
-60.981317511659
 20
177.957599334899
 40
35.518630406686
100
AcDbArc
 50
88.271997858141
 51
101.367101411723
  0
ARC
  5
FA
100
AcDbEntity
  8
1
  6
CONTINUOUS
 62
           7
100
AcDbCircle
 10
-46.50641033801
 20
173.460077359315
 40
40.0
100
AcDbArc
 50
55.543103621335
 51
89.296140190536
  0
ARC
  5
F9
100
AcDbEntity
  8
1
  6
CONTINUOUS
 62
           7
100
AcDbCircle
 10
-46.50641033801
 20
265.460077359314
 40
40.0
100
AcDbArc
 50
-89.296140190536
 51
-55.543103621335
  0
ARC
  5
F8
100
AcDbEntity
  8
1
  6
CONTINUOUS
 62
           2
100
AcDbCircle
 10
-15.903101693355
 20
219.460077359315
 40
9.25
100
AcDbArc
 50
125.82477436865
 51
180.0
  0
ARC
  5
F7
100
AcDbEntity
  8
1
  6
CONTINUOUS
 62
           2
100
AcDbCircle
 10
-15.903101693355
 20
219.460077359315
 40
9.25
100
AcDbArc
 50
-54.175225631349
 51
0.0
  0
ARC
  5
F6
100
AcDbEntity
  8
1
  6
CONTINUOUS
 62
           2
100
AcDbCircle
 10
-15.903101693355
 20
219.460077359315
 40
9.25
100
AcDbArc
 50
0.0
 51
54.175225631349
  0
ARC
  5
F5
100
AcDbEntity
  8
1
  6
CONTINUOUS
 62
           2
100
AcDbCircle
 10
-15.903101693355
 20
219.460077359315
 40
9.25
100
AcDbArc
 50
180.0
 51
-125.82477436865
  0
ARC
  5
F4
100
AcDbEntity
  8
1
  6
CONTINUOUS
 62
           7
100
AcDbCircle
 10
-15.903101693349
 20
13.528897588421
 40
74.000000000018
100
AcDbArc
 50
106.93739641981
 51
122.50381183008
  0
ARC
  5
F3
100
AcDbEntity
  8
1
  6
CONTINUOUS
 62
           7
100
AcDbCircle
 10
-15.903101693355
 20
28.670951891012
 40
70.0
100
AcDbArc
 50
115.773398524237
 51
131.388013471773
  0
ARC
  5
F2
100
AcDbEntity
  8
1
  6
CONTINUOUS
 62
           7
100
AcDbCircle
 10
25.283510470189
 20
256.332829199383
 40
40.0
100
AcDbArc
 50
-170.228721092269
 51
-140.835921837234
  0
ARC
  5
F1
100
AcDbEntity
  8
1
  6
CONTINUOUS
 62
           7
100
AcDbCircle
 10
25.792696154842
 20
256.089443198792
 40
40.0
100
AcDbArc
 50
-177.130153150156
 51
-140.647904304078
  0
ARC
  5
F0
100
AcDbEntity
  8
1
  6
CONTINUOUS
 62
           7
100
AcDbCircle
 10
-60.150443194945
 20
252.962655917415
 40
40.0
100
AcDbArc
 50
-34.138917529034
 51
1.297390554121
  0
ARC
  5
EF
100
AcDbEntity
  8
1
  6
CONTINUOUS
 62
           7
100
AcDbCircle
 10
-59.66029004995
 20
253.242399909651
 40
40.0
100
AcDbArc
 50
-33.256120433289
 51
-5.604041503767
  0
LINE
  5
EE
100
AcDbEntity
  8
1
  6
CONTINUOUS
 62
           7
100
AcDbLine
 10
-0.722572465804
 20
80.167447982168
 11
-0.403101693355
 21
73.778032533186
  0
LINE
  5
ED
100
AcDbEntity
  8
1
  6
CONTINUOUS
 62
           7
100
AcDbLine
 10
-0.903101693355
 20
80.68657423821
 11
-0.749675651016
 21
80.7095116864
  0
LINE
  5
EC
100
AcDbEntity
  8
1
  6
CONTINUOUS
 62
           7
100
AcDbLine
 10
-0.725604812508
 20
80.228094916242
 11
-0.749675651016
 21
80.7095116864
  0
LINE
  5
EB
100
AcDbEntity
  8
1
  6
CONTINUOUS
 62
           7
100
AcDbLine
 10
-15.903101693355
 20
85.18657423821
 11
-0.803101693355
 21
85.18657423821
  0
LINE
  5
EA
100
AcDbEntity
  8
1
  6
CONTINUOUS
 62
           7
100
AcDbLine
 10
38.096898306645
 20
41.68657423821
 11
37.140311918899
 21
66.940454874695
  0
LINE
  5
E9
100
AcDbEntity
  8
1
  6
CONTINUOUS
 62
           7
100
AcDbLine
 10
31.096898306645
 20
41.68657423821
 11
38.096898306645
 21
41.68657423821
  0
LINE
  5
E8
100
AcDbEntity
  8
1
  6
CONTINUOUS
 62
           7
100
AcDbLine
 10
-2.903101693355
 20
95.68657423821
 11
-3.903101693355
 21
97.68657423821
  0
LINE
  5
E7
100
AcDbEntity
  8
1
  6
CONTINUOUS
 62
           7
100
AcDbLine
 10
-6.403101693355
 20
97.68657423821
 11
-3.903101693355
 21
97.68657423821
  0
LINE
  5
E6
100
AcDbEntity
  8
1
  6
CONTINUOUS
 62
           7
100
AcDbLine
 10
-0.903101693355
 20
80.68657423821
 11
-0.803101693355
 21
85.18657423821
  0
LINE
  5
E5
100
AcDbEntity
  8
1
  6
CONTINUOUS
 62
           7
100
AcDbLine
 10
-0.803101693355
 20
85.18657423821
 11
-0.171463407802
 21
85.18657423821
  0
LINE
  5
E4
100
AcDbEntity
  8
1
  6
CONTINUOUS
 62
           7
100
AcDbLine
 10
-2.903101693355
 20
95.68657423821
 11
-2.858710209137
 21
95.68657423821
  0
LINE
  5
E3
100
AcDbEntity
  8
1
  6
CONTINUOUS
 62
           7
100
AcDbLine
 10
-6.403101693355
 20
97.68657423821
 11
-15.903101693355
 21
97.68657423821
  0
LINE
  5
E2
100
AcDbEntity
  8
1
  6
CONTINUOUS
 62
           7
100
AcDbLine
 10
31.096898306645
 20
41.68657423821
 11
30.799490541968
 21
63.491457282191
  0
LINE
  5
E1
100
AcDbEntity
  8
1
  6
CONTINUOUS
 62
           7
100
AcDbLine
 10
-3.500239935413
 20
95.68657423821
 11
-15.903101693355
 21
95.68657423821
  0
LINE
  5
E0
100
AcDbEntity
  8
1
  6
CONTINUOUS
 62
           7
100
AcDbLine
 10
38.596898306645
 20
49.355382802376
 11
37.823330541244
 21
48.908763244785
  0
LINE
  5
DF
100
AcDbEntity
  8
1
  6
CONTINUOUS
 62
           7
100
AcDbLine
 10
28.496898306645
 20
55.278032533186
 11
30.910855920664
 21
55.278032533186
  0
LINE
  5
DE
100
AcDbEntity
  8
1
  6
CONTINUOUS
 62
           7
100
AcDbLine
 10
26.096898306645
 20
46.578032533186
 11
26.096898306645
 21
46.507658274433
  0
LINE
  5
DD
100
AcDbEntity
  8
1
  6
CONTINUOUS
 62
           7
100
AcDbLine
 10
-15.903101693355
 20
46.578032533186
 11
26.096898306645
 21
46.578032533186
  0
LINE
  5
DC
100
AcDbEntity
  8
1
  6
CONTINUOUS
 62
           7
100
AcDbLine
 10
-15.903101693355
 20
-35.761967466814
 11
37.096898306645
 21
-35.761967466814
  0
LINE
  5
DB
100
AcDbEntity
  8
1
  6
CONTINUOUS
 62
           7
100
AcDbLine
 10
37.896898306645
 20
-35.761967466814
 11
37.896898306645
 21
-51.261967466814
  0
LINE
  5
DA
100
AcDbEntity
  8
1
  6
CONTINUOUS
 62
           7
100
AcDbLine
 10
35.733240746537
 20
-52.761967466814
 11
36.396898306645
 21
-52.761967466814
  0
LINE
  5
D9
100
AcDbEntity
  8
1
  6
CONTINUOUS
 62
           7
100
AcDbLine
 10
37.096898306645
 20
-35.761967466814
 11
37.896898306645
 21
-35.761967466814
  0
LINE
  5
D8
100
AcDbEntity
  8
1
  6
CONTINUOUS
 62
           7
100
AcDbLine
 10
35.733240746537
 20
-52.761967466814
 11
-15.903101693355
 21
-52.761967466814
  0
LINE
  5
D7
100
AcDbEntity
  8
1
  6
CONTINUOUS
 62
           7
100
AcDbLine
 10
37.096898306645
 20
-35.761967466814
 11
37.096898306645
 21
-27.486410534868
  0
LINE
  5
D6
100
AcDbEntity
  8
1
  6
CONTINUOUS
 62
           7
100
AcDbLine
 10
37.096898306645
 20
-27.486410534868
 11
37.096898306645
 21
12.451453146824
  0
LINE
  5
D5
100
AcDbEntity
  8
1
  6
CONTINUOUS
 62
           7
100
AcDbLine
 10
27.096898306645
 20
46.578032533186
 11
26.096898306645
 21
46.578032533186
  0
LINE
  5
D4
100
AcDbEntity
  8
1
  6
DOT_CENTER
 62
           2
100
AcDbLine
 10
41.548681532198
 20
52.028032533186
 11
18.797344236992
 21
52.028032533186
  0
LINE
  5
D3
100
AcDbEntity
  8
1
  6
CONTINUOUS
 62
           7
100
AcDbLine
 10
27.096898306645
 20
57.028032533186
 11
28.496898306645
 21
57.028032533186
  0
LINE
  5
D2
100
AcDbEntity
  8
1
  6
CONTINUOUS
 62
           7
100
AcDbLine
 10
28.496898306645
 20
57.028032533186
 11
28.496898306645
 21
55.278032533186
  0
LINE
  5
D1
100
AcDbEntity
  8
1
  6
CONTINUOUS
 62
           7
100
AcDbLine
 10
28.496898306645
 20
55.278032533186
 11
28.496898306645
 21
52.028032533186
  0
LINE
  5
D0
100
AcDbEntity
  8
1
  6
CONTINUOUS
 62
           7
100
AcDbLine
 10
37.596898306645
 20
55.278032533186
 11
38.596898306645
 21
54.700682263996
  0
LINE
  5
CF
100
AcDbEntity
  8
1
  6
CONTINUOUS
 62
           7
100
AcDbLine
 10
38.596898306645
 20
54.700682263996
 11
38.596898306645
 21
52.028032533186
  0
LINE
  5
CE
100
AcDbEntity
  8
1
  6
CONTINUOUS
 62
           7
100
AcDbLine
 10
38.596898306645
 20
52.028032533186
 11
38.596898306645
 21
49.355382802376
  0
LINE
  5
CD
100
AcDbEntity
  8
1
  6
CONTINUOUS
 62
           7
100
AcDbLine
 10
30.993877553771
 20
48.778032533186
 11
28.496898306645
 21
48.778032533186
  0
LINE
  5
CC
100
AcDbEntity
  8
1
  6
CONTINUOUS
 62
           7
100
AcDbLine
 10
28.496898306645
 20
48.778032533186
 11
28.496898306645
 21
47.028032533186
  0
LINE
  5
CB
100
AcDbEntity
  8
1
  6
CONTINUOUS
 62
           7
100
AcDbLine
 10
28.496898306645
 20
52.028032533186
 11
28.496898306645
 21
48.778032533186
  0
LINE
  5
CA
100
AcDbEntity
  8
1
  6
CONTINUOUS
 62
           7
100
AcDbLine
 10
28.496898306645
 20
47.028032533186
 11
27.096898306645
 21
47.028032533186
  0
LINE
  5
C9
100
AcDbEntity
  8
1
  6
CONTINUOUS
 62
           7
100
AcDbLine
 10
27.096898306645
 20
46.578032533186
 11
27.096898306645
 21
58.778032533186
  0
LINE
  5
C8
100
AcDbEntity
  8
1
  6
CONTINUOUS
 62
           7
100
AcDbLine
 10
-9.324601693355
 20
125.778032533186
 11
-7.903101693355
 21
125.778032533186
  0
LINE
  5
C7
100
AcDbEntity
  8
1
  6
CONTINUOUS
 62
           7
100
AcDbLine
 10
-15.903101693355
 20
112.778032533186
 11
-7.903101693355
 21
112.778032533186
  0
LINE
  5
C6
100
AcDbEntity
  8
1
  6
CONTINUOUS
 62
           7
100
AcDbLine
 10
-7.903101693355
 20
125.778032533186
 11
-6.665497386321
 21
125.06350135337
  0
LINE
  5
C5
100
AcDbEntity
  8
1
  6
CONTINUOUS
 62
           7
100
AcDbLine
 10
-7.903101693355
 20
112.778032533186
 11
-6.665497386321
 21
113.492563713002
  0
LINE
  5
C4
100
AcDbEntity
  8
1
  6
CONTINUOUS
 62
           7
100
AcDbLine
 10
-6.665497386321
 20
125.06350135337
 11
-6.665497386321
 21
113.492563713002
  0
LINE
  5
C3
100
AcDbEntity
  8
1
  6
CONTINUOUS
 62
           7
100
AcDbLine
 10
-15.903101693356
 20
125.778032533186
 11
-9.324601693355
 21
125.778032533186
  0
LINE
  5
C2
100
AcDbEntity
  8
1
  6
CONTINUOUS
 62
           7
100
AcDbLine
 10
-11.284299539838
 20
113.492563713002
 11
-11.284299539838
 21
125.06350135337
  0
LINE
  5
C1
100
AcDbEntity
  8
1
  6
CONTINUOUS
 62
           7
100
AcDbLine
 10
-10.235439716632
 20
108.402754858213
 11
-12.515993782467
 21
108.402754858213
  0
LINE
  5
C0
100
AcDbEntity
  8
1
  6
CONTINUOUS
 62
           7
100
AcDbLine
 10
-10.235439716632
 20
106.153310208159
 11
-12.515993782467
 21
106.153310208159
  0
LINE
  5
BF
100
AcDbEntity
  8
1
  6
CONTINUOUS
 62
           7
100
AcDbLine
 10
-10.235439716632
 20
106.153310208159
 11
-10.235439716632
 21
108.402754858213
  0
LINE
  5
BE
100
AcDbEntity
  8
1
  6
CONTINUOUS
 62
           7
100
AcDbLine
 10
-12.515993782467
 20
106.153310208159
 11
-12.515993782467
 21
108.402754858213
  0
LINE
  5
BD
100
AcDbEntity
  8
1
  6
CONTINUOUS
 62
           7
100
AcDbLine
 10
-6.753101693355
 20
108.402754858213
 11
-7.403101693355
 21
108.778032533186
  0
LINE
  5
BC
100
AcDbEntity
  8
1
  6
CONTINUOUS
 62
           7
100
AcDbLine
 10
-6.753101693355
 20
106.153310208159
 11
-7.403101693355
 21
105.778032533186
  0
LINE
  5
BB
100
AcDbEntity
  8
1
  6
CONTINUOUS
 62
           7
100
AcDbLine
 10
-6.753101693355
 20
108.402754858213
 11
-6.753101693355
 21
106.153310208159
  0
LINE
  5
BA
100
AcDbEntity
  8
1
  6
CONTINUOUS
 62
           7
100
AcDbLine
 10
-7.403101693355
 20
108.778032533186
 11
-10.403101693355
 21
108.778032533186
  0
LINE
  5
B9
100
AcDbEntity
  8
1
  6
CONTINUOUS
 62
           7
100
AcDbLine
 10
-7.403101693355
 20
105.778032533186
 11
-10.403101693355
 21
105.778032533186
  0
LINE
  5
B8
100
AcDbEntity
  8
1
  6
CONTINUOUS
 62
           7
100
AcDbLine
 10
-10.403101693355
 20
105.778032533186
 11
-15.903101693355
 21
105.778032533186
  0
LINE
  5
B7
100
AcDbEntity
  8
1
  6
CONTINUOUS
 62
           7
100
AcDbLine
 10
-10.403101693355
 20
108.778032533186
 11
-15.903101693355
 21
108.778032533186
  0
LINE
  5
B6
100
AcDbEntity
  8
1
  6
CONTINUOUS
 62
           7
100
AcDbLine
 10
-15.903101693355
 20
108.778032533186
 11
-11.903101693355
 21
108.778032533186
  0
LINE
  5
B5
100
AcDbEntity
  8
1
  6
CONTINUOUS
 62
           2
100
AcDbLine
 10
-11.903101693355
 20
108.778032533186
 11
-11.403101693355
 21
110.530991113068
  0
LINE
  5
B4
100
AcDbEntity
  8
1
  6
CONTINUOUS
 62
           2
100
AcDbLine
 10
-11.403101693355
 20
108.778032533186
 11
-11.903101693355
 21
108.778032533186
  0
LINE
  5
B3
100
AcDbEntity
  8
1
  6
CONTINUOUS
 62
           7
100
AcDbLine
 10
-11.403101693355
 20
112.778032533186
 11
-11.403101693355
 21
108.778032533186
  0
LINE
  5
B2
100
AcDbEntity
  8
1
  6
CONTINUOUS
 62
           7
100
AcDbLine
 10
-16.028101693355
 20
105.778032533186
 11
-8.788101693355
 21
105.778032533186
  0
LINE
  5
B1
100
AcDbEntity
  8
1
  6
CONTINUOUS
 62
           7
100
AcDbLine
 10
-6.993636362673
 20
97.68657423821
 11
-7.244180642176
 21
104.813167077412
  0
LINE
  5
B0
100
AcDbEntity
  8
1
  6
CENTER_DASH_DASH
 62
           2
100
AcDbLine
 10
-8.788101693355
 20
105.778032533186
 11
-8.24356323348
 21
105.778032533186
  0
LINE
  5
AF
100
AcDbEntity
  8
1
  6
CONTINUOUS
 62
           7
100
AcDbLine
 10
-0.403101693355
 20
73.778032533186
 11
-4.704909383168
 21
73.778032533186
  0
LINE
  5
AE
100
AcDbEntity
  8
1
  6
CONTINUOUS
 62
           7
100
AcDbLine
 10
-15.903101693355
 20
58.778032533186
 11
29.810713951632
 21
58.778032533186
  0
LINE
  5
AD
100
AcDbEntity
  8
1
  6
CONTINUOUS
 62
           7
100
AcDbLine
 10
-0.403101693355
 20
73.778032533186
 11
-0.403101693355
 21
73.36190192339
  0
LINE
  5
AC
100
AcDbEntity
  8
1
  6
CONTINUOUS
 62
           7
100
AcDbLine
 10
28.518931327628
 20
65.649702619551
 11
28.372926540842
 21
65.689213267982
  0
LINE
  5
AB
100
AcDbEntity
  8
1
  6
CONTINUOUS
 62
           7
100
AcDbLine
 10
29.991626571359
 20
63.858655049949
 11
30.309495976762
 21
59.312910770058
  0
LINE
  5
AA
100
AcDbEntity
  8
1
  6
CONTINUOUS
 62
           7
100
AcDbLine
 10
-15.903101693355
 20
73.778032533186
 11
-0.403101693355
 21
73.778032533186
  0
LINE
  5
A9
100
AcDbEntity
  8
1
  6
CONTINUOUS
 62
           7
100
AcDbLine
 10
28.372926540842
 20
65.278032533186
 11
-15.903101693355
 21
65.278032533186
  0
LINE
  5
A8
100
AcDbEntity
  8
1
  6
CONTINUOUS
 62
           7
100
AcDbLine
 10
-0.872520714703
 20
71.638032533186
 11
-15.903101693355
 21
71.638032533186
  0
LINE
  5
A7
100
AcDbEntity
  8
1
  6
CONTINUOUS
 62
           2
100
AcDbLine
 10
-24.403101693355
 20
216.072969448427
 11
-24.403101693355
 21
219.460077359315
  0
LINE
  5
A6
100
AcDbEntity
  8
1
  6
CONTINUOUS
 62
           2
100
AcDbLine
 10
-17.218898568852
 20
210.40517931558
 11
-23.08697499016
 21
213.793114817047
  0
LINE
  5
A5
100
AcDbEntity
  8
1
  6
CONTINUOUS
 62
           2
100
AcDbLine
 10
-17.218898568852
 20
210.40517931558
 11
-23.08697499016
 21
213.793114817047
  0
LINE
  5
A4
100
AcDbEntity
  8
1
  6
CONTINUOUS
 62
           2
100
AcDbLine
 10
-17.218898568852
 20
210.40517931558
 11
-23.08697499016
 21
213.793114817047
  0
LINE
  5
A3
100
AcDbEntity
  8
1
  6
CONTINUOUS
 62
           2
100
AcDbLine
 10
-8.719228396551
 20
213.793114817047
 11
-14.587304817859
 21
210.40517931558
  0
LINE
  5
A2
100
AcDbEntity
  8
1
  6
CONTINUOUS
 62
           2
100
AcDbLine
 10
-7.403101693355
 20
219.460077359315
 11
-7.403101693355
 21
216.072969448427
  0
LINE
  5
A1
100
AcDbEntity
  8
1
  6
CONTINUOUS
 62
           2
100
AcDbLine
 10
-24.403101693355
 20
219.460077359315
 11
-24.403101693355
 21
222.847185270203
  0
LINE
  5
A0
100
AcDbEntity
  8
1
  6
CONTINUOUS
 62
           2
100
AcDbLine
 10
-23.08697499016
 20
225.127039901582
 11
-17.218898568852
 21
228.51497540305
  0
LINE
  5
9F
100
AcDbEntity
  8
1
  6
CONTINUOUS
 62
           2
100
AcDbLine
 10
-23.08697499016
 20
225.127039901582
 11
-17.218898568852
 21
228.51497540305
  0
LINE
  5
9E
100
AcDbEntity
  8
1
  6
CONTINUOUS
 62
           2
100
AcDbLine
 10
-7.403101693355
 20
222.847185270203
 11
-7.403101693355
 21
219.460077359315
  0
LINE
  5
9D
100
AcDbEntity
  8
1
  6
CONTINUOUS
 62
           2
100
AcDbLine
 10
-14.587304817859
 20
228.51497540305
 11
-8.719228396551
 21
225.127039901582
  0
LINE
  5
9C
100
AcDbEntity
  8
1
  6
CONTINUOUS
 62
           7
100
AcDbLine
 10
-7.900773122071
 20
224.078879512832
 11
-15.900773122071
 21
228.697681666349
  0
LINE
  5
9B
100
AcDbEntity
  8
1
  6
CONTINUOUS
 62
           7
100
AcDbLine
 10
-15.900773122071
 20
228.697681666349
 11
-23.900773122071
 21
224.078879512832
  0
LINE
  5
9A
100
AcDbEntity
  8
1
  6
CONTINUOUS
 62
           7
100
AcDbLine
 10
-23.900773122071
 20
224.078879512832
 11
-23.900773122071
 21
214.841275205798
  0
LINE
  5
99
100
AcDbEntity
  8
1
  6
CONTINUOUS
 62
           7
100
AcDbLine
 10
-23.900773122071
 20
214.841275205798
 11
-15.900773122071
 21
210.222473052281
  0
LINE
  5
98
100
AcDbEntity
  8
1
  6
CONTINUOUS
 62
           7
100
AcDbLine
 10
-15.900773122071
 20
210.222473052281
 11
-7.900773122071
 21
214.841275205798
  0
LINE
  5
97
100
AcDbEntity
  8
1
  6
CONTINUOUS
 62
           7
100
AcDbLine
 10
-7.900773122071
 20
214.841275205798
 11
-7.900773122071
 21
224.078879512832
  0
LINE
  5
96
100
AcDbEntity
  8
1
  6
CONTINUOUS
 62
           2
100
AcDbLine
 10
-15.900773122071
 20
228.697681666349
 11
-23.900773122071
 21
224.078879512832
  0
LINE
  5
95
100
AcDbEntity
  8
1
  6
CONTINUOUS
 62
           7
100
AcDbLine
 10
-20.778283741238
 20
212.345077359315
 11
-21.398107764194
 21
212.042549481503
  0
LINE
  5
94
100
AcDbEntity
  8
1
  6
CONTINUOUS
 62
           7
100
AcDbLine
 10
-10.40794313224
 20
212.042475053024
 11
-11.027919645473
 21
212.345077359315
  0
LINE
  5
93
100
AcDbEntity
  8
1
  6
CONTINUOUS
 62
           7
100
AcDbLine
 10
-21.398107764194
 20
226.877605237126
 11
-20.778283741238
 21
226.575077359315
  0
LINE
  5
92
100
AcDbEntity
  8
1
  6
CONTINUOUS
 62
           7
100
AcDbLine
 10
-15.903101693355
 20
71.638032533186
 11
-30.933682672008
 21
71.638032533186
  0
LINE
  5
91
100
AcDbEntity
  8
1
  6
CONTINUOUS
 62
           7
100
AcDbLine
 10
-15.903101693355
 20
65.278032533186
 11
-60.179129927553
 21
65.278032533186
  0
LINE
  5
90
100
AcDbEntity
  8
1
  6
CONTINUOUS
 62
           7
100
AcDbLine
 10
-31.403101693355
 20
73.778032533186
 11
-15.903101693355
 21
73.778032533186
  0
LINE
  5
8F
100
AcDbEntity
  8
1
  6
DOT_CENTER
 62
           2
100
AcDbLine
 10
-13.097054098933
 20
192.460077359315
 11
-18.682509243779
 21
192.460077359315
  0
LINE
  5
8E
100
AcDbEntity
  8
1
  6
CONTINUOUS
 62
           7
100
AcDbLine
 10
-11.027919645473
 20
226.575077359315
 11
-10.40794313224
 21
226.877679665606
  0
LINE
  5
8D
100
AcDbEntity
  8
1
  6
CONTINUOUS
 62
           7
100
AcDbLine
 10
-62.115699363473
 20
59.312910770058
 11
-61.79782995807
 21
63.858655049949
  0
LINE
  5
8C
100
AcDbEntity
  8
1
  6
CONTINUOUS
 62
           7
100
AcDbLine
 10
-60.635946080759
 20
58.778032533186
 11
-61.616917338343
 21
58.778032533186
  0
LINE
  5
8B
100
AcDbEntity
  8
1
  6
CONTINUOUS
 62
           7
100
AcDbLine
 10
-60.179129927553
 20
65.689213267982
 11
-60.325134714339
 21
65.649702619551
  0
LINE
  5
8A
100
AcDbEntity
  8
1
  6
CONTINUOUS
 62
           7
100
AcDbLine
 10
-31.403101693355
 20
73.36190192339
 11
-31.403101693355
 21
73.778032533186
  0
LINE
  5
89
100
AcDbEntity
  8
1
  6
CONTINUOUS
 62
           7
100
AcDbLine
 10
-60.533799921793
 20
58.778032533186
 11
-15.903101693355
 21
58.778032533186
  0
LINE
  5
88
100
AcDbEntity
  8
1
  6
CONTINUOUS
 62
           7
100
AcDbLine
 10
-27.101294003543
 20
73.778032533186
 11
-31.403101693355
 21
73.778032533186
  0
LINE
  5
87
100
AcDbEntity
  8
1
  6
CENTER_DASH_DASH
 62
           2
100
AcDbLine
 10
-23.562640153231
 20
105.778032533186
 11
-23.018101693355
 21
105.778032533186
  0
LINE
  5
86
100
AcDbEntity
  8
1
  6
CONTINUOUS
 62
           7
100
AcDbLine
 10
-24.562022744535
 20
104.813167077412
 11
-24.812567024038
 21
97.68657423821
  0
LINE
  5
85
100
AcDbEntity
  8
1
  6
CONTINUOUS
 62
           7
100
AcDbLine
 10
-23.018101693355
 20
105.778032533186
 11
-15.778101693355
 21
105.778032533186
  0
LINE
  5
84
100
AcDbEntity
  8
1
  6
CONTINUOUS
 62
           7
100
AcDbLine
 10
-20.403101693355
 20
108.778032533186
 11
-20.403101693355
 21
112.778032533186
  0
LINE
  5
83
100
AcDbEntity
  8
1
  6
CONTINUOUS
 62
           2
100
AcDbLine
 10
-19.903101693355
 20
108.778032533186
 11
-20.403101693355
 21
108.778032533186
  0
LINE
  5
82
100
AcDbEntity
  8
1
  6
CONTINUOUS
 62
           2
100
AcDbLine
 10
-20.403101693355
 20
110.530991113068
 11
-19.903101693355
 21
108.778032533186
  0
LINE
  5
81
100
AcDbEntity
  8
1
  6
CONTINUOUS
 62
           7
100
AcDbLine
 10
-19.903101693355
 20
108.778032533186
 11
-15.903101693355
 21
108.778032533186
  0
LINE
  5
80
100
AcDbEntity
  8
1
  6
CONTINUOUS
 62
           7
100
AcDbLine
 10
-15.903101693355
 20
108.778032533186
 11
-21.403101693355
 21
108.778032533186
  0
LINE
  5
7F
100
AcDbEntity
  8
1
  6
CONTINUOUS
 62
           7
100
AcDbLine
 10
-15.903101693355
 20
105.778032533186
 11
-21.403101693355
 21
105.778032533186
  0
LINE
  5
7E
100
AcDbEntity
  8
1
  6
CONTINUOUS
 62
           7
100
AcDbLine
 10
-21.403101693355
 20
105.778032533186
 11
-24.403101693355
 21
105.778032533186
  0
LINE
  5
7D
100
AcDbEntity
  8
1
  6
CONTINUOUS
 62
           7
100
AcDbLine
 10
-21.403101693355
 20
108.778032533186
 11
-24.403101693355
 21
108.778032533186
  0
LINE
  5
7C
100
AcDbEntity
  8
1
  6
CONTINUOUS
 62
           7
100
AcDbLine
 10
-25.053101693355
 20
106.153310208159
 11
-25.053101693355
 21
108.402754858213
  0
LINE
  5
7B
100
AcDbEntity
  8
1
  6
CONTINUOUS
 62
           7
100
AcDbLine
 10
-24.403101693355
 20
105.778032533186
 11
-25.053101693355
 21
106.153310208159
  0
LINE
  5
7A
100
AcDbEntity
  8
1
  6
CONTINUOUS
 62
           7
100
AcDbLine
 10
-24.403101693355
 20
108.778032533186
 11
-25.053101693355
 21
108.402754858213
  0
LINE
  5
79
100
AcDbEntity
  8
1
  6
CONTINUOUS
 62
           7
100
AcDbLine
 10
-19.290209604243
 20
108.402754858213
 11
-19.290209604243
 21
106.153310208159
  0
LINE
  5
78
100
AcDbEntity
  8
1
  6
CONTINUOUS
 62
           7
100
AcDbLine
 10
-21.570763670079
 20
108.402754858213
 11
-21.570763670079
 21
106.153310208159
  0
LINE
  5
77
100
AcDbEntity
  8
1
  6
CONTINUOUS
 62
           7
100
AcDbLine
 10
-19.290209604243
 20
106.153310208159
 11
-21.570763670079
 21
106.153310208159
  0
LINE
  5
76
100
AcDbEntity
  8
1
  6
CONTINUOUS
 62
           7
100
AcDbLine
 10
-19.290209604243
 20
108.402754858213
 11
-21.570763670079
 21
108.402754858213
  0
LINE
  5
75
100
AcDbEntity
  8
1
  6
CONTINUOUS
 62
           7
100
AcDbLine
 10
-20.521903846872
 20
125.06350135337
 11
-20.521903846872
 21
113.492563713002
  0
LINE
  5
74
100
AcDbEntity
  8
1
  6
CONTINUOUS
 62
           7
100
AcDbLine
 10
-22.481601693355
 20
125.778032533186
 11
-15.903101693356
 21
125.778032533186
  0
LINE
  5
73
100
AcDbEntity
  8
1
  6
CONTINUOUS
 62
           7
100
AcDbLine
 10
-25.140706000389
 20
113.492563713002
 11
-25.140706000389
 21
125.06350135337
  0
LINE
  5
72
100
AcDbEntity
  8
1
  6
CONTINUOUS
 62
           7
100
AcDbLine
 10
-25.140706000389
 20
113.492563713002
 11
-23.903101693355
 21
112.778032533186
  0
LINE
  5
71
100
AcDbEntity
  8
1
  6
CONTINUOUS
 62
           7
100
AcDbLine
 10
-25.140706000389
 20
125.06350135337
 11
-23.903101693355
 21
125.778032533186
  0
LINE
  5
70
100
AcDbEntity
  8
1
  6
CONTINUOUS
 62
           7
100
AcDbLine
 10
-23.903101693355
 20
112.778032533186
 11
-15.903101693355
 21
112.778032533186
  0
LINE
  5
6F
100
AcDbEntity
  8
1
  6
CONTINUOUS
 62
           7
100
AcDbLine
 10
-23.903101693355
 20
125.778032533186
 11
-22.481601693355
 21
125.778032533186
  0
LINE
  5
6E
100
AcDbEntity
  8
1
  6
CONTINUOUS
 62
           7
100
AcDbLine
 10
-58.903101693355
 20
58.778032533186
 11
-58.903101693355
 21
46.578032533186
  0
LINE
  5
6D
100
AcDbEntity
  8
1
  6
CONTINUOUS
 62
           7
100
AcDbLine
 10
-58.903101693355
 20
47.778032533186
 11
-58.903101693355
 21
47.028032533186
  0
LINE
  5
6C
100
AcDbEntity
  8
1
  6
CONTINUOUS
 62
           7
100
AcDbLine
 10
-58.903101693355
 20
47.028032533186
 11
-60.303101693355
 21
47.028032533186
  0
LINE
  5
6B
100
AcDbEntity
  8
1
  6
CONTINUOUS
 62
           7
100
AcDbLine
 10
-60.303101693355
 20
48.778032533186
 11
-60.303101693355
 21
52.028032533186
  0
LINE
  5
6A
100
AcDbEntity
  8
1
  6
CONTINUOUS
 62
           7
100
AcDbLine
 10
-60.303101693355
 20
47.028032533186
 11
-60.303101693355
 21
48.778032533186
  0
LINE
  5
69
100
AcDbEntity
  8
1
  6
CONTINUOUS
 62
           7
100
AcDbLine
 10
-60.303101693355
 20
48.778032533186
 11
-62.806377727648
 21
48.778032533186
  0
LINE
  5
68
100
AcDbEntity
  8
1
  6
CONTINUOUS
 62
           7
100
AcDbLine
 10
-70.403101693355
 20
49.355382802376
 11
-70.403101693355
 21
52.028032533186
  0
LINE
  5
67
100
AcDbEntity
  8
1
  6
CONTINUOUS
 62
           7
100
AcDbLine
 10
-70.403101693355
 20
52.028032533186
 11
-70.403101693355
 21
54.700682263996
  0
LINE
  5
66
100
AcDbEntity
  8
1
  6
CONTINUOUS
 62
           7
100
AcDbLine
 10
-70.403101693355
 20
54.700682263996
 11
-69.387942199692
 21
55.286784870934
  0
LINE
  5
65
100
AcDbEntity
  8
1
  6
CONTINUOUS
 62
           7
100
AcDbLine
 10
-60.303101693355
 20
52.028032533186
 11
-60.303101693355
 21
55.278032533186
  0
LINE
  5
64
100
AcDbEntity
  8
1
  6
CONTINUOUS
 62
           7
100
AcDbLine
 10
-60.303101693355
 20
55.278032533186
 11
-60.303101693355
 21
57.028032533186
  0
LINE
  5
63
100
AcDbEntity
  8
1
  6
CONTINUOUS
 62
           7
100
AcDbLine
 10
-60.303101693355
 20
57.028032533186
 11
-58.903101693355
 21
57.028032533186
  0
LINE
  5
62
100
AcDbEntity
  8
1
  6
DOT_CENTER
 62
           2
100
AcDbLine
 10
-50.603547623703
 20
52.028032533186
 11
-73.354884918908
 21
52.028032533186
  0
LINE
  5
61
100
AcDbEntity
  8
1
  6
CONTINUOUS
 62
           7
100
AcDbLine
 10
-57.903101693355
 20
46.578032533186
 11
-58.903101693355
 21
46.578032533186
  0
LINE
  5
60
100
AcDbEntity
  8
1
  6
CONTINUOUS
 62
           7
100
AcDbLine
 10
-68.903101693355
 20
12.451453146824
 11
-68.903101693355
 21
-27.486410534868
  0
LINE
  5
5F
100
AcDbEntity
  8
1
  6
CONTINUOUS
 62
           7
100
AcDbLine
 10
-68.903101693355
 20
-27.486410534868
 11
-68.903101693355
 21
-35.761967466814
  0
LINE
  5
5E
100
AcDbEntity
  8
1
  6
CONTINUOUS
 62
           7
100
AcDbLine
 10
-15.903101693355
 20
-52.761967466814
 11
-67.539444133248
 21
-52.761967466814
  0
LINE
  5
5D
100
AcDbEntity
  8
1
  6
CONTINUOUS
 62
           7
100
AcDbLine
 10
-69.703101693355
 20
-35.761967466814
 11
-68.903101693355
 21
-35.761967466814
  0
LINE
  5
5C
100
AcDbEntity
  8
1
  6
CONTINUOUS
 62
           7
100
AcDbLine
 10
-68.203101693355
 20
-52.761967466814
 11
-67.539444133248
 21
-52.761967466814
  0
LINE
  5
5B
100
AcDbEntity
  8
1
  6
CONTINUOUS
 62
           7
100
AcDbLine
 10
-69.703101693355
 20
-51.261967466814
 11
-69.703101693355
 21
-35.761967466814
  0
LINE
  5
5A
100
AcDbEntity
  8
1
  6
CONTINUOUS
 62
           7
100
AcDbLine
 10
-68.903101693355
 20
-35.761967466814
 11
-15.903101693355
 21
-35.761967466814
  0
LINE
  5
59
100
AcDbEntity
  8
1
  6
CONTINUOUS
 62
           7
100
AcDbLine
 10
-57.903101693355
 20
46.578032533186
 11
-15.903101693355
 21
46.578032533186
  0
LINE
  5
58
100
AcDbEntity
  8
1
  6
CONTINUOUS
 62
           7
100
AcDbLine
 10
-57.903101693355
 20
46.507658274433
 11
-57.903101693355
 21
46.578032533186
  0
LINE
  5
57
100
AcDbEntity
  8
1
  6
CONTINUOUS
 62
           7
100
AcDbLine
 10
-62.717720959047
 20
55.278032533186
 11
-60.303101693355
 21
55.278032533186
  0
LINE
  5
56
100
AcDbEntity
  8
1
  6
CONTINUOUS
 62
           7
100
AcDbLine
 10
-69.629533927955
 20
48.908763244785
 11
-70.403101693355
 21
49.355382802376
  0
LINE
  5
55
100
AcDbEntity
  8
1
  6
CONTINUOUS
 62
           2
100
AcDbLine
 10
-20.088812345698
 20
226.960077359315
 11
-21.317203650282
 21
226.960077359315
  0
LINE
  5
54
100
AcDbEntity
  8
1
  6
CONTINUOUS
 62
           2
100
AcDbLine
 10
-11.894142405521
 20
226.960077359315
 11
-10.488999736428
 21
226.960077359315
  0
LINE
  5
53
100
AcDbEntity
  8
1
  6
CONTINUOUS
 62
           7
100
AcDbLine
 10
-15.903101693355
 20
95.68657423821
 11
-28.305963451297
 21
95.68657423821
  0
LINE
  5
52
100
AcDbEntity
  8
1
  6
CONTINUOUS
 62
           7
100
AcDbLine
 10
30.321891546233
 20
227.960077359315
 11
30.293560598499
 21
227.671183841996
  0
LINE
  5
51
100
AcDbEntity
  8
1
  6
CONTINUOUS
 62
           7
100
AcDbLine
 10
30.321891546233
 20
227.960077359315
 11
35.689048872404
 21
227.960077359315
  0
LINE
  5
50
100
AcDbEntity
  8
1
  6
CONTINUOUS
 62
           7
100
AcDbLine
 10
30.293560598499
 20
211.248970876633
 11
30.321891546233
 21
210.960077359315
  0
LINE
  5
4F
100
AcDbEntity
  8
1
  6
CONTINUOUS
 62
           7
100
AcDbLine
 10
35.689048872404
 20
210.960077359315
 11
30.321891546233
 21
210.960077359315
  0
LINE
  5
4E
100
AcDbEntity
  8
1
  6
CONTINUOUS
 62
           7
100
AcDbLine
 10
27.845159237458
 20
213.460077359315
 11
14.208832464758
 21
213.460077359315
  0
LINE
  5
4D
100
AcDbEntity
  8
1
  6
CONTINUOUS
 62
           7
100
AcDbLine
 10
14.208832464758
 20
225.460077359315
 11
27.845159237458
 21
225.460077359315
  0
LINE
  5
4C
100
AcDbEntity
  8
1
  6
CONTINUOUS
 62
           7
100
AcDbLine
 10
-62.09976398521
 20
227.671183841996
 11
-62.128094932944
 21
227.960077359315
  0
LINE
  5
4B
100
AcDbEntity
  8
1
  6
CONTINUOUS
 62
           7
100
AcDbLine
 10
-67.495252259115
 20
227.960077359315
 11
-62.128094932944
 21
227.960077359315
  0
LINE
  5
4A
100
AcDbEntity
  8
1
  6
CONTINUOUS
 62
           7
100
AcDbLine
 10
-62.128094932944
 20
210.960077359315
 11
-62.09976398521
 21
211.248970876633
  0
LINE
  5
49
100
AcDbEntity
  8
1
  6
CONTINUOUS
 62
           7
100
AcDbLine
 10
-62.128094932944
 20
210.960077359315
 11
-67.495252259115
 21
210.960077359315
  0
LINE
  5
48
100
AcDbEntity
  8
1
  6
CONTINUOUS
 62
           7
100
AcDbLine
 10
-46.015035851468
 20
213.460077359315
 11
-59.651362624169
 21
213.460077359315
  0
LINE
  5
47
100
AcDbEntity
  8
1
  6
CONTINUOUS
 62
           7
100
AcDbLine
 10
-59.651362624169
 20
225.460077359315
 11
-46.015035851468
 21
225.460077359315
  0
LINE
  5
46
100
AcDbEntity
  8
1
  6
CONTINUOUS
 62
           2
100
AcDbLine
 10
-10.488999736428
 20
211.960077359315
 11
-11.894142405521
 21
211.960077359315
  0
LINE
  5
45
100
AcDbEntity
  8
1
  6
CONTINUOUS
 62
           2
100
AcDbLine
 10
-21.317203650282
 20
211.960077359315
 11
-19.91206098119
 21
211.960077359315
  0
LINE
  5
44
100
AcDbEntity
  8
1
  6
CONTINUOUS
 62
           7
100
AcDbLine
 10
-62.605693928679
 20
63.491457282191
 11
-62.903101693355
 21
41.68657423821
  0
LINE
  5
43
100
AcDbEntity
  8
1
  6
CONTINUOUS
 62
           7
100
AcDbLine
 10
-15.903101693355
 20
97.68657423821
 11
-25.403101693355
 21
97.68657423821
  0
LINE
  5
42
100
AcDbEntity
  8
1
  6
CONTINUOUS
 62
           7
100
AcDbLine
 10
-28.947493177574
 20
95.68657423821
 11
-28.903101693355
 21
95.68657423821
  0
LINE
  5
41
100
AcDbEntity
  8
1
  6
CONTINUOUS
 62
           7
100
AcDbLine
 10
-31.634739978909
 20
85.18657423821
 11
-31.003101693355
 21
85.18657423821
  0
LINE
  5
40
100
AcDbEntity
  8
1
  6
CONTINUOUS
 62
           7
100
AcDbLine
 10
-0.803101693355
 20
85.18657423821
 11
-30.903101693355
 21
80.68657423821
  0
LINE
  5
3F
100
AcDbEntity
  8
1
  6
CONTINUOUS
 62
           7
100
AcDbLine
 10
-31.003101693355
 20
85.18657423821
 11
-30.903101693355
 21
80.68657423821
  0
LINE
  5
3E
100
AcDbEntity
  8
1
  6
CONTINUOUS
 62
           7
100
AcDbLine
 10
-27.903101693355
 20
97.68657423821
 11
-25.403101693355
 21
97.68657423821
  0
LINE
  5
3D
100
AcDbEntity
  8
1
  6
CONTINUOUS
 62
           7
100
AcDbLine
 10
-27.903101693355
 20
97.68657423821
 11
-28.903101693355
 21
95.68657423821
  0
LINE
  5
3C
100
AcDbEntity
  8
1
  6
CONTINUOUS
 62
           7
100
AcDbLine
 10
-69.903101693355
 20
41.68657423821
 11
-62.903101693355
 21
41.68657423821
  0
LINE
  5
3B
100
AcDbEntity
  8
1
  6
CONTINUOUS
 62
           7
100
AcDbLine
 10
-68.94651530561
 20
66.940454874695
 11
-69.903101693355
 21
41.68657423821
  0
LINE
  5
3A
100
AcDbEntity
  8
1
  6
CONTINUOUS
 62
           7
100
AcDbLine
 10
-31.003101693355
 20
85.18657423821
 11
-15.903101693355
 21
85.18657423821
  0
LINE
  5
39
100
AcDbEntity
  8
1
  6
CONTINUOUS
 62
           7
100
AcDbLine
 10
-31.056527735695
 20
80.7095116864
 11
-31.080598574203
 21
80.228094916242
  0
LINE
  5
38
100
AcDbEntity
  8
1
  6
CONTINUOUS
 62
           7
100
AcDbLine
 10
-31.056527735695
 20
80.7095116864
 11
-30.903101693355
 21
80.68657423821
  0
LINE
  5
37
100
AcDbEntity
  8
1
  6
CONTINUOUS
 62
           7
100
AcDbLine
 10
-31.403101693355
 20
73.778032533186
 11
-31.083630920906
 21
80.167447982168
  0
LINE
  5
36
100
AcDbEntity
  8
1
  6
CONTINUOUS
 62
           7
100
AcDbLine
 10
-16.094740060324
 20
265.983869925445
 11
-17.593748304797
 21
265.929332937979
  0
LINE
  5
35
100
AcDbEntity
  8
1
  6
CONTINUOUS
 62
           7
100
AcDbLine
 10
-14.541194828385
 20
264.539398668438
 11
-14.180857031105
 21
254.635123533035
  0
LINE
  5
34
100
AcDbEntity
  8
1
  6
CONTINUOUS
 62
           7
100
AcDbLine
 10
-20.176890008998
 20
254.416975583172
 11
-20.537227806278
 21
264.321250718574
  0
LINE
  5
33
100
AcDbEntity
  8
1
  6
CONTINUOUS
 62
           7
100
AcDbLine
 10
-17.593748304797
 20
265.929332937979
 11
-19.09275654927
 21
265.874795950513
  0
LINE
  5
32
100
AcDbEntity
  8
1
  6
CONTINUOUS
 62
           7
100
AcDbLine
 10
-70.403101693355
 20
222.132727090125
 11
-69.819158362438
 21
222.469866929422
  0
LINE
  5
31
100
AcDbEntity
  8
1
  6
CONTINUOUS
 62
           7
100
AcDbLine
 10
-70.403101693355
 20
219.460077359315
 11
-70.403101693355
 21
222.132727090125
  0
LINE
  5
30
100
AcDbEntity
  8
1
  6
CONTINUOUS
 62
           7
100
AcDbLine
 10
-70.403101693355
 20
216.787427628504
 11
-70.403101693355
 21
219.460077359315
  0
LINE
  5
2F
100
AcDbEntity
  8
1
  6
CONTINUOUS
 62
           7
100
AcDbLine
 10
-69.819158362438
 20
216.450287789207
 11
-70.403101693355
 21
216.787427628504
  0
LINE
  5
2E
100
AcDbEntity
  8
1
  6
CONTINUOUS
 62
           7
100
AcDbLine
 10
38.012954975727
 20
222.469866929422
 11
38.596898306645
 21
222.132727090125
  0
LINE
  5
2D
100
AcDbEntity
  8
1
  6
CONTINUOUS
 62
           7
100
AcDbLine
 10
38.596898306645
 20
222.132727090125
 11
38.596898306645
 21
219.460077359315
  0
LINE
  5
2C
100
AcDbEntity
  8
1
  6
CONTINUOUS
 62
           7
100
AcDbLine
 10
38.596898306645
 20
219.460077359315
 11
38.596898306645
 21
216.787427628504
  0
LINE
  5
2B
100
AcDbEntity
  8
1
  6
CONTINUOUS
 62
           7
100
AcDbLine
 10
38.596898306645
 20
216.787427628504
 11
38.012954975727
 21
216.450287789207
  0
LINE
  5
2A
100
AcDbEntity
  8
1
  6
DOT_CENTER
 62
           2
100
AcDbLine
 10
-15.903101693355
 20
278.459394579072
 11
-15.903101693355
 21
159.413587438053
  0
LINE
  5
29
100
AcDbEntity
  8
1
  6
DOT_CENTER
 62
           2
100
AcDbLine
 10
43.475436454136
 20
219.460077359315
 11
-75.695336481173
 21
219.460077359315
  0
LINE
  5
28
100
AcDbEntity
  8
1
  6
DOT_CENTER
 62
           2
100
AcDbLine
 10
-15.903101693355
 20
127.919491550993
 11
-15.903101693355
 21
-52.761967466814
  0
ENDSEC
  0
SECTION
  2
OBJECTS
  0
DICTIONARY
  5
19
100
AcDbDictionary
  3
ACAD_GROUP
350
1A
  3
ACAD_MLINESTYLE
350
1B
  0
DICTIONARY
  5
1A
102
{ACAD_REACTORS
330
19
102
}
100
AcDbDictionary
  0
DICTIONARY
  5
1B
102
{ACAD_REACTORS
330
19
102
}
100
AcDbDictionary
  3
STANDARD
350
1C
  0
MLINESTYLE
  5
1C
102
{ACAD_REACTORS
330
1B
102
}
100
AcDbMlineStyle
  2
STANDARD
 70
           0
  3

 62
           0
 51
90.0
 52
90.0
 71
           2
 49
0.5
 62
         256
  6
BYLAYER
 49
-0.5
 62
         256
  6
BYLAYER
  0
ENDSEC
  0
EOF
