  0
SECTION
  2
HEADER
  9
$ACADVER
  1
AC1014
  9
$ACADMAINTVER
 70
           0
  9
$DWGCODEPAGE
  3
DOS932
  9
$INSBASE
 10
0.0
 20
0.0
 30
0.0
  9
$EXTMIN
 10
1.000000000000E+20
 20
1.000000000000E+20
 30
1.000000000000E+20
  9
$EXTMAX
 10
-1.000000000000E+20
 20
-1.000000000000E+20
 30
-1.000000000000E+20
  9
$LIMMIN
 10
0.0
 20
0.0
  9
$LIMMAX
 10
0.0
 20
0.0
  9
$ORTHOMODE
 70
           0
  9
$REGENMODE
 70
           1
  9
$FILLMODE
 70
           1
  9
$QTEXTMODE
 70
           0
  9
$MIRRTEXT
 70
           1
  9
$DRAGMODE
 70
           2
  9
$LTSCALE
 40
1.0
  9
$OSMODE
 70
           0
  9
$ATTMODE
 70
           1
  9
$TEXTSIZE
 40
0.2
  9
$TRACEWID
 40
0.05
  9
$TEXTSTYLE
  7
STANDARD
  9
$CLAYER
  8
0
  9
$CELTYPE
  6
CONTINUOUS
  9
$CECOLOR
 62
         256
  9
$CELTSCALE
 40
1.0
  9
$DELOBJ
 70
           1
  9
$DISPSILH
 70
           0
  9
$DIMSCALE
 40
1.0
  9
$DIMASZ
 40
0.18
  9
$DIMEXO
 40
0.0625
  9
$DIMDLI
 40
0.38
  9
$DIMRND
 40
0.0
  9
$DIMDLE
 40
0.0
  9
$DIMEXE
 40
0.18
  9
$DIMTP
 40
0.0
  9
$DIMTM
 40
0.0
  9
$DIMTXT
 40
0.18
  9
$DIMCEN
 40
0.09
  9
$DIMTSZ
 40
0.0
  9
$DIMTOL
 70
           0
  9
$DIMLIM
 70
           0
  9
$DIMTIH
 70
           1
  9
$DIMTOH
 70
           1
  9
$DIMSE1
 70
           0
  9
$DIMSE2
 70
           0
  9
$DIMTAD
 70
           0
  9
$DIMZIN
 70
           0
  9
$DIMBLK
  1

  9
$DIMASO
 70
           1
  9
$DIMSHO
 70
           1
  9
$DIMPOST
  1

  9
$DIMAPOST
  1

  9
$DIMALT
 70
           0
  9
$DIMALTD
 70
           2
  9
$DIMALTF
 40
25.4
  9
$DIMLFAC
 40
1.0
  9
$DIMTOFL
 70
           0
  9
$DIMTVP
 40
0.0
  9
$DIMTIX
 70
           0
  9
$DIMSOXD
 70
           0
  9
$DIMSAH
 70
           0
  9
$DIMBLK1
  1

  9
$DIMBLK2
  1

  9
$DIMSTYLE
  2
STANDARD
  9
$DIMCLRD
 70
           0
  9
$DIMCLRE
 70
           0
  9
$DIMCLRT
 70
           0
  9
$DIMTFAC
 40
1.0
  9
$DIMGAP
 40
0.09
  9
$DIMJUST
 70
           0
  9
$DIMSD1
 70
           0
  9
$DIMSD2
 70
           0
  9
$DIMTOLJ
 70
           1
  9
$DIMTZIN
 70
           0
  9
$DIMALTZ
 70
           0
  9
$DIMALTTZ
 70
           0
  9
$DIMFIT
 70
           3
  9
$DIMUPT
 70
           0
  9
$DIMUNIT
 70
           2
  9
$DIMDEC
 70
           4
  9
$DIMTDEC
 70
           4
  9
$DIMALTU
 70
           2
  9
$DIMALTTD
 70
           2
  9
$DIMTXSTY
  7
STANDARD
  9
$DIMAUNIT
 70
           0
  9
$LUNITS
 70
           2
  9
$LUPREC
 70
           4
  9
$SKETCHINC
 40
0.1
  9
$FILLETRAD
 40
0.0
  9
$AUNITS
 70
           0
  9
$AUPREC
 70
           0
  9
$MENU
  1
acad
  9
$ELEVATION
 40
0.0
  9
$PELEVATION
 40
0.0
  9
$THICKNESS
 40
0.0
  9
$LIMCHECK
 70
           0
  9
$BLIPMODE
 70
           1
  9
$CHAMFERA
 40
0.0
  9
$CHAMFERB
 40
0.0
  9
$CHAMFERC
 40
0.0
  9
$CHAMFERD
 40
0.0
  9
$SKPOLY
 70
           0
  9
$TDCREATE
 40
0.000000000
  9
$TDUPDATE
 40
0.000000000
  9
$TDINDWG
 40
0.0000000000
  9
$TDUSRTIMER
 40
0.0000000000
  9
$USRTIMER
 70
           1
  9
$ANGBASE
 50
0.0
  9
$ANGDIR
 70
           0
  9
$PDMODE
 70
           0
  9
$PDSIZE
 40
0.0
  9
$PLINEWID
 40
0.0
  9
$COORDS
 70
           0
  9
$SPLFRAME
 70
           0
  9
$SPLINETYPE
 70
           6
  9
$SPLINESEGS
 70
           8
  9
$ATTDIA
 70
           0
  9
$ATTREQ
 70
           1
  9
$HANDLING
 70
           1
  9
$HANDSEED
  5
1B3
  9
$SURFTAB1
 70
           6
  9
$SURFTAB2
 70
           6
  9
$SURFTYPE
 70
           6
  9
$SURFU
 70
           6
  9
$SURFV
 70
           6
  9
$UCSNAME
  2

  9
$UCSORG
 10
0.0
 20
0.0
 30
0.0
  9
$UCSXDIR
 10
1.0
 20
0.0
 30
0.0
  9
$UCSYDIR
 10
0.0
 20
1.0
 30
0.0
  9
$PUCSNAME
  2

  9
$PUCSORG
 10
0.0
 20
0.0
 30
0.0
  9
$PUCSXDIR
 10
1.0
 20
0.0
 30
0.0
  9
$PUCSYDIR
 10
0.0
 20
1.0
 30
0.0
  9
$USERI1
 70
           0
  9
$USERI2
 70
           0
  9
$USERI3
 70
           0
  9
$USERI4
 70
           0
  9
$USERI5
 70
           0
  9
$USERR1
 40
0.0
  9
$USERR2
 40
0.0
  9
$USERR3
 40
0.0
  9
$USERR4
 40
0.0
  9
$USERR5
 40
0.0
  9
$WORLDVIEW
 70
           1
  9
$SHADEDGE
 70
           3
  9
$SHADEDIF
 70
          70
  9
$TILEMODE
 70
           1
  9
$MAXACTVP
 70
          16
  9
$PINSBASE
 10
0.0
 20
0.0
 30
0.0
  9
$PLIMCHECK
 70
           0
  9
$PEXTMIN
 10
1.000000000000E+20
 20
1.000000000000E+20
 30
1.000000000000E+20
  9
$PEXTMAX
 10
-1.000000000000E+20
 20
-1.000000000000E+20
 30
-1.000000000000E+20
  9
$PLIMMIN
 10
0.0
 20
0.0
  9
$PLIMMAX
 10
12.0
 20
9.0
  9
$UNITMODE
 70
           0
  9
$VISRETAIN
 70
           0
  9
$PLINEGEN
 70
           1
  9
$PSLTSCALE
 70
           0
  9
$TREEDEPTH
 70
        3020
  9
$PICKSTYLE
 70
           1
  9
$CMLSTYLE
  2
STANDARD
  9
$CMLJUST
 70
           0
  9
$CMLSCALE
 40
1.0
  9
$PROXYGRAPHICS
 70
           0
  9
$MEASUREMENT
 70
           0
  0
ENDSEC
  0
SECTION
  2
CLASSES
  0
CLASS
  1
LWPOLYLINE
  2
AcDbPolyline
  3
"AutoCAD"
 90
        0
280
           0
281
           1
  0
CLASS
  1
IMAGE
  2
AcDbRasterImage
  3
ISM
 90
      127
280
           0
281
           1
  0
CLASS
  1
OLE2FRAME
  2
AcDbOle2Frame
  3
""
 90
        0
280
           0
281
           1
  0
CLASS
  1
HATCH
  2
AcDbHatch
  3
"ACAD_SEDONA"
 90
        0
280
           0
281
           1
  0
CLASS
  1
DICTIONARYVAR
  2
AcDbDictionaryVar
  3
"AutoCAD"
 90
        0
280
           0
281
           0
  0
CLASS
  1
RASTERVARIABLES
  2
AcDbRasterVariables
  3
ISM
 90
        0
280
           0
281
           0
  0
CLASS
  1
IMAGEDEF
  2
AcDbRasterImageDef
  3
ISM
 90
        0
280
           0
281
           0
  0
CLASS
  1
IMAGEDEF_REACTOR
  2
AcDbRasterImageDefReactor
  3
ISM
 90
        1
280
           0
281
           0
  0
CLASS
  1
IDBUFFER
  2
AcDbIdBuffer
  3
"Acad"
 90
        0
280
           0
281
           0
  0
CLASS
  1
SPATIAL_FILTER
  2
AcDbSpatialFilter
  3
"Acad"
 90
        0
280
           0
281
           0
  0
CLASS
  1
XRECORD
  2
AcDbXrecord
  3
"<Built In>"
 90
        0
280
           0
281
           0
  0
CLASS
  1
SORTENTSTABLE
  2
AcDbSortentsTable
  3
"AutoCAD"
 90
        0
280
           0
281
           0
  0
CLASS
  1
LAYER_INDEX
  2
AcDbLayerIndex
  3
"Acad"
 90
        0
280
           0
281
           0
  0
CLASS
  1
SPATIAL_INDEX
  2
AcDbSpatialIndex
  3
"Acad"
 90
        0
280
           0
281
           0
  0
CLASS
  1
OBJECT_PTR
  2
CAseDLPNTableRecord
  3
"ASE-LPNTableRecord"
 90
        1
280
           0
281
           0
  0
CLASS
  1
LAYOUT
  2
AcDbLayout
  3
"AutoCAD 2000"
 90
        1
280
           0
281
           0
  0
CLASS
  1
PLOTSETTINGS
  2
AcDbPlotSettings
  3
"AutoCAD 2000"
 90
        1
280
           0
281
           0
  0
CLASS
  1
ACDBDICTIONARYWDFLT
  2
AcDbDictionaryWithDefault
  3
"AutoCAD 2000"
 90
        1
280
           0
281
           0
  0
CLASS
  1
ACDBPLACEHOLDER
  2
AcDbPlaceHolder
  3
"AutoCAD 2000"
 90
        1
280
           0
281
           0
  0
CLASS
  1
VBA_PROJECT
  2
AcDbVbaProject
  3
"acadvba"
 90
        1
280
           0
281
           0
  0
CLASS
  1
WIPEOUT
  2
AcDbWipeout
  3
WipeOut|AutoCAD Express Tool|expresstools@autodesk.com
 90
      127
280
           0
281
           1
  0
CLASS
  1
WIPEOUTVARIABLES
  2
AcDbWipeoutVariables
  3
WipeOut|AutoCAD Express Tool|expresstools@autodesk.com
 90
        0
280
           0
281
           0
  0
CLASS
  1
RTEXT
  2
RText
  3
RText|AutoCAD Express Tool|expresstools@autodesk.com
 90
        0
280
           0
281
           1
  0
CLASS
  1
ARCALIGNEDTEXT
  2
AcDbArcAlignedText
  3
ATEXT|AutoCAD Express Tool|expresstools@autodesk.com
 90
        0
280
           0
281
           1
  0
ENDSEC
  0
SECTION
  2
TABLES
  0
TABLE
  2
VPORT
  5
7
100
AcDbSymbolTable
 70
           1
  0
VPORT
  5
15
100
AcDbSymbolTableRecord
100
AcDbViewportTableRecord
  2
*ACTIVE
 70
           0
 10
0.0
 20
0.0
 11
1.0
 21
1.0
 12
6.591288
 22
4.579184
 13
0.0
 23
0.0
 14
1.0
 24
1.0
 15
0.0
 25
0.0
 16
0.0
 26
0.0
 36
1.0
 17
0.0
 27
0.0
 37
0.0
 40
9.158369
 41
0.688564
 42
50.0
 43
0.0
 44
0.0
 50
0.0
 51
0.0
 71
           0
 72
         100
 73
           1
 74
           1
 75
           0
 76
           0
 77
           0
 78
           0
  0
ENDTAB
  0
TABLE
  2
LTYPE
  5
4
100
AcDbSymbolTable
 70
          10
  0
LTYPE
  5
11
100
AcDbSymbolTableRecord
100
AcDbLinetypeTableRecord
  2
BYBLOCK
 70
          64
  3

 72
          65
 73
           0
 40
0.0
  0
LTYPE
  5
12
100
AcDbSymbolTableRecord
100
AcDbLinetypeTableRecord
  2
BYLAYER
 70
          64
  3

 72
          65
 73
           0
 40
0.0
  0
LTYPE
  5
13
100
AcDbSymbolTableRecord
100
AcDbLinetypeTableRecord
  2
CONTINUOUS
 70
          64
  3
Solid line
 72
          65
 73
           0
 40
0.0
  0
LTYPE
  5
1D
100
AcDbSymbolTableRecord
100
AcDbLinetypeTableRecord
  2
DASHED
 70
          64
  3
Dashed
 72
          65
 73
           2
 40
15.0
 49
12.0
 74
           0
 49
-3.0
 74
           0
  0
LTYPE
  5
1E
100
AcDbSymbolTableRecord
100
AcDbLinetypeTableRecord
  2
DOTTED
 70
          64
  3
Dotted
 72
          65
 73
           2
 40
3.5
 49
0.5
 74
           0
 49
-3.0
 74
           0
  0
LTYPE
  5
1F
100
AcDbSymbolTableRecord
100
AcDbLinetypeTableRecord
  2
DOT_CENTER
 70
          64
  3
Dot_Center
 72
          65
 73
           4
 40
2.0
 49
1.25
 74
           0
 49
-0.25
 74
           0
 49
0.25
 74
           0
 49
-0.25
 74
           0
  0
LTYPE
  5
20
100
AcDbSymbolTableRecord
100
AcDbLinetypeTableRecord
  2
LONG_DASHED
 70
          64
  3
Long_Dashed
 72
          65
 73
           2
 40
2.0
 49
1.5
 74
           0
 49
-0.5
 74
           0
  0
LTYPE
  5
21
100
AcDbSymbolTableRecord
100
AcDbLinetypeTableRecord
  2
DASH_CENTER
 70
          64
  3
Dash_Center
 72
          65
 73
           4
 40
36.0
 49
24.0
 74
           0
 49
-3.0
 74
           0
 49
6.0
 74
           0
 49
-3.0
 74
           0
  0
LTYPE
  5
22
100
AcDbSymbolTableRecord
100
AcDbLinetypeTableRecord
  2
PHANTOM
 70
          64
  3
Phantom
 72
          65
 73
           6
 40
2.5
 49
1.25
 74
           0
 49
-0.25
 74
           0
 49
0.25
 74
           0
 49
-0.25
 74
           0
 49
0.25
 74
           0
 49
-0.25
 74
           0
  0
LTYPE
  5
23
100
AcDbSymbolTableRecord
100
AcDbLinetypeTableRecord
  2
CENTER_DASH_DASH
 70
          64
  3
Center_Dash_Dash
 72
          65
 73
           6
 40
22.0
 49
12.0
 74
           0
 49
-3.0
 74
           0
 49
0.5
 74
           0
 49
-3.0
 74
           0
 49
0.5
 74
           0
 49
-3.0
 74
           0
  0
ENDTAB
  0
TABLE
  2
LAYER
  5
2
100
AcDbSymbolTable
 70
           2
  0
LAYER
  5
14
100
AcDbSymbolTableRecord
100
AcDbLayerTableRecord
  2
0
 70
           0
 62
           7
  6
CONTINUOUS
  0
LAYER
  5
24
100
AcDbSymbolTableRecord
100
AcDbLayerTableRecord
  2
1
 70
           0
 62
           7
  6
CONTINUOUS
  0
ENDTAB
  0
TABLE
  2
STYLE
  5
3
100
AcDbSymbolTable
 70
           3
  0
STYLE
  5
17
100
AcDbSymbolTableRecord
100
AcDbTextStyleTableRecord
  2
STANDARD
 70
           0
 40
0.0
 41
1.0
 50
0.0
 71
           0
 42
0.0
  3
txt
  4

  0
STYLE
  5
1A1
100
AcDbSymbolTableRecord
100
AcDbTextStyleTableRecord
  2
CONVERTER_1
 70
           0
 40
0.0
 41
0.9
 50
0.0
 71
           0
 42
0.0
  3
txt.shx
  4

  0
STYLE
  5
1AD
100
AcDbSymbolTableRecord
100
AcDbTextStyleTableRecord
  2
CONVERTER_2
 70
           0
 40
0.0
 41
0.89
 50
0.0
 71
           0
 42
0.0
  3
MS Mincho.ttf
  4

1001
ACAD
1000
MS Mincho
1071
    32785
  0
ENDTAB
  0
TABLE
  2
VIEW
  5
5
100
AcDbSymbolTable
 70
           0
  0
ENDTAB
  0
TABLE
  2
UCS
  5
6
100
AcDbSymbolTable
 70
           0
  0
ENDTAB
  0
TABLE
  2
APPID
  5
8
100
AcDbSymbolTable
 70
           1
  0
APPID
  5
16
100
AcDbSymbolTableRecord
100
AcDbRegAppTableRecord
  2
ACAD
 70
           0
  0
ENDTAB
  0
TABLE
  2
DIMSTYLE
  5
9
100
AcDbSymbolTable
 70
           3
  0
DIMSTYLE
105
18
100
AcDbSymbolTableRecord
100
AcDbDimStyleTableRecord
  2
STANDARD
 70
           0
  3

  4

  5

  6

  7

 40
1.0
 41
0.18
 42
0.0625
 43
0.38
 44
0.18
 45
0.0
 46
0.0
 47
0.0
 48
0.0
 71
           0
 72
           0
 73
           1
 74
           1
 75
           0
 76
           0
 77
           0
 78
           0
140
0.18
141
0.09
142
0.0
143
25.4
144
1.0
145
0.0
146
1.0
147
0.09
170
           0
171
           2
172
           0
173
           0
174
           0
175
           0
176
           0
177
           0
178
           0
270
           2
271
           4
272
           4
273
           2
274
           2
275
           0
280
           0
281
           0
282
           0
283
           1
284
           0
285
           0
286
           0
287
           0
288
           0
340
17
  0
DIMSTYLE
105
1A4
100
AcDbSymbolTableRecord
100
AcDbDimStyleTableRecord
  2
ME10_DIM_0
 70
           0
  3

  4

  5

  6

  7

 40
1.0
 41
2.8
 42
0.8
 43
0.38
 44
1.0
 45
0.0
 46
0.0
 47
0.0
 48
0.0
 71
           0
 72
           0
 73
           0
 74
           0
 75
           0
 76
           0
 77
           1
 78
           8
140
2.8
141
0.09
142
0.0
143
25.4
144
1.0
145
0.0
146
1.0
147
0.09
170
           0
171
           2
172
           0
173
           1
174
           0
175
           0
176
           2
177
           2
178
           2
270
           2
271
           3
272
           4
273
           2
274
           2
275
           0
280
           0
281
           0
282
           0
283
           1
284
           0
285
           0
286
           0
287
           3
288
           0
340
17
  0
DIMSTYLE
105
1B0
100
AcDbSymbolTableRecord
100
AcDbDimStyleTableRecord
  2
ME10_DIM_1
 70
           0
  3
ó<>
  4

  5

  6

  7

 40
1.0
 41
2.8
 42
0.8
 43
0.38
 44
1.0
 45
0.0
 46
0.0
 47
0.0
 48
0.0
 71
           0
 72
           0
 73
           0
 74
           0
 75
           0
 76
           0
 77
           1
 78
           8
140
2.8
141
0.09
142
0.0
143
25.4
144
1.0
145
0.0
146
1.0
147
0.09
170
           0
171
           2
172
           0
173
           1
174
           0
175
           0
176
           2
177
           2
178
           2
270
           2
271
           3
272
           4
273
           2
274
           2
275
           0
280
           0
281
           0
282
           0
283
           1
284
           0
285
           0
286
           0
287
           3
288
           0
340
17
  0
ENDTAB
  0
TABLE
  2
BLOCK_RECORD
  5
1
100
AcDbSymbolTable
 70
           2
  0
BLOCK_RECORD
  5
A
100
AcDbSymbolTableRecord
100
AcDbBlockTableRecord
  2
*MODEL_SPACE
  0
BLOCK_RECORD
  5
B
100
AcDbSymbolTableRecord
100
AcDbBlockTableRecord
  2
*PAPER_SPACE
  0
BLOCK_RECORD
  5
19A
100
AcDbSymbolTableRecord
100
AcDbBlockTableRecord
  2
*D0
  0
BLOCK_RECORD
  5
1A6
100
AcDbSymbolTableRecord
100
AcDbBlockTableRecord
  2
*D1
  0
ENDTAB
  0
ENDSEC
  0
SECTION
  2
BLOCKS
  0
BLOCK
  5
D
100
AcDbEntity
  8
0
100
AcDbBlockBegin
  2
*MODEL_SPACE
 70
           0
 10
0.0
 20
0.0
 30
0.0
  3
*MODEL_SPACE
  1

  0
ENDBLK
  5
E
100
AcDbEntity
  8
0
100
AcDbBlockEnd
  0
BLOCK
  5
F
100
AcDbEntity
 67
           1
  8
0
100
AcDbBlockBegin
  2
*PAPER_SPACE
 70
           0
 10
0.0
 20
0.0
 30
0.0
  3
*PAPER_SPACE
  1

  0
ENDBLK
  5
10
100
AcDbEntity
 67
           1
  8
0
100
AcDbBlockEnd
  0
BLOCK
  5
19B
100
AcDbEntity
  8
0
100
AcDbBlockBegin
  2
*D0
 70
           1
 10
0.0
 20
0.0
 30
0.0
  3
*D0
  1

  0
LINE
  5
19C
100
AcDbEntity
  8
0
  6
CONTINUOUS
 62
           2
100
AcDbLine
 10
504.576875180338
 20
-522.374965989399
 11
504.576875180338
 21
-317.374965989399
  0
LINE
  5
19D
100
AcDbEntity
  8
0
  6
CONTINUOUS
 62
           2
100
AcDbLine
 10
576.644874923957
 20
-317.374965989399
 11
503.576875180338
 21
-317.374965989399
  0
LINE
  5
19E
100
AcDbEntity
  8
0
  6
CONTINUOUS
 62
           2
100
AcDbLine
 10
534.36453003856
 20
-522.374965989399
 11
503.576875180338
 21
-522.374965989399
  0
SOLID
  5
19F
100
AcDbEntity
  8
0
 62
           2
100
AcDbTrace
 10
504.208248187093
 20
-519.574965989399
 11
504.945502173583
 21
-519.574965989399
 12
504.576875180338
 22
-522.374965989399
 13
504.576875180338
 23
-522.374965989399
  0
SOLID
  5
1A0
100
AcDbEntity
  8
0
 62
           2
100
AcDbTrace
 10
504.945502173583
 20
-320.174965989399
 11
504.208248187093
 21
-320.174965989399
 12
504.576875180338
 22
-317.374965989399
 13
504.576875180338
 23
-317.374965989399
  0
MTEXT
  5
1A2
100
AcDbEntity
  8
0
 62
           2
100
AcDbMText
 10
503.576875180338
 20
-424.751599155472
 30
0.0
 40
2.8
 41
0.0
 71
           7
 72
           1
  1
205
  7
CONVERTER_1
 11
0.0
 21
1.0
 31
0.0
  0
ENDBLK
  5
1A3
100
AcDbEntity
  8
0
100
AcDbBlockEnd
  0
BLOCK
  5
1A7
100
AcDbEntity
  8
0
100
AcDbBlockBegin
  2
*D1
 70
           1
 10
0.0
 20
0.0
 30
0.0
  3
*D1
  1

  0
LINE
  5
1A8
100
AcDbEntity
  8
0
  6
CONTINUOUS
 62
           2
100
AcDbLine
 10
531.632649092365
 20
-553.097468814706
 11
640.196410984756
 21
-553.097468814706
  0
LINE
  5
1A9
100
AcDbEntity
  8
0
  6
CONTINUOUS
 62
           2
100
AcDbLine
 10
640.196410984756
 20
-519.707141375708
 11
640.196410984756
 21
-554.097468814706
  0
LINE
  5
1AA
100
AcDbEntity
  8
0
  6
CONTINUOUS
 62
           2
100
AcDbLine
 10
531.632649092365
 20
-519.707141375708
 11
531.632649092365
 21
-554.097468814706
  0
SOLID
  5
1AB
100
AcDbEntity
  8
0
 62
           2
100
AcDbTrace
 10
637.396410984756
 20
-553.466095807951
 11
637.396410984756
 21
-552.728841821461
 12
640.196410984756
 22
-553.097468814706
 13
640.196410984756
 23
-553.097468814706
  0
SOLID
  5
1AC
100
AcDbEntity
  8
0
 62
           2
100
AcDbTrace
 10
534.432649092365
 20
-552.728841821461
 11
534.432649092365
 21
-553.466095807951
 12
531.632649092365
 22
-553.097468814706
 13
531.632649092365
 23
-553.097468814706
  0
MTEXT
  5
1AE
100
AcDbEntity
  8
0
 62
           2
100
AcDbMText
 10
583.950406073971
 20
-551.62374304316
 30
0.0
 40
2.8
 41
0.0
 71
           7
 72
           1
  1
\C2;ó\C2;110\C2;
  7
CONVERTER_2
  0
ENDBLK
  5
1AF
100
AcDbEntity
  8
0
100
AcDbBlockEnd
  0
ENDSEC
  0
SECTION
  2
ENTITIES
  0
DIMENSION
  5
1B1
100
AcDbEntity
  8
0
100
AcDbDimension
  2
*D1
 10
640.196410984756
 20
-553.097468814706
 11
587.086406073971
 21
-550.22374304316
 31
0.0
  1
<>
  3
ME10_DIM_1
100
AcDbAlignedDimension
 13
531.632649092365
 23
-518.907141375708
 14
640.196410984756
 24
-518.907141375708
100
AcDbRotatedDimension
  0
DIMENSION
  5
1A5
100
AcDbEntity
  8
0
100
AcDbDimension
  2
*D0
 10
504.576875180338
 20
-522.374965989399
 11
502.176875180338
 21
-421.391599155472
 31
0.0
 53
90.0
  1
<>
  3
ME10_DIM_0
100
AcDbAlignedDimension
 13
577.444874923957
 23
-317.374965989399
 14
535.16453003856
 24
-522.374965989399
 50
90.0
100
AcDbRotatedDimension
  0
ARC
  5
199
100
AcDbEntity
  8
1
  6
CONTINUOUS
 62
           7
100
AcDbCircle
 10
535.132501195599
 20
-518.874965989399
 40
3.5
100
AcDbArc
 50
-179.473274340927
 51
-90.0
  0
ARC
  5
198
100
AcDbEntity
  8
1
  6
CONTINUOUS
 62
           7
100
AcDbCircle
 10
636.696558881521
 20
-518.874965989399
 40
3.5
100
AcDbArc
 50
-90.0
 51
-0.526725659072
  0
ARC
  5
197
100
AcDbEntity
  8
1
  6
CONTINUOUS
 62
           7
100
AcDbCircle
 10
630.16453003856
 20
-372.129325155056
 40
0.5
100
AcDbArc
 50
0.0
 51
70.748753962777
  0
ARC
  5
196
100
AcDbEntity
  8
1
  6
CONTINUOUS
 62
           7
100
AcDbCircle
 10
601.705213622676
 20
-359.217397201309
 40
6.0
100
AcDbArc
 50
-177.797401838234
 51
-95.717794051381
  0
ARC
  5
195
100
AcDbEntity
  8
1
  6
CONTINUOUS
 62
           7
100
AcDbCircle
 10
592.989974372213
 20
-340.774965989399
 40
2.0
100
AcDbArc
 50
2.202598161765
 51
90.0
  0
ARC
  5
194
100
AcDbEntity
  8
1
  6
CONTINUOUS
 62
           7
100
AcDbCircle
 10
630.16453003856
 20
-377.274965989399
 40
0.5
100
AcDbArc
 50
-90.0
 51
0.0
  0
ARC
  5
193
100
AcDbEntity
  8
1
  6
CONTINUOUS
 62
           7
100
AcDbCircle
 10
601.705207903267
 20
-359.217248496694
 40
6.0
100
AcDbArc
 50
-177.797401838233
 51
-95.717151015821
  0
ARC
  5
192
100
AcDbEntity
  8
1
  6
CONTINUOUS
 62
           7
100
AcDbCircle
 10
570.123852173853
 20
-359.217248496694
 40
6.0
100
AcDbArc
 50
-84.282848984179
 51
-2.202598161766
  0
ARC
  5
191
100
AcDbEntity
  8
1
  6
CONTINUOUS
 62
           7
100
AcDbCircle
 10
541.66453003856
 20
-377.274965989399
 40
0.5
100
AcDbArc
 50
180.0
 51
-90.0
  0
ARC
  5
190
100
AcDbEntity
  8
1
  6
CONTINUOUS
 62
           7
100
AcDbCircle
 10
578.839085704907
 20
-340.774965989399
 40
2.0
100
AcDbArc
 50
90.0
 51
177.797401838234
  0
ARC
  5
18F
100
AcDbEntity
  8
1
  6
CONTINUOUS
 62
           7
100
AcDbCircle
 10
570.123846454445
 20
-359.217397201309
 40
6.0
100
AcDbArc
 50
-84.282205948618
 51
-2.202598161766
  0
ARC
  5
18E
100
AcDbEntity
  8
1
  6
CONTINUOUS
 62
           7
100
AcDbCircle
 10
541.66453003856
 20
-372.129325155056
 40
0.5
100
AcDbArc
 50
109.251246037223
 51
180.0
  0
LWPOLYLINE
  5
18D
100
AcDbEntity
  8
1
  6
CONTINUOUS
 62
           2
 60
           1
100
AcDbPolyline
 90
       10
 70
           0
 10
592.989974372213
 20
-338.774965989399
 10
594.988496721476
 20
-340.698099745197
 10
595.932551047467
 20
-360.853229188874
 10
597.876501487268
 20
-363.8368812938
 10
601.107502261798
 20
-365.187403265723
 10
630.66453003856
 20
-371.774965989399
 10
630.66453003856
 20
-377.957568316722
 10
629.66453003856
 20
-381.174965989399
 10
628.66453003856
 20
-381.174965989399
 10
628.66453003856
 20
-377.774965989399
  0
LWPOLYLINE
  5
18C
100
AcDbEntity
  8
1
  6
CONTINUOUS
 62
           2
 60
           1
100
AcDbPolyline
 90
       10
 70
           0
 10
578.839085704907
 20
-338.774965989399
 10
576.840563355645
 20
-340.698099745197
 10
575.896509029653
 20
-360.853229188874
 10
573.952558589852
 20
-363.8368812938
 10
570.721557815322
 20
-365.187403265723
 10
541.16453003856
 20
-371.774965989399
 10
541.16453003856
 20
-377.957568316722
 10
542.16453003856
 20
-381.174965989399
 10
543.16453003856
 20
-381.174965989399
 10
543.16453003856
 20
-377.774965989399
  0
ARC
  5
18B
100
AcDbEntity
  8
1
  6
CONTINUOUS
 62
           7
100
AcDbCircle
 10
545.66453003856
 20
-413.600759840202
 40
15.0
100
AcDbArc
 50
111.715617283264
 51
180.0
  0
ARC
  5
18A
100
AcDbEntity
  8
1
  6
CONTINUOUS
 62
           7
100
AcDbCircle
 10
536.41453003856
 20
-390.374965989399
 40
10.0
100
AcDbArc
 50
-68.284382716735
 51
0.0
  0
ARC
  5
189
100
AcDbEntity
  8
1
  6
CONTINUOUS
 62
           7
100
AcDbCircle
 10
635.41453003856
 20
-390.374965989399
 40
10.0
100
AcDbArc
 50
180.0
 51
-111.715617283264
  0
ARC
  5
188
100
AcDbEntity
  8
1
  6
CONTINUOUS
 62
           7
100
AcDbCircle
 10
626.16453003856
 20
-413.600759840202
 40
15.0
100
AcDbArc
 50
0.0
 51
68.284382716735
  0
ARC
  5
187
100
AcDbEntity
  8
1
  6
CONTINUOUS
 62
           7
100
AcDbCircle
 10
588.456066184039
 20
-491.555679210164
 40
127.0
100
AcDbArc
 50
70.748753962779
 51
82.120309830073
  0
ARC
  5
186
100
AcDbEntity
  8
1
  6
CONTINUOUS
 62
           7
100
AcDbCircle
 10
588.456066184039
 20
-491.555679210164
 40
127.0
100
AcDbArc
 50
82.120309830073
 51
84.282848984177
  0
ARC
  5
185
100
AcDbEntity
  8
1
  6
CONTINUOUS
 62
           7
100
AcDbCircle
 10
583.372993893081
 20
-491.555679210164
 40
127.0
100
AcDbArc
 50
95.717151015823
 51
97.879690169926
  0
ARC
  5
184
100
AcDbEntity
  8
1
  6
CONTINUOUS
 62
           7
100
AcDbCircle
 10
583.372993893081
 20
-491.555679210164
 40
127.0
100
AcDbArc
 50
97.879690169926
 51
109.251246037221
  0
ARC
  5
183
100
AcDbEntity
  8
1
  6
CONTINUOUS
 62
           7
100
AcDbCircle
 10
577.687288702608
 20
-320.612322287151
 40
3.246419602989
100
AcDbArc
 50
32.354812655824
 51
147.645187344175
  0
ARC
  5
182
100
AcDbEntity
  8
1
  6
CONTINUOUS
 62
           7
100
AcDbCircle
 10
585.91453003856
 20
-328.152743767177
 40
10.777777777778
100
AcDbArc
 50
90.0
 51
120.590688602809
  0
ARC
  5
181
100
AcDbEntity
  8
1
  6
CONTINUOUS
 62
           7
100
AcDbCircle
 10
585.91453003856
 20
-321.097188211622
 40
10.777777777778
100
AcDbArc
 50
-120.590688602809
 51
-90.0
  0
ARC
  5
180
100
AcDbEntity
  8
1
  6
CONTINUOUS
 62
           7
100
AcDbCircle
 10
577.687288702608
 20
-328.637609691648
 40
3.246419602989
100
AcDbArc
 50
-147.645187344174
 51
-32.354812655826
  0
ARC
  5
17F
100
AcDbEntity
  8
1
  6
CONTINUOUS
 62
           7
100
AcDbCircle
 10
594.141771374512
 20
-328.637609691648
 40
3.246419602989
100
AcDbArc
 50
-147.645187344174
 51
-32.354812655826
  0
ARC
  5
17E
100
AcDbEntity
  8
1
  6
CONTINUOUS
 62
           7
100
AcDbCircle
 10
585.91453003856
 20
-321.097188211622
 40
10.777777777778
100
AcDbArc
 50
-90.0
 51
-59.40931139719
  0
ARC
  5
17D
100
AcDbEntity
  8
1
  6
CONTINUOUS
 62
           7
100
AcDbCircle
 10
585.91453003856
 20
-328.152743767177
 40
10.777777777778
100
AcDbArc
 50
59.40931139719
 51
90.0
  0
ARC
  5
17C
100
AcDbEntity
  8
1
  6
CONTINUOUS
 62
           7
100
AcDbCircle
 10
594.141771374512
 20
-320.612322287151
 40
3.246419602989
100
AcDbArc
 50
32.354812655824
 51
147.645187344175
  0
LINE
  5
17B
100
AcDbEntity
  8
1
  6
CONTINUOUS
 62
           2
100
AcDbLine
 10
629.16453003856
 20
-377.774965989399
 11
629.16453003856
 21
-371.774965989399
  0
LINE
  5
17A
100
AcDbEntity
  8
1
  6
CONTINUOUS
 62
           2
100
AcDbLine
 10
627.16453003856
 20
-377.774965989399
 11
627.16453003856
 21
-371.774965989399
  0
LINE
  5
179
100
AcDbEntity
  8
1
  6
CONTINUOUS
 62
           2
100
AcDbLine
 10
625.16453003856
 20
-377.774965989399
 11
625.16453003856
 21
-371.774965989399
  0
LINE
  5
178
100
AcDbEntity
  8
1
  6
CONTINUOUS
 62
           2
100
AcDbLine
 10
587.16453003856
 20
-377.774965989399
 11
587.16453003856
 21
-371.774965989399
  0
LINE
  5
177
100
AcDbEntity
  8
1
  6
CONTINUOUS
 62
           2
100
AcDbLine
 10
587.16453003856
 20
-377.774965989399
 11
587.16453003856
 21
-371.774965989399
  0
LINE
  5
176
100
AcDbEntity
  8
1
  6
CONTINUOUS
 62
           2
100
AcDbLine
 10
587.16453003856
 20
-377.774965989399
 11
587.16453003856
 21
-371.774965989399
  0
LINE
  5
175
100
AcDbEntity
  8
1
  6
CONTINUOUS
 62
           2
100
AcDbLine
 10
585.16453003856
 20
-377.774965989399
 11
585.16453003856
 21
-371.774965989399
  0
LINE
  5
174
100
AcDbEntity
  8
1
  6
CONTINUOUS
 62
           2
100
AcDbLine
 10
587.16453003856
 20
-377.774965989399
 11
587.16453003856
 21
-371.774965989399
  0
LINE
  5
173
100
AcDbEntity
  8
1
  6
CONTINUOUS
 62
           2
100
AcDbLine
 10
587.16453003856
 20
-377.774965989399
 11
587.16453003856
 21
-371.774965989399
  0
LINE
  5
172
100
AcDbEntity
  8
1
  6
CONTINUOUS
 62
           2
100
AcDbLine
 10
587.16453003856
 20
-377.774965989399
 11
587.16453003856
 21
-371.774965989399
  0
LINE
  5
171
100
AcDbEntity
  8
1
  6
CONTINUOUS
 62
           2
100
AcDbLine
 10
585.16453003856
 20
-377.774965989399
 11
585.16453003856
 21
-371.774965989399
  0
LINE
  5
170
100
AcDbEntity
  8
1
  6
CONTINUOUS
 62
           2
100
AcDbLine
 10
585.16453003856
 20
-377.774965989399
 11
585.16453003856
 21
-371.774965989399
  0
LINE
  5
16F
100
AcDbEntity
  8
1
  6
CONTINUOUS
 62
           2
100
AcDbLine
 10
585.16453003856
 20
-377.774965989399
 11
585.16453003856
 21
-371.774965989399
  0
LINE
  5
16E
100
AcDbEntity
  8
1
  6
CONTINUOUS
 62
           2
100
AcDbLine
 10
585.16453003856
 20
-377.774965989399
 11
585.16453003856
 21
-371.774965989399
  0
LINE
  5
16D
100
AcDbEntity
  8
1
  6
CONTINUOUS
 62
           2
100
AcDbLine
 10
585.16453003856
 20
-377.774965989399
 11
585.16453003856
 21
-371.774965989399
  0
LINE
  5
16C
100
AcDbEntity
  8
1
  6
CONTINUOUS
 62
           2
100
AcDbLine
 10
587.16453003856
 20
-377.774965989399
 11
587.16453003856
 21
-371.774965989399
  0
LINE
  5
16B
100
AcDbEntity
  8
1
  6
CONTINUOUS
 62
           2
100
AcDbLine
 10
587.16453003856
 20
-377.774965989399
 11
587.16453003856
 21
-371.774965989399
  0
LINE
  5
16A
100
AcDbEntity
  8
1
  6
CONTINUOUS
 62
           2
100
AcDbLine
 10
585.16453003856
 20
-377.774965989399
 11
585.16453003856
 21
-371.774965989399
  0
LINE
  5
169
100
AcDbEntity
  8
1
  6
CONTINUOUS
 62
           2
100
AcDbLine
 10
587.16453003856
 20
-377.774965989399
 11
587.16453003856
 21
-371.774965989399
  0
LINE
  5
168
100
AcDbEntity
  8
1
  6
CONTINUOUS
 62
           2
100
AcDbLine
 10
587.16453003856
 20
-377.774965989399
 11
587.16453003856
 21
-371.774965989399
  0
LINE
  5
167
100
AcDbEntity
  8
1
  6
CONTINUOUS
 62
           2
100
AcDbLine
 10
587.16453003856
 20
-377.774965989399
 11
587.16453003856
 21
-371.774965989399
  0
LINE
  5
166
100
AcDbEntity
  8
1
  6
CONTINUOUS
 62
           2
100
AcDbLine
 10
589.16453003856
 20
-377.774965989399
 11
589.16453003856
 21
-371.774965989399
  0
LINE
  5
165
100
AcDbEntity
  8
1
  6
CONTINUOUS
 62
           2
100
AcDbLine
 10
589.16453003856
 20
-377.774965989399
 11
589.16453003856
 21
-371.774965989399
  0
LINE
  5
164
100
AcDbEntity
  8
1
  6
CONTINUOUS
 62
           2
100
AcDbLine
 10
589.16453003856
 20
-377.774965989399
 11
589.16453003856
 21
-371.774965989399
  0
LINE
  5
163
100
AcDbEntity
  8
1
  6
CONTINUOUS
 62
           2
100
AcDbLine
 10
589.16453003856
 20
-377.774965989399
 11
589.16453003856
 21
-371.774965989399
  0
LINE
  5
162
100
AcDbEntity
  8
1
  6
CONTINUOUS
 62
           2
100
AcDbLine
 10
589.16453003856
 20
-377.774965989399
 11
589.16453003856
 21
-371.774965989399
  0
LINE
  5
161
100
AcDbEntity
  8
1
  6
CONTINUOUS
 62
           2
100
AcDbLine
 10
587.16453003856
 20
-377.774965989399
 11
587.16453003856
 21
-371.774965989399
  0
LINE
  5
160
100
AcDbEntity
  8
1
  6
CONTINUOUS
 62
           2
100
AcDbLine
 10
589.16453003856
 20
-377.774965989399
 11
589.16453003856
 21
-371.774965989399
  0
LINE
  5
15F
100
AcDbEntity
  8
1
  6
CONTINUOUS
 62
           2
100
AcDbLine
 10
589.16453003856
 20
-377.774965989399
 11
589.16453003856
 21
-371.774965989399
  0
LINE
  5
15E
100
AcDbEntity
  8
1
  6
CONTINUOUS
 62
           2
100
AcDbLine
 10
589.16453003856
 20
-377.774965989399
 11
589.16453003856
 21
-371.774965989399
  0
LINE
  5
15D
100
AcDbEntity
  8
1
  6
CONTINUOUS
 62
           2
100
AcDbLine
 10
589.16453003856
 20
-377.774965989399
 11
589.16453003856
 21
-371.774965989399
  0
LINE
  5
15C
100
AcDbEntity
  8
1
  6
CONTINUOUS
 62
           2
100
AcDbLine
 10
589.16453003856
 20
-377.774965989399
 11
589.16453003856
 21
-371.774965989399
  0
LINE
  5
15B
100
AcDbEntity
  8
1
  6
CONTINUOUS
 62
           2
100
AcDbLine
 10
587.16453003856
 20
-377.774965989399
 11
587.16453003856
 21
-371.774965989399
  0
LINE
  5
15A
100
AcDbEntity
  8
1
  6
CONTINUOUS
 62
           2
100
AcDbLine
 10
587.16453003856
 20
-377.774965989399
 11
587.16453003856
 21
-371.774965989399
  0
LINE
  5
159
100
AcDbEntity
  8
1
  6
CONTINUOUS
 62
           2
100
AcDbLine
 10
585.16453003856
 20
-377.774965989399
 11
585.16453003856
 21
-371.774965989399
  0
LINE
  5
158
100
AcDbEntity
  8
1
  6
CONTINUOUS
 62
           2
100
AcDbLine
 10
587.16453003856
 20
-377.774965989399
 11
587.16453003856
 21
-371.774965989399
  0
LINE
  5
157
100
AcDbEntity
  8
1
  6
CONTINUOUS
 62
           2
100
AcDbLine
 10
587.16453003856
 20
-377.774965989399
 11
587.16453003856
 21
-371.774965989399
  0
LINE
  5
156
100
AcDbEntity
  8
1
  6
CONTINUOUS
 62
           2
100
AcDbLine
 10
587.16453003856
 20
-377.774965989399
 11
587.16453003856
 21
-371.774965989399
  0
LINE
  5
155
100
AcDbEntity
  8
1
  6
CONTINUOUS
 62
           2
100
AcDbLine
 10
589.16453003856
 20
-377.774965989399
 11
589.16453003856
 21
-371.774965989399
  0
LINE
  5
154
100
AcDbEntity
  8
1
  6
CONTINUOUS
 62
           2
100
AcDbLine
 10
591.16453003856
 20
-377.774965989399
 11
591.16453003856
 21
-371.774965989399
  0
LINE
  5
153
100
AcDbEntity
  8
1
  6
CONTINUOUS
 62
           2
100
AcDbLine
 10
589.16453003856
 20
-377.774965989399
 11
589.16453003856
 21
-371.774965989399
  0
LINE
  5
152
100
AcDbEntity
  8
1
  6
CONTINUOUS
 62
           2
100
AcDbLine
 10
591.16453003856
 20
-377.774965989399
 11
591.16453003856
 21
-371.774965989399
  0
LINE
  5
151
100
AcDbEntity
  8
1
  6
CONTINUOUS
 62
           2
100
AcDbLine
 10
589.16453003856
 20
-377.774965989399
 11
589.16453003856
 21
-371.774965989399
  0
LINE
  5
150
100
AcDbEntity
  8
1
  6
CONTINUOUS
 62
           2
100
AcDbLine
 10
589.16453003856
 20
-377.774965989399
 11
589.16453003856
 21
-371.774965989399
  0
LINE
  5
14F
100
AcDbEntity
  8
1
  6
CONTINUOUS
 62
           2
100
AcDbLine
 10
589.16453003856
 20
-377.774965989399
 11
589.16453003856
 21
-371.774965989399
  0
LINE
  5
14E
100
AcDbEntity
  8
1
  6
CONTINUOUS
 62
           2
100
AcDbLine
 10
587.16453003856
 20
-377.774965989399
 11
587.16453003856
 21
-371.774965989399
  0
LINE
  5
14D
100
AcDbEntity
  8
1
  6
CONTINUOUS
 62
           2
100
AcDbLine
 10
589.16453003856
 20
-377.774965989399
 11
589.16453003856
 21
-371.774965989399
  0
LINE
  5
14C
100
AcDbEntity
  8
1
  6
CONTINUOUS
 62
           2
100
AcDbLine
 10
589.16453003856
 20
-377.774965989399
 11
589.16453003856
 21
-371.774965989399
  0
LINE
  5
14B
100
AcDbEntity
  8
1
  6
CONTINUOUS
 62
           2
100
AcDbLine
 10
589.16453003856
 20
-377.774965989399
 11
589.16453003856
 21
-371.774965989399
  0
LINE
  5
14A
100
AcDbEntity
  8
1
  6
CONTINUOUS
 62
           2
100
AcDbLine
 10
591.16453003856
 20
-377.774965989399
 11
591.16453003856
 21
-371.774965989399
  0
LINE
  5
149
100
AcDbEntity
  8
1
  6
CONTINUOUS
 62
           2
100
AcDbLine
 10
589.16453003856
 20
-377.774965989399
 11
589.16453003856
 21
-371.774965989399
  0
LINE
  5
148
100
AcDbEntity
  8
1
  6
CONTINUOUS
 62
           2
100
AcDbLine
 10
591.16453003856
 20
-377.774965989399
 11
591.16453003856
 21
-371.774965989399
  0
LINE
  5
147
100
AcDbEntity
  8
1
  6
CONTINUOUS
 62
           2
100
AcDbLine
 10
589.16453003856
 20
-377.774965989399
 11
589.16453003856
 21
-371.774965989399
  0
LINE
  5
146
100
AcDbEntity
  8
1
  6
CONTINUOUS
 62
           2
100
AcDbLine
 10
597.16453003856
 20
-377.774965989399
 11
597.16453003856
 21
-371.774965989399
  0
LINE
  5
145
100
AcDbEntity
  8
1
  6
CONTINUOUS
 62
           2
100
AcDbLine
 10
595.16453003856
 20
-377.774965989399
 11
595.16453003856
 21
-371.774965989399
  0
LINE
  5
144
100
AcDbEntity
  8
1
  6
CONTINUOUS
 62
           2
100
AcDbLine
 10
597.16453003856
 20
-377.774965989399
 11
597.16453003856
 21
-371.774965989399
  0
LINE
  5
143
100
AcDbEntity
  8
1
  6
CONTINUOUS
 62
           2
100
AcDbLine
 10
595.16453003856
 20
-377.774965989399
 11
595.16453003856
 21
-371.774965989399
  0
LINE
  5
142
100
AcDbEntity
  8
1
  6
CONTINUOUS
 62
           2
100
AcDbLine
 10
595.16453003856
 20
-377.774965989399
 11
595.16453003856
 21
-371.774965989399
  0
LINE
  5
141
100
AcDbEntity
  8
1
  6
CONTINUOUS
 62
           2
100
AcDbLine
 10
595.16453003856
 20
-377.774965989399
 11
595.16453003856
 21
-371.774965989399
  0
LINE
  5
140
100
AcDbEntity
  8
1
  6
CONTINUOUS
 62
           2
100
AcDbLine
 10
593.16453003856
 20
-377.774965989399
 11
593.16453003856
 21
-371.774965989399
  0
LINE
  5
13F
100
AcDbEntity
  8
1
  6
CONTINUOUS
 62
           2
100
AcDbLine
 10
595.16453003856
 20
-377.774965989399
 11
595.16453003856
 21
-371.774965989399
  0
LINE
  5
13E
100
AcDbEntity
  8
1
  6
CONTINUOUS
 62
           2
100
AcDbLine
 10
595.16453003856
 20
-377.774965989399
 11
595.16453003856
 21
-371.774965989399
  0
LINE
  5
13D
100
AcDbEntity
  8
1
  6
CONTINUOUS
 62
           2
100
AcDbLine
 10
595.16453003856
 20
-377.774965989399
 11
595.16453003856
 21
-371.774965989399
  0
LINE
  5
13C
100
AcDbEntity
  8
1
  6
CONTINUOUS
 62
           2
100
AcDbLine
 10
597.16453003856
 20
-377.774965989399
 11
597.16453003856
 21
-371.774965989399
  0
LINE
  5
13B
100
AcDbEntity
  8
1
  6
CONTINUOUS
 62
           2
100
AcDbLine
 10
595.16453003856
 20
-377.774965989399
 11
595.16453003856
 21
-371.774965989399
  0
LINE
  5
13A
100
AcDbEntity
  8
1
  6
CONTINUOUS
 62
           2
100
AcDbLine
 10
593.16453003856
 20
-377.774965989399
 11
593.16453003856
 21
-371.774965989399
  0
LINE
  5
139
100
AcDbEntity
  8
1
  6
CONTINUOUS
 62
           2
100
AcDbLine
 10
591.16453003856
 20
-377.774965989399
 11
591.16453003856
 21
-371.774965989399
  0
LINE
  5
138
100
AcDbEntity
  8
1
  6
CONTINUOUS
 62
           2
100
AcDbLine
 10
589.16453003856
 20
-377.774965989399
 11
589.16453003856
 21
-371.774965989399
  0
LINE
  5
137
100
AcDbEntity
  8
1
  6
CONTINUOUS
 62
           2
100
AcDbLine
 10
593.16453003856
 20
-377.774965989399
 11
593.16453003856
 21
-371.774965989399
  0
LINE
  5
136
100
AcDbEntity
  8
1
  6
CONTINUOUS
 62
           2
100
AcDbLine
 10
593.16453003856
 20
-377.774965989399
 11
593.16453003856
 21
-371.774965989399
  0
LINE
  5
135
100
AcDbEntity
  8
1
  6
CONTINUOUS
 62
           2
100
AcDbLine
 10
597.16453003856
 20
-377.774965989399
 11
597.16453003856
 21
-371.774965989399
  0
LINE
  5
134
100
AcDbEntity
  8
1
  6
CONTINUOUS
 62
           2
100
AcDbLine
 10
595.16453003856
 20
-377.774965989399
 11
595.16453003856
 21
-371.774965989399
  0
LINE
  5
133
100
AcDbEntity
  8
1
  6
CONTINUOUS
 62
           2
100
AcDbLine
 10
597.16453003856
 20
-377.774965989399
 11
597.16453003856
 21
-371.774965989399
  0
LINE
  5
132
100
AcDbEntity
  8
1
  6
CONTINUOUS
 62
           2
100
AcDbLine
 10
595.16453003856
 20
-377.774965989399
 11
595.16453003856
 21
-371.774965989399
  0
LINE
  5
131
100
AcDbEntity
  8
1
  6
CONTINUOUS
 62
           2
100
AcDbLine
 10
595.16453003856
 20
-377.774965989399
 11
595.16453003856
 21
-371.774965989399
  0
LINE
  5
130
100
AcDbEntity
  8
1
  6
CONTINUOUS
 62
           2
100
AcDbLine
 10
595.16453003856
 20
-377.774965989399
 11
595.16453003856
 21
-371.774965989399
  0
LINE
  5
12F
100
AcDbEntity
  8
1
  6
CONTINUOUS
 62
           2
100
AcDbLine
 10
593.16453003856
 20
-377.774965989399
 11
593.16453003856
 21
-371.774965989399
  0
LINE
  5
12E
100
AcDbEntity
  8
1
  6
CONTINUOUS
 62
           2
100
AcDbLine
 10
595.16453003856
 20
-377.774965989399
 11
595.16453003856
 21
-371.774965989399
  0
LINE
  5
12D
100
AcDbEntity
  8
1
  6
CONTINUOUS
 62
           2
100
AcDbLine
 10
595.16453003856
 20
-377.774965989399
 11
595.16453003856
 21
-371.774965989399
  0
LINE
  5
12C
100
AcDbEntity
  8
1
  6
CONTINUOUS
 62
           2
100
AcDbLine
 10
595.16453003856
 20
-377.774965989399
 11
595.16453003856
 21
-371.774965989399
  0
LINE
  5
12B
100
AcDbEntity
  8
1
  6
CONTINUOUS
 62
           2
100
AcDbLine
 10
597.16453003856
 20
-377.774965989399
 11
597.16453003856
 21
-371.774965989399
  0
LINE
  5
12A
100
AcDbEntity
  8
1
  6
CONTINUOUS
 62
           2
100
AcDbLine
 10
595.16453003856
 20
-377.774965989399
 11
595.16453003856
 21
-371.774965989399
  0
LINE
  5
129
100
AcDbEntity
  8
1
  6
CONTINUOUS
 62
           2
100
AcDbLine
 10
601.16453003856
 20
-377.774965989399
 11
601.16453003856
 21
-371.774965989399
  0
LINE
  5
128
100
AcDbEntity
  8
1
  6
CONTINUOUS
 62
           2
100
AcDbLine
 10
601.16453003856
 20
-377.774965989399
 11
601.16453003856
 21
-371.774965989399
  0
LINE
  5
127
100
AcDbEntity
  8
1
  6
CONTINUOUS
 62
           2
100
AcDbLine
 10
601.16453003856
 20
-377.774965989399
 11
601.16453003856
 21
-371.774965989399
  0
LINE
  5
126
100
AcDbEntity
  8
1
  6
CONTINUOUS
 62
           2
100
AcDbLine
 10
599.16453003856
 20
-377.774965989399
 11
599.16453003856
 21
-371.774965989399
  0
LINE
  5
125
100
AcDbEntity
  8
1
  6
CONTINUOUS
 62
           2
100
AcDbLine
 10
601.16453003856
 20
-377.774965989399
 11
601.16453003856
 21
-371.774965989399
  0
LINE
  5
124
100
AcDbEntity
  8
1
  6
CONTINUOUS
 62
           2
100
AcDbLine
 10
601.16453003856
 20
-377.774965989399
 11
601.16453003856
 21
-371.774965989399
  0
LINE
  5
123
100
AcDbEntity
  8
1
  6
CONTINUOUS
 62
           2
100
AcDbLine
 10
601.16453003856
 20
-377.774965989399
 11
601.16453003856
 21
-371.774965989399
  0
LINE
  5
122
100
AcDbEntity
  8
1
  6
CONTINUOUS
 62
           2
100
AcDbLine
 10
597.16453003856
 20
-377.774965989399
 11
597.16453003856
 21
-371.774965989399
  0
LINE
  5
121
100
AcDbEntity
  8
1
  6
CONTINUOUS
 62
           2
100
AcDbLine
 10
595.16453003856
 20
-377.774965989399
 11
595.16453003856
 21
-371.774965989399
  0
LINE
  5
120
100
AcDbEntity
  8
1
  6
CONTINUOUS
 62
           2
100
AcDbLine
 10
601.16453003856
 20
-377.774965989399
 11
601.16453003856
 21
-371.774965989399
  0
LINE
  5
11F
100
AcDbEntity
  8
1
  6
CONTINUOUS
 62
           2
100
AcDbLine
 10
601.16453003856
 20
-377.774965989399
 11
601.16453003856
 21
-371.774965989399
  0
LINE
  5
11E
100
AcDbEntity
  8
1
  6
CONTINUOUS
 62
           2
100
AcDbLine
 10
599.16453003856
 20
-377.774965989399
 11
599.16453003856
 21
-371.774965989399
  0
LINE
  5
11D
100
AcDbEntity
  8
1
  6
CONTINUOUS
 62
           2
100
AcDbLine
 10
601.16453003856
 20
-377.774965989399
 11
601.16453003856
 21
-371.774965989399
  0
LINE
  5
11C
100
AcDbEntity
  8
1
  6
CONTINUOUS
 62
           2
100
AcDbLine
 10
601.16453003856
 20
-377.774965989399
 11
601.16453003856
 21
-371.774965989399
  0
LINE
  5
11B
100
AcDbEntity
  8
1
  6
CONTINUOUS
 62
           2
100
AcDbLine
 10
601.16453003856
 20
-377.774965989399
 11
601.16453003856
 21
-371.774965989399
  0
LINE
  5
11A
100
AcDbEntity
  8
1
  6
CONTINUOUS
 62
           2
100
AcDbLine
 10
605.16453003856
 20
-377.774965989399
 11
605.16453003856
 21
-371.774965989399
  0
LINE
  5
119
100
AcDbEntity
  8
1
  6
CONTINUOUS
 62
           2
100
AcDbLine
 10
605.16453003856
 20
-377.774965989399
 11
605.16453003856
 21
-371.774965989399
  0
LINE
  5
118
100
AcDbEntity
  8
1
  6
CONTINUOUS
 62
           2
100
AcDbLine
 10
603.16453003856
 20
-377.774965989399
 11
603.16453003856
 21
-371.774965989399
  0
LINE
  5
117
100
AcDbEntity
  8
1
  6
CONTINUOUS
 62
           2
100
AcDbLine
 10
601.16453003856
 20
-377.774965989399
 11
601.16453003856
 21
-371.774965989399
  0
LINE
  5
116
100
AcDbEntity
  8
1
  6
CONTINUOUS
 62
           2
100
AcDbLine
 10
605.16453003856
 20
-377.774965989399
 11
605.16453003856
 21
-371.774965989399
  0
LINE
  5
115
100
AcDbEntity
  8
1
  6
CONTINUOUS
 62
           2
100
AcDbLine
 10
605.16453003856
 20
-377.774965989399
 11
605.16453003856
 21
-371.774965989399
  0
LINE
  5
114
100
AcDbEntity
  8
1
  6
CONTINUOUS
 62
           2
100
AcDbLine
 10
601.16453003856
 20
-377.774965989399
 11
601.16453003856
 21
-371.774965989399
  0
LINE
  5
113
100
AcDbEntity
  8
1
  6
CONTINUOUS
 62
           2
100
AcDbLine
 10
601.16453003856
 20
-377.774965989399
 11
601.16453003856
 21
-371.774965989399
  0
LINE
  5
112
100
AcDbEntity
  8
1
  6
CONTINUOUS
 62
           2
100
AcDbLine
 10
599.16453003856
 20
-377.774965989399
 11
599.16453003856
 21
-371.774965989399
  0
LINE
  5
111
100
AcDbEntity
  8
1
  6
CONTINUOUS
 62
           2
100
AcDbLine
 10
601.16453003856
 20
-377.774965989399
 11
601.16453003856
 21
-371.774965989399
  0
LINE
  5
110
100
AcDbEntity
  8
1
  6
CONTINUOUS
 62
           2
100
AcDbLine
 10
601.16453003856
 20
-377.774965989399
 11
601.16453003856
 21
-371.774965989399
  0
LINE
  5
10F
100
AcDbEntity
  8
1
  6
CONTINUOUS
 62
           2
100
AcDbLine
 10
601.16453003856
 20
-377.774965989399
 11
601.16453003856
 21
-371.774965989399
  0
LINE
  5
10E
100
AcDbEntity
  8
1
  6
CONTINUOUS
 62
           2
100
AcDbLine
 10
603.16453003856
 20
-377.774965989399
 11
603.16453003856
 21
-371.774965989399
  0
LINE
  5
10D
100
AcDbEntity
  8
1
  6
CONTINUOUS
 62
           2
100
AcDbLine
 10
601.16453003856
 20
-377.774965989399
 11
601.16453003856
 21
-371.774965989399
  0
LINE
  5
10C
100
AcDbEntity
  8
1
  6
CONTINUOUS
 62
           2
100
AcDbLine
 10
609.16453003856
 20
-377.774965989399
 11
609.16453003856
 21
-371.774965989399
  0
LINE
  5
10B
100
AcDbEntity
  8
1
  6
CONTINUOUS
 62
           2
100
AcDbLine
 10
607.16453003856
 20
-377.774965989399
 11
607.16453003856
 21
-371.774965989399
  0
LINE
  5
10A
100
AcDbEntity
  8
1
  6
CONTINUOUS
 62
           2
100
AcDbLine
 10
607.16453003856
 20
-377.774965989399
 11
607.16453003856
 21
-371.774965989399
  0
LINE
  5
109
100
AcDbEntity
  8
1
  6
CONTINUOUS
 62
           2
100
AcDbLine
 10
605.16453003856
 20
-377.774965989399
 11
605.16453003856
 21
-371.774965989399
  0
LINE
  5
108
100
AcDbEntity
  8
1
  6
CONTINUOUS
 62
           2
100
AcDbLine
 10
607.16453003856
 20
-377.774965989399
 11
607.16453003856
 21
-371.774965989399
  0
LINE
  5
107
100
AcDbEntity
  8
1
  6
CONTINUOUS
 62
           2
100
AcDbLine
 10
607.16453003856
 20
-377.774965989399
 11
607.16453003856
 21
-371.774965989399
  0
LINE
  5
106
100
AcDbEntity
  8
1
  6
CONTINUOUS
 62
           2
100
AcDbLine
 10
611.16453003856
 20
-377.774965989399
 11
611.16453003856
 21
-371.774965989399
  0
LINE
  5
105
100
AcDbEntity
  8
1
  6
CONTINUOUS
 62
           2
100
AcDbLine
 10
609.16453003856
 20
-377.774965989399
 11
609.16453003856
 21
-371.774965989399
  0
LINE
  5
104
100
AcDbEntity
  8
1
  6
CONTINUOUS
 62
           2
100
AcDbLine
 10
607.16453003856
 20
-377.774965989399
 11
607.16453003856
 21
-371.774965989399
  0
LINE
  5
103
100
AcDbEntity
  8
1
  6
CONTINUOUS
 62
           2
100
AcDbLine
 10
611.16453003856
 20
-377.774965989399
 11
611.16453003856
 21
-371.774965989399
  0
LINE
  5
102
100
AcDbEntity
  8
1
  6
CONTINUOUS
 62
           2
100
AcDbLine
 10
615.16453003856
 20
-377.774965989399
 11
615.16453003856
 21
-371.774965989399
  0
LINE
  5
101
100
AcDbEntity
  8
1
  6
CONTINUOUS
 62
           2
100
AcDbLine
 10
613.16453003856
 20
-377.774965989399
 11
613.16453003856
 21
-371.774965989399
  0
LINE
  5
100
100
AcDbEntity
  8
1
  6
CONTINUOUS
 62
           2
100
AcDbLine
 10
611.16453003856
 20
-377.774965989399
 11
611.16453003856
 21
-371.774965989399
  0
LINE
  5
FF
100
AcDbEntity
  8
1
  6
CONTINUOUS
 62
           2
100
AcDbLine
 10
613.16453003856
 20
-377.774965989399
 11
613.16453003856
 21
-371.774965989399
  0
LINE
  5
FE
100
AcDbEntity
  8
1
  6
CONTINUOUS
 62
           2
100
AcDbLine
 10
615.16453003856
 20
-377.774965989399
 11
615.16453003856
 21
-371.774965989399
  0
LINE
  5
FD
100
AcDbEntity
  8
1
  6
CONTINUOUS
 62
           2
100
AcDbLine
 10
613.16453003856
 20
-377.774965989399
 11
613.16453003856
 21
-371.774965989399
  0
LINE
  5
FC
100
AcDbEntity
  8
1
  6
CONTINUOUS
 62
           2
100
AcDbLine
 10
617.16453003856
 20
-377.774965989399
 11
617.16453003856
 21
-371.774965989399
  0
LINE
  5
FB
100
AcDbEntity
  8
1
  6
CONTINUOUS
 62
           2
100
AcDbLine
 10
619.16453003856
 20
-377.774965989399
 11
619.16453003856
 21
-371.774965989399
  0
LINE
  5
FA
100
AcDbEntity
  8
1
  6
CONTINUOUS
 62
           2
100
AcDbLine
 10
621.16453003856
 20
-377.774965989399
 11
621.16453003856
 21
-371.774965989399
  0
LINE
  5
F9
100
AcDbEntity
  8
1
  6
CONTINUOUS
 62
           2
100
AcDbLine
 10
623.16453003856
 20
-377.774965989399
 11
623.16453003856
 21
-371.774965989399
  0
LINE
  5
F8
100
AcDbEntity
  8
1
  6
CONTINUOUS
 62
           2
100
AcDbLine
 10
591.16453003856
 20
-377.774965989399
 11
591.16453003856
 21
-371.774965989399
  0
LINE
  5
F7
100
AcDbEntity
  8
1
  6
CONTINUOUS
 62
           2
100
AcDbLine
 10
575.16453003856
 20
-371.774965989399
 11
575.16453003856
 21
-377.774965989399
  0
LINE
  5
F6
100
AcDbEntity
  8
1
  6
CONTINUOUS
 62
           7
100
AcDbLine
 10
545.41453003856
 20
-377.774965989399
 11
545.41453003856
 21
-386.374965989399
  0
LINE
  5
F5
100
AcDbEntity
  8
1
  6
CONTINUOUS
 62
           7
100
AcDbLine
 10
535.16453003856
 20
-522.374965989399
 11
585.91453003856
 21
-522.374965989399
  0
LINE
  5
F4
100
AcDbEntity
  8
1
  6
CONTINUOUS
 62
           7
100
AcDbLine
 10
545.41453003856
 20
-386.374965989399
 11
585.91453003856
 21
-386.374965989399
  0
LINE
  5
F3
100
AcDbEntity
  8
1
  6
CONTINUOUS
 62
           7
100
AcDbLine
 10
546.41453003856
 20
-386.374965989399
 11
546.41453003856
 21
-390.374965989399
  0
LINE
  5
F2
100
AcDbEntity
  8
1
  6
CONTINUOUS
 62
           7
100
AcDbLine
 10
530.66453003856
 20
-413.600759840202
 11
531.632649092365
 21
-518.907141375708
  0
LINE
  5
F1
100
AcDbEntity
  8
1
  6
CONTINUOUS
 62
           6
100
AcDbLine
 10
530.91453003856
 20
-522.263913184845
 11
530.91453003856
 21
-522.374965989399
  0
LINE
  5
F0
100
AcDbEntity
  8
1
  6
CONTINUOUS
 62
           6
100
AcDbLine
 10
640.91453003856
 20
-522.374965989399
 11
640.91453003856
 21
-522.263913184845
  0
LINE
  5
EF
100
AcDbEntity
  8
1
  6
CONTINUOUS
 62
           7
100
AcDbLine
 10
640.196410984756
 20
-518.907141375708
 11
641.16453003856
 21
-413.600759840202
  0
LINE
  5
EE
100
AcDbEntity
  8
1
  6
CONTINUOUS
 62
           7
100
AcDbLine
 10
625.41453003856
 20
-390.374965989399
 11
625.41453003856
 21
-386.374965989399
  0
LINE
  5
ED
100
AcDbEntity
  8
1
  6
CONTINUOUS
 62
           7
100
AcDbLine
 10
585.91453003856
 20
-386.374965989399
 11
626.41453003856
 21
-386.374965989399
  0
LINE
  5
EC
100
AcDbEntity
  8
1
  6
CONTINUOUS
 62
           7
100
AcDbLine
 10
585.91453003856
 20
-522.374965989399
 11
636.66453003856
 21
-522.374965989399
  0
LINE
  5
EB
100
AcDbEntity
  8
1
  6
CONTINUOUS
 62
           7
100
AcDbLine
 10
626.41453003856
 20
-386.374965989399
 11
626.41453003856
 21
-377.774965989399
  0
LINE
  5
EA
100
AcDbEntity
  8
1
  6
CONTINUOUS
 62
           7
100
AcDbLine
 10
630.16453003856
 20
-377.774965989399
 11
585.91453003856
 21
-377.774965989399
  0
LINE
  5
E9
100
AcDbEntity
  8
1
  6
CONTINUOUS
 62
           7
100
AcDbLine
 10
630.518819335263
 20
-371.774965989399
 11
585.91453003856
 21
-371.774965989399
  0
LINE
  5
E8
100
AcDbEntity
  8
1
  6
CONTINUOUS
 62
           7
100
AcDbLine
 10
630.66453003856
 20
-377.274965989399
 11
630.66453003856
 21
-372.129325155056
  0
LINE
  5
E7
100
AcDbEntity
  8
1
  6
CONTINUOUS
 62
           7
100
AcDbLine
 10
595.709646574888
 20
-359.447995933916
 11
594.988496721476
 21
-340.698099745197
  0
LINE
  5
E6
100
AcDbEntity
  8
1
  6
CONTINUOUS
 62
           7
100
AcDbLine
 10
576.840563355645
 20
-340.698099745197
 11
576.119413502232
 21
-359.447995933916
  0
LINE
  5
E5
100
AcDbEntity
  8
1
  6
CONTINUOUS
 62
           7
100
AcDbLine
 10
541.16453003856
 20
-372.129325155056
 11
541.16453003856
 21
-377.274965989399
  0
LINE
  5
E4
100
AcDbEntity
  8
1
  6
CONTINUOUS
 62
           2
100
AcDbLine
 10
543.16453003856
 20
-371.774965989399
 11
543.16453003856
 21
-377.774965989399
  0
LINE
  5
E3
100
AcDbEntity
  8
1
  6
CONTINUOUS
 62
           2
100
AcDbLine
 10
545.16453003856
 20
-371.774965989399
 11
545.16453003856
 21
-377.774965989399
  0
LINE
  5
E2
100
AcDbEntity
  8
1
  6
CONTINUOUS
 62
           2
100
AcDbLine
 10
547.16453003856
 20
-371.774965989399
 11
547.16453003856
 21
-377.774965989399
  0
LINE
  5
E1
100
AcDbEntity
  8
1
  6
CONTINUOUS
 62
           2
100
AcDbLine
 10
549.16453003856
 20
-371.774965989399
 11
549.16453003856
 21
-377.774965989399
  0
LINE
  5
E0
100
AcDbEntity
  8
1
  6
CONTINUOUS
 62
           7
100
AcDbLine
 10
585.91453003856
 20
-371.774965989399
 11
541.310240741857
 21
-371.774965989399
  0
LINE
  5
DF
100
AcDbEntity
  8
1
  6
CONTINUOUS
 62
           7
100
AcDbLine
 10
585.91453003856
 20
-377.774965989399
 11
541.66453003856
 21
-377.774965989399
  0
LINE
  5
DE
100
AcDbEntity
  8
1
  6
CONTINUOUS
 62
           2
100
AcDbLine
 10
553.16453003856
 20
-371.774965989399
 11
553.16453003856
 21
-377.774965989399
  0
LINE
  5
DD
100
AcDbEntity
  8
1
  6
CONTINUOUS
 62
           2
100
AcDbLine
 10
551.16453003856
 20
-371.774965989399
 11
551.16453003856
 21
-377.774965989399
  0
LINE
  5
DC
100
AcDbEntity
  8
1
  6
CONTINUOUS
 62
           2
100
AcDbLine
 10
553.16453003856
 20
-371.774965989399
 11
553.16453003856
 21
-377.774965989399
  0
LINE
  5
DB
100
AcDbEntity
  8
1
  6
CONTINUOUS
 62
           2
100
AcDbLine
 10
555.16453003856
 20
-371.774965989399
 11
555.16453003856
 21
-377.774965989399
  0
LINE
  5
DA
100
AcDbEntity
  8
1
  6
CONTINUOUS
 62
           2
100
AcDbLine
 10
553.16453003856
 20
-371.774965989399
 11
553.16453003856
 21
-377.774965989399
  0
LINE
  5
D9
100
AcDbEntity
  8
1
  6
CONTINUOUS
 62
           2
100
AcDbLine
 10
551.16453003856
 20
-371.774965989399
 11
551.16453003856
 21
-377.774965989399
  0
LINE
  5
D8
100
AcDbEntity
  8
1
  6
CONTINUOUS
 62
           2
100
AcDbLine
 10
555.16453003856
 20
-371.774965989399
 11
555.16453003856
 21
-377.774965989399
  0
LINE
  5
D7
100
AcDbEntity
  8
1
  6
CONTINUOUS
 62
           2
100
AcDbLine
 10
559.16453003856
 20
-371.774965989399
 11
559.16453003856
 21
-377.774965989399
  0
LINE
  5
D6
100
AcDbEntity
  8
1
  6
CONTINUOUS
 62
           2
100
AcDbLine
 10
557.16453003856
 20
-371.774965989399
 11
557.16453003856
 21
-377.774965989399
  0
LINE
  5
D5
100
AcDbEntity
  8
1
  6
CONTINUOUS
 62
           2
100
AcDbLine
 10
555.16453003856
 20
-371.774965989399
 11
555.16453003856
 21
-377.774965989399
  0
LINE
  5
D4
100
AcDbEntity
  8
1
  6
CONTINUOUS
 62
           2
100
AcDbLine
 10
559.16453003856
 20
-371.774965989399
 11
559.16453003856
 21
-377.774965989399
  0
LINE
  5
D3
100
AcDbEntity
  8
1
  6
CONTINUOUS
 62
           2
100
AcDbLine
 10
559.16453003856
 20
-371.774965989399
 11
559.16453003856
 21
-377.774965989399
  0
LINE
  5
D2
100
AcDbEntity
  8
1
  6
CONTINUOUS
 62
           2
100
AcDbLine
 10
561.16453003856
 20
-371.774965989399
 11
561.16453003856
 21
-377.774965989399
  0
LINE
  5
D1
100
AcDbEntity
  8
1
  6
CONTINUOUS
 62
           2
100
AcDbLine
 10
559.16453003856
 20
-371.774965989399
 11
559.16453003856
 21
-377.774965989399
  0
LINE
  5
D0
100
AcDbEntity
  8
1
  6
CONTINUOUS
 62
           2
100
AcDbLine
 10
559.16453003856
 20
-371.774965989399
 11
559.16453003856
 21
-377.774965989399
  0
LINE
  5
CF
100
AcDbEntity
  8
1
  6
CONTINUOUS
 62
           2
100
AcDbLine
 10
557.16453003856
 20
-371.774965989399
 11
557.16453003856
 21
-377.774965989399
  0
LINE
  5
CE
100
AcDbEntity
  8
1
  6
CONTINUOUS
 62
           2
100
AcDbLine
 10
565.16453003856
 20
-371.774965989399
 11
565.16453003856
 21
-377.774965989399
  0
LINE
  5
CD
100
AcDbEntity
  8
1
  6
CONTINUOUS
 62
           2
100
AcDbLine
 10
563.16453003856
 20
-371.774965989399
 11
563.16453003856
 21
-377.774965989399
  0
LINE
  5
CC
100
AcDbEntity
  8
1
  6
CONTINUOUS
 62
           2
100
AcDbLine
 10
565.16453003856
 20
-371.774965989399
 11
565.16453003856
 21
-377.774965989399
  0
LINE
  5
CB
100
AcDbEntity
  8
1
  6
CONTINUOUS
 62
           2
100
AcDbLine
 10
565.16453003856
 20
-371.774965989399
 11
565.16453003856
 21
-377.774965989399
  0
LINE
  5
CA
100
AcDbEntity
  8
1
  6
CONTINUOUS
 62
           2
100
AcDbLine
 10
565.16453003856
 20
-371.774965989399
 11
565.16453003856
 21
-377.774965989399
  0
LINE
  5
C9
100
AcDbEntity
  8
1
  6
CONTINUOUS
 62
           2
100
AcDbLine
 10
567.16453003856
 20
-371.774965989399
 11
567.16453003856
 21
-377.774965989399
  0
LINE
  5
C8
100
AcDbEntity
  8
1
  6
CONTINUOUS
 62
           2
100
AcDbLine
 10
565.16453003856
 20
-371.774965989399
 11
565.16453003856
 21
-377.774965989399
  0
LINE
  5
C7
100
AcDbEntity
  8
1
  6
CONTINUOUS
 62
           2
100
AcDbLine
 10
565.16453003856
 20
-371.774965989399
 11
565.16453003856
 21
-377.774965989399
  0
LINE
  5
C6
100
AcDbEntity
  8
1
  6
CONTINUOUS
 62
           2
100
AcDbLine
 10
561.16453003856
 20
-371.774965989399
 11
561.16453003856
 21
-377.774965989399
  0
LINE
  5
C5
100
AcDbEntity
  8
1
  6
CONTINUOUS
 62
           2
100
AcDbLine
 10
561.16453003856
 20
-371.774965989399
 11
561.16453003856
 21
-377.774965989399
  0
LINE
  5
C4
100
AcDbEntity
  8
1
  6
CONTINUOUS
 62
           2
100
AcDbLine
 10
565.16453003856
 20
-371.774965989399
 11
565.16453003856
 21
-377.774965989399
  0
LINE
  5
C3
100
AcDbEntity
  8
1
  6
CONTINUOUS
 62
           2
100
AcDbLine
 10
563.16453003856
 20
-371.774965989399
 11
563.16453003856
 21
-377.774965989399
  0
LINE
  5
C2
100
AcDbEntity
  8
1
  6
CONTINUOUS
 62
           2
100
AcDbLine
 10
561.16453003856
 20
-371.774965989399
 11
561.16453003856
 21
-377.774965989399
  0
LINE
  5
C1
100
AcDbEntity
  8
1
  6
CONTINUOUS
 62
           2
100
AcDbLine
 10
561.16453003856
 20
-371.774965989399
 11
561.16453003856
 21
-377.774965989399
  0
LINE
  5
C0
100
AcDbEntity
  8
1
  6
CONTINUOUS
 62
           2
100
AcDbLine
 10
565.16453003856
 20
-371.774965989399
 11
565.16453003856
 21
-377.774965989399
  0
LINE
  5
BF
100
AcDbEntity
  8
1
  6
CONTINUOUS
 62
           2
100
AcDbLine
 10
565.16453003856
 20
-371.774965989399
 11
565.16453003856
 21
-377.774965989399
  0
LINE
  5
BE
100
AcDbEntity
  8
1
  6
CONTINUOUS
 62
           2
100
AcDbLine
 10
565.16453003856
 20
-371.774965989399
 11
565.16453003856
 21
-377.774965989399
  0
LINE
  5
BD
100
AcDbEntity
  8
1
  6
CONTINUOUS
 62
           2
100
AcDbLine
 10
567.16453003856
 20
-371.774965989399
 11
567.16453003856
 21
-377.774965989399
  0
LINE
  5
BC
100
AcDbEntity
  8
1
  6
CONTINUOUS
 62
           2
100
AcDbLine
 10
565.16453003856
 20
-371.774965989399
 11
565.16453003856
 21
-377.774965989399
  0
LINE
  5
BB
100
AcDbEntity
  8
1
  6
CONTINUOUS
 62
           2
100
AcDbLine
 10
565.16453003856
 20
-371.774965989399
 11
565.16453003856
 21
-377.774965989399
  0
LINE
  5
BA
100
AcDbEntity
  8
1
  6
CONTINUOUS
 62
           2
100
AcDbLine
 10
571.16453003856
 20
-371.774965989399
 11
571.16453003856
 21
-377.774965989399
  0
LINE
  5
B9
100
AcDbEntity
  8
1
  6
CONTINUOUS
 62
           2
100
AcDbLine
 10
569.16453003856
 20
-371.774965989399
 11
569.16453003856
 21
-377.774965989399
  0
LINE
  5
B8
100
AcDbEntity
  8
1
  6
CONTINUOUS
 62
           2
100
AcDbLine
 10
565.16453003856
 20
-371.774965989399
 11
565.16453003856
 21
-377.774965989399
  0
LINE
  5
B7
100
AcDbEntity
  8
1
  6
CONTINUOUS
 62
           2
100
AcDbLine
 10
565.16453003856
 20
-371.774965989399
 11
565.16453003856
 21
-377.774965989399
  0
LINE
  5
B6
100
AcDbEntity
  8
1
  6
CONTINUOUS
 62
           2
100
AcDbLine
 10
565.16453003856
 20
-371.774965989399
 11
565.16453003856
 21
-377.774965989399
  0
LINE
  5
B5
100
AcDbEntity
  8
1
  6
CONTINUOUS
 62
           2
100
AcDbLine
 10
567.16453003856
 20
-371.774965989399
 11
567.16453003856
 21
-377.774965989399
  0
LINE
  5
B4
100
AcDbEntity
  8
1
  6
CONTINUOUS
 62
           2
100
AcDbLine
 10
565.16453003856
 20
-371.774965989399
 11
565.16453003856
 21
-377.774965989399
  0
LINE
  5
B3
100
AcDbEntity
  8
1
  6
CONTINUOUS
 62
           2
100
AcDbLine
 10
565.16453003856
 20
-371.774965989399
 11
565.16453003856
 21
-377.774965989399
  0
LINE
  5
B2
100
AcDbEntity
  8
1
  6
CONTINUOUS
 62
           2
100
AcDbLine
 10
565.16453003856
 20
-371.774965989399
 11
565.16453003856
 21
-377.774965989399
  0
LINE
  5
B1
100
AcDbEntity
  8
1
  6
CONTINUOUS
 62
           2
100
AcDbLine
 10
571.16453003856
 20
-371.774965989399
 11
571.16453003856
 21
-377.774965989399
  0
LINE
  5
B0
100
AcDbEntity
  8
1
  6
CONTINUOUS
 62
           2
100
AcDbLine
 10
569.16453003856
 20
-371.774965989399
 11
569.16453003856
 21
-377.774965989399
  0
LINE
  5
AF
100
AcDbEntity
  8
1
  6
CONTINUOUS
 62
           2
100
AcDbLine
 10
571.16453003856
 20
-371.774965989399
 11
571.16453003856
 21
-377.774965989399
  0
LINE
  5
AE
100
AcDbEntity
  8
1
  6
CONTINUOUS
 62
           2
100
AcDbLine
 10
571.16453003856
 20
-371.774965989399
 11
571.16453003856
 21
-377.774965989399
  0
LINE
  5
AD
100
AcDbEntity
  8
1
  6
CONTINUOUS
 62
           2
100
AcDbLine
 10
571.16453003856
 20
-371.774965989399
 11
571.16453003856
 21
-377.774965989399
  0
LINE
  5
AC
100
AcDbEntity
  8
1
  6
CONTINUOUS
 62
           2
100
AcDbLine
 10
573.16453003856
 20
-371.774965989399
 11
573.16453003856
 21
-377.774965989399
  0
LINE
  5
AB
100
AcDbEntity
  8
1
  6
CONTINUOUS
 62
           2
100
AcDbLine
 10
571.16453003856
 20
-371.774965989399
 11
571.16453003856
 21
-377.774965989399
  0
LINE
  5
AA
100
AcDbEntity
  8
1
  6
CONTINUOUS
 62
           2
100
AcDbLine
 10
571.16453003856
 20
-371.774965989399
 11
571.16453003856
 21
-377.774965989399
  0
LINE
  5
A9
100
AcDbEntity
  8
1
  6
CONTINUOUS
 62
           2
100
AcDbLine
 10
571.16453003856
 20
-371.774965989399
 11
571.16453003856
 21
-377.774965989399
  0
LINE
  5
A8
100
AcDbEntity
  8
1
  6
CONTINUOUS
 62
           2
100
AcDbLine
 10
569.16453003856
 20
-371.774965989399
 11
569.16453003856
 21
-377.774965989399
  0
LINE
  5
A7
100
AcDbEntity
  8
1
  6
CONTINUOUS
 62
           2
100
AcDbLine
 10
571.16453003856
 20
-371.774965989399
 11
571.16453003856
 21
-377.774965989399
  0
LINE
  5
A6
100
AcDbEntity
  8
1
  6
CONTINUOUS
 62
           2
100
AcDbLine
 10
569.16453003856
 20
-371.774965989399
 11
569.16453003856
 21
-377.774965989399
  0
LINE
  5
A5
100
AcDbEntity
  8
1
  6
CONTINUOUS
 62
           2
100
AcDbLine
 10
573.16453003856
 20
-371.774965989399
 11
573.16453003856
 21
-377.774965989399
  0
LINE
  5
A4
100
AcDbEntity
  8
1
  6
CONTINUOUS
 62
           2
100
AcDbLine
 10
573.16453003856
 20
-371.774965989399
 11
573.16453003856
 21
-377.774965989399
  0
LINE
  5
A3
100
AcDbEntity
  8
1
  6
CONTINUOUS
 62
           2
100
AcDbLine
 10
577.16453003856
 20
-371.774965989399
 11
577.16453003856
 21
-377.774965989399
  0
LINE
  5
A2
100
AcDbEntity
  8
1
  6
CONTINUOUS
 62
           2
100
AcDbLine
 10
575.16453003856
 20
-371.774965989399
 11
575.16453003856
 21
-377.774965989399
  0
LINE
  5
A1
100
AcDbEntity
  8
1
  6
CONTINUOUS
 62
           2
100
AcDbLine
 10
573.16453003856
 20
-371.774965989399
 11
573.16453003856
 21
-377.774965989399
  0
LINE
  5
A0
100
AcDbEntity
  8
1
  6
CONTINUOUS
 62
           2
100
AcDbLine
 10
571.16453003856
 20
-371.774965989399
 11
571.16453003856
 21
-377.774965989399
  0
LINE
  5
9F
100
AcDbEntity
  8
1
  6
CONTINUOUS
 62
           2
100
AcDbLine
 10
569.16453003856
 20
-371.774965989399
 11
569.16453003856
 21
-377.774965989399
  0
LINE
  5
9E
100
AcDbEntity
  8
1
  6
CONTINUOUS
 62
           2
100
AcDbLine
 10
571.16453003856
 20
-371.774965989399
 11
571.16453003856
 21
-377.774965989399
  0
LINE
  5
9D
100
AcDbEntity
  8
1
  6
CONTINUOUS
 62
           2
100
AcDbLine
 10
571.16453003856
 20
-371.774965989399
 11
571.16453003856
 21
-377.774965989399
  0
LINE
  5
9C
100
AcDbEntity
  8
1
  6
CONTINUOUS
 62
           2
100
AcDbLine
 10
571.16453003856
 20
-371.774965989399
 11
571.16453003856
 21
-377.774965989399
  0
LINE
  5
9B
100
AcDbEntity
  8
1
  6
CONTINUOUS
 62
           2
100
AcDbLine
 10
573.16453003856
 20
-371.774965989399
 11
573.16453003856
 21
-377.774965989399
  0
LINE
  5
9A
100
AcDbEntity
  8
1
  6
CONTINUOUS
 62
           2
100
AcDbLine
 10
571.16453003856
 20
-371.774965989399
 11
571.16453003856
 21
-377.774965989399
  0
LINE
  5
99
100
AcDbEntity
  8
1
  6
CONTINUOUS
 62
           2
100
AcDbLine
 10
571.16453003856
 20
-371.774965989399
 11
571.16453003856
 21
-377.774965989399
  0
LINE
  5
98
100
AcDbEntity
  8
1
  6
CONTINUOUS
 62
           2
100
AcDbLine
 10
571.16453003856
 20
-371.774965989399
 11
571.16453003856
 21
-377.774965989399
  0
LINE
  5
97
100
AcDbEntity
  8
1
  6
CONTINUOUS
 62
           2
100
AcDbLine
 10
569.16453003856
 20
-371.774965989399
 11
569.16453003856
 21
-377.774965989399
  0
LINE
  5
96
100
AcDbEntity
  8
1
  6
CONTINUOUS
 62
           2
100
AcDbLine
 10
571.16453003856
 20
-371.774965989399
 11
571.16453003856
 21
-377.774965989399
  0
LINE
  5
95
100
AcDbEntity
  8
1
  6
CONTINUOUS
 62
           2
100
AcDbLine
 10
569.16453003856
 20
-371.774965989399
 11
569.16453003856
 21
-377.774965989399
  0
LINE
  5
94
100
AcDbEntity
  8
1
  6
CONTINUOUS
 62
           2
100
AcDbLine
 10
577.16453003856
 20
-371.774965989399
 11
577.16453003856
 21
-377.774965989399
  0
LINE
  5
93
100
AcDbEntity
  8
1
  6
CONTINUOUS
 62
           2
100
AcDbLine
 10
575.16453003856
 20
-371.774965989399
 11
575.16453003856
 21
-377.774965989399
  0
LINE
  5
92
100
AcDbEntity
  8
1
  6
CONTINUOUS
 62
           2
100
AcDbLine
 10
577.16453003856
 20
-371.774965989399
 11
577.16453003856
 21
-377.774965989399
  0
LINE
  5
91
100
AcDbEntity
  8
1
  6
CONTINUOUS
 62
           2
100
AcDbLine
 10
575.16453003856
 20
-371.774965989399
 11
575.16453003856
 21
-377.774965989399
  0
LINE
  5
90
100
AcDbEntity
  8
1
  6
CONTINUOUS
 62
           2
100
AcDbLine
 10
577.16453003856
 20
-371.774965989399
 11
577.16453003856
 21
-377.774965989399
  0
LINE
  5
8F
100
AcDbEntity
  8
1
  6
CONTINUOUS
 62
           2
100
AcDbLine
 10
577.16453003856
 20
-371.774965989399
 11
577.16453003856
 21
-377.774965989399
  0
LINE
  5
8E
100
AcDbEntity
  8
1
  6
CONTINUOUS
 62
           2
100
AcDbLine
 10
577.16453003856
 20
-371.774965989399
 11
577.16453003856
 21
-377.774965989399
  0
LINE
  5
8D
100
AcDbEntity
  8
1
  6
CONTINUOUS
 62
           2
100
AcDbLine
 10
579.16453003856
 20
-371.774965989399
 11
579.16453003856
 21
-377.774965989399
  0
LINE
  5
8C
100
AcDbEntity
  8
1
  6
CONTINUOUS
 62
           2
100
AcDbLine
 10
577.16453003856
 20
-371.774965989399
 11
577.16453003856
 21
-377.774965989399
  0
LINE
  5
8B
100
AcDbEntity
  8
1
  6
CONTINUOUS
 62
           2
100
AcDbLine
 10
577.16453003856
 20
-371.774965989399
 11
577.16453003856
 21
-377.774965989399
  0
LINE
  5
8A
100
AcDbEntity
  8
1
  6
CONTINUOUS
 62
           2
100
AcDbLine
 10
577.16453003856
 20
-371.774965989399
 11
577.16453003856
 21
-377.774965989399
  0
LINE
  5
89
100
AcDbEntity
  8
1
  6
CONTINUOUS
 62
           2
100
AcDbLine
 10
575.16453003856
 20
-371.774965989399
 11
575.16453003856
 21
-377.774965989399
  0
LINE
  5
88
100
AcDbEntity
  8
1
  6
CONTINUOUS
 62
           2
100
AcDbLine
 10
577.16453003856
 20
-371.774965989399
 11
577.16453003856
 21
-377.774965989399
  0
LINE
  5
87
100
AcDbEntity
  8
1
  6
CONTINUOUS
 62
           2
100
AcDbLine
 10
575.16453003856
 20
-371.774965989399
 11
575.16453003856
 21
-377.774965989399
  0
LINE
  5
86
100
AcDbEntity
  8
1
  6
CONTINUOUS
 62
           2
100
AcDbLine
 10
577.16453003856
 20
-371.774965989399
 11
577.16453003856
 21
-377.774965989399
  0
LINE
  5
85
100
AcDbEntity
  8
1
  6
CONTINUOUS
 62
           2
100
AcDbLine
 10
579.16453003856
 20
-371.774965989399
 11
579.16453003856
 21
-377.774965989399
  0
LINE
  5
84
100
AcDbEntity
  8
1
  6
CONTINUOUS
 62
           2
100
AcDbLine
 10
579.16453003856
 20
-371.774965989399
 11
579.16453003856
 21
-377.774965989399
  0
LINE
  5
83
100
AcDbEntity
  8
1
  6
CONTINUOUS
 62
           2
100
AcDbLine
 10
579.16453003856
 20
-371.774965989399
 11
579.16453003856
 21
-377.774965989399
  0
LINE
  5
82
100
AcDbEntity
  8
1
  6
CONTINUOUS
 62
           2
100
AcDbLine
 10
583.16453003856
 20
-371.774965989399
 11
583.16453003856
 21
-377.774965989399
  0
LINE
  5
81
100
AcDbEntity
  8
1
  6
CONTINUOUS
 62
           2
100
AcDbLine
 10
581.16453003856
 20
-371.774965989399
 11
581.16453003856
 21
-377.774965989399
  0
LINE
  5
80
100
AcDbEntity
  8
1
  6
CONTINUOUS
 62
           2
100
AcDbLine
 10
579.16453003856
 20
-371.774965989399
 11
579.16453003856
 21
-377.774965989399
  0
LINE
  5
7F
100
AcDbEntity
  8
1
  6
CONTINUOUS
 62
           2
100
AcDbLine
 10
579.16453003856
 20
-371.774965989399
 11
579.16453003856
 21
-377.774965989399
  0
LINE
  5
7E
100
AcDbEntity
  8
1
  6
CONTINUOUS
 62
           2
100
AcDbLine
 10
577.16453003856
 20
-371.774965989399
 11
577.16453003856
 21
-377.774965989399
  0
LINE
  5
7D
100
AcDbEntity
  8
1
  6
CONTINUOUS
 62
           2
100
AcDbLine
 10
577.16453003856
 20
-371.774965989399
 11
577.16453003856
 21
-377.774965989399
  0
LINE
  5
7C
100
AcDbEntity
  8
1
  6
CONTINUOUS
 62
           2
100
AcDbLine
 10
577.16453003856
 20
-371.774965989399
 11
577.16453003856
 21
-377.774965989399
  0
LINE
  5
7B
100
AcDbEntity
  8
1
  6
CONTINUOUS
 62
           2
100
AcDbLine
 10
577.16453003856
 20
-371.774965989399
 11
577.16453003856
 21
-377.774965989399
  0
LINE
  5
7A
100
AcDbEntity
  8
1
  6
CONTINUOUS
 62
           2
100
AcDbLine
 10
577.16453003856
 20
-371.774965989399
 11
577.16453003856
 21
-377.774965989399
  0
LINE
  5
79
100
AcDbEntity
  8
1
  6
CONTINUOUS
 62
           2
100
AcDbLine
 10
579.16453003856
 20
-371.774965989399
 11
579.16453003856
 21
-377.774965989399
  0
LINE
  5
78
100
AcDbEntity
  8
1
  6
CONTINUOUS
 62
           2
100
AcDbLine
 10
577.16453003856
 20
-371.774965989399
 11
577.16453003856
 21
-377.774965989399
  0
LINE
  5
77
100
AcDbEntity
  8
1
  6
CONTINUOUS
 62
           2
100
AcDbLine
 10
577.16453003856
 20
-371.774965989399
 11
577.16453003856
 21
-377.774965989399
  0
LINE
  5
76
100
AcDbEntity
  8
1
  6
CONTINUOUS
 62
           2
100
AcDbLine
 10
577.16453003856
 20
-371.774965989399
 11
577.16453003856
 21
-377.774965989399
  0
LINE
  5
75
100
AcDbEntity
  8
1
  6
CONTINUOUS
 62
           2
100
AcDbLine
 10
577.16453003856
 20
-371.774965989399
 11
577.16453003856
 21
-377.774965989399
  0
LINE
  5
74
100
AcDbEntity
  8
1
  6
CONTINUOUS
 62
           2
100
AcDbLine
 10
577.16453003856
 20
-371.774965989399
 11
577.16453003856
 21
-377.774965989399
  0
LINE
  5
73
100
AcDbEntity
  8
1
  6
CONTINUOUS
 62
           2
100
AcDbLine
 10
579.16453003856
 20
-371.774965989399
 11
579.16453003856
 21
-377.774965989399
  0
LINE
  5
72
100
AcDbEntity
  8
1
  6
CONTINUOUS
 62
           2
100
AcDbLine
 10
579.16453003856
 20
-371.774965989399
 11
579.16453003856
 21
-377.774965989399
  0
LINE
  5
71
100
AcDbEntity
  8
1
  6
CONTINUOUS
 62
           2
100
AcDbLine
 10
579.16453003856
 20
-371.774965989399
 11
579.16453003856
 21
-377.774965989399
  0
LINE
  5
70
100
AcDbEntity
  8
1
  6
CONTINUOUS
 62
           2
100
AcDbLine
 10
583.16453003856
 20
-371.774965989399
 11
583.16453003856
 21
-377.774965989399
  0
LINE
  5
6F
100
AcDbEntity
  8
1
  6
CONTINUOUS
 62
           2
100
AcDbLine
 10
581.16453003856
 20
-371.774965989399
 11
581.16453003856
 21
-377.774965989399
  0
LINE
  5
6E
100
AcDbEntity
  8
1
  6
CONTINUOUS
 62
           2
100
AcDbLine
 10
579.16453003856
 20
-371.774965989399
 11
579.16453003856
 21
-377.774965989399
  0
LINE
  5
6D
100
AcDbEntity
  8
1
  6
CONTINUOUS
 62
           2
100
AcDbLine
 10
579.16453003856
 20
-371.774965989399
 11
579.16453003856
 21
-377.774965989399
  0
LINE
  5
6C
100
AcDbEntity
  8
1
  6
CONTINUOUS
 62
           2
100
AcDbLine
 10
583.16453003856
 20
-371.774965989399
 11
583.16453003856
 21
-377.774965989399
  0
LINE
  5
6B
100
AcDbEntity
  8
1
  6
CONTINUOUS
 62
           2
100
AcDbLine
 10
581.16453003856
 20
-371.774965989399
 11
581.16453003856
 21
-377.774965989399
  0
LINE
  5
6A
100
AcDbEntity
  8
1
  6
CONTINUOUS
 62
           2
100
AcDbLine
 10
583.16453003856
 20
-371.774965989399
 11
583.16453003856
 21
-377.774965989399
  0
LINE
  5
69
100
AcDbEntity
  8
1
  6
CONTINUOUS
 62
           2
100
AcDbLine
 10
581.16453003856
 20
-371.774965989399
 11
581.16453003856
 21
-377.774965989399
  0
LINE
  5
68
100
AcDbEntity
  8
1
  6
CONTINUOUS
 62
           2
100
AcDbLine
 10
583.16453003856
 20
-371.774965989399
 11
583.16453003856
 21
-377.774965989399
  0
LINE
  5
67
100
AcDbEntity
  8
1
  6
CONTINUOUS
 62
           2
100
AcDbLine
 10
583.16453003856
 20
-371.774965989399
 11
583.16453003856
 21
-377.774965989399
  0
LINE
  5
66
100
AcDbEntity
  8
1
  6
CONTINUOUS
 62
           2
100
AcDbLine
 10
583.16453003856
 20
-371.774965989399
 11
583.16453003856
 21
-377.774965989399
  0
LINE
  5
65
100
AcDbEntity
  8
1
  6
CONTINUOUS
 62
           2
100
AcDbLine
 10
583.16453003856
 20
-371.774965989399
 11
583.16453003856
 21
-377.774965989399
  0
LINE
  5
64
100
AcDbEntity
  8
1
  6
CONTINUOUS
 62
           2
100
AcDbLine
 10
583.16453003856
 20
-371.774965989399
 11
583.16453003856
 21
-377.774965989399
  0
LINE
  5
63
100
AcDbEntity
  8
1
  6
CONTINUOUS
 62
           2
100
AcDbLine
 10
583.16453003856
 20
-371.774965989399
 11
583.16453003856
 21
-377.774965989399
  0
LINE
  5
62
100
AcDbEntity
  8
1
  6
CONTINUOUS
 62
           2
100
AcDbLine
 10
581.16453003856
 20
-371.774965989399
 11
581.16453003856
 21
-377.774965989399
  0
LINE
  5
61
100
AcDbEntity
  8
1
  6
CONTINUOUS
 62
           2
100
AcDbLine
 10
583.16453003856
 20
-371.774965989399
 11
583.16453003856
 21
-377.774965989399
  0
LINE
  5
60
100
AcDbEntity
  8
1
  6
CONTINUOUS
 62
           2
100
AcDbLine
 10
581.16453003856
 20
-371.774965989399
 11
581.16453003856
 21
-377.774965989399
  0
LINE
  5
5F
100
AcDbEntity
  8
1
  6
CONTINUOUS
 62
           2
100
AcDbLine
 10
583.16453003856
 20
-371.774965989399
 11
583.16453003856
 21
-377.774965989399
  0
LINE
  5
5E
100
AcDbEntity
  8
1
  6
CONTINUOUS
 62
           2
100
AcDbLine
 10
581.16453003856
 20
-371.774965989399
 11
581.16453003856
 21
-377.774965989399
  0
LINE
  5
5D
100
AcDbEntity
  8
1
  6
CONTINUOUS
 62
           2
100
AcDbLine
 10
579.16453003856
 20
-371.774965989399
 11
579.16453003856
 21
-377.774965989399
  0
LINE
  5
5C
100
AcDbEntity
  8
1
  6
CONTINUOUS
 62
           2
100
AcDbLine
 10
579.16453003856
 20
-371.774965989399
 11
579.16453003856
 21
-377.774965989399
  0
LINE
  5
5B
100
AcDbEntity
  8
1
  6
CONTINUOUS
 62
           2
100
AcDbLine
 10
579.16453003856
 20
-371.774965989399
 11
579.16453003856
 21
-377.774965989399
  0
LINE
  5
5A
100
AcDbEntity
  8
1
  6
CONTINUOUS
 62
           2
100
AcDbLine
 10
583.16453003856
 20
-371.774965989399
 11
583.16453003856
 21
-377.774965989399
  0
LINE
  5
59
100
AcDbEntity
  8
1
  6
CONTINUOUS
 62
           2
100
AcDbLine
 10
581.16453003856
 20
-371.774965989399
 11
581.16453003856
 21
-377.774965989399
  0
LINE
  5
58
100
AcDbEntity
  8
1
  6
CONTINUOUS
 62
           2
100
AcDbLine
 10
579.16453003856
 20
-371.774965989399
 11
579.16453003856
 21
-377.774965989399
  0
LINE
  5
57
100
AcDbEntity
  8
1
  6
CONTINUOUS
 62
           2
100
AcDbLine
 10
579.16453003856
 20
-371.774965989399
 11
579.16453003856
 21
-377.774965989399
  0
LINE
  5
56
100
AcDbEntity
  8
1
  6
CONTINUOUS
 62
           2
100
AcDbLine
 10
579.16453003856
 20
-371.774965989399
 11
579.16453003856
 21
-377.774965989399
  0
LINE
  5
55
100
AcDbEntity
  8
1
  6
CONTINUOUS
 62
           7
100
AcDbLine
 10
582.161753288828
 20
-338.774965989399
 11
581.295727885043
 21
-338.274965989399
  0
LINE
  5
54
100
AcDbEntity
  8
1
  6
CONTINUOUS
 62
           7
100
AcDbLine
 10
580.429702481259
 20
-338.774965989399
 11
581.295727885043
 21
-338.274965989399
  0
LINE
  5
53
100
AcDbEntity
  8
1
  6
CONTINUOUS
 62
           7
100
AcDbLine
 10
581.295727885043
 20
-336.274965989399
 11
582.161753288828
 21
-335.774965989399
  0
LINE
  5
52
100
AcDbEntity
  8
1
  6
CONTINUOUS
 62
           7
100
AcDbLine
 10
581.295727885043
 20
-336.274965989399
 11
580.429702481259
 21
-335.774965989399
  0
LINE
  5
51
100
AcDbEntity
  8
1
  6
CONTINUOUS
 62
           7
100
AcDbLine
 10
581.295727885043
 20
-338.274965989399
 11
581.295727885043
 21
-336.274965989399
  0
LINE
  5
50
100
AcDbEntity
  8
1
  6
CONTINUOUS
 62
           7
100
AcDbLine
 10
576.676925731526
 20
-338.274965989399
 11
576.676925731526
 21
-336.274965989399
  0
LINE
  5
4F
100
AcDbEntity
  8
1
  6
CONTINUOUS
 62
           7
100
AcDbLine
 10
576.676925731526
 20
-338.274965989399
 11
578.176925731526
 21
-338.774965989399
  0
LINE
  5
4E
100
AcDbEntity
  8
1
  6
CONTINUOUS
 62
           7
100
AcDbLine
 10
576.676925731526
 20
-336.274965989399
 11
578.176925731526
 21
-335.774965989399
  0
LINE
  5
4D
100
AcDbEntity
  8
1
  6
CONTINUOUS
 62
           7
100
AcDbLine
 10
585.91453003856
 20
-335.766690278381
 11
578.176925731526
 21
-335.766690278381
  0
LINE
  5
4C
100
AcDbEntity
  8
1
  6
CONTINUOUS
 62
           7
100
AcDbLine
 10
593.652134345594
 20
-338.774965989399
 11
578.176925731526
 21
-338.774965989399
  0
LINE
  5
4B
100
AcDbEntity
  8
1
  6
CONTINUOUS
 62
           7
100
AcDbLine
 10
593.652134345594
 20
-335.766690278381
 11
585.91453003856
 21
-335.766690278381
  0
LINE
  5
4A
100
AcDbEntity
  8
1
  6
CONTINUOUS
 62
           7
100
AcDbLine
 10
593.652134345594
 20
-335.774965989399
 11
595.152134345594
 21
-336.274965989399
  0
LINE
  5
49
100
AcDbEntity
  8
1
  6
CONTINUOUS
 62
           7
100
AcDbLine
 10
593.652134345594
 20
-338.774965989399
 11
595.152134345594
 21
-338.274965989399
  0
LINE
  5
48
100
AcDbEntity
  8
1
  6
CONTINUOUS
 62
           7
100
AcDbLine
 10
595.152134345594
 20
-336.274965989399
 11
595.152134345594
 21
-338.274965989399
  0
LINE
  5
47
100
AcDbEntity
  8
1
  6
CONTINUOUS
 62
           7
100
AcDbLine
 10
590.533332192077
 20
-336.274965989399
 11
590.533332192077
 21
-338.274965989399
  0
LINE
  5
46
100
AcDbEntity
  8
1
  6
CONTINUOUS
 62
           7
100
AcDbLine
 10
591.399357595861
 20
-335.774965989399
 11
590.533332192077
 21
-336.274965989399
  0
LINE
  5
45
100
AcDbEntity
  8
1
  6
CONTINUOUS
 62
           7
100
AcDbLine
 10
589.667306788292
 20
-335.774965989399
 11
590.533332192077
 21
-336.274965989399
  0
LINE
  5
44
100
AcDbEntity
  8
1
  6
CONTINUOUS
 62
           7
100
AcDbLine
 10
590.533332192077
 20
-338.274965989399
 11
591.399357595861
 21
-338.774965989399
  0
LINE
  5
43
100
AcDbEntity
  8
1
  6
CONTINUOUS
 62
           7
100
AcDbLine
 10
590.533332192077
 20
-338.274965989399
 11
589.667306788292
 21
-338.774965989399
  0
LINE
  5
42
100
AcDbEntity
  8
1
  6
CONTINUOUS
 62
           7
100
AcDbLine
 10
579.91453003856
 20
-333.074965989399
 11
579.56453003856
 21
-333.074965989399
  0
LINE
  5
41
100
AcDbEntity
  8
1
  6
CONTINUOUS
 62
           7
100
AcDbLine
 10
579.91453003856
 20
-333.054060477101
 11
579.91453003856
 21
-335.766690278381
  0
LINE
  5
40
100
AcDbEntity
  8
1
  6
CONTINUOUS
 62
           2
100
AcDbLine
 10
580.45603003856
 20
-335.074965989399
 11
579.91453003856
 21
-335.074965989399
  0
LINE
  5
3F
100
AcDbEntity
  8
1
  6
CONTINUOUS
 62
           2
100
AcDbLine
 10
580.45603003856
 20
-335.074965989399
 11
579.91453003856
 21
-333.054060477101
  0
LINE
  5
3E
100
AcDbEntity
  8
1
  6
CONTINUOUS
 62
           2
100
AcDbLine
 10
580.45603003856
 20
-335.074965989399
 11
580.45603003856
 21
-335.741285203349
  0
LINE
  5
3D
100
AcDbEntity
  8
1
  6
CONTINUOUS
 62
           7
100
AcDbLine
 10
592.26453003856
 20
-333.074965989399
 11
579.56453003856
 21
-333.074965989399
  0
LINE
  5
3C
100
AcDbEntity
  8
1
  6
CONTINUOUS
 62
           7
100
AcDbLine
 10
579.91453003856
 20
-333.074965989399
 11
579.91453003856
 21
-335.766690278381
  0
LINE
  5
3B
100
AcDbEntity
  8
1
  6
CONTINUOUS
 62
           2
100
AcDbLine
 10
591.91453003856
 20
-335.074965989399
 11
579.91453003856
 21
-335.074965989399
  0
LINE
  5
3A
100
AcDbEntity
  8
1
  6
CONTINUOUS
 62
           2
100
AcDbLine
 10
580.45603003856
 20
-335.074965989399
 11
579.920131653698
 21
-333.074965989399
  0
LINE
  5
39
100
AcDbEntity
  8
1
  6
CONTINUOUS
 62
           7
100
AcDbLine
 10
579.56453003856
 20
-331.8749659894
 11
579.56453003856
 21
-333.074965989399
  0
LINE
  5
38
100
AcDbEntity
  8
1
  6
CONTINUOUS
 62
           2
100
AcDbLine
 10
580.45603003856
 20
-335.074965989399
 11
580.45603003856
 21
-335.741285203349
  0
LINE
  5
37
100
AcDbEntity
  8
1
  6
CONTINUOUS
 62
           2
100
AcDbLine
 10
591.37303003856
 20
-335.741285203349
 11
591.37303003856
 21
-335.074965989399
  0
LINE
  5
36
100
AcDbEntity
  8
1
  6
CONTINUOUS
 62
           2
100
AcDbLine
 10
591.91453003856
 20
-333.054060477101
 11
591.37303003856
 21
-335.074965989399
  0
LINE
  5
35
100
AcDbEntity
  8
1
  6
CONTINUOUS
 62
           7
100
AcDbLine
 10
591.91453003856
 20
-335.766690278381
 11
591.91453003856
 21
-333.054060477101
  0
LINE
  5
34
100
AcDbEntity
  8
1
  6
CONTINUOUS
 62
           2
100
AcDbLine
 10
591.37303003856
 20
-335.741285203349
 11
591.37303003856
 21
-335.074965989399
  0
LINE
  5
33
100
AcDbEntity
  8
1
  6
CONTINUOUS
 62
           7
100
AcDbLine
 10
592.26453003856
 20
-333.074965989399
 11
592.26453003856
 21
-331.8749659894
  0
LINE
  5
32
100
AcDbEntity
  8
1
  6
CONTINUOUS
 62
           2
100
AcDbLine
 10
591.908928423422
 20
-333.074965989399
 11
591.37303003856
 21
-335.074965989399
  0
LINE
  5
31
100
AcDbEntity
  8
1
  6
CONTINUOUS
 62
           7
100
AcDbLine
 10
591.91453003856
 20
-335.766690278381
 11
591.91453003856
 21
-333.074965989399
  0
LINE
  5
30
100
AcDbEntity
  8
1
  6
CONTINUOUS
 62
           7
100
AcDbLine
 10
577.444874923957
 20
-317.374965989399
 11
585.91453003856
 21
-317.374965989399
  0
LINE
  5
2F
100
AcDbEntity
  8
1
  6
CONTINUOUS
 62
           7
100
AcDbLine
 10
580.429702481258
 20
-318.874965989399
 11
580.429702481258
 21
-330.374965989399
  0
LINE
  5
2E
100
AcDbEntity
  8
1
  6
CONTINUOUS
 62
           7
100
AcDbLine
 10
574.944874923957
 20
-330.374965989399
 11
574.944874923957
 21
-318.874965989399
  0
LINE
  5
2D
100
AcDbEntity
  8
1
  6
CONTINUOUS
 62
           7
100
AcDbLine
 10
585.91453003856
 20
-331.8749659894
 11
577.444874923957
 21
-331.874965989399
  0
LINE
  5
2C
100
AcDbEntity
  8
1
  6
CONTINUOUS
 62
           7
100
AcDbLine
 10
594.384185153163
 20
-331.874965989399
 11
585.91453003856
 21
-331.8749659894
  0
LINE
  5
2B
100
AcDbEntity
  8
1
  6
CONTINUOUS
 62
           7
100
AcDbLine
 10
596.884185153163
 20
-318.874965989399
 11
596.884185153163
 21
-330.374965989399
  0
LINE
  5
2A
100
AcDbEntity
  8
1
  6
CONTINUOUS
 62
           7
100
AcDbLine
 10
591.399357595861
 20
-330.374965989399
 11
591.399357595861
 21
-318.874965989399
  0
LINE
  5
29
100
AcDbEntity
  8
1
  6
CONTINUOUS
 62
           7
100
AcDbLine
 10
585.91453003856
 20
-317.374965989399
 11
594.384185153163
 21
-317.374965989399
  0
LINE
  5
28
100
AcDbEntity
  8
1
  6
DOT_CENTER
 62
           2
100
AcDbLine
 10
585.91453003856
 20
-307.253392529814
 11
585.91453003856
 21
-534.737874338034
  0
ENDSEC
  0
SECTION
  2
OBJECTS
  0
DICTIONARY
  5
19
100
AcDbDictionary
  3
ACAD_GROUP
350
1A
  3
ACAD_MLINESTYLE
350
1B
  0
DICTIONARY
  5
1A
102
{ACAD_REACTORS
330
19
102
}
100
AcDbDictionary
  0
DICTIONARY
  5
1B
102
{ACAD_REACTORS
330
19
102
}
100
AcDbDictionary
  3
STANDARD
350
1C
  0
MLINESTYLE
  5
1C
102
{ACAD_REACTORS
330
1B
102
}
100
AcDbMlineStyle
  2
STANDARD
 70
           0
  3

 62
           0
 51
90.0
 52
90.0
 71
           2
 49
0.5
 62
         256
  6
BYLAYER
 49
-0.5
 62
         256
  6
BYLAYER
  0
ENDSEC
  0
EOF
