  0
SECTION
  2
HEADER
  9
$ACADVER
  1
AC1014
  9
$ACADMAINTVER
 70
           0
  9
$DWGCODEPAGE
  3
DOS932
  9
$INSBASE
 10
0.0
 20
0.0
 30
0.0
  9
$EXTMIN
 10
1.000000000000E+20
 20
1.000000000000E+20
 30
1.000000000000E+20
  9
$EXTMAX
 10
-1.000000000000E+20
 20
-1.000000000000E+20
 30
-1.000000000000E+20
  9
$LIMMIN
 10
0.0
 20
0.0
  9
$LIMMAX
 10
0.0
 20
0.0
  9
$ORTHOMODE
 70
           0
  9
$REGENMODE
 70
           1
  9
$FILLMODE
 70
           1
  9
$QTEXTMODE
 70
           0
  9
$MIRRTEXT
 70
           1
  9
$DRAGMODE
 70
           2
  9
$LTSCALE
 40
1.0
  9
$OSMODE
 70
           0
  9
$ATTMODE
 70
           1
  9
$TEXTSIZE
 40
0.2
  9
$TRACEWID
 40
0.05
  9
$TEXTSTYLE
  7
STANDARD
  9
$CLAYER
  8
0
  9
$CELTYPE
  6
CONTINUOUS
  9
$CECOLOR
 62
         256
  9
$CELTSCALE
 40
1.0
  9
$DELOBJ
 70
           1
  9
$DISPSILH
 70
           0
  9
$DIMSCALE
 40
1.0
  9
$DIMASZ
 40
0.18
  9
$DIMEXO
 40
0.0625
  9
$DIMDLI
 40
0.38
  9
$DIMRND
 40
0.0
  9
$DIMDLE
 40
0.0
  9
$DIMEXE
 40
0.18
  9
$DIMTP
 40
0.0
  9
$DIMTM
 40
0.0
  9
$DIMTXT
 40
0.18
  9
$DIMCEN
 40
0.09
  9
$DIMTSZ
 40
0.0
  9
$DIMTOL
 70
           0
  9
$DIMLIM
 70
           0
  9
$DIMTIH
 70
           1
  9
$DIMTOH
 70
           1
  9
$DIMSE1
 70
           0
  9
$DIMSE2
 70
           0
  9
$DIMTAD
 70
           0
  9
$DIMZIN
 70
           0
  9
$DIMBLK
  1

  9
$DIMASO
 70
           1
  9
$DIMSHO
 70
           1
  9
$DIMPOST
  1

  9
$DIMAPOST
  1

  9
$DIMALT
 70
           0
  9
$DIMALTD
 70
           2
  9
$DIMALTF
 40
25.4
  9
$DIMLFAC
 40
1.0
  9
$DIMTOFL
 70
           0
  9
$DIMTVP
 40
0.0
  9
$DIMTIX
 70
           0
  9
$DIMSOXD
 70
           0
  9
$DIMSAH
 70
           0
  9
$DIMBLK1
  1

  9
$DIMBLK2
  1

  9
$DIMSTYLE
  2
STANDARD
  9
$DIMCLRD
 70
           0
  9
$DIMCLRE
 70
           0
  9
$DIMCLRT
 70
           0
  9
$DIMTFAC
 40
1.0
  9
$DIMGAP
 40
0.09
  9
$DIMJUST
 70
           0
  9
$DIMSD1
 70
           0
  9
$DIMSD2
 70
           0
  9
$DIMTOLJ
 70
           1
  9
$DIMTZIN
 70
           0
  9
$DIMALTZ
 70
           0
  9
$DIMALTTZ
 70
           0
  9
$DIMFIT
 70
           3
  9
$DIMUPT
 70
           0
  9
$DIMUNIT
 70
           2
  9
$DIMDEC
 70
           4
  9
$DIMTDEC
 70
           4
  9
$DIMALTU
 70
           2
  9
$DIMALTTD
 70
           2
  9
$DIMTXSTY
  7
STANDARD
  9
$DIMAUNIT
 70
           0
  9
$LUNITS
 70
           2
  9
$LUPREC
 70
           4
  9
$SKETCHINC
 40
0.1
  9
$FILLETRAD
 40
0.0
  9
$AUNITS
 70
           0
  9
$AUPREC
 70
           0
  9
$MENU
  1
acad
  9
$ELEVATION
 40
0.0
  9
$PELEVATION
 40
0.0
  9
$THICKNESS
 40
0.0
  9
$LIMCHECK
 70
           0
  9
$BLIPMODE
 70
           1
  9
$CHAMFERA
 40
0.0
  9
$CHAMFERB
 40
0.0
  9
$CHAMFERC
 40
0.0
  9
$CHAMFERD
 40
0.0
  9
$SKPOLY
 70
           0
  9
$TDCREATE
 40
0.000000000
  9
$TDUPDATE
 40
0.000000000
  9
$TDINDWG
 40
0.0000000000
  9
$TDUSRTIMER
 40
0.0000000000
  9
$USRTIMER
 70
           1
  9
$ANGBASE
 50
0.0
  9
$ANGDIR
 70
           0
  9
$PDMODE
 70
           0
  9
$PDSIZE
 40
0.0
  9
$PLINEWID
 40
0.0
  9
$COORDS
 70
           0
  9
$SPLFRAME
 70
           0
  9
$SPLINETYPE
 70
           6
  9
$SPLINESEGS
 70
           8
  9
$ATTDIA
 70
           0
  9
$ATTREQ
 70
           1
  9
$HANDLING
 70
           1
  9
$HANDSEED
  5
165
  9
$SURFTAB1
 70
           6
  9
$SURFTAB2
 70
           6
  9
$SURFTYPE
 70
           6
  9
$SURFU
 70
           6
  9
$SURFV
 70
           6
  9
$UCSNAME
  2

  9
$UCSORG
 10
0.0
 20
0.0
 30
0.0
  9
$UCSXDIR
 10
1.0
 20
0.0
 30
0.0
  9
$UCSYDIR
 10
0.0
 20
1.0
 30
0.0
  9
$PUCSNAME
  2

  9
$PUCSORG
 10
0.0
 20
0.0
 30
0.0
  9
$PUCSXDIR
 10
1.0
 20
0.0
 30
0.0
  9
$PUCSYDIR
 10
0.0
 20
1.0
 30
0.0
  9
$USERI1
 70
           0
  9
$USERI2
 70
           0
  9
$USERI3
 70
           0
  9
$USERI4
 70
           0
  9
$USERI5
 70
           0
  9
$USERR1
 40
0.0
  9
$USERR2
 40
0.0
  9
$USERR3
 40
0.0
  9
$USERR4
 40
0.0
  9
$USERR5
 40
0.0
  9
$WORLDVIEW
 70
           1
  9
$SHADEDGE
 70
           3
  9
$SHADEDIF
 70
          70
  9
$TILEMODE
 70
           1
  9
$MAXACTVP
 70
          16
  9
$PINSBASE
 10
0.0
 20
0.0
 30
0.0
  9
$PLIMCHECK
 70
           0
  9
$PEXTMIN
 10
1.000000000000E+20
 20
1.000000000000E+20
 30
1.000000000000E+20
  9
$PEXTMAX
 10
-1.000000000000E+20
 20
-1.000000000000E+20
 30
-1.000000000000E+20
  9
$PLIMMIN
 10
0.0
 20
0.0
  9
$PLIMMAX
 10
12.0
 20
9.0
  9
$UNITMODE
 70
           0
  9
$VISRETAIN
 70
           0
  9
$PLINEGEN
 70
           1
  9
$PSLTSCALE
 70
           0
  9
$TREEDEPTH
 70
        3020
  9
$PICKSTYLE
 70
           1
  9
$CMLSTYLE
  2
STANDARD
  9
$CMLJUST
 70
           0
  9
$CMLSCALE
 40
1.0
  9
$PROXYGRAPHICS
 70
           0
  9
$MEASUREMENT
 70
           0
  0
ENDSEC
  0
SECTION
  2
CLASSES
  0
CLASS
  1
LWPOLYLINE
  2
AcDbPolyline
  3
"AutoCAD"
 90
        0
280
           0
281
           1
  0
CLASS
  1
IMAGE
  2
AcDbRasterImage
  3
ISM
 90
      127
280
           0
281
           1
  0
CLASS
  1
OLE2FRAME
  2
AcDbOle2Frame
  3
""
 90
        0
280
           0
281
           1
  0
CLASS
  1
HATCH
  2
AcDbHatch
  3
"ACAD_SEDONA"
 90
        0
280
           0
281
           1
  0
CLASS
  1
DICTIONARYVAR
  2
AcDbDictionaryVar
  3
"AutoCAD"
 90
        0
280
           0
281
           0
  0
CLASS
  1
RASTERVARIABLES
  2
AcDbRasterVariables
  3
ISM
 90
        0
280
           0
281
           0
  0
CLASS
  1
IMAGEDEF
  2
AcDbRasterImageDef
  3
ISM
 90
        0
280
           0
281
           0
  0
CLASS
  1
IMAGEDEF_REACTOR
  2
AcDbRasterImageDefReactor
  3
ISM
 90
        1
280
           0
281
           0
  0
CLASS
  1
IDBUFFER
  2
AcDbIdBuffer
  3
"Acad"
 90
        0
280
           0
281
           0
  0
CLASS
  1
SPATIAL_FILTER
  2
AcDbSpatialFilter
  3
"Acad"
 90
        0
280
           0
281
           0
  0
CLASS
  1
XRECORD
  2
AcDbXrecord
  3
"<Built In>"
 90
        0
280
           0
281
           0
  0
CLASS
  1
SORTENTSTABLE
  2
AcDbSortentsTable
  3
"AutoCAD"
 90
        0
280
           0
281
           0
  0
CLASS
  1
LAYER_INDEX
  2
AcDbLayerIndex
  3
"Acad"
 90
        0
280
           0
281
           0
  0
CLASS
  1
SPATIAL_INDEX
  2
AcDbSpatialIndex
  3
"Acad"
 90
        0
280
           0
281
           0
  0
CLASS
  1
OBJECT_PTR
  2
CAseDLPNTableRecord
  3
"ASE-LPNTableRecord"
 90
        1
280
           0
281
           0
  0
CLASS
  1
LAYOUT
  2
AcDbLayout
  3
"AutoCAD 2000"
 90
        1
280
           0
281
           0
  0
CLASS
  1
PLOTSETTINGS
  2
AcDbPlotSettings
  3
"AutoCAD 2000"
 90
        1
280
           0
281
           0
  0
CLASS
  1
ACDBDICTIONARYWDFLT
  2
AcDbDictionaryWithDefault
  3
"AutoCAD 2000"
 90
        1
280
           0
281
           0
  0
CLASS
  1
ACDBPLACEHOLDER
  2
AcDbPlaceHolder
  3
"AutoCAD 2000"
 90
        1
280
           0
281
           0
  0
CLASS
  1
VBA_PROJECT
  2
AcDbVbaProject
  3
"acadvba"
 90
        1
280
           0
281
           0
  0
CLASS
  1
WIPEOUT
  2
AcDbWipeout
  3
WipeOut|AutoCAD Express Tool|expresstools@autodesk.com
 90
      127
280
           0
281
           1
  0
CLASS
  1
WIPEOUTVARIABLES
  2
AcDbWipeoutVariables
  3
WipeOut|AutoCAD Express Tool|expresstools@autodesk.com
 90
        0
280
           0
281
           0
  0
CLASS
  1
RTEXT
  2
RText
  3
RText|AutoCAD Express Tool|expresstools@autodesk.com
 90
        0
280
           0
281
           1
  0
CLASS
  1
ARCALIGNEDTEXT
  2
AcDbArcAlignedText
  3
ATEXT|AutoCAD Express Tool|expresstools@autodesk.com
 90
        0
280
           0
281
           1
  0
ENDSEC
  0
SECTION
  2
TABLES
  0
TABLE
  2
VPORT
  5
7
100
AcDbSymbolTable
 70
           1
  0
VPORT
  5
15
100
AcDbSymbolTableRecord
100
AcDbViewportTableRecord
  2
*ACTIVE
 70
           0
 10
0.0
 20
0.0
 11
1.0
 21
1.0
 12
6.591288
 22
4.579184
 13
0.0
 23
0.0
 14
1.0
 24
1.0
 15
0.0
 25
0.0
 16
0.0
 26
0.0
 36
1.0
 17
0.0
 27
0.0
 37
0.0
 40
9.158369
 41
0.688564
 42
50.0
 43
0.0
 44
0.0
 50
0.0
 51
0.0
 71
           0
 72
         100
 73
           1
 74
           1
 75
           0
 76
           0
 77
           0
 78
           0
  0
ENDTAB
  0
TABLE
  2
LTYPE
  5
4
100
AcDbSymbolTable
 70
          10
  0
LTYPE
  5
11
100
AcDbSymbolTableRecord
100
AcDbLinetypeTableRecord
  2
BYBLOCK
 70
          64
  3

 72
          65
 73
           0
 40
0.0
  0
LTYPE
  5
12
100
AcDbSymbolTableRecord
100
AcDbLinetypeTableRecord
  2
BYLAYER
 70
          64
  3

 72
          65
 73
           0
 40
0.0
  0
LTYPE
  5
13
100
AcDbSymbolTableRecord
100
AcDbLinetypeTableRecord
  2
CONTINUOUS
 70
          64
  3
Solid line
 72
          65
 73
           0
 40
0.0
  0
LTYPE
  5
1D
100
AcDbSymbolTableRecord
100
AcDbLinetypeTableRecord
  2
DASHED
 70
          64
  3
Dashed
 72
          65
 73
           2
 40
15.0
 49
12.0
 74
           0
 49
-3.0
 74
           0
  0
LTYPE
  5
1E
100
AcDbSymbolTableRecord
100
AcDbLinetypeTableRecord
  2
DOTTED
 70
          64
  3
Dotted
 72
          65
 73
           2
 40
3.5
 49
0.5
 74
           0
 49
-3.0
 74
           0
  0
LTYPE
  5
1F
100
AcDbSymbolTableRecord
100
AcDbLinetypeTableRecord
  2
DOT_CENTER
 70
          64
  3
Dot_Center
 72
          65
 73
           4
 40
2.0
 49
1.25
 74
           0
 49
-0.25
 74
           0
 49
0.25
 74
           0
 49
-0.25
 74
           0
  0
LTYPE
  5
20
100
AcDbSymbolTableRecord
100
AcDbLinetypeTableRecord
  2
LONG_DASHED
 70
          64
  3
Long_Dashed
 72
          65
 73
           2
 40
2.0
 49
1.5
 74
           0
 49
-0.5
 74
           0
  0
LTYPE
  5
21
100
AcDbSymbolTableRecord
100
AcDbLinetypeTableRecord
  2
DASH_CENTER
 70
          64
  3
Dash_Center
 72
          65
 73
           4
 40
36.0
 49
24.0
 74
           0
 49
-3.0
 74
           0
 49
6.0
 74
           0
 49
-3.0
 74
           0
  0
LTYPE
  5
22
100
AcDbSymbolTableRecord
100
AcDbLinetypeTableRecord
  2
PHANTOM
 70
          64
  3
Phantom
 72
          65
 73
           6
 40
2.5
 49
1.25
 74
           0
 49
-0.25
 74
           0
 49
0.25
 74
           0
 49
-0.25
 74
           0
 49
0.25
 74
           0
 49
-0.25
 74
           0
  0
LTYPE
  5
23
100
AcDbSymbolTableRecord
100
AcDbLinetypeTableRecord
  2
CENTER_DASH_DASH
 70
          64
  3
Center_Dash_Dash
 72
          65
 73
           6
 40
22.0
 49
12.0
 74
           0
 49
-3.0
 74
           0
 49
0.5
 74
           0
 49
-3.0
 74
           0
 49
0.5
 74
           0
 49
-3.0
 74
           0
  0
ENDTAB
  0
TABLE
  2
LAYER
  5
2
100
AcDbSymbolTable
 70
           2
  0
LAYER
  5
14
100
AcDbSymbolTableRecord
100
AcDbLayerTableRecord
  2
0
 70
           0
 62
           7
  6
CONTINUOUS
  0
LAYER
  5
24
100
AcDbSymbolTableRecord
100
AcDbLayerTableRecord
  2
1
 70
           0
 62
           7
  6
CONTINUOUS
  0
ENDTAB
  0
TABLE
  2
STYLE
  5
3
100
AcDbSymbolTable
 70
           3
  0
STYLE
  5
17
100
AcDbSymbolTableRecord
100
AcDbTextStyleTableRecord
  2
STANDARD
 70
           0
 40
0.0
 41
1.0
 50
0.0
 71
           0
 42
0.0
  3
txt
  4

  0
STYLE
  5
153
100
AcDbSymbolTableRecord
100
AcDbTextStyleTableRecord
  2
CONVERTER_1
 70
           0
 40
0.0
 41
0.89
 50
0.0
 71
           0
 42
0.0
  3
MS Mincho.ttf
  4

1001
ACAD
1000
MS Mincho
1071
    32785
  0
STYLE
  5
15F
100
AcDbSymbolTableRecord
100
AcDbTextStyleTableRecord
  2
CONVERTER_2
 70
           0
 40
0.0
 41
0.9
 50
0.0
 71
           0
 42
0.0
  3
txt.shx
  4

  0
ENDTAB
  0
TABLE
  2
VIEW
  5
5
100
AcDbSymbolTable
 70
           0
  0
ENDTAB
  0
TABLE
  2
UCS
  5
6
100
AcDbSymbolTable
 70
           0
  0
ENDTAB
  0
TABLE
  2
APPID
  5
8
100
AcDbSymbolTable
 70
           1
  0
APPID
  5
16
100
AcDbSymbolTableRecord
100
AcDbRegAppTableRecord
  2
ACAD
 70
           0
  0
ENDTAB
  0
TABLE
  2
DIMSTYLE
  5
9
100
AcDbSymbolTable
 70
           3
  0
DIMSTYLE
105
18
100
AcDbSymbolTableRecord
100
AcDbDimStyleTableRecord
  2
STANDARD
 70
           0
  3

  4

  5

  6

  7

 40
1.0
 41
0.18
 42
0.0625
 43
0.38
 44
0.18
 45
0.0
 46
0.0
 47
0.0
 48
0.0
 71
           0
 72
           0
 73
           1
 74
           1
 75
           0
 76
           0
 77
           0
 78
           0
140
0.18
141
0.09
142
0.0
143
25.4
144
1.0
145
0.0
146
1.0
147
0.09
170
           0
171
           2
172
           0
173
           0
174
           0
175
           0
176
           0
177
           0
178
           0
270
           2
271
           4
272
           4
273
           2
274
           2
275
           0
280
           0
281
           0
282
           0
283
           1
284
           0
285
           0
286
           0
287
           0
288
           0
340
17
  0
DIMSTYLE
105
156
100
AcDbSymbolTableRecord
100
AcDbDimStyleTableRecord
  2
ME10_DIM_0
 70
           0
  3
ó<>
  4

  5

  6

  7

 40
1.0
 41
2.8
 42
0.8
 43
0.38
 44
1.0
 45
0.0
 46
0.0
 47
0.0
 48
0.0
 71
           0
 72
           0
 73
           0
 74
           0
 75
           0
 76
           0
 77
           1
 78
           8
140
2.8
141
0.09
142
0.0
143
25.4
144
1.0
145
0.0
146
1.0
147
0.09
170
           0
171
           2
172
           0
173
           1
174
           0
175
           0
176
           2
177
           2
178
           2
270
           2
271
           3
272
           4
273
           2
274
           2
275
           0
280
           0
281
           0
282
           0
283
           1
284
           0
285
           0
286
           0
287
           3
288
           0
340
17
  0
DIMSTYLE
105
162
100
AcDbSymbolTableRecord
100
AcDbDimStyleTableRecord
  2
ME10_DIM_1
 70
           0
  3

  4

  5

  6

  7

 40
1.0
 41
2.8
 42
0.8
 43
0.38
 44
1.0
 45
0.0
 46
0.0
 47
0.0
 48
0.0
 71
           0
 72
           0
 73
           0
 74
           0
 75
           0
 76
           0
 77
           1
 78
           8
140
2.8
141
0.09
142
0.0
143
25.4
144
1.0
145
0.0
146
1.0
147
0.09
170
           0
171
           2
172
           0
173
           1
174
           0
175
           0
176
           2
177
           2
178
           2
270
           2
271
           0
272
           4
273
           2
274
           2
275
           0
280
           0
281
           0
282
           0
283
           1
284
           0
285
           0
286
           0
287
           3
288
           0
340
17
  0
ENDTAB
  0
TABLE
  2
BLOCK_RECORD
  5
1
100
AcDbSymbolTable
 70
           2
  0
BLOCK_RECORD
  5
A
100
AcDbSymbolTableRecord
100
AcDbBlockTableRecord
  2
*MODEL_SPACE
  0
BLOCK_RECORD
  5
B
100
AcDbSymbolTableRecord
100
AcDbBlockTableRecord
  2
*PAPER_SPACE
  0
BLOCK_RECORD
  5
14C
100
AcDbSymbolTableRecord
100
AcDbBlockTableRecord
  2
*D0
  0
BLOCK_RECORD
  5
158
100
AcDbSymbolTableRecord
100
AcDbBlockTableRecord
  2
*D1
  0
ENDTAB
  0
ENDSEC
  0
SECTION
  2
BLOCKS
  0
BLOCK
  5
D
100
AcDbEntity
  8
0
100
AcDbBlockBegin
  2
*MODEL_SPACE
 70
           0
 10
0.0
 20
0.0
 30
0.0
  3
*MODEL_SPACE
  1

  0
ENDBLK
  5
E
100
AcDbEntity
  8
0
100
AcDbBlockEnd
  0
BLOCK
  5
F
100
AcDbEntity
 67
           1
  8
0
100
AcDbBlockBegin
  2
*PAPER_SPACE
 70
           0
 10
0.0
 20
0.0
 30
0.0
  3
*PAPER_SPACE
  1

  0
ENDBLK
  5
10
100
AcDbEntity
 67
           1
  8
0
100
AcDbBlockEnd
  0
BLOCK
  5
14D
100
AcDbEntity
  8
0
100
AcDbBlockBegin
  2
*D0
 70
           1
 10
0.0
 20
0.0
 30
0.0
  3
*D0
  1

  0
LINE
  5
14E
100
AcDbEntity
  8
0
  6
CONTINUOUS
 62
           2
100
AcDbLine
 10
-126.16856840624
 20
72.486368013809
 11
-126.16856840624
 21
180.086368013809
  0
LINE
  5
14F
100
AcDbEntity
  8
0
  6
CONTINUOUS
 62
           2
100
AcDbLine
 10
-101.388420845427
 20
180.086368013809
 11
-127.16856840624
 21
180.086368013809
  0
LINE
  5
150
100
AcDbEntity
  8
0
  6
CONTINUOUS
 62
           2
100
AcDbLine
 10
-101.388420845427
 20
72.486368013809
 11
-127.16856840624
 21
72.486368013809
  0
SOLID
  5
151
100
AcDbEntity
  8
0
 62
           2
100
AcDbTrace
 10
-125.799941412995
 20
177.286368013809
 11
-126.537195399485
 21
177.286368013809
 12
-126.16856840624
 22
180.086368013809
 13
-126.16856840624
 23
180.086368013809
  0
SOLID
  5
152
100
AcDbEntity
  8
0
 62
           2
100
AcDbTrace
 10
-126.537195399485
 20
75.286368013809
 11
-125.799941412995
 21
75.286368013809
 12
-126.16856840624
 22
72.486368013809
 13
-126.16856840624
 23
72.486368013809
  0
MTEXT
  5
154
100
AcDbEntity
  8
0
 62
           2
100
AcDbMText
 10
-127.16856840624
 20
120.459608933513
 30
0.0
 40
2.8
 41
0.0
 71
           7
 72
           1
  1
\C2;ó\C2;107.6\C2;
  7
CONVERTER_1
 11
0.0
 21
1.0
 31
0.0
  0
ENDBLK
  5
155
100
AcDbEntity
  8
0
100
AcDbBlockEnd
  0
BLOCK
  5
159
100
AcDbEntity
  8
0
100
AcDbBlockBegin
  2
*D1
 70
           1
 10
0.0
 20
0.0
 30
0.0
  3
*D1
  1

  0
LINE
  5
15A
100
AcDbEntity
  8
0
  6
CONTINUOUS
 62
           2
100
AcDbLine
 10
-102.088420845427
 20
216.259610705972
 11
111.611579154573
 21
216.259610705972
  0
LINE
  5
15B
100
AcDbEntity
  8
0
  6
CONTINUOUS
 62
           2
100
AcDbLine
 10
111.611579154573
 20
136.586368013809
 11
111.611579154573
 21
217.259610705972
  0
LINE
  5
15C
100
AcDbEntity
  8
0
  6
CONTINUOUS
 62
           2
100
AcDbLine
 10
-102.088420845427
 20
178.722710453701
 11
-102.088420845427
 21
217.259610705972
  0
SOLID
  5
15D
100
AcDbEntity
  8
0
 62
           2
100
AcDbTrace
 10
-99.288420845427
 20
216.628237699217
 11
-99.288420845427
 21
215.890983712727
 12
-102.088420845427
 22
216.259610705972
 13
-102.088420845427
 23
216.259610705972
  0
SOLID
  5
15E
100
AcDbEntity
  8
0
 62
           2
100
AcDbTrace
 10
108.811579154573
 20
215.890983712727
 11
108.811579154573
 21
216.628237699217
 12
111.611579154573
 22
216.259610705972
 13
111.611579154573
 23
216.259610705972
  0
TEXT
  5
160
100
AcDbEntity
  8
0
 62
           2
100
AcDbText
 10
-0.47895271493
 20
217.259610705972
 40
2.8
  1
214
 41
0.9
  7
CONVERTER_2
100
AcDbText
  0
ENDBLK
  5
161
100
AcDbEntity
  8
0
100
AcDbBlockEnd
  0
ENDSEC
  0
SECTION
  2
ENTITIES
  0
DIMENSION
  5
163
100
AcDbEntity
  8
0
100
AcDbDimension
  2
*D1
 10
-102.088420845427
 20
216.259610705972
 11
2.46104728507
 21
218.659610705972
 31
0.0
  1
<>
  3
ME10_DIM_1
100
AcDbAlignedDimension
 13
111.611579154573
 23
135.786368013809
 14
-102.088420845427
 24
177.922710453701
100
AcDbRotatedDimension
  0
DIMENSION
  5
157
100
AcDbEntity
  8
0
100
AcDbDimension
  2
*D0
 10
-126.16856840624
 20
180.086368013809
 11
-128.56856840624
 21
125.730608933513
 31
0.0
 53
-90.0
  1
<>
  3
ME10_DIM_0
100
AcDbAlignedDimension
 13
-100.588420845427
 23
72.486368013809
 14
-100.588420845427
 24
180.086368013809
 50
-90.0
100
AcDbRotatedDimension
  0
ARC
  5
14B
100
AcDbEntity
  8
1
  6
CONTINUOUS
 62
           7
100
AcDbCircle
 10
42.052688723848
 20
82.386767849614
 40
2.0
100
AcDbArc
 50
-86.000000000001
 51
-15.142252942374
  0
ARC
  5
14A
100
AcDbEntity
  8
1
  6
CONTINUOUS
 62
           7
100
AcDbCircle
 10
37.611579154573
 20
80.572552368821
 40
0.5
100
AcDbArc
 50
180.0
 51
-85.999999999998
  0
ARC
  5
149
100
AcDbEntity
  8
1
  6
CONTINUOUS
 62
           7
100
AcDbCircle
 10
51.695448544777
 20
108.786368013809
 40
2.0
100
AcDbArc
 50
90.0
 51
173.388785623627
  0
ARC
  5
148
100
AcDbEntity
  8
1
  6
CENTER_DASH_DASH
 62
           2
100
AcDbCircle
 10
83.111579154573
 20
118.626829553933
 40
1.0
100
AcDbArc
 50
-87.98652450461
 51
0.0
  0
ARC
  5
147
100
AcDbEntity
  8
1
  6
CONTINUOUS
 62
           7
100
AcDbCircle
 10
24.84120489582
 20
82.286368013809
 40
2.0
100
AcDbArc
 50
90.0
 51
124.656033118227
  0
ARC
  5
146
100
AcDbEntity
  8
1
  6
CONTINUOUS
 62
           7
100
AcDbCircle
 10
-100.588420845427
 20
73.986368013809
 40
1.5
100
AcDbArc
 50
180.0
 51
-90.0
  0
ARC
  5
145
100
AcDbEntity
  8
1
  6
CONTINUOUS
 62
           7
100
AcDbCircle
 10
41.920430388792
 20
94.582380702846
 40
15.0
100
AcDbArc
 50
-89.218562507478
 51
-32.50381183008
  0
ARC
  5
144
100
AcDbEntity
  8
1
  6
CONTINUOUS
 62
           7
100
AcDbCircle
 10
43.820120859597
 20
110.554729728255
 40
20.0
100
AcDbArc
 50
-16.937396419809
 51
0.0
  0
ARC
  5
143
100
AcDbEntity
  8
1
  6
CONTINUOUS
 62
           7
100
AcDbCircle
 10
34.320120859597
 20
113.24197652959
 40
40.0
100
AcDbArc
 50
-25.773398524237
 51
0.0
  0
ARC
  5
142
100
AcDbEntity
  8
1
  6
CONTINUOUS
 62
           7
100
AcDbCircle
 10
44.81696864018
 20
93.228621797343
 40
20.0
100
AcDbArc
 50
-87.830742410271
 51
-41.388013471773
  0
ARC
  5
141
100
AcDbEntity
  8
1
  6
CONTINUOUS
 62
           7
100
AcDbCircle
 10
238.712376863554
 20
129.421485882258
 40
1.5
100
AcDbArc
 50
2.083618701983
 51
92.083618701987
  0
ARC
  5
140
100
AcDbEntity
  8
1
  6
CONTINUOUS
 62
           7
100
AcDbCircle
 10
238.712376863554
 20
129.421485882258
 40
1.5
100
AcDbArc
 50
2.083618701983
 51
92.083618701987
  0
ARC
  5
13F
100
AcDbEntity
  8
1
  6
CONTINUOUS
 62
           7
100
AcDbCircle
 10
238.821450838486
 20
126.423469393312
 40
1.5
100
AcDbArc
 50
-87.916381298017
 51
2.083618701979
  0
ARC
  5
13E
100
AcDbEntity
  8
1
  6
CONTINUOUS
 62
           7
100
AcDbCircle
 10
238.821450838486
 20
126.423469393312
 40
1.5
100
AcDbArc
 50
-87.916381298017
 51
2.083618701979
  0
ARC
  5
13D
100
AcDbEntity
  8
1
  6
CONTINUOUS
 62
           7
100
AcDbCircle
 10
44.81696864018
 20
159.344114230274
 40
20.0
100
AcDbArc
 50
41.388013471773
 51
87.830742410271
  0
ARC
  5
13C
100
AcDbEntity
  8
1
  6
CONTINUOUS
 62
           7
100
AcDbCircle
 10
34.320120859597
 20
139.330759498027
 40
40.0
100
AcDbArc
 50
0.0
 51
25.773398524237
  0
ARC
  5
13B
100
AcDbEntity
  8
1
  6
CONTINUOUS
 62
           7
100
AcDbCircle
 10
43.820120859597
 20
142.018006299362
 40
20.0
100
AcDbArc
 50
0.0
 51
16.937396419809
  0
ARC
  5
13A
100
AcDbEntity
  8
1
  6
CONTINUOUS
 62
           7
100
AcDbCircle
 10
41.920430388792
 20
157.990355324772
 40
15.0
100
AcDbArc
 50
32.50381183008
 51
89.218562507478
  0
ARC
  5
139
100
AcDbEntity
  8
1
  6
CONTINUOUS
 62
           7
100
AcDbCircle
 10
187.296666516829
 20
177.878518579568
 40
2.0
100
AcDbArc
 50
97.180755781458
 51
180.0
  0
ARC
  5
138
100
AcDbEntity
  8
1
  6
CONTINUOUS
 62
           7
100
AcDbCircle
 10
200.296666516829
 20
177.878518579568
 40
2.0
100
AcDbArc
 50
0.0
 51
82.819244218541
  0
ARC
  5
137
100
AcDbEntity
  8
1
  6
CONTINUOUS
 62
           7
100
AcDbCircle
 10
187.296666516829
 20
74.694217448049
 40
2.0
100
AcDbArc
 50
180.0
 51
-97.180755781458
  0
ARC
  5
136
100
AcDbEntity
  8
1
  6
CONTINUOUS
 62
           7
100
AcDbCircle
 10
200.296666516829
 20
74.694217448049
 40
2.0
100
AcDbArc
 50
-82.819244218541
 51
0.0
  0
ARC
  5
135
100
AcDbEntity
  8
1
  6
CONTINUOUS
 62
           7
100
AcDbCircle
 10
-100.588420845427
 20
178.586368013809
 40
1.5
100
AcDbArc
 50
90.0
 51
180.0
  0
ARC
  5
134
100
AcDbEntity
  8
1
  6
CONTINUOUS
 62
           7
100
AcDbCircle
 10
24.84120489582
 20
170.286368013809
 40
2.0
100
AcDbArc
 50
-124.656033118228
 51
-90.0
  0
ARC
  5
133
100
AcDbEntity
  8
1
  6
CENTER_DASH_DASH
 62
           2
100
AcDbCircle
 10
83.111579154573
 20
133.945906473684
 40
1.0
100
AcDbArc
 50
0.0
 51
87.98652450461
  0
ARC
  5
132
100
AcDbEntity
  8
1
  6
CONTINUOUS
 62
           7
100
AcDbCircle
 10
51.695448544777
 20
143.786368013809
 40
2.0
100
AcDbArc
 50
-173.388785623627
 51
-90.0
  0
ARC
  5
131
100
AcDbEntity
  8
1
  6
CONTINUOUS
 62
           7
100
AcDbCircle
 10
37.611579154573
 20
172.000183658796
 40
0.5
100
AcDbArc
 50
85.999999999998
 51
180.0
  0
ARC
  5
130
100
AcDbEntity
  8
1
  6
CONTINUOUS
 62
           7
100
AcDbCircle
 10
42.052688723848
 20
170.185968178003
 40
2.0
100
AcDbArc
 50
15.142252942374
 51
86.000000000001
  0
CIRCLE
  5
12F
100
AcDbEntity
  8
1
  6
CONTINUOUS
 62
           2
100
AcDbCircle
 10
193.796666516829
 20
126.286368013809
 40
7.475
  0
CIRCLE
  5
12E
100
AcDbEntity
  8
1
  6
CONTINUOUS
 62
           2
100
AcDbCircle
 10
193.796666516829
 20
126.286368013809
 40
8.331
  0
CIRCLE
  5
12D
100
AcDbEntity
  8
1
  6
CONTINUOUS
 62
           2
100
AcDbCircle
 10
193.796666516829
 20
126.286368013809
 40
9.5
  0
CIRCLE
  5
12C
100
AcDbEntity
  8
1
  6
CONTINUOUS
 62
           2
100
AcDbCircle
 10
193.796666516829
 20
126.286368013809
 40
3.5
  0
CIRCLE
  5
12B
100
AcDbEntity
  8
1
  6
CONTINUOUS
 62
           2
100
AcDbCircle
 10
193.796666516829
 20
126.286368013809
 40
6.5
  0
CIRCLE
  5
12A
100
AcDbEntity
  8
1
  6
CONTINUOUS
 62
           2
100
AcDbCircle
 10
193.796666516829
 20
126.286368013809
 40
7.0
  0
CIRCLE
  5
129
100
AcDbEntity
  8
1
  6
CONTINUOUS
 62
           2
100
AcDbCircle
 10
193.796666516829
 20
126.286368013809
 40
4.0
  0
CIRCLE
  5
128
100
AcDbEntity
  8
1
  6
CONTINUOUS
 62
           7
100
AcDbCircle
 10
193.796666516829
 20
126.286368013809
 40
53.8
  0
CIRCLE
  5
127
100
AcDbEntity
  8
1
  6
CONTINUOUS
 62
           7
100
AcDbCircle
 10
166.796666516829
 20
126.286368013809
 40
1.25
  0
ARC
  5
126
100
AcDbEntity
  8
1
  6
CONTINUOUS
 62
           7
100
AcDbCircle
 10
-99.293789482312
 20
126.286368013808
 40
150.000000000003
100
AcDbArc
 50
-17.167942772525
 51
-6.611214376373
  0
ARC
  5
125
100
AcDbEntity
  8
1
  6
CONTINUOUS
 62
           7
100
AcDbCircle
 10
-10.415000231789
 20
133.286368013809
 40
60.0
100
AcDbArc
 50
-90.0
 51
-55.343966881771
  0
ARC
  5
124
100
AcDbEntity
  8
1
  6
CONTINUOUS
 62
           7
100
AcDbCircle
 10
-7.837555790192
 20
126.286368013815
 40
74.000000000018
100
AcDbArc
 50
-32.50381183008
 51
-16.93739641981
  0
ARC
  5
123
100
AcDbEntity
  8
1
  6
CONTINUOUS
 62
           7
100
AcDbCircle
 10
7.304498512398
 20
126.286368013809
 40
70.0
100
AcDbArc
 50
-41.388013471773
 51
-25.773398524237
  0
ARC
  5
122
100
AcDbEntity
  8
1
  6
CONTINUOUS
 62
           7
100
AcDbCircle
 10
95.76075556775
 20
125.930453027609
 40
15.854818947499
100
AcDbArc
 50
-18.874259203007
 51
1.286305429013
  0
ARC
  5
121
100
AcDbEntity
  8
1
  6
CONTINUOUS
 62
           7
100
AcDbCircle
 10
112.749622455895
 20
125.897535802886
 40
15.642876614686
100
AcDbArc
 50
178.575662266117
 51
-160.987708492122
  0
ARC
  5
120
100
AcDbEntity
  8
1
  6
CONTINUOUS
 62
           7
100
AcDbCircle
 10
101.952077859058
 20
118.059126677857
 40
4.84322628773
100
AcDbArc
 50
145.511767118588
 51
-145.511767118587
  0
ARC
  5
11F
100
AcDbEntity
  8
1
  6
CONTINUOUS
 62
           7
100
AcDbCircle
 10
106.771080450088
 20
118.059126677857
 40
4.84322628773
100
AcDbArc
 50
-34.488232881413
 51
34.488232881412
  0
ARC
  5
11E
100
AcDbEntity
  8
1
  6
CONTINUOUS
 62
           7
100
AcDbCircle
 10
88.338378634945
 20
118.877537025447
 40
4.226806092613
100
AcDbArc
 50
155.673558729223
 51
-155.673558729223
  0
ARC
  5
11D
100
AcDbEntity
  8
1
  6
CONTINUOUS
 62
           7
100
AcDbCircle
 10
82.899826512285
 20
118.877537025447
 40
4.213099773554
100
AcDbArc
 50
-24.410734928045
 51
24.410734928045
  0
ARC
  5
11C
100
AcDbEntity
  8
1
  6
CONTINUOUS
 62
           7
100
AcDbCircle
 10
69.781186571723
 20
126.492160916349
 40
17.331614402427
100
AcDbArc
 50
-11.96436521624
 51
-0.68033719075
  0
ARC
  5
11B
100
AcDbEntity
  8
1
  6
CONTINUOUS
 62
           7
100
AcDbCircle
 10
101.739988267793
 20
126.525179926538
 40
17.630026630516
100
AcDbArc
 50
-179.223862024807
 51
-168.131435568202
  0
ARC
  5
11A
100
AcDbEntity
  8
1
  6
CONTINUOUS
 62
           7
100
AcDbCircle
 10
101.739988267793
 20
126.047556101079
 40
17.630026630516
100
AcDbArc
 50
168.131435568202
 51
179.223862024807
  0
ARC
  5
119
100
AcDbEntity
  8
1
  6
CONTINUOUS
 62
           7
100
AcDbCircle
 10
69.781186571723
 20
126.080575111268
 40
17.331614402427
100
AcDbArc
 50
0.68033719075
 51
11.96436521624
  0
ARC
  5
118
100
AcDbEntity
  8
1
  6
CONTINUOUS
 62
           7
100
AcDbCircle
 10
82.899826512285
 20
133.695199002171
 40
4.213099773554
100
AcDbArc
 50
-24.410734928046
 51
24.410734928045
  0
ARC
  5
117
100
AcDbEntity
  8
1
  6
CONTINUOUS
 62
           7
100
AcDbCircle
 10
88.338378634945
 20
133.695199002171
 40
4.226806092613
100
AcDbArc
 50
155.673558729223
 51
-155.673558729221
  0
ARC
  5
116
100
AcDbEntity
  8
1
  6
CONTINUOUS
 62
           7
100
AcDbCircle
 10
106.771080450088
 20
134.513609349761
 40
4.84322628773
100
AcDbArc
 50
-34.488232881412
 51
34.488232881412
  0
ARC
  5
115
100
AcDbEntity
  8
1
  6
CONTINUOUS
 62
           7
100
AcDbCircle
 10
101.952077859058
 20
134.513609349761
 40
4.84322628773
100
AcDbArc
 50
145.511767118588
 51
-145.511767118588
  0
ARC
  5
114
100
AcDbEntity
  8
1
  6
CONTINUOUS
 62
           7
100
AcDbCircle
 10
112.749622455895
 20
126.675200224732
 40
15.642876614686
100
AcDbArc
 50
160.987708492122
 51
-178.575662266116
  0
ARC
  5
113
100
AcDbEntity
  8
1
  6
CONTINUOUS
 62
           7
100
AcDbCircle
 10
95.76075556775
 20
126.642283000008
 40
15.854818947499
100
AcDbArc
 50
-1.286305429013
 51
18.874259203007
  0
ARC
  5
112
100
AcDbEntity
  8
1
  6
CONTINUOUS
 62
           7
100
AcDbCircle
 10
227.578989067165
 20
170.043556370404
 40
40.0
100
AcDbArc
 50
-123.256120433288
 51
-95.604041503766
  0
ARC
  5
111
100
AcDbEntity
  8
1
  6
CONTINUOUS
 62
           7
100
AcDbCircle
 10
227.299245074929
 20
170.533709515399
 40
40.0
100
AcDbArc
 50
-124.138917529034
 51
-88.702609445879
  0
ARC
  5
110
100
AcDbEntity
  8
1
  6
CONTINUOUS
 62
           7
100
AcDbCircle
 10
230.426032356306
 20
84.590570165611
 40
40.0
100
AcDbArc
 50
92.869846849843
 51
129.352095695921
  0
ARC
  5
10F
100
AcDbEntity
  8
1
  6
CONTINUOUS
 62
           7
100
AcDbCircle
 10
230.669418356897
 20
85.099755850265
 40
40.0
100
AcDbArc
 50
99.77127890773
 51
129.164078162766
  0
ARC
  5
10E
100
AcDbEntity
  8
1
  6
CONTINUOUS
 62
           7
100
AcDbCircle
 10
7.304498512398
 20
126.286368013809
 40
70.0
100
AcDbArc
 50
25.773398524237
 51
41.388013471773
  0
ARC
  5
10D
100
AcDbEntity
  8
1
  6
CONTINUOUS
 62
           7
100
AcDbCircle
 10
-7.837555790192
 20
126.286368013802
 40
74.000000000018
100
AcDbArc
 50
16.93739641981
 51
32.50381183008
  0
ARC
  5
10C
100
AcDbEntity
  8
1
  6
CONTINUOUS
 62
           7
100
AcDbCircle
 10
239.796666516829
 20
156.889676658463
 40
40.0
100
AcDbArc
 50
-179.296140190536
 51
-145.543103621335
  0
ARC
  5
10B
100
AcDbEntity
  8
1
  6
CONTINUOUS
 62
           7
100
AcDbCircle
 10
147.796666516829
 20
156.889676658463
 40
40.0
100
AcDbArc
 50
-34.456896378665
 51
-0.703859809464
  0
ARC
  5
10A
100
AcDbEntity
  8
1
  6
CONTINUOUS
 62
           7
100
AcDbCircle
 10
152.294188492413
 20
171.364583832112
 40
35.518630406686
100
AcDbArc
 50
-1.728002141859
 51
11.367101411723
  0
ARC
  5
109
100
AcDbEntity
  8
1
  6
CONTINUOUS
 62
           7
100
AcDbCircle
 10
185.627082754907
 20
177.938061166117
 40
1.549048757952
100
AcDbArc
 50
16.002762299646
 51
74.658532085153
  0
ARC
  5
108
100
AcDbEntity
  8
1
  6
CONTINUOUS
 62
           7
100
AcDbCircle
 10
193.796666516829
 20
126.286368013809
 40
15.25
100
AcDbArc
 50
148.757100174519
 51
180.0
  0
ARC
  5
107
100
AcDbEntity
  8
1
  6
CONTINUOUS
 62
           7
100
AcDbCircle
 10
193.796666516829
 20
126.286368013809
 40
54.0
100
AcDbArc
 50
90.0
 51
97.180755781458
  0
ARC
  5
106
100
AcDbEntity
  8
1
  6
CONTINUOUS
 62
           7
100
AcDbCircle
 10
185.349807369212
 20
170.047520796525
 40
2.446893109256
100
AcDbArc
 50
-0.301873473237
 51
84.471103476071
  0
ARC
  5
105
100
AcDbEntity
  8
1
  6
CONTINUOUS
 62
           7
100
AcDbCircle
 10
193.796666516829
 20
126.286368013809
 40
12.0
100
AcDbArc
 50
90.0
 51
180.0
  0
ARC
  5
104
100
AcDbEntity
  8
1
  6
CONTINUOUS
 62
           7
100
AcDbCircle
 10
193.796666516829
 20
126.286368013809
 40
13.0
100
AcDbArc
 50
90.0
 51
180.0
  0
ARC
  5
103
100
AcDbEntity
  8
1
  6
CONTINUOUS
 62
           7
100
AcDbCircle
 10
235.299144541245
 20
171.364583832112
 40
35.518630406686
100
AcDbArc
 50
168.632898588277
 51
-178.271997858141
  0
ARC
  5
102
100
AcDbEntity
  8
1
  6
CONTINUOUS
 62
           7
100
AcDbCircle
 10
201.96625027875
 20
177.938061166117
 40
1.549048757952
100
AcDbArc
 50
105.34146791485
 51
163.997237700355
  0
ARC
  5
101
100
AcDbEntity
  8
1
  6
CONTINUOUS
 62
           7
100
AcDbCircle
 10
193.796666516829
 20
126.286368013809
 40
15.25
100
AcDbArc
 50
0.0
 51
31.24289982548
  0
ARC
  5
100
100
AcDbEntity
  8
1
  6
CONTINUOUS
 62
           7
100
AcDbCircle
 10
193.796666516829
 20
126.286368013809
 40
54.0
100
AcDbArc
 50
82.819244218541
 51
90.0
  0
ARC
  5
FF
100
AcDbEntity
  8
1
  6
CONTINUOUS
 62
           7
100
AcDbCircle
 10
202.243525664446
 20
170.047520796525
 40
2.446893109256
100
AcDbArc
 50
95.528896523929
 51
-179.698126526763
  0
ARC
  5
FE
100
AcDbEntity
  8
1
  6
CONTINUOUS
 62
           7
100
AcDbCircle
 10
193.796666516829
 20
126.286368013809
 40
12.0
100
AcDbArc
 50
0.0
 51
90.0
  0
ARC
  5
FD
100
AcDbEntity
  8
1
  6
CONTINUOUS
 62
           7
100
AcDbCircle
 10
193.796666516829
 20
126.286368013809
 40
13.0
100
AcDbArc
 50
0.0
 51
90.0
  0
ARC
  5
FC
100
AcDbEntity
  8
1
  6
CONTINUOUS
 62
           7
100
AcDbCircle
 10
239.796666516829
 20
95.683059369154
 40
40.0
100
AcDbArc
 50
145.543103621335
 51
179.296140190536
  0
ARC
  5
FB
100
AcDbEntity
  8
1
  6
CONTINUOUS
 62
           7
100
AcDbCircle
 10
147.796666516829
 20
95.683059369154
 40
40.0
100
AcDbArc
 50
0.703859809464
 51
34.456896378665
  0
ARC
  5
FA
100
AcDbEntity
  8
1
  6
CONTINUOUS
 62
           7
100
AcDbCircle
 10
152.294188492413
 20
81.208152195505
 40
35.518630406686
100
AcDbArc
 50
-11.367101411723
 51
1.728002141859
  0
ARC
  5
F9
100
AcDbEntity
  8
1
  6
CONTINUOUS
 62
           7
100
AcDbCircle
 10
185.627082754907
 20
74.6346748615
 40
1.549048757952
100
AcDbArc
 50
-74.658532085154
 51
-16.002762299646
  0
ARC
  5
F8
100
AcDbEntity
  8
1
  6
CONTINUOUS
 62
           7
100
AcDbCircle
 10
193.796666516829
 20
126.286368013809
 40
15.25
100
AcDbArc
 50
180.0
 51
-148.757100174519
  0
ARC
  5
F7
100
AcDbEntity
  8
1
  6
CONTINUOUS
 62
           7
100
AcDbCircle
 10
193.796666516829
 20
126.286368013809
 40
54.0
100
AcDbArc
 50
-97.180755781458
 51
-90.0
  0
ARC
  5
F6
100
AcDbEntity
  8
1
  6
CONTINUOUS
 62
           7
100
AcDbCircle
 10
185.349807369212
 20
82.525215231092
 40
2.446893109256
100
AcDbArc
 50
-84.471103476071
 51
0.301873473237
  0
ARC
  5
F5
100
AcDbEntity
  8
1
  6
CONTINUOUS
 62
           7
100
AcDbCircle
 10
193.796666516829
 20
126.286368013809
 40
12.0
100
AcDbArc
 50
180.0
 51
-90.0
  0
ARC
  5
F4
100
AcDbEntity
  8
1
  6
CONTINUOUS
 62
           7
100
AcDbCircle
 10
193.796666516829
 20
126.286368013809
 40
13.0
100
AcDbArc
 50
180.0
 51
-90.0
  0
ARC
  5
F3
100
AcDbEntity
  8
1
  6
CONTINUOUS
 62
           7
100
AcDbCircle
 10
235.299144541245
 20
81.208152195505
 40
35.518630406686
100
AcDbArc
 50
178.271997858141
 51
-168.632898588277
  0
ARC
  5
F2
100
AcDbEntity
  8
1
  6
CONTINUOUS
 62
           7
100
AcDbCircle
 10
201.96625027875
 20
74.6346748615
 40
1.549048757952
100
AcDbArc
 50
-163.997237700355
 51
-105.341467914849
  0
ARC
  5
F1
100
AcDbEntity
  8
1
  6
CONTINUOUS
 62
           7
100
AcDbCircle
 10
193.796666516829
 20
126.286368013809
 40
15.25
100
AcDbArc
 50
-31.242899825481
 51
0.0
  0
ARC
  5
F0
100
AcDbEntity
  8
1
  6
CONTINUOUS
 62
           7
100
AcDbCircle
 10
193.796666516829
 20
126.286368013809
 40
54.0
100
AcDbArc
 50
-90.0
 51
-82.819244218541
  0
ARC
  5
EF
100
AcDbEntity
  8
1
  6
CONTINUOUS
 62
           7
100
AcDbCircle
 10
202.243525664446
 20
82.525215231092
 40
2.446893109256
100
AcDbArc
 50
179.698126526762
 51
-95.528896523929
  0
ARC
  5
EE
100
AcDbEntity
  8
1
  6
CONTINUOUS
 62
           7
100
AcDbCircle
 10
193.796666516829
 20
126.286368013809
 40
12.0
100
AcDbArc
 50
-90.0
 51
0.0
  0
ARC
  5
ED
100
AcDbEntity
  8
1
  6
CONTINUOUS
 62
           7
100
AcDbCircle
 10
193.796666516829
 20
126.286368013809
 40
13.0
100
AcDbArc
 50
-90.0
 51
0.0
  0
ARC
  5
EC
100
AcDbEntity
  8
1
  6
CONTINUOUS
 62
           7
100
AcDbCircle
 10
193.796666516829
 20
126.286368013809
 40
53.0
100
AcDbArc
 50
-81.076252282523
 51
81.076252282524
  0
ARC
  5
EB
100
AcDbEntity
  8
1
  6
CONTINUOUS
 62
           7
100
AcDbCircle
 10
193.796666516829
 20
126.286368013809
 40
53.0
100
AcDbArc
 50
98.923747717476
 51
-98.923747717476
  0
ARC
  5
EA
100
AcDbEntity
  8
1
  6
CONTINUOUS
 62
           7
100
AcDbCircle
 10
-10.415000231789
 20
119.286368013809
 40
60.0
100
AcDbArc
 50
55.343966881771
 51
90.0
  0
ARC
  5
E9
100
AcDbEntity
  8
1
  6
CONTINUOUS
 62
           7
100
AcDbCircle
 10
-99.293789482312
 20
126.286368013808
 40
150.000000000003
100
AcDbArc
 50
6.611214376374
 51
17.167942772526
  0
ARC
  5
E8
100
AcDbEntity
  8
1
  6
CONTINUOUS
 62
           7
100
AcDbCircle
 10
193.796666516829
 20
126.286368013809
 40
46.25
100
AcDbArc
 50
-80.631281506
 51
-1.337520802492
  0
ARC
  5
E7
100
AcDbEntity
  8
1
  6
CONTINUOUS
 62
           7
100
AcDbCircle
 10
193.796666516829
 20
126.286368013809
 40
45.760512316395
100
AcDbArc
 50
-81.288867824866
 51
-1.801297511539
  0
ARC
  5
E6
100
AcDbEntity
  8
1
  6
CONTINUOUS
 62
           7
100
AcDbCircle
 10
193.796666516829
 20
126.286368013809
 40
46.25
100
AcDbArc
 50
99.882410428864
 51
-99.299735458784
  0
ARC
  5
E5
100
AcDbEntity
  8
1
  6
CONTINUOUS
 62
           7
100
AcDbCircle
 10
193.796666516829
 20
126.286368013809
 40
45.760512316395
100
AcDbArc
 50
99.226144227743
 51
-99.054120550389
  0
ARC
  5
E4
100
AcDbEntity
  8
1
  6
CONTINUOUS
 62
           7
100
AcDbCircle
 10
193.796666516829
 20
126.286368013809
 40
45.760512316395
100
AcDbArc
 50
6.139678827224
 51
80.983783854292
  0
ARC
  5
E3
100
AcDbEntity
  8
1
  6
CONTINUOUS
 62
           7
100
AcDbCircle
 10
193.796666516829
 20
126.286368013809
 40
46.25
100
AcDbArc
 50
5.582373920463
 51
80.75753864676
  0
LINE
  5
E2
100
AcDbEntity
  8
1
  6
CONTINUOUS
 62
           7
100
AcDbLine
 10
49.971579154573
 20
111.255787035156
 11
49.971579154573
 21
126.286368013809
  0
LINE
  5
E1
100
AcDbEntity
  8
1
  6
CONTINUOUS
 62
           7
100
AcDbLine
 10
43.611579154573
 20
82.010339779611
 11
43.611579154573
 21
126.286368013809
  0
LINE
  5
E0
100
AcDbEntity
  8
1
  6
CONTINUOUS
 62
           7
100
AcDbLine
 10
52.111579154573
 20
126.286368013809
 11
52.111579154573
 21
110.786368013809
  0
LINE
  5
DF
100
AcDbEntity
  8
1
  6
CONTINUOUS
 62
           7
100
AcDbLine
 10
42.192201671336
 20
80.391639749094
 11
37.646457391445
 21
80.073770343691
  0
LINE
  5
DE
100
AcDbEntity
  8
1
  6
CONTINUOUS
 62
           7
100
AcDbLine
 10
43.983249240938
 20
81.864334992825
 11
44.022759889369
 21
82.010339779611
  0
LINE
  5
DD
100
AcDbEntity
  8
1
  6
CONTINUOUS
 62
           7
100
AcDbLine
 10
52.111579154573
 20
110.786368013809
 11
51.695448544777
 21
110.786368013809
  0
LINE
  5
DC
100
AcDbEntity
  8
1
  6
CONTINUOUS
 62
           7
100
AcDbLine
 10
37.111579154573
 20
126.286368013809
 11
37.111579154573
 21
80.572552368821
  0
LINE
  5
DB
100
AcDbEntity
  8
1
  6
CONTINUOUS
 62
           7
100
AcDbLine
 10
52.111579154573
 20
110.786368013809
 11
52.111579154573
 21
115.088175703622
  0
LINE
  5
DA
100
AcDbEntity
  8
1
  6
CENTER_DASH_DASH
 62
           2
100
AcDbLine
 10
84.111579154573
 20
119.171368013809
 11
84.111579154573
 21
118.626829553933
  0
LINE
  5
D9
100
AcDbEntity
  8
1
  6
CONTINUOUS
 62
           7
100
AcDbLine
 10
76.320120859597
 20
117.387449558126
 11
83.146713698798
 21
117.627446962629
  0
LINE
  5
D8
100
AcDbEntity
  8
1
  6
CONTINUOUS
 62
           7
100
AcDbLine
 10
84.111579154573
 20
126.411368013809
 11
84.111579154573
 21
119.171368013809
  0
LINE
  5
D7
100
AcDbEntity
  8
1
  6
CONTINUOUS
 62
           7
100
AcDbLine
 10
26.411579154573
 20
83.286368013809
 11
37.111579154573
 21
83.286368013809
  0
LINE
  5
D6
100
AcDbEntity
  8
1
  6
CONTINUOUS
 62
           7
100
AcDbLine
 10
24.911579154573
 20
83.286368013809
 11
25.661579154573
 21
83.286368013809
  0
LINE
  5
D5
100
AcDbEntity
  8
1
  6
CONTINUOUS
 62
           7
100
AcDbLine
 10
25.661579154573
 20
83.286368013809
 11
26.411579154573
 21
83.286368013809
  0
LINE
  5
D4
100
AcDbEntity
  8
1
  6
CONTINUOUS
 62
           7
100
AcDbLine
 10
25.661579154573
 20
81.886368013809
 11
25.661579154573
 21
83.286368013809
  0
LINE
  5
D3
100
AcDbEntity
  8
1
  6
CONTINUOUS
 62
           7
100
AcDbLine
 10
30.661579154573
 20
81.886368013809
 11
27.411579154573
 21
81.886368013809
  0
LINE
  5
D2
100
AcDbEntity
  8
1
  6
CONTINUOUS
 62
           7
100
AcDbLine
 10
27.411579154573
 20
81.886368013809
 11
25.661579154573
 21
81.886368013809
  0
LINE
  5
D1
100
AcDbEntity
  8
1
  6
CONTINUOUS
 62
           7
100
AcDbLine
 10
27.411579154573
 20
79.383091979516
 11
27.411579154573
 21
81.886368013809
  0
LINE
  5
D0
100
AcDbEntity
  8
1
  6
CONTINUOUS
 62
           7
100
AcDbLine
 10
30.661579154573
 20
71.786368013809
 11
27.988929423763
 21
71.786368013809
  0
LINE
  5
CF
100
AcDbEntity
  8
1
  6
CONTINUOUS
 62
           7
100
AcDbLine
 10
33.334228885383
 20
71.786368013809
 11
30.661579154573
 21
71.786368013809
  0
LINE
  5
CE
100
AcDbEntity
  8
1
  6
CONTINUOUS
 62
           7
100
AcDbLine
 10
33.920331492321
 20
72.801527507472
 11
33.334228885383
 21
71.786368013809
  0
LINE
  5
CD
100
AcDbEntity
  8
1
  6
CONTINUOUS
 62
           7
100
AcDbLine
 10
33.911579154573
 20
81.886368013809
 11
30.661579154573
 21
81.886368013809
  0
LINE
  5
CC
100
AcDbEntity
  8
1
  6
CONTINUOUS
 62
           7
100
AcDbLine
 10
35.661579154573
 20
81.886368013809
 11
33.911579154573
 21
81.886368013809
  0
LINE
  5
CB
100
AcDbEntity
  8
1
  6
CONTINUOUS
 62
           7
100
AcDbLine
 10
35.661579154573
 20
83.286368013809
 11
35.661579154573
 21
81.886368013809
  0
LINE
  5
CA
100
AcDbEntity
  8
1
  6
DOT_CENTER
 62
           2
100
AcDbLine
 10
30.661579154573
 20
68.834584788256
 11
30.661579154573
 21
91.585922083461
  0
LINE
  5
C9
100
AcDbEntity
  8
1
  6
CONTINUOUS
 62
           7
100
AcDbLine
 10
24.911579154573
 20
83.286368013809
 11
24.911579154573
 21
84.286368013809
  0
LINE
  5
C8
100
AcDbEntity
  8
1
  6
CONTINUOUS
 62
           7
100
AcDbLine
 10
-76.812863913481
 20
73.286368013809
 11
-8.915000231789
 21
73.286368013809
  0
LINE
  5
C7
100
AcDbEntity
  8
1
  6
CONTINUOUS
 62
           7
100
AcDbLine
 10
-85.088420845427
 20
73.286368013809
 11
-76.812863913481
 21
73.286368013809
  0
LINE
  5
C6
100
AcDbEntity
  8
1
  6
CONTINUOUS
 62
           7
100
AcDbLine
 10
-102.088420845427
 20
74.650025573916
 11
-102.088420845427
 21
126.286368013809
  0
LINE
  5
C5
100
AcDbEntity
  8
1
  6
CONTINUOUS
 62
           7
100
AcDbLine
 10
-85.088420845427
 20
73.286368013809
 11
-85.088420845427
 21
72.486368013809
  0
LINE
  5
C4
100
AcDbEntity
  8
1
  6
CONTINUOUS
 62
           7
100
AcDbLine
 10
-102.088420845427
 20
74.650025573916
 11
-102.088420845427
 21
73.986368013809
  0
LINE
  5
C3
100
AcDbEntity
  8
1
  6
CONTINUOUS
 62
           7
100
AcDbLine
 10
-85.088420845427
 20
72.486368013809
 11
-100.588420845427
 21
72.486368013809
  0
LINE
  5
C2
100
AcDbEntity
  8
1
  6
CONTINUOUS
 62
           7
100
AcDbLine
 10
-85.088420845427
 20
126.286368013809
 11
-85.088420845427
 21
73.286368013809
  0
LINE
  5
C1
100
AcDbEntity
  8
1
  6
CONTINUOUS
 62
           7
100
AcDbLine
 10
24.911579154573
 20
126.286368013809
 11
24.911579154573
 21
84.286368013809
  0
LINE
  5
C0
100
AcDbEntity
  8
1
  6
CONTINUOUS
 62
           7
100
AcDbLine
 10
33.911579154573
 20
81.886368013809
 11
33.911579154573
 21
79.471748748117
  0
LINE
  5
BF
100
AcDbEntity
  8
1
  6
CONTINUOUS
 62
           7
100
AcDbLine
 10
27.988929423763
 20
71.786368013809
 11
27.542309866172
 21
72.559935779209
  0
LINE
  5
BE
100
AcDbEntity
  8
1
  6
CONTINUOUS
 62
           7
100
AcDbLine
 10
74.320120859597
 20
113.883506255867
 11
74.320120859597
 21
126.286368013809
  0
LINE
  5
BD
100
AcDbEntity
  8
1
  6
CONTINUOUS
 62
           7
100
AcDbLine
 10
20.320120859597
 20
79.286368013809
 11
42.125003903578
 21
79.583775778485
  0
LINE
  5
BC
100
AcDbEntity
  8
1
  6
CONTINUOUS
 62
           7
100
AcDbLine
 10
76.320120859597
 20
116.786368013809
 11
76.320120859597
 21
126.286368013809
  0
LINE
  5
BB
100
AcDbEntity
  8
1
  6
CONTINUOUS
 62
           7
100
AcDbLine
 10
74.320120859597
 20
113.286368013809
 11
74.320120859597
 21
113.24197652959
  0
LINE
  5
BA
100
AcDbEntity
  8
1
  6
CONTINUOUS
 62
           7
100
AcDbLine
 10
63.820120859597
 20
111.186368013809
 11
63.820120859597
 21
110.554729728255
  0
LINE
  5
B9
100
AcDbEntity
  8
1
  6
CONTINUOUS
 62
           7
100
AcDbLine
 10
59.320120859597
 20
111.286368013809
 11
63.820120859597
 21
111.186368013809
  0
LINE
  5
B8
100
AcDbEntity
  8
1
  6
CONTINUOUS
 62
           7
100
AcDbLine
 10
76.320120859597
 20
116.786368013809
 11
76.320120859597
 21
114.286368013809
  0
LINE
  5
B7
100
AcDbEntity
  8
1
  6
CONTINUOUS
 62
           7
100
AcDbLine
 10
74.320120859597
 20
113.286368013809
 11
76.320120859597
 21
114.286368013809
  0
LINE
  5
B6
100
AcDbEntity
  8
1
  6
CONTINUOUS
 62
           7
100
AcDbLine
 10
20.320120859597
 20
79.286368013809
 11
20.320120859597
 21
72.286368013809
  0
LINE
  5
B5
100
AcDbEntity
  8
1
  6
CONTINUOUS
 62
           7
100
AcDbLine
 10
20.320120859597
 20
72.286368013809
 11
45.574001496082
 21
73.242954401554
  0
LINE
  5
B4
100
AcDbEntity
  8
1
  6
CONTINUOUS
 62
           7
100
AcDbLine
 10
63.820120859597
 20
126.286368013809
 11
63.820120859597
 21
111.186368013809
  0
LINE
  5
B3
100
AcDbEntity
  8
1
  6
CONTINUOUS
 62
           7
100
AcDbLine
 10
58.861641537629
 20
111.108871132961
 11
59.343058307787
 21
111.132941971469
  0
LINE
  5
B2
100
AcDbEntity
  8
1
  6
CONTINUOUS
 62
           7
100
AcDbLine
 10
59.320120859597
 20
111.286368013809
 11
59.343058307787
 21
111.132941971469
  0
LINE
  5
B1
100
AcDbEntity
  8
1
  6
CONTINUOUS
 62
           7
100
AcDbLine
 10
58.800994603555
 20
111.105838786258
 11
52.411579154573
 21
110.786368013809
  0
LINE
  5
B0
100
AcDbEntity
  8
1
  6
CONTINUOUS
 62
           7
100
AcDbLine
 10
97.960084930605
 20
120.801540456507
 11
110.763073378541
 21
120.801540456507
  0
LINE
  5
AF
100
AcDbEntity
  8
1
  6
CONTINUOUS
 62
           7
100
AcDbLine
 10
111.611579154573
 20
126.286368013809
 11
111.611579154573
 21
116.786368013809
  0
LINE
  5
AE
100
AcDbEntity
  8
1
  6
CONTINUOUS
 62
           7
100
AcDbLine
 10
110.763073378541
 20
115.316712899206
 11
97.960084930605
 21
115.316712899206
  0
LINE
  5
AD
100
AcDbEntity
  8
1
  6
CONTINUOUS
 62
           7
100
AcDbLine
 10
97.111579154573
 20
116.786368013809
 11
97.960084930605
 21
115.316712899206
  0
LINE
  5
AC
100
AcDbEntity
  8
1
  6
CONTINUOUS
 62
           7
100
AcDbLine
 10
111.611579154573
 20
116.786368013809
 11
110.763073378541
 21
115.316712899206
  0
LINE
  5
AB
100
AcDbEntity
  8
1
  6
CONTINUOUS
 62
           7
100
AcDbLine
 10
97.111579154573
 20
126.286368013809
 11
97.111579154573
 21
116.786368013809
  0
LINE
  5
AA
100
AcDbEntity
  8
1
  6
CONTINUOUS
 62
           2
100
AcDbLine
 10
87.111579154573
 20
120.786368013809
 11
90.411579154573
 21
120.786368013809
  0
LINE
  5
A9
100
AcDbEntity
  8
1
  6
CONTINUOUS
 62
           2
100
AcDbLine
 10
92.411579154573
 20
120.286368013809
 11
90.411579154573
 21
120.786368013809
  0
LINE
  5
A8
100
AcDbEntity
  8
1
  6
CONTINUOUS
 62
           2
100
AcDbLine
 10
90.411579154573
 20
120.286368013809
 11
90.411579154573
 21
120.786368013809
  0
LINE
  5
A7
100
AcDbEntity
  8
1
  6
CONTINUOUS
 62
           7
100
AcDbLine
 10
92.411579154573
 20
119.936368013809
 11
92.411579154573
 21
120.286368013809
  0
LINE
  5
A6
100
AcDbEntity
  8
1
  6
CONTINUOUS
 62
           7
100
AcDbLine
 10
97.111579154573
 20
119.936368013809
 11
92.411579154573
 21
119.936368013809
  0
LINE
  5
A5
100
AcDbEntity
  8
1
  6
CONTINUOUS
 62
           7
100
AcDbLine
 10
92.411579154573
 20
126.286368013809
 11
92.411579154573
 21
120.286368013809
  0
LINE
  5
A4
100
AcDbEntity
  8
1
  6
CONTINUOUS
 62
           7
100
AcDbLine
 10
90.411579154573
 20
126.286368013809
 11
90.411579154573
 21
120.786368013809
  0
LINE
  5
A3
100
AcDbEntity
  8
1
  6
CONTINUOUS
 62
           7
100
AcDbLine
 10
87.111579154573
 20
120.286368013809
 11
92.411579154573
 21
120.286368013809
  0
LINE
  5
A2
100
AcDbEntity
  8
1
  6
CONTINUOUS
 62
           7
100
AcDbLine
 10
87.111579154573
 20
120.786368013809
 11
87.111579154573
 21
126.286368013809
  0
LINE
  5
A1
100
AcDbEntity
  8
1
  6
CONTINUOUS
 62
           7
100
AcDbLine
 10
84.111579154573
 20
120.786368013809
 11
84.111579154573
 21
126.286368013809
  0
LINE
  5
A0
100
AcDbEntity
  8
1
  6
CONTINUOUS
 62
           7
100
AcDbLine
 10
84.111579154573
 20
117.786368013809
 11
84.111579154573
 21
120.786368013809
  0
LINE
  5
9F
100
AcDbEntity
  8
1
  6
CONTINUOUS
 62
           7
100
AcDbLine
 10
87.111579154573
 20
117.786368013809
 11
87.111579154573
 21
120.786368013809
  0
LINE
  5
9E
100
AcDbEntity
  8
1
  6
CONTINUOUS
 62
           7
100
AcDbLine
 10
86.7363014796
 20
117.136368013809
 11
84.486856829546
 21
117.136368013809
  0
LINE
  5
9D
100
AcDbEntity
  8
1
  6
CONTINUOUS
 62
           7
100
AcDbLine
 10
84.486856829546
 20
117.136368013809
 11
84.111579154573
 21
117.786368013809
  0
LINE
  5
9C
100
AcDbEntity
  8
1
  6
CONTINUOUS
 62
           7
100
AcDbLine
 10
86.7363014796
 20
117.136368013809
 11
87.111579154573
 21
117.786368013809
  0
LINE
  5
9B
100
AcDbEntity
  8
1
  6
CONTINUOUS
 62
           7
100
AcDbLine
 10
84.486856829546
 20
122.899260102921
 11
86.7363014796
 21
122.899260102921
  0
LINE
  5
9A
100
AcDbEntity
  8
1
  6
CONTINUOUS
 62
           7
100
AcDbLine
 10
84.486856829546
 20
120.618706037085
 11
86.7363014796
 21
120.618706037085
  0
LINE
  5
99
100
AcDbEntity
  8
1
  6
CONTINUOUS
 62
           7
100
AcDbLine
 10
84.486856829546
 20
120.618706037085
 11
84.486856829546
 21
122.899260102921
  0
LINE
  5
98
100
AcDbEntity
  8
1
  6
CONTINUOUS
 62
           7
100
AcDbLine
 10
86.7363014796
 20
120.618706037085
 11
86.7363014796
 21
122.899260102921
  0
LINE
  5
97
100
AcDbEntity
  8
1
  6
CONTINUOUS
 62
           7
100
AcDbLine
 10
86.7363014796
 20
129.673475924697
 11
86.7363014796
 21
131.954029990532
  0
LINE
  5
96
100
AcDbEntity
  8
1
  6
CONTINUOUS
 62
           7
100
AcDbLine
 10
84.486856829546
 20
129.673475924697
 11
84.486856829546
 21
131.954029990532
  0
LINE
  5
95
100
AcDbEntity
  8
1
  6
CONTINUOUS
 62
           7
100
AcDbLine
 10
86.7363014796
 20
131.954029990532
 11
84.486856829546
 21
131.954029990532
  0
LINE
  5
94
100
AcDbEntity
  8
1
  6
CONTINUOUS
 62
           7
100
AcDbLine
 10
86.7363014796
 20
129.673475924697
 11
84.486856829546
 21
129.673475924697
  0
LINE
  5
93
100
AcDbEntity
  8
1
  6
CONTINUOUS
 62
           7
100
AcDbLine
 10
87.111579154573
 20
134.786368013809
 11
86.7363014796
 21
135.436368013809
  0
LINE
  5
92
100
AcDbEntity
  8
1
  6
CONTINUOUS
 62
           7
100
AcDbLine
 10
84.111579154573
 20
134.786368013809
 11
84.486856829546
 21
135.436368013809
  0
LINE
  5
91
100
AcDbEntity
  8
1
  6
CONTINUOUS
 62
           7
100
AcDbLine
 10
84.486856829546
 20
135.436368013809
 11
86.7363014796
 21
135.436368013809
  0
LINE
  5
90
100
AcDbEntity
  8
1
  6
CONTINUOUS
 62
           7
100
AcDbLine
 10
87.111579154573
 20
131.786368013809
 11
87.111579154573
 21
134.786368013809
  0
LINE
  5
8F
100
AcDbEntity
  8
1
  6
CONTINUOUS
 62
           7
100
AcDbLine
 10
84.111579154573
 20
131.786368013809
 11
84.111579154573
 21
134.786368013809
  0
LINE
  5
8E
100
AcDbEntity
  8
1
  6
CONTINUOUS
 62
           7
100
AcDbLine
 10
84.111579154573
 20
126.286368013809
 11
84.111579154573
 21
131.786368013809
  0
LINE
  5
8D
100
AcDbEntity
  8
1
  6
CONTINUOUS
 62
           7
100
AcDbLine
 10
87.111579154573
 20
126.286368013809
 11
87.111579154573
 21
131.786368013809
  0
LINE
  5
8C
100
AcDbEntity
  8
1
  6
CONTINUOUS
 62
           7
100
AcDbLine
 10
92.411579154573
 20
132.286368013809
 11
87.111579154573
 21
132.286368013809
  0
LINE
  5
8B
100
AcDbEntity
  8
1
  6
CONTINUOUS
 62
           7
100
AcDbLine
 10
90.411579154573
 20
131.786368013809
 11
90.411579154573
 21
126.286368013809
  0
LINE
  5
8A
100
AcDbEntity
  8
1
  6
CONTINUOUS
 62
           7
100
AcDbLine
 10
92.411579154573
 20
132.286368013809
 11
92.411579154573
 21
126.286368013809
  0
LINE
  5
89
100
AcDbEntity
  8
1
  6
CONTINUOUS
 62
           7
100
AcDbLine
 10
92.411579154573
 20
132.636368013809
 11
97.111579154573
 21
132.636368013809
  0
LINE
  5
88
100
AcDbEntity
  8
1
  6
CONTINUOUS
 62
           7
100
AcDbLine
 10
92.411579154573
 20
132.286368013809
 11
92.411579154573
 21
132.636368013809
  0
LINE
  5
87
100
AcDbEntity
  8
1
  6
CONTINUOUS
 62
           2
100
AcDbLine
 10
90.411579154573
 20
131.786368013809
 11
90.411579154573
 21
132.286368013809
  0
LINE
  5
86
100
AcDbEntity
  8
1
  6
CONTINUOUS
 62
           2
100
AcDbLine
 10
90.411579154573
 20
131.786368013809
 11
92.411579154573
 21
132.286368013809
  0
LINE
  5
85
100
AcDbEntity
  8
1
  6
CONTINUOUS
 62
           2
100
AcDbLine
 10
90.411579154573
 20
131.786368013809
 11
87.111579154573
 21
131.786368013809
  0
LINE
  5
84
100
AcDbEntity
  8
1
  6
CONTINUOUS
 62
           7
100
AcDbLine
 10
97.111579154573
 20
135.786368013809
 11
97.111579154573
 21
126.286368013809
  0
LINE
  5
83
100
AcDbEntity
  8
1
  6
CONTINUOUS
 62
           7
100
AcDbLine
 10
110.763073378541
 20
137.256023128412
 11
111.611579154573
 21
135.786368013809
  0
LINE
  5
82
100
AcDbEntity
  8
1
  6
CONTINUOUS
 62
           7
100
AcDbLine
 10
97.960084930605
 20
137.256023128412
 11
97.111579154573
 21
135.786368013809
  0
LINE
  5
81
100
AcDbEntity
  8
1
  6
CONTINUOUS
 62
           7
100
AcDbLine
 10
97.960084930605
 20
137.256023128412
 11
110.763073378541
 21
137.256023128412
  0
LINE
  5
80
100
AcDbEntity
  8
1
  6
CONTINUOUS
 62
           7
100
AcDbLine
 10
111.611579154573
 20
135.786368013809
 11
111.611579154573
 21
126.286368013809
  0
LINE
  5
7F
100
AcDbEntity
  8
1
  6
CONTINUOUS
 62
           7
100
AcDbLine
 10
110.763073378541
 20
131.77119557111
 11
97.960084930605
 21
131.77119557111
  0
LINE
  5
7E
100
AcDbEntity
  8
1
  6
CONTINUOUS
 62
           2
100
AcDbLine
 10
204.766321631432
 20
126.286368013809
 11
199.28149407413
 21
135.786368013809
  0
LINE
  5
7D
100
AcDbEntity
  8
1
  6
CONTINUOUS
 62
           2
100
AcDbLine
 10
188.311838959528
 20
116.786368013809
 11
199.28149407413
 21
116.786368013809
  0
LINE
  5
7C
100
AcDbEntity
  8
1
  6
CONTINUOUS
 62
           2
100
AcDbLine
 10
182.827011402226
 20
126.286368013809
 11
188.311838959528
 21
116.786368013809
  0
LINE
  5
7B
100
AcDbEntity
  8
1
  6
CONTINUOUS
 62
           2
100
AcDbLine
 10
188.311838959528
 20
135.786368013809
 11
182.827011402226
 21
126.286368013809
  0
LINE
  5
7A
100
AcDbEntity
  8
1
  6
CONTINUOUS
 62
           2
100
AcDbLine
 10
199.28149407413
 20
135.786368013809
 11
188.311838959528
 21
135.786368013809
  0
LINE
  5
79
100
AcDbEntity
  8
1
  6
CONTINUOUS
 62
           2
100
AcDbLine
 10
204.766321631432
 20
126.286368013809
 11
199.28149407413
 21
135.786368013809
  0
LINE
  5
78
100
AcDbEntity
  8
1
  6
CONTINUOUS
 62
           2
100
AcDbLine
 10
199.28149407413
 20
116.786368013809
 11
204.766321631432
 21
126.286368013809
  0
LINE
  5
77
100
AcDbEntity
  8
1
  6
CONTINUOUS
 62
           7
100
AcDbLine
 10
191.124016786019
 20
71.786368013809
 11
190.786876946721
 21
72.370311344726
  0
LINE
  5
76
100
AcDbEntity
  8
1
  6
CONTINUOUS
 62
           7
100
AcDbLine
 10
193.796666516829
 20
71.786368013809
 11
191.124016786019
 21
71.786368013809
  0
LINE
  5
75
100
AcDbEntity
  8
1
  6
CONTINUOUS
 62
           7
100
AcDbLine
 10
196.469316247639
 20
71.786368013809
 11
193.796666516829
 21
71.786368013809
  0
LINE
  5
74
100
AcDbEntity
  8
1
  6
CONTINUOUS
 62
           7
100
AcDbLine
 10
196.806456086936
 20
72.370311344726
 11
196.469316247639
 21
71.786368013809
  0
LINE
  5
73
100
AcDbEntity
  8
1
  6
CONTINUOUS
 62
           7
100
AcDbLine
 10
190.786876946721
 20
180.202424682891
 11
191.124016786019
 21
180.786368013809
  0
LINE
  5
72
100
AcDbEntity
  8
1
  6
CONTINUOUS
 62
           7
100
AcDbLine
 10
191.124016786019
 20
180.786368013809
 11
193.796666516829
 21
180.786368013809
  0
LINE
  5
71
100
AcDbEntity
  8
1
  6
CONTINUOUS
 62
           7
100
AcDbLine
 10
193.796666516829
 20
180.786368013809
 11
196.469316247639
 21
180.786368013809
  0
LINE
  5
70
100
AcDbEntity
  8
1
  6
CONTINUOUS
 62
           7
100
AcDbLine
 10
196.469316247639
 20
180.786368013809
 11
196.806456086936
 21
180.202424682891
  0
LINE
  5
6F
100
AcDbEntity
  8
1
  6
CONTINUOUS
 62
           7
100
AcDbLine
 10
240.265922095493
 20
127.977014625251
 11
240.211385108027
 21
129.476022869723
  0
LINE
  5
6E
100
AcDbEntity
  8
1
  6
CONTINUOUS
 62
           7
100
AcDbLine
 10
228.753564740686
 20
130.560156329451
 11
238.657839876088
 21
130.920494126731
  0
LINE
  5
6D
100
AcDbEntity
  8
1
  6
CONTINUOUS
 62
           7
100
AcDbLine
 10
238.875987825952
 20
124.924461148839
 11
228.971712690549
 21
124.564123351558
  0
LINE
  5
6C
100
AcDbEntity
  8
1
  6
CONTINUOUS
 62
           7
100
AcDbLine
 10
240.320459082959
 20
126.478006380777
 11
240.265922095493
 21
127.977014625251
  0
LINE
  5
6B
100
AcDbEntity
  8
1
  6
DOTTED
 62
           2
100
AcDbLine
 10
202.831369060962
 20
129.951971639275
 11
207.956156899277
 21
132.031225581297
  0
LINE
  5
6A
100
AcDbEntity
  8
1
  6
CONTINUOUS
 62
           7
100
AcDbLine
 10
52.411579154573
 20
141.786368013809
 11
58.800994603555
 21
141.46689724136
  0
LINE
  5
69
100
AcDbEntity
  8
1
  6
CONTINUOUS
 62
           7
100
AcDbLine
 10
59.343058307787
 20
141.439794056148
 11
59.320120859597
 21
141.286368013809
  0
LINE
  5
68
100
AcDbEntity
  8
1
  6
CONTINUOUS
 62
           7
100
AcDbLine
 10
59.343058307787
 20
141.439794056148
 11
58.861641537629
 21
141.463864894656
  0
LINE
  5
67
100
AcDbEntity
  8
1
  6
CONTINUOUS
 62
           7
100
AcDbLine
 10
63.820120859597
 20
141.386368013809
 11
63.820120859597
 21
126.286368013809
  0
LINE
  5
66
100
AcDbEntity
  8
1
  6
CONTINUOUS
 62
           7
100
AcDbLine
 10
45.574001496082
 20
179.329781626063
 11
20.320120859597
 21
180.286368013809
  0
LINE
  5
65
100
AcDbEntity
  8
1
  6
CONTINUOUS
 62
           7
100
AcDbLine
 10
20.320120859597
 20
180.286368013809
 11
20.320120859597
 21
173.286368013809
  0
LINE
  5
64
100
AcDbEntity
  8
1
  6
CONTINUOUS
 62
           7
100
AcDbLine
 10
76.320120859597
 20
138.286368013809
 11
74.320120859597
 21
139.286368013809
  0
LINE
  5
63
100
AcDbEntity
  8
1
  6
CONTINUOUS
 62
           7
100
AcDbLine
 10
76.320120859597
 20
138.286368013809
 11
76.320120859597
 21
135.786368013809
  0
LINE
  5
62
100
AcDbEntity
  8
1
  6
CONTINUOUS
 62
           7
100
AcDbLine
 10
63.820120859597
 20
141.386368013809
 11
59.320120859597
 21
141.286368013809
  0
LINE
  5
61
100
AcDbEntity
  8
1
  6
CONTINUOUS
 62
           7
100
AcDbLine
 10
63.820120859597
 20
111.186368013809
 11
59.320120859597
 21
141.286368013809
  0
LINE
  5
60
100
AcDbEntity
  8
1
  6
CONTINUOUS
 62
           7
100
AcDbLine
 10
63.820120859597
 20
142.018006299362
 11
63.820120859597
 21
141.386368013809
  0
LINE
  5
5F
100
AcDbEntity
  8
1
  6
CONTINUOUS
 62
           7
100
AcDbLine
 10
74.320120859597
 20
139.330759498027
 11
74.320120859597
 21
139.286368013809
  0
LINE
  5
5E
100
AcDbEntity
  8
1
  6
CONTINUOUS
 62
           7
100
AcDbLine
 10
76.320120859597
 20
126.286368013809
 11
76.320120859597
 21
135.786368013809
  0
LINE
  5
5D
100
AcDbEntity
  8
1
  6
CONTINUOUS
 62
           7
100
AcDbLine
 10
42.125003903578
 20
172.988960249132
 11
20.320120859597
 21
173.286368013809
  0
LINE
  5
5C
100
AcDbEntity
  8
1
  6
CONTINUOUS
 62
           7
100
AcDbLine
 10
199.796666516829
 20
170.034628944622
 11
199.796666516829
 21
156.398302171922
  0
LINE
  5
5B
100
AcDbEntity
  8
1
  6
CONTINUOUS
 62
           7
100
AcDbLine
 10
187.796666516829
 20
156.398302171922
 11
187.796666516829
 21
170.034628944622
  0
LINE
  5
5A
100
AcDbEntity
  8
1
  6
CONTINUOUS
 62
           7
100
AcDbLine
 10
185.296666516829
 20
172.511361253397
 11
185.296666516829
 21
177.878518579568
  0
LINE
  5
59
100
AcDbEntity
  8
1
  6
CONTINUOUS
 62
           7
100
AcDbLine
 10
185.296666516829
 20
172.511361253397
 11
185.585560034147
 21
172.483030305663
  0
LINE
  5
58
100
AcDbEntity
  8
1
  6
CONTINUOUS
 62
           7
100
AcDbLine
 10
202.296666516829
 20
177.878518579568
 11
202.296666516829
 21
172.511361253397
  0
LINE
  5
57
100
AcDbEntity
  8
1
  6
CONTINUOUS
 62
           7
100
AcDbLine
 10
202.007772999511
 20
172.483030305663
 11
202.296666516829
 21
172.511361253397
  0
LINE
  5
56
100
AcDbEntity
  8
1
  6
CONTINUOUS
 62
           7
100
AcDbLine
 10
199.796666516829
 20
96.174433855695
 11
199.796666516829
 21
82.538107082995
  0
LINE
  5
55
100
AcDbEntity
  8
1
  6
CONTINUOUS
 62
           7
100
AcDbLine
 10
187.796666516829
 20
82.538107082995
 11
187.796666516829
 21
96.174433855695
  0
LINE
  5
54
100
AcDbEntity
  8
1
  6
CONTINUOUS
 62
           7
100
AcDbLine
 10
185.296666516829
 20
74.694217448049
 11
185.296666516829
 21
80.06137477422
  0
LINE
  5
53
100
AcDbEntity
  8
1
  6
CONTINUOUS
 62
           7
100
AcDbLine
 10
185.585560034147
 20
80.089705721954
 11
185.296666516829
 21
80.06137477422
  0
LINE
  5
52
100
AcDbEntity
  8
1
  6
CONTINUOUS
 62
           7
100
AcDbLine
 10
202.296666516829
 20
80.06137477422
 11
202.296666516829
 21
74.694217448049
  0
LINE
  5
51
100
AcDbEntity
  8
1
  6
CONTINUOUS
 62
           7
100
AcDbLine
 10
202.296666516829
 20
80.06137477422
 11
202.007772999511
 21
80.089705721954
  0
LINE
  5
50
100
AcDbEntity
  8
1
  6
CONTINUOUS
 62
           7
100
AcDbLine
 10
74.320120859597
 20
126.286368013809
 11
74.320120859597
 21
138.689229771751
  0
LINE
  5
4F
100
AcDbEntity
  8
1
  6
CONTINUOUS
 62
           7
100
AcDbLine
 10
27.542309866172
 20
180.012800248408
 11
27.988929423763
 21
180.786368013809
  0
LINE
  5
4E
100
AcDbEntity
  8
1
  6
CONTINUOUS
 62
           7
100
AcDbLine
 10
33.911579154573
 20
173.1009872795
 11
33.911579154573
 21
170.686368013809
  0
LINE
  5
4D
100
AcDbEntity
  8
1
  6
CONTINUOUS
 62
           7
100
AcDbLine
 10
24.911579154573
 20
168.286368013809
 11
24.911579154573
 21
126.286368013809
  0
LINE
  5
4C
100
AcDbEntity
  8
1
  6
CONTINUOUS
 62
           7
100
AcDbLine
 10
-85.088420845427
 20
179.286368013809
 11
-85.088420845427
 21
126.286368013809
  0
LINE
  5
4B
100
AcDbEntity
  8
1
  6
CONTINUOUS
 62
           7
100
AcDbLine
 10
-100.588420845427
 20
180.086368013809
 11
-85.088420845427
 21
180.086368013809
  0
LINE
  5
4A
100
AcDbEntity
  8
1
  6
CONTINUOUS
 62
           7
100
AcDbLine
 10
-102.088420845427
 20
178.586368013809
 11
-102.088420845427
 21
177.922710453701
  0
LINE
  5
49
100
AcDbEntity
  8
1
  6
CONTINUOUS
 62
           7
100
AcDbLine
 10
-85.088420845427
 20
180.086368013809
 11
-85.088420845427
 21
179.286368013809
  0
LINE
  5
48
100
AcDbEntity
  8
1
  6
CONTINUOUS
 62
           7
100
AcDbLine
 10
-102.088420845427
 20
126.286368013809
 11
-102.088420845427
 21
177.922710453701
  0
LINE
  5
47
100
AcDbEntity
  8
1
  6
CONTINUOUS
 62
           7
100
AcDbLine
 10
-76.812863913481
 20
179.286368013809
 11
-85.088420845427
 21
179.286368013809
  0
LINE
  5
46
100
AcDbEntity
  8
1
  6
CONTINUOUS
 62
           7
100
AcDbLine
 10
-8.915000231789
 20
179.286368013809
 11
-76.812863913481
 21
179.286368013809
  0
LINE
  5
45
100
AcDbEntity
  8
1
  6
CONTINUOUS
 62
           7
100
AcDbLine
 10
24.911579154573
 20
168.286368013809
 11
24.911579154573
 21
169.286368013809
  0
LINE
  5
44
100
AcDbEntity
  8
1
  6
DOT_CENTER
 62
           2
100
AcDbLine
 10
30.661579154573
 20
160.986813944156
 11
30.661579154573
 21
183.738151239362
  0
LINE
  5
43
100
AcDbEntity
  8
1
  6
CONTINUOUS
 62
           7
100
AcDbLine
 10
35.661579154573
 20
170.686368013809
 11
35.661579154573
 21
169.286368013809
  0
LINE
  5
42
100
AcDbEntity
  8
1
  6
CONTINUOUS
 62
           7
100
AcDbLine
 10
33.911579154573
 20
170.686368013809
 11
35.661579154573
 21
170.686368013809
  0
LINE
  5
41
100
AcDbEntity
  8
1
  6
CONTINUOUS
 62
           7
100
AcDbLine
 10
30.661579154573
 20
170.686368013809
 11
33.911579154573
 21
170.686368013809
  0
LINE
  5
40
100
AcDbEntity
  8
1
  6
CONTINUOUS
 62
           7
100
AcDbLine
 10
33.334228885383
 20
180.786368013809
 11
33.920331492321
 21
179.771208520145
  0
LINE
  5
3F
100
AcDbEntity
  8
1
  6
CONTINUOUS
 62
           7
100
AcDbLine
 10
30.661579154573
 20
180.786368013809
 11
33.334228885383
 21
180.786368013809
  0
LINE
  5
3E
100
AcDbEntity
  8
1
  6
CONTINUOUS
 62
           7
100
AcDbLine
 10
27.988929423763
 20
180.786368013809
 11
30.661579154573
 21
180.786368013809
  0
LINE
  5
3D
100
AcDbEntity
  8
1
  6
CONTINUOUS
 62
           7
100
AcDbLine
 10
27.411579154573
 20
170.686368013809
 11
27.411579154573
 21
173.189644048101
  0
LINE
  5
3C
100
AcDbEntity
  8
1
  6
CONTINUOUS
 62
           7
100
AcDbLine
 10
25.661579154573
 20
170.686368013809
 11
27.411579154573
 21
170.686368013809
  0
LINE
  5
3B
100
AcDbEntity
  8
1
  6
CONTINUOUS
 62
           7
100
AcDbLine
 10
27.411579154573
 20
170.686368013809
 11
30.661579154573
 21
170.686368013809
  0
LINE
  5
3A
100
AcDbEntity
  8
1
  6
CONTINUOUS
 62
           7
100
AcDbLine
 10
25.661579154573
 20
169.286368013809
 11
25.661579154573
 21
170.686368013809
  0
LINE
  5
39
100
AcDbEntity
  8
1
  6
CONTINUOUS
 62
           7
100
AcDbLine
 10
26.411579154573
 20
169.286368013809
 11
25.661579154573
 21
169.286368013809
  0
LINE
  5
38
100
AcDbEntity
  8
1
  6
CONTINUOUS
 62
           7
100
AcDbLine
 10
25.661579154573
 20
169.286368013809
 11
24.911579154573
 21
169.286368013809
  0
LINE
  5
37
100
AcDbEntity
  8
1
  6
CONTINUOUS
 62
           7
100
AcDbLine
 10
37.111579154573
 20
169.286368013809
 11
26.411579154573
 21
169.286368013809
  0
LINE
  5
36
100
AcDbEntity
  8
1
  6
CONTINUOUS
 62
           7
100
AcDbLine
 10
84.111579154573
 20
133.401368013809
 11
84.111579154573
 21
126.161368013809
  0
LINE
  5
35
100
AcDbEntity
  8
1
  6
CONTINUOUS
 62
           7
100
AcDbLine
 10
83.146713698798
 20
134.945289064988
 11
76.320120859597
 21
135.185286469491
  0
LINE
  5
34
100
AcDbEntity
  8
1
  6
CENTER_DASH_DASH
 62
           2
100
AcDbLine
 10
84.111579154573
 20
133.945906473684
 11
84.111579154573
 21
133.401368013809
  0
LINE
  5
33
100
AcDbEntity
  8
1
  6
CONTINUOUS
 62
           7
100
AcDbLine
 10
52.111579154573
 20
137.484560323996
 11
52.111579154573
 21
141.786368013809
  0
LINE
  5
32
100
AcDbEntity
  8
1
  6
CONTINUOUS
 62
           7
100
AcDbLine
 10
37.111579154573
 20
172.000183658796
 11
37.111579154573
 21
126.286368013809
  0
LINE
  5
31
100
AcDbEntity
  8
1
  6
CONTINUOUS
 62
           7
100
AcDbLine
 10
51.695448544777
 20
141.786368013809
 11
52.111579154573
 21
141.786368013809
  0
LINE
  5
30
100
AcDbEntity
  8
1
  6
CONTINUOUS
 62
           7
100
AcDbLine
 10
44.022759889369
 20
170.562396248006
 11
43.983249240938
 21
170.708401034792
  0
LINE
  5
2F
100
AcDbEntity
  8
1
  6
CONTINUOUS
 62
           7
100
AcDbLine
 10
37.646457391445
 20
172.498965683926
 11
42.192201671336
 21
172.181096278523
  0
LINE
  5
2E
100
AcDbEntity
  8
1
  6
DOT_CENTER
 62
           2
100
AcDbLine
 10
166.796666516829
 20
123.480320419387
 11
166.796666516829
 21
129.065775564232
  0
LINE
  5
2D
100
AcDbEntity
  8
1
  6
CONTINUOUS
 62
           7
100
AcDbLine
 10
52.111579154573
 20
141.786368013809
 11
52.111579154573
 21
126.286368013809
  0
LINE
  5
2C
100
AcDbEntity
  8
1
  6
CONTINUOUS
 62
           7
100
AcDbLine
 10
43.611579154573
 20
126.286368013809
 11
43.611579154573
 21
170.562396248006
  0
LINE
  5
2B
100
AcDbEntity
  8
1
  6
CONTINUOUS
 62
           7
100
AcDbLine
 10
49.971579154573
 20
126.286368013809
 11
49.971579154573
 21
141.316948992461
  0
LINE
  5
2A
100
AcDbEntity
  8
1
  6
DOT_CENTER
 62
           2
100
AcDbLine
 10
252.795983736586
 20
126.286368013809
 11
133.750176595567
 21
126.286368013809
  0
LINE
  5
29
100
AcDbEntity
  8
1
  6
DOT_CENTER
 62
           2
100
AcDbLine
 10
193.796666516829
 20
66.907829866317
 11
193.796666516829
 21
186.078602801626
  0
LINE
  5
28
100
AcDbEntity
  8
1
  6
DOT_CENTER
 62
           2
100
AcDbLine
 10
-122.95616083946
 20
126.286368013809
 11
119.519539566718
 21
126.286368013809
  0
ENDSEC
  0
SECTION
  2
OBJECTS
  0
DICTIONARY
  5
19
100
AcDbDictionary
  3
ACAD_GROUP
350
1A
  3
ACAD_MLINESTYLE
350
1B
  0
DICTIONARY
  5
1A
102
{ACAD_REACTORS
330
19
102
}
100
AcDbDictionary
  0
DICTIONARY
  5
1B
102
{ACAD_REACTORS
330
19
102
}
100
AcDbDictionary
  3
STANDARD
350
1C
  0
MLINESTYLE
  5
1C
102
{ACAD_REACTORS
330
1B
102
}
100
AcDbMlineStyle
  2
STANDARD
 70
           0
  3

 62
           0
 51
90.0
 52
90.0
 71
           2
 49
0.5
 62
         256
  6
BYLAYER
 49
-0.5
 62
         256
  6
BYLAYER
  0
ENDSEC
  0
EOF
