  0
SECTION
  2
HEADER
  9
$ACADVER
  1
AC1014
  9
$ACADMAINTVER
 70
           0
  9
$DWGCODEPAGE
  3
DOS932
  9
$INSBASE
 10
0.0
 20
0.0
 30
0.0
  9
$EXTMIN
 10
1.000000000000E+20
 20
1.000000000000E+20
 30
1.000000000000E+20
  9
$EXTMAX
 10
-1.000000000000E+20
 20
-1.000000000000E+20
 30
-1.000000000000E+20
  9
$LIMMIN
 10
0.0
 20
0.0
  9
$LIMMAX
 10
0.0
 20
0.0
  9
$ORTHOMODE
 70
           0
  9
$REGENMODE
 70
           1
  9
$FILLMODE
 70
           1
  9
$QTEXTMODE
 70
           0
  9
$MIRRTEXT
 70
           1
  9
$DRAGMODE
 70
           2
  9
$LTSCALE
 40
1.0
  9
$OSMODE
 70
           0
  9
$ATTMODE
 70
           1
  9
$TEXTSIZE
 40
0.2
  9
$TRACEWID
 40
0.05
  9
$TEXTSTYLE
  7
STANDARD
  9
$CLAYER
  8
0
  9
$CELTYPE
  6
CONTINUOUS
  9
$CECOLOR
 62
         256
  9
$CELTSCALE
 40
1.0
  9
$DELOBJ
 70
           1
  9
$DISPSILH
 70
           0
  9
$DIMSCALE
 40
1.0
  9
$DIMASZ
 40
0.18
  9
$DIMEXO
 40
0.0625
  9
$DIMDLI
 40
0.38
  9
$DIMRND
 40
0.0
  9
$DIMDLE
 40
0.0
  9
$DIMEXE
 40
0.18
  9
$DIMTP
 40
0.0
  9
$DIMTM
 40
0.0
  9
$DIMTXT
 40
0.18
  9
$DIMCEN
 40
0.09
  9
$DIMTSZ
 40
0.0
  9
$DIMTOL
 70
           0
  9
$DIMLIM
 70
           0
  9
$DIMTIH
 70
           1
  9
$DIMTOH
 70
           1
  9
$DIMSE1
 70
           0
  9
$DIMSE2
 70
           0
  9
$DIMTAD
 70
           0
  9
$DIMZIN
 70
           0
  9
$DIMBLK
  1

  9
$DIMASO
 70
           1
  9
$DIMSHO
 70
           1
  9
$DIMPOST
  1

  9
$DIMAPOST
  1

  9
$DIMALT
 70
           0
  9
$DIMALTD
 70
           2
  9
$DIMALTF
 40
25.4
  9
$DIMLFAC
 40
1.0
  9
$DIMTOFL
 70
           0
  9
$DIMTVP
 40
0.0
  9
$DIMTIX
 70
           0
  9
$DIMSOXD
 70
           0
  9
$DIMSAH
 70
           0
  9
$DIMBLK1
  1

  9
$DIMBLK2
  1

  9
$DIMSTYLE
  2
STANDARD
  9
$DIMCLRD
 70
           0
  9
$DIMCLRE
 70
           0
  9
$DIMCLRT
 70
           0
  9
$DIMTFAC
 40
1.0
  9
$DIMGAP
 40
0.09
  9
$DIMJUST
 70
           0
  9
$DIMSD1
 70
           0
  9
$DIMSD2
 70
           0
  9
$DIMTOLJ
 70
           1
  9
$DIMTZIN
 70
           0
  9
$DIMALTZ
 70
           0
  9
$DIMALTTZ
 70
           0
  9
$DIMFIT
 70
           3
  9
$DIMUPT
 70
           0
  9
$DIMUNIT
 70
           2
  9
$DIMDEC
 70
           4
  9
$DIMTDEC
 70
           4
  9
$DIMALTU
 70
           2
  9
$DIMALTTD
 70
           2
  9
$DIMTXSTY
  7
STANDARD
  9
$DIMAUNIT
 70
           0
  9
$LUNITS
 70
           2
  9
$LUPREC
 70
           4
  9
$SKETCHINC
 40
0.1
  9
$FILLETRAD
 40
0.0
  9
$AUNITS
 70
           0
  9
$AUPREC
 70
           0
  9
$MENU
  1
acad
  9
$ELEVATION
 40
0.0
  9
$PELEVATION
 40
0.0
  9
$THICKNESS
 40
0.0
  9
$LIMCHECK
 70
           0
  9
$BLIPMODE
 70
           1
  9
$CHAMFERA
 40
0.0
  9
$CHAMFERB
 40
0.0
  9
$CHAMFERC
 40
0.0
  9
$CHAMFERD
 40
0.0
  9
$SKPOLY
 70
           0
  9
$TDCREATE
 40
0.000000000
  9
$TDUPDATE
 40
0.000000000
  9
$TDINDWG
 40
0.0000000000
  9
$TDUSRTIMER
 40
0.0000000000
  9
$USRTIMER
 70
           1
  9
$ANGBASE
 50
0.0
  9
$ANGDIR
 70
           0
  9
$PDMODE
 70
           0
  9
$PDSIZE
 40
0.0
  9
$PLINEWID
 40
0.0
  9
$COORDS
 70
           0
  9
$SPLFRAME
 70
           0
  9
$SPLINETYPE
 70
           6
  9
$SPLINESEGS
 70
           8
  9
$ATTDIA
 70
           0
  9
$ATTREQ
 70
           1
  9
$HANDLING
 70
           1
  9
$HANDSEED
  5
164
  9
$SURFTAB1
 70
           6
  9
$SURFTAB2
 70
           6
  9
$SURFTYPE
 70
           6
  9
$SURFU
 70
           6
  9
$SURFV
 70
           6
  9
$UCSNAME
  2

  9
$UCSORG
 10
0.0
 20
0.0
 30
0.0
  9
$UCSXDIR
 10
1.0
 20
0.0
 30
0.0
  9
$UCSYDIR
 10
0.0
 20
1.0
 30
0.0
  9
$PUCSNAME
  2

  9
$PUCSORG
 10
0.0
 20
0.0
 30
0.0
  9
$PUCSXDIR
 10
1.0
 20
0.0
 30
0.0
  9
$PUCSYDIR
 10
0.0
 20
1.0
 30
0.0
  9
$USERI1
 70
           0
  9
$USERI2
 70
           0
  9
$USERI3
 70
           0
  9
$USERI4
 70
           0
  9
$USERI5
 70
           0
  9
$USERR1
 40
0.0
  9
$USERR2
 40
0.0
  9
$USERR3
 40
0.0
  9
$USERR4
 40
0.0
  9
$USERR5
 40
0.0
  9
$WORLDVIEW
 70
           1
  9
$SHADEDGE
 70
           3
  9
$SHADEDIF
 70
          70
  9
$TILEMODE
 70
           1
  9
$MAXACTVP
 70
          16
  9
$PINSBASE
 10
0.0
 20
0.0
 30
0.0
  9
$PLIMCHECK
 70
           0
  9
$PEXTMIN
 10
1.000000000000E+20
 20
1.000000000000E+20
 30
1.000000000000E+20
  9
$PEXTMAX
 10
-1.000000000000E+20
 20
-1.000000000000E+20
 30
-1.000000000000E+20
  9
$PLIMMIN
 10
0.0
 20
0.0
  9
$PLIMMAX
 10
12.0
 20
9.0
  9
$UNITMODE
 70
           0
  9
$VISRETAIN
 70
           0
  9
$PLINEGEN
 70
           1
  9
$PSLTSCALE
 70
           0
  9
$TREEDEPTH
 70
        3020
  9
$PICKSTYLE
 70
           1
  9
$CMLSTYLE
  2
STANDARD
  9
$CMLJUST
 70
           0
  9
$CMLSCALE
 40
1.0
  9
$PROXYGRAPHICS
 70
           0
  9
$MEASUREMENT
 70
           0
  0
ENDSEC
  0
SECTION
  2
CLASSES
  0
CLASS
  1
LWPOLYLINE
  2
AcDbPolyline
  3
"AutoCAD"
 90
        0
280
           0
281
           1
  0
CLASS
  1
IMAGE
  2
AcDbRasterImage
  3
ISM
 90
      127
280
           0
281
           1
  0
CLASS
  1
OLE2FRAME
  2
AcDbOle2Frame
  3
""
 90
        0
280
           0
281
           1
  0
CLASS
  1
HATCH
  2
AcDbHatch
  3
"ACAD_SEDONA"
 90
        0
280
           0
281
           1
  0
CLASS
  1
DICTIONARYVAR
  2
AcDbDictionaryVar
  3
"AutoCAD"
 90
        0
280
           0
281
           0
  0
CLASS
  1
RASTERVARIABLES
  2
AcDbRasterVariables
  3
ISM
 90
        0
280
           0
281
           0
  0
CLASS
  1
IMAGEDEF
  2
AcDbRasterImageDef
  3
ISM
 90
        0
280
           0
281
           0
  0
CLASS
  1
IMAGEDEF_REACTOR
  2
AcDbRasterImageDefReactor
  3
ISM
 90
        1
280
           0
281
           0
  0
CLASS
  1
IDBUFFER
  2
AcDbIdBuffer
  3
"Acad"
 90
        0
280
           0
281
           0
  0
CLASS
  1
SPATIAL_FILTER
  2
AcDbSpatialFilter
  3
"Acad"
 90
        0
280
           0
281
           0
  0
CLASS
  1
XRECORD
  2
AcDbXrecord
  3
"<Built In>"
 90
        0
280
           0
281
           0
  0
CLASS
  1
SORTENTSTABLE
  2
AcDbSortentsTable
  3
"AutoCAD"
 90
        0
280
           0
281
           0
  0
CLASS
  1
LAYER_INDEX
  2
AcDbLayerIndex
  3
"Acad"
 90
        0
280
           0
281
           0
  0
CLASS
  1
SPATIAL_INDEX
  2
AcDbSpatialIndex
  3
"Acad"
 90
        0
280
           0
281
           0
  0
CLASS
  1
OBJECT_PTR
  2
CAseDLPNTableRecord
  3
"ASE-LPNTableRecord"
 90
        1
280
           0
281
           0
  0
CLASS
  1
LAYOUT
  2
AcDbLayout
  3
"AutoCAD 2000"
 90
        1
280
           0
281
           0
  0
CLASS
  1
PLOTSETTINGS
  2
AcDbPlotSettings
  3
"AutoCAD 2000"
 90
        1
280
           0
281
           0
  0
CLASS
  1
ACDBDICTIONARYWDFLT
  2
AcDbDictionaryWithDefault
  3
"AutoCAD 2000"
 90
        1
280
           0
281
           0
  0
CLASS
  1
ACDBPLACEHOLDER
  2
AcDbPlaceHolder
  3
"AutoCAD 2000"
 90
        1
280
           0
281
           0
  0
CLASS
  1
VBA_PROJECT
  2
AcDbVbaProject
  3
"acadvba"
 90
        1
280
           0
281
           0
  0
CLASS
  1
WIPEOUT
  2
AcDbWipeout
  3
WipeOut|AutoCAD Express Tool|expresstools@autodesk.com
 90
      127
280
           0
281
           1
  0
CLASS
  1
WIPEOUTVARIABLES
  2
AcDbWipeoutVariables
  3
WipeOut|AutoCAD Express Tool|expresstools@autodesk.com
 90
        0
280
           0
281
           0
  0
CLASS
  1
RTEXT
  2
RText
  3
RText|AutoCAD Express Tool|expresstools@autodesk.com
 90
        0
280
           0
281
           1
  0
CLASS
  1
ARCALIGNEDTEXT
  2
AcDbArcAlignedText
  3
ATEXT|AutoCAD Express Tool|expresstools@autodesk.com
 90
        0
280
           0
281
           1
  0
ENDSEC
  0
SECTION
  2
TABLES
  0
TABLE
  2
VPORT
  5
7
100
AcDbSymbolTable
 70
           1
  0
VPORT
  5
15
100
AcDbSymbolTableRecord
100
AcDbViewportTableRecord
  2
*ACTIVE
 70
           0
 10
0.0
 20
0.0
 11
1.0
 21
1.0
 12
6.591288
 22
4.579184
 13
0.0
 23
0.0
 14
1.0
 24
1.0
 15
0.0
 25
0.0
 16
0.0
 26
0.0
 36
1.0
 17
0.0
 27
0.0
 37
0.0
 40
9.158369
 41
0.688564
 42
50.0
 43
0.0
 44
0.0
 50
0.0
 51
0.0
 71
           0
 72
         100
 73
           1
 74
           1
 75
           0
 76
           0
 77
           0
 78
           0
  0
ENDTAB
  0
TABLE
  2
LTYPE
  5
4
100
AcDbSymbolTable
 70
          10
  0
LTYPE
  5
11
100
AcDbSymbolTableRecord
100
AcDbLinetypeTableRecord
  2
BYBLOCK
 70
          64
  3

 72
          65
 73
           0
 40
0.0
  0
LTYPE
  5
12
100
AcDbSymbolTableRecord
100
AcDbLinetypeTableRecord
  2
BYLAYER
 70
          64
  3

 72
          65
 73
           0
 40
0.0
  0
LTYPE
  5
13
100
AcDbSymbolTableRecord
100
AcDbLinetypeTableRecord
  2
CONTINUOUS
 70
          64
  3
Solid line
 72
          65
 73
           0
 40
0.0
  0
LTYPE
  5
1D
100
AcDbSymbolTableRecord
100
AcDbLinetypeTableRecord
  2
DASHED
 70
          64
  3
Dashed
 72
          65
 73
           2
 40
15.0
 49
12.0
 74
           0
 49
-3.0
 74
           0
  0
LTYPE
  5
1E
100
AcDbSymbolTableRecord
100
AcDbLinetypeTableRecord
  2
DOTTED
 70
          64
  3
Dotted
 72
          65
 73
           2
 40
3.5
 49
0.5
 74
           0
 49
-3.0
 74
           0
  0
LTYPE
  5
1F
100
AcDbSymbolTableRecord
100
AcDbLinetypeTableRecord
  2
DOT_CENTER
 70
          64
  3
Dot_Center
 72
          65
 73
           4
 40
2.0
 49
1.25
 74
           0
 49
-0.25
 74
           0
 49
0.25
 74
           0
 49
-0.25
 74
           0
  0
LTYPE
  5
20
100
AcDbSymbolTableRecord
100
AcDbLinetypeTableRecord
  2
LONG_DASHED
 70
          64
  3
Long_Dashed
 72
          65
 73
           2
 40
2.0
 49
1.5
 74
           0
 49
-0.5
 74
           0
  0
LTYPE
  5
21
100
AcDbSymbolTableRecord
100
AcDbLinetypeTableRecord
  2
DASH_CENTER
 70
          64
  3
Dash_Center
 72
          65
 73
           4
 40
36.0
 49
24.0
 74
           0
 49
-3.0
 74
           0
 49
6.0
 74
           0
 49
-3.0
 74
           0
  0
LTYPE
  5
22
100
AcDbSymbolTableRecord
100
AcDbLinetypeTableRecord
  2
PHANTOM
 70
          64
  3
Phantom
 72
          65
 73
           6
 40
2.5
 49
1.25
 74
           0
 49
-0.25
 74
           0
 49
0.25
 74
           0
 49
-0.25
 74
           0
 49
0.25
 74
           0
 49
-0.25
 74
           0
  0
LTYPE
  5
23
100
AcDbSymbolTableRecord
100
AcDbLinetypeTableRecord
  2
CENTER_DASH_DASH
 70
          64
  3
Center_Dash_Dash
 72
          65
 73
           6
 40
22.0
 49
12.0
 74
           0
 49
-3.0
 74
           0
 49
0.5
 74
           0
 49
-3.0
 74
           0
 49
0.5
 74
           0
 49
-3.0
 74
           0
  0
ENDTAB
  0
TABLE
  2
LAYER
  5
2
100
AcDbSymbolTable
 70
           2
  0
LAYER
  5
14
100
AcDbSymbolTableRecord
100
AcDbLayerTableRecord
  2
0
 70
           0
 62
           7
  6
CONTINUOUS
  0
LAYER
  5
24
100
AcDbSymbolTableRecord
100
AcDbLayerTableRecord
  2
1
 70
           0
 62
           7
  6
CONTINUOUS
  0
ENDTAB
  0
TABLE
  2
STYLE
  5
3
100
AcDbSymbolTable
 70
           3
  0
STYLE
  5
17
100
AcDbSymbolTableRecord
100
AcDbTextStyleTableRecord
  2
STANDARD
 70
           0
 40
0.0
 41
1.0
 50
0.0
 71
           0
 42
0.0
  3
txt
  4

  0
STYLE
  5
152
100
AcDbSymbolTableRecord
100
AcDbTextStyleTableRecord
  2
CONVERTER_1
 70
           0
 40
0.0
 41
0.89
 50
0.0
 71
           0
 42
0.0
  3
MS Mincho.ttf
  4

1001
ACAD
1000
MS Mincho
1071
    32785
  0
STYLE
  5
15E
100
AcDbSymbolTableRecord
100
AcDbTextStyleTableRecord
  2
CONVERTER_2
 70
           0
 40
0.0
 41
0.9
 50
0.0
 71
           0
 42
0.0
  3
txt.shx
  4

  0
ENDTAB
  0
TABLE
  2
VIEW
  5
5
100
AcDbSymbolTable
 70
           0
  0
ENDTAB
  0
TABLE
  2
UCS
  5
6
100
AcDbSymbolTable
 70
           0
  0
ENDTAB
  0
TABLE
  2
APPID
  5
8
100
AcDbSymbolTable
 70
           1
  0
APPID
  5
16
100
AcDbSymbolTableRecord
100
AcDbRegAppTableRecord
  2
ACAD
 70
           0
  0
ENDTAB
  0
TABLE
  2
DIMSTYLE
  5
9
100
AcDbSymbolTable
 70
           3
  0
DIMSTYLE
105
18
100
AcDbSymbolTableRecord
100
AcDbDimStyleTableRecord
  2
STANDARD
 70
           0
  3

  4

  5

  6

  7

 40
1.0
 41
0.18
 42
0.0625
 43
0.38
 44
0.18
 45
0.0
 46
0.0
 47
0.0
 48
0.0
 71
           0
 72
           0
 73
           1
 74
           1
 75
           0
 76
           0
 77
           0
 78
           0
140
0.18
141
0.09
142
0.0
143
25.4
144
1.0
145
0.0
146
1.0
147
0.09
170
           0
171
           2
172
           0
173
           0
174
           0
175
           0
176
           0
177
           0
178
           0
270
           2
271
           4
272
           4
273
           2
274
           2
275
           0
280
           0
281
           0
282
           0
283
           1
284
           0
285
           0
286
           0
287
           0
288
           0
340
17
  0
DIMSTYLE
105
155
100
AcDbSymbolTableRecord
100
AcDbDimStyleTableRecord
  2
ME10_DIM_0
 70
           0
  3
ó<>
  4

  5

  6

  7

 40
1.0
 41
5.6
 42
1.6
 43
0.38
 44
2.0
 45
0.0
 46
0.0
 47
0.0
 48
0.0
 71
           0
 72
           0
 73
           0
 74
           0
 75
           0
 76
           0
 77
           1
 78
           8
140
5.6
141
0.09
142
0.0
143
25.4
144
1.0
145
0.0
146
1.0
147
0.09
170
           0
171
           2
172
           0
173
           1
174
           0
175
           0
176
           2
177
           2
178
           2
270
           2
271
           3
272
           4
273
           2
274
           2
275
           0
280
           0
281
           0
282
           0
283
           1
284
           0
285
           0
286
           0
287
           3
288
           0
340
17
  0
DIMSTYLE
105
161
100
AcDbSymbolTableRecord
100
AcDbDimStyleTableRecord
  2
ME10_DIM_1
 70
           0
  3

  4

  5

  6

  7

 40
1.0
 41
5.6
 42
1.6
 43
0.38
 44
2.0
 45
0.0
 46
0.0
 47
0.0
 48
0.0
 71
           0
 72
           0
 73
           0
 74
           0
 75
           0
 76
           0
 77
           1
 78
           8
140
5.6
141
0.09
142
0.0
143
25.4
144
1.0
145
0.0
146
1.0
147
0.09
170
           0
171
           2
172
           0
173
           1
174
           0
175
           0
176
           2
177
           2
178
           2
270
           2
271
           0
272
           4
273
           2
274
           2
275
           0
280
           0
281
           0
282
           0
283
           1
284
           0
285
           0
286
           0
287
           3
288
           0
340
17
  0
ENDTAB
  0
TABLE
  2
BLOCK_RECORD
  5
1
100
AcDbSymbolTable
 70
           2
  0
BLOCK_RECORD
  5
A
100
AcDbSymbolTableRecord
100
AcDbBlockTableRecord
  2
*MODEL_SPACE
  0
BLOCK_RECORD
  5
B
100
AcDbSymbolTableRecord
100
AcDbBlockTableRecord
  2
*PAPER_SPACE
  0
BLOCK_RECORD
  5
14B
100
AcDbSymbolTableRecord
100
AcDbBlockTableRecord
  2
*D0
  0
BLOCK_RECORD
  5
157
100
AcDbSymbolTableRecord
100
AcDbBlockTableRecord
  2
*D1
  0
ENDTAB
  0
ENDSEC
  0
SECTION
  2
BLOCKS
  0
BLOCK
  5
D
100
AcDbEntity
  8
0
100
AcDbBlockBegin
  2
*MODEL_SPACE
 70
           0
 10
0.0
 20
0.0
 30
0.0
  3
*MODEL_SPACE
  1

  0
ENDBLK
  5
E
100
AcDbEntity
  8
0
100
AcDbBlockEnd
  0
BLOCK
  5
F
100
AcDbEntity
 67
           1
  8
0
100
AcDbBlockBegin
  2
*PAPER_SPACE
 70
           0
 10
0.0
 20
0.0
 30
0.0
  3
*PAPER_SPACE
  1

  0
ENDBLK
  5
10
100
AcDbEntity
 67
           1
  8
0
100
AcDbBlockEnd
  0
BLOCK
  5
14C
100
AcDbEntity
  8
0
100
AcDbBlockBegin
  2
*D0
 70
           1
 10
0.0
 20
0.0
 30
0.0
  3
*D0
  1

  0
LINE
  5
14D
100
AcDbEntity
  8
0
  6
CONTINUOUS
 62
           2
100
AcDbLine
 10
-85.8
 20
35.586866761441
 11
21.8
 21
35.586866761441
  0
LINE
  5
14E
100
AcDbEntity
  8
0
  6
CONTINUOUS
 62
           2
100
AcDbLine
 10
-85.8
 20
59.93550295858
 11
-85.8
 21
33.586866761441
  0
LINE
  5
14F
100
AcDbEntity
  8
0
  6
CONTINUOUS
 62
           2
100
AcDbLine
 10
21.8
 20
59.93550295858
 11
21.8
 21
33.586866761441
  0
SOLID
  5
150
100
AcDbEntity
  8
0
 62
           2
100
AcDbTrace
 10
-80.2
 20
36.32412074793
 11
-80.2
 21
34.849612774951
 12
-85.8
 22
35.586866761441
 13
-85.8
 23
35.586866761441
  0
SOLID
  5
151
100
AcDbEntity
  8
0
 62
           2
100
AcDbTrace
 10
16.2
 20
34.849612774951
 11
16.2
 21
36.32412074793
 12
21.8
 22
35.586866761441
 13
21.8
 23
35.586866761441
  0
MTEXT
  5
153
100
AcDbEntity
  8
0
 62
           2
100
AcDbMText
 10
-40.349590900995
 20
37.586866761441
 30
0.0
 40
5.6
 41
0.0
 71
           7
 72
           1
  1
\C2;ó\C2;107.6\C2;
  7
CONVERTER_1
  0
ENDBLK
  5
154
100
AcDbEntity
  8
0
100
AcDbBlockEnd
  0
BLOCK
  5
158
100
AcDbEntity
  8
0
100
AcDbBlockBegin
  2
*D1
 70
           1
 10
0.0
 20
0.0
 30
0.0
  3
*D1
  1

  0
LINE
  5
159
100
AcDbEntity
  8
0
  6
CONTINUOUS
 62
           2
100
AcDbLine
 10
-117.015464547046
 20
60.03550295858
 11
-117.015464547046
 21
245.73550295858
  0
LINE
  5
15A
100
AcDbEntity
  8
0
  6
CONTINUOUS
 62
           2
100
AcDbLine
 10
-85.236342439892
 20
60.03550295858
 11
-119.015464547046
 21
60.03550295858
  0
LINE
  5
15B
100
AcDbEntity
  8
0
  6
CONTINUOUS
 62
           2
100
AcDbLine
 10
-43.1
 20
245.73550295858
 11
-119.015464547046
 21
245.73550295858
  0
SOLID
  5
15C
100
AcDbEntity
  8
0
 62
           2
100
AcDbTrace
 10
-117.752718533535
 20
65.63550295858
 11
-116.278210560557
 21
65.63550295858
 12
-117.015464547046
 22
60.03550295858
 13
-117.015464547046
 23
60.03550295858
  0
SOLID
  5
15D
100
AcDbEntity
  8
0
 62
           2
100
AcDbTrace
 10
-116.278210560557
 20
240.13550295858
 11
-117.752718533535
 21
240.13550295858
 12
-117.015464547046
 22
245.73550295858
 13
-117.015464547046
 23
245.73550295858
  0
MTEXT
  5
15F
100
AcDbEntity
  8
0
 62
           2
100
AcDbMText
 10
-119.015464547046
 20
150.484800863186
 30
0.0
 40
5.6
 41
0.0
 71
           7
 72
           1
  1
186
  7
CONVERTER_2
 11
0.0
 21
1.0
 31
0.0
  0
ENDBLK
  5
160
100
AcDbEntity
  8
0
100
AcDbBlockEnd
  0
ENDSEC
  0
SECTION
  2
ENTITIES
  0
DIMENSION
  5
162
100
AcDbEntity
  8
0
100
AcDbDimension
  2
*D1
 10
-117.015464547046
 20
60.03550295858
 11
-121.815464547046
 21
156.364800863186
 31
0.0
 53
90.0
  1
<>
  3
ME10_DIM_1
100
AcDbAlignedDimension
 13
-41.5
 23
245.73550295858
 14
-83.636342439892
 24
60.03550295858
 50
90.0
100
AcDbRotatedDimension
  0
DIMENSION
  5
156
100
AcDbEntity
  8
0
100
AcDbDimension
  2
*D0
 10
-85.8
 20
35.586866761441
 11
-29.807590900995
 21
40.386866761441
 31
0.0
  1
<>
  3
ME10_DIM_0
100
AcDbAlignedDimension
 13
21.8
 23
61.53550295858
 14
-85.8
 24
61.53550295858
100
AcDbRotatedDimension
  0
ARC
  5
14A
100
AcDbEntity
  8
1
  6
CONTINUOUS
 62
           7
100
AcDbCircle
 10
1.057746216466
 20
178.940892444188
 40
20.0
100
AcDbArc
 50
2.169257589729
 51
48.611986528227
  0
ARC
  5
149
100
AcDbEntity
  8
1
  6
CONTINUOUS
 62
           7
100
AcDbCircle
 10
-18.955608515782
 20
168.444044663604
 40
40.0
100
AcDbArc
 50
64.226601475763
 51
90.0
  0
ARC
  5
148
100
AcDbEntity
  8
1
  6
CONTINUOUS
 62
           7
100
AcDbCircle
 10
-16.268361714446
 20
177.944044663604
 40
20.0
100
AcDbArc
 50
73.062603580191
 51
90.0
  0
ARC
  5
147
100
AcDbEntity
  8
1
  6
CONTINUOUS
 62
           7
100
AcDbCircle
 10
-0.296012689037
 20
176.044354192799
 40
15.0
100
AcDbArc
 50
0.781437492522
 51
57.49618816992
  0
ARC
  5
146
100
AcDbEntity
  8
1
  6
CONTINUOUS
 62
           7
100
AcDbCircle
 10
20.3
 20
61.53550295858
 40
1.5
100
AcDbArc
 50
-90.0
 51
0.0
  0
ARC
  5
145
100
AcDbEntity
  8
1
  6
CONTINUOUS
 62
           7
100
AcDbCircle
 10
12.0
 20
159.265128699827
 40
2.0
100
AcDbArc
 50
180.0
 51
-145.343966881772
  0
ARC
  5
144
100
AcDbEntity
  8
1
  6
CENTER_DASH_DASH
 62
           2
100
AcDbCircle
 10
-24.340461540125
 20
217.53550295858
 40
1.0
100
AcDbArc
 50
2.013475495388
 51
90.0
  0
ARC
  5
143
100
AcDbEntity
  8
1
  6
CONTINUOUS
 62
           7
100
AcDbCircle
 10
-14.5
 20
186.119372348785
 40
2.0
100
AcDbArc
 50
180.0
 51
-96.611214376372
  0
ARC
  5
142
100
AcDbEntity
  8
1
  6
CONTINUOUS
 62
           7
100
AcDbCircle
 10
13.713815644988
 20
172.03550295858
 40
0.5
100
AcDbArc
 50
-90.0
 51
4.000000000003
  0
ARC
  5
141
100
AcDbEntity
  8
1
  6
CONTINUOUS
 62
           7
100
AcDbCircle
 10
11.899600164195
 20
176.476612527855
 40
2.0
100
AcDbArc
 50
3.999999999998
 51
74.857747057626
  0
ARC
  5
140
100
AcDbEntity
  8
1
  6
CONTINUOUS
 62
           7
100
AcDbCircle
 10
-75.899600164195
 20
176.476612527855
 40
2.0
100
AcDbArc
 50
105.142252942374
 51
176.000000000001
  0
ARC
  5
13F
100
AcDbEntity
  8
1
  6
CONTINUOUS
 62
           7
100
AcDbCircle
 10
-77.713815644988
 20
172.03550295858
 40
0.5
100
AcDbArc
 50
175.999999999996
 51
-90.0
  0
ARC
  5
13E
100
AcDbEntity
  8
1
  6
CONTINUOUS
 62
           7
100
AcDbCircle
 10
-49.5
 20
186.119372348785
 40
2.0
100
AcDbArc
 50
-83.388785623628
 51
0.0
  0
ARC
  5
13D
100
AcDbEntity
  8
1
  6
CENTER_DASH_DASH
 62
           2
100
AcDbCircle
 10
-39.659538459875
 20
217.53550295858
 40
1.0
100
AcDbArc
 50
90.0
 51
177.986524504612
  0
ARC
  5
13C
100
AcDbEntity
  8
1
  6
CONTINUOUS
 62
           7
100
AcDbCircle
 10
-76.0
 20
159.265128699827
 40
2.0
100
AcDbArc
 50
-34.656033118227
 51
0.0
  0
ARC
  5
13B
100
AcDbEntity
  8
1
  6
CONTINUOUS
 62
           7
100
AcDbCircle
 10
-84.3
 20
61.53550295858
 40
1.5
100
AcDbArc
 50
180.0
 51
-90.0
  0
ARC
  5
13A
100
AcDbEntity
  8
1
  6
CONTINUOUS
 62
           7
100
AcDbCircle
 10
19.59215056576
 20
330.662933901993
 40
2.0
100
AcDbArc
 50
7.180755781458
 51
90.0
  0
ARC
  5
139
100
AcDbEntity
  8
1
  6
CONTINUOUS
 62
           7
100
AcDbCircle
 10
19.59215056576
 20
317.662933901993
 40
2.0
100
AcDbArc
 50
-90.0
 51
-7.180755781458
  0
ARC
  5
138
100
AcDbEntity
  8
1
  6
CONTINUOUS
 62
           7
100
AcDbCircle
 10
-83.592150565759
 20
330.662933901993
 40
2.0
100
AcDbArc
 50
90.0
 51
172.819244218541
  0
ARC
  5
137
100
AcDbEntity
  8
1
  6
CONTINUOUS
 62
           7
100
AcDbCircle
 10
-83.592150565759
 20
317.662933901993
 40
2.0
100
AcDbArc
 50
-172.819244218541
 51
-90.0
  0
ARC
  5
136
100
AcDbEntity
  8
1
  6
CONTINUOUS
 62
           7
100
AcDbCircle
 10
-63.703987310963
 20
176.044354192799
 40
15.0
100
AcDbArc
 50
122.50381183008
 51
179.218562507478
  0
ARC
  5
135
100
AcDbEntity
  8
1
  6
CONTINUOUS
 62
           7
100
AcDbCircle
 10
-47.731638285554
 20
177.944044663604
 40
20.0
100
AcDbArc
 50
90.0
 51
106.937396419809
  0
ARC
  5
134
100
AcDbEntity
  8
1
  6
CONTINUOUS
 62
           7
100
AcDbCircle
 10
-45.044391484218
 20
168.444044663604
 40
40.0
100
AcDbArc
 50
90.0
 51
115.773398524237
  0
ARC
  5
133
100
AcDbEntity
  8
1
  6
CONTINUOUS
 62
           7
100
AcDbCircle
 10
-65.057746216466
 20
178.940892444188
 40
20.0
100
AcDbArc
 50
131.388013471773
 51
177.830742410271
  0
ARC
  5
132
100
AcDbEntity
  8
1
  6
CONTINUOUS
 62
           7
100
AcDbCircle
 10
-32.137101379503
 20
369.187718223649
 40
1.5
100
AcDbArc
 50
2.083618701987
 51
92.083618701979
  0
ARC
  5
131
100
AcDbEntity
  8
1
  6
CONTINUOUS
 62
           7
100
AcDbCircle
 10
-32.137101379503
 20
369.187718223649
 40
1.5
100
AcDbArc
 50
2.083618701987
 51
92.083618701979
  0
ARC
  5
130
100
AcDbEntity
  8
1
  6
CONTINUOUS
 62
           7
100
AcDbCircle
 10
-35.135117868449
 20
369.078644248718
 40
1.5
100
AcDbArc
 50
92.083618701984
 51
-177.916381298017
  0
ARC
  5
12F
100
AcDbEntity
  8
1
  6
CONTINUOUS
 62
           7
100
AcDbCircle
 10
-35.135117868449
 20
369.078644248718
 40
1.5
100
AcDbArc
 50
92.083618701984
 51
-177.916381298017
  0
CIRCLE
  5
12E
100
AcDbEntity
  8
1
  6
CONTINUOUS
 62
           7
100
AcDbCircle
 10
-32.0
 20
297.162933901993
 40
1.25
  0
CIRCLE
  5
12D
100
AcDbEntity
  8
1
  6
CONTINUOUS
 62
           7
100
AcDbCircle
 10
-32.0
 20
324.162933901993
 40
53.8
  0
CIRCLE
  5
12C
100
AcDbEntity
  8
1
  6
CONTINUOUS
 62
           2
100
AcDbCircle
 10
-32.0
 20
324.162933901993
 40
4.0
  0
CIRCLE
  5
12B
100
AcDbEntity
  8
1
  6
CONTINUOUS
 62
           2
100
AcDbCircle
 10
-32.0
 20
324.162933901993
 40
7.0
  0
CIRCLE
  5
12A
100
AcDbEntity
  8
1
  6
CONTINUOUS
 62
           2
100
AcDbCircle
 10
-32.0
 20
324.162933901993
 40
6.5
  0
CIRCLE
  5
129
100
AcDbEntity
  8
1
  6
CONTINUOUS
 62
           2
100
AcDbCircle
 10
-32.0
 20
324.162933901993
 40
3.5
  0
CIRCLE
  5
128
100
AcDbEntity
  8
1
  6
CONTINUOUS
 62
           2
100
AcDbCircle
 10
-32.0
 20
324.162933901993
 40
9.5
  0
CIRCLE
  5
127
100
AcDbEntity
  8
1
  6
CONTINUOUS
 62
           2
100
AcDbCircle
 10
-32.0
 20
324.162933901993
 40
8.331
  0
CIRCLE
  5
126
100
AcDbEntity
  8
1
  6
CONTINUOUS
 62
           2
100
AcDbCircle
 10
-32.0
 20
324.162933901993
 40
7.475
  0
ARC
  5
125
100
AcDbEntity
  8
1
  6
CONTINUOUS
 62
           7
100
AcDbCircle
 10
-23.772758664048
 20
240.895004254095
 40
4.84322628773
100
AcDbArc
 50
55.511767118588
 51
124.488232881411
  0
ARC
  5
124
100
AcDbEntity
  8
1
  6
CONTINUOUS
 62
           7
100
AcDbCircle
 10
-23.772758664048
 20
236.076001663066
 40
4.84322628773
100
AcDbArc
 50
-124.488232881411
 51
-55.511767118588
  0
ARC
  5
123
100
AcDbEntity
  8
1
  6
CONTINUOUS
 62
           7
100
AcDbCircle
 10
-31.611167789077
 20
246.873546259902
 40
15.642876614686
100
AcDbArc
 50
-91.424337733883
 51
-70.987708492123
  0
ARC
  5
122
100
AcDbEntity
  8
1
  6
CONTINUOUS
 62
           7
100
AcDbCircle
 10
-31.6440850138
 20
229.884679371757
 40
15.854818947499
100
AcDbArc
 50
71.125740796993
 51
91.286305429013
  0
ARC
  5
121
100
AcDbEntity
  8
1
  6
CONTINUOUS
 62
           7
100
AcDbCircle
 10
-32.238811912729
 20
236.1639120718
 40
17.630026630516
100
AcDbArc
 50
-89.223862024807
 51
-78.131435568202
  0
ARC
  5
120
100
AcDbEntity
  8
1
  6
CONTINUOUS
 62
           7
100
AcDbCircle
 10
-32.20579290254
 20
204.205110375731
 40
17.331614402427
100
AcDbArc
 50
78.03563478376
 51
89.31966280925
  0
ARC
  5
11F
100
AcDbEntity
  8
1
  6
CONTINUOUS
 62
           7
100
AcDbCircle
 10
-24.591169011638
 20
217.323750316292
 40
4.213099773554
100
AcDbArc
 50
65.589265071955
 51
114.410734928045
  0
ARC
  5
11E
100
AcDbEntity
  8
1
  6
CONTINUOUS
 62
           7
100
AcDbCircle
 10
-24.591169011638
 20
222.762302438952
 40
4.226806092613
100
AcDbArc
 50
-114.326441270777
 51
-65.673558729222
  0
ARC
  5
11D
100
AcDbEntity
  8
1
  6
CONTINUOUS
 62
           7
100
AcDbCircle
 10
-32.0
 20
141.428422316406
 40
70.0
100
AcDbArc
 50
48.611986528227
 51
64.226601475763
  0
ARC
  5
11C
100
AcDbEntity
  8
1
  6
CONTINUOUS
 62
           7
100
AcDbCircle
 10
-32.000000000006
 20
126.286368013815
 40
74.000000000018
100
AcDbArc
 50
57.49618816992
 51
73.06260358019
  0
ARC
  5
11B
100
AcDbEntity
  8
1
  6
CONTINUOUS
 62
           7
100
AcDbCircle
 10
-39.0
 20
124.008923572219
 40
60.0
100
AcDbArc
 50
0.0
 51
34.656033118229
  0
ARC
  5
11A
100
AcDbEntity
  8
1
  6
CONTINUOUS
 62
           7
100
AcDbCircle
 10
-32.000000000001
 20
35.130134321696
 40
150.000000000003
100
AcDbArc
 50
72.832057227474
 51
83.388785623626
  0
ARC
  5
119
100
AcDbEntity
  8
1
  6
CONTINUOUS
 62
           7
100
AcDbCircle
 10
-32.0
 20
324.162933901993
 40
46.25
100
AcDbArc
 50
95.582373920463
 51
170.75753864676
  0
ARC
  5
118
100
AcDbEntity
  8
1
  6
CONTINUOUS
 62
           7
100
AcDbCircle
 10
-32.0
 20
324.162933901993
 40
45.760512316395
100
AcDbArc
 50
96.139678827224
 51
170.983783854292
  0
ARC
  5
117
100
AcDbEntity
  8
1
  6
CONTINUOUS
 62
           7
100
AcDbCircle
 10
-32.0
 20
324.162933901993
 40
45.760512316395
100
AcDbArc
 50
-170.773855772256
 51
-9.054120550389
  0
ARC
  5
116
100
AcDbEntity
  8
1
  6
CONTINUOUS
 62
           7
100
AcDbCircle
 10
-32.0
 20
324.162933901993
 40
46.25
100
AcDbArc
 50
-170.117589571135
 51
-9.299735458784
  0
ARC
  5
115
100
AcDbEntity
  8
1
  6
CONTINUOUS
 62
           7
100
AcDbCircle
 10
-32.0
 20
324.162933901993
 40
45.760512316395
100
AcDbArc
 50
8.711132175134
 51
88.198702488461
  0
ARC
  5
114
100
AcDbEntity
  8
1
  6
CONTINUOUS
 62
           7
100
AcDbCircle
 10
-32.0
 20
324.162933901993
 40
46.25
100
AcDbArc
 50
9.368718493999
 51
88.662479197508
  0
ARC
  5
113
100
AcDbEntity
  8
1
  6
CONTINUOUS
 62
           7
100
AcDbCircle
 10
-31.999999999999
 20
35.130134321696
 40
150.000000000003
100
AcDbArc
 50
96.611214376374
 51
107.167942772526
  0
ARC
  5
112
100
AcDbEntity
  8
1
  6
CONTINUOUS
 62
           7
100
AcDbCircle
 10
-25.0
 20
124.008923572219
 40
60.0
100
AcDbArc
 50
145.34396688177
 51
180.0
  0
ARC
  5
111
100
AcDbEntity
  8
1
  6
CONTINUOUS
 62
           7
100
AcDbCircle
 10
-32.0
 20
324.162933901993
 40
53.0
100
AcDbArc
 50
-171.076252282524
 51
-8.923747717476
  0
ARC
  5
110
100
AcDbEntity
  8
1
  6
CONTINUOUS
 62
           7
100
AcDbCircle
 10
-32.0
 20
324.162933901993
 40
53.0
100
AcDbArc
 50
8.923747717476
 51
171.076252282524
  0
ARC
  5
10F
100
AcDbEntity
  8
1
  6
CONTINUOUS
 62
           7
100
AcDbCircle
 10
-32.0
 20
324.162933901993
 40
13.0
100
AcDbArc
 50
0.0
 51
90.0
  0
ARC
  5
10E
100
AcDbEntity
  8
1
  6
CONTINUOUS
 62
           7
100
AcDbCircle
 10
-32.0
 20
324.162933901993
 40
12.0
100
AcDbArc
 50
0.0
 51
90.0
  0
ARC
  5
10D
100
AcDbEntity
  8
1
  6
CONTINUOUS
 62
           7
100
AcDbCircle
 10
11.761152782717
 20
332.60979304961
 40
2.446893109256
100
AcDbArc
 50
-90.301873473237
 51
-5.528896523929
  0
ARC
  5
10C
100
AcDbEntity
  8
1
  6
CONTINUOUS
 62
           7
100
AcDbCircle
 10
-32.0
 20
324.162933901993
 40
54.0
100
AcDbArc
 50
0.0
 51
7.180755781458
  0
ARC
  5
10B
100
AcDbEntity
  8
1
  6
CONTINUOUS
 62
           7
100
AcDbCircle
 10
-32.0
 20
324.162933901993
 40
15.25
100
AcDbArc
 50
58.757100174519
 51
90.0
  0
ARC
  5
10A
100
AcDbEntity
  8
1
  6
CONTINUOUS
 62
           7
100
AcDbCircle
 10
19.651693152309
 20
332.332517663914
 40
1.549048757952
100
AcDbArc
 50
-73.997237700355
 51
-15.341467914847
  0
ARC
  5
109
100
AcDbEntity
  8
1
  6
CONTINUOUS
 62
           7
100
AcDbCircle
 10
13.078215818303
 20
365.665411926409
 40
35.518630406686
100
AcDbArc
 50
-91.728002141858
 51
-78.632898588277
  0
ARC
  5
108
100
AcDbEntity
  8
1
  6
CONTINUOUS
 62
           7
100
AcDbCircle
 10
-32.0
 20
324.162933901993
 40
13.0
100
AcDbArc
 50
-90.0
 51
0.0
  0
ARC
  5
107
100
AcDbEntity
  8
1
  6
CONTINUOUS
 62
           7
100
AcDbCircle
 10
-32.0
 20
324.162933901993
 40
12.0
100
AcDbArc
 50
-90.0
 51
0.0
  0
ARC
  5
106
100
AcDbEntity
  8
1
  6
CONTINUOUS
 62
           7
100
AcDbCircle
 10
11.761152782717
 20
315.716074754375
 40
2.446893109256
100
AcDbArc
 50
5.528896523929
 51
90.301873473237
  0
ARC
  5
105
100
AcDbEntity
  8
1
  6
CONTINUOUS
 62
           7
100
AcDbCircle
 10
-32.0
 20
324.162933901993
 40
54.0
100
AcDbArc
 50
-7.180755781458
 51
0.0
  0
ARC
  5
104
100
AcDbEntity
  8
1
  6
CONTINUOUS
 62
           7
100
AcDbCircle
 10
-32.0
 20
324.162933901993
 40
15.25
100
AcDbArc
 50
-90.0
 51
-58.757100174519
  0
ARC
  5
103
100
AcDbEntity
  8
1
  6
CONTINUOUS
 62
           7
100
AcDbCircle
 10
19.651693152309
 20
315.993350140071
 40
1.549048757952
100
AcDbArc
 50
15.341467914845
 51
73.997237700354
  0
ARC
  5
102
100
AcDbEntity
  8
1
  6
CONTINUOUS
 62
           7
100
AcDbCircle
 10
13.078215818303
 20
282.660455877577
 40
35.518630406686
100
AcDbArc
 50
78.632898588277
 51
91.728002141858
  0
ARC
  5
101
100
AcDbEntity
  8
1
  6
CONTINUOUS
 62
           7
100
AcDbCircle
 10
-1.396691355345
 20
278.162933901993
 40
40.0
100
AcDbArc
 50
90.703859809464
 51
124.456896378665
  0
ARC
  5
100
100
AcDbEntity
  8
1
  6
CONTINUOUS
 62
           7
100
AcDbCircle
 10
-1.396691355345
 20
370.162933901992
 40
40.0
100
AcDbArc
 50
-124.456896378665
 51
-90.703859809464
  0
ARC
  5
FF
100
AcDbEntity
  8
1
  6
CONTINUOUS
 62
           7
100
AcDbCircle
 10
-32.0
 20
324.162933901993
 40
13.0
100
AcDbArc
 50
90.0
 51
-179.999999999999
  0
ARC
  5
FE
100
AcDbEntity
  8
1
  6
CONTINUOUS
 62
           7
100
AcDbCircle
 10
-32.0
 20
324.162933901993
 40
12.0
100
AcDbArc
 50
90.0
 51
-179.999999999999
  0
ARC
  5
FD
100
AcDbEntity
  8
1
  6
CONTINUOUS
 62
           7
100
AcDbCircle
 10
-75.761152782717
 20
332.60979304961
 40
2.446893109256
100
AcDbArc
 50
-174.471103476071
 51
-89.698126526763
  0
ARC
  5
FC
100
AcDbEntity
  8
1
  6
CONTINUOUS
 62
           7
100
AcDbCircle
 10
-32.0
 20
324.162933901993
 40
54.0
100
AcDbArc
 50
172.819244218541
 51
-180.0
  0
ARC
  5
FB
100
AcDbEntity
  8
1
  6
CONTINUOUS
 62
           7
100
AcDbCircle
 10
-32.0
 20
324.162933901993
 40
15.25
100
AcDbArc
 50
90.0
 51
121.24289982548
  0
ARC
  5
FA
100
AcDbEntity
  8
1
  6
CONTINUOUS
 62
           7
100
AcDbCircle
 10
-83.651693152309
 20
332.332517663914
 40
1.549048757952
100
AcDbArc
 50
-164.658532085152
 51
-106.002762299643
  0
ARC
  5
F9
100
AcDbEntity
  8
1
  6
CONTINUOUS
 62
           7
100
AcDbCircle
 10
-77.078215818303
 20
365.665411926409
 40
35.518630406686
100
AcDbArc
 50
-101.367101411723
 51
-88.271997858141
  0
ARC
  5
F8
100
AcDbEntity
  8
1
  6
CONTINUOUS
 62
           7
100
AcDbCircle
 10
-32.0
 20
324.162933901993
 40
13.0
100
AcDbArc
 50
-179.999999999999
 51
-90.0
  0
ARC
  5
F7
100
AcDbEntity
  8
1
  6
CONTINUOUS
 62
           7
100
AcDbCircle
 10
-32.0
 20
324.162933901993
 40
12.0
100
AcDbArc
 50
-179.999999999999
 51
-90.0
  0
ARC
  5
F6
100
AcDbEntity
  8
1
  6
CONTINUOUS
 62
           7
100
AcDbCircle
 10
-75.761152782717
 20
315.716074754375
 40
2.446893109256
100
AcDbArc
 50
89.698126526763
 51
174.471103476071
  0
ARC
  5
F5
100
AcDbEntity
  8
1
  6
CONTINUOUS
 62
           7
100
AcDbCircle
 10
-32.0
 20
324.162933901993
 40
54.0
100
AcDbArc
 50
-180.0
 51
-172.819244218541
  0
ARC
  5
F4
100
AcDbEntity
  8
1
  6
CONTINUOUS
 62
           7
100
AcDbCircle
 10
-32.0
 20
324.162933901993
 40
15.25
100
AcDbArc
 50
-121.24289982548
 51
-90.0
  0
ARC
  5
F3
100
AcDbEntity
  8
1
  6
CONTINUOUS
 62
           7
100
AcDbCircle
 10
-83.651693152309
 20
315.993350140071
 40
1.549048757952
100
AcDbArc
 50
106.002762299644
 51
164.658532085154
  0
ARC
  5
F2
100
AcDbEntity
  8
1
  6
CONTINUOUS
 62
           7
100
AcDbCircle
 10
-77.078215818303
 20
282.660455877577
 40
35.518630406686
100
AcDbArc
 50
88.271997858141
 51
101.367101411723
  0
ARC
  5
F1
100
AcDbEntity
  8
1
  6
CONTINUOUS
 62
           7
100
AcDbCircle
 10
-62.603308644655
 20
278.162933901993
 40
40.0
100
AcDbArc
 50
55.543103621335
 51
89.296140190536
  0
ARC
  5
F0
100
AcDbEntity
  8
1
  6
CONTINUOUS
 62
           7
100
AcDbCircle
 10
-62.603308644655
 20
370.162933901992
 40
40.0
100
AcDbArc
 50
-89.296140190536
 51
-55.543103621335
  0
ARC
  5
EF
100
AcDbEntity
  8
1
  6
CONTINUOUS
 62
           7
100
AcDbCircle
 10
-31.999999999994
 20
126.286368013815
 40
74.000000000018
100
AcDbArc
 50
106.93739641981
 51
122.50381183008
  0
ARC
  5
EE
100
AcDbEntity
  8
1
  6
CONTINUOUS
 62
           7
100
AcDbCircle
 10
-32.0
 20
141.428422316406
 40
70.0
100
AcDbArc
 50
115.773398524237
 51
131.388013471773
  0
ARC
  5
ED
100
AcDbEntity
  8
1
  6
CONTINUOUS
 62
           7
100
AcDbCircle
 10
9.186612163544
 20
361.035685742061
 40
40.0
100
AcDbArc
 50
-170.228721092269
 51
-140.835921837234
  0
ARC
  5
EC
100
AcDbEntity
  8
1
  6
CONTINUOUS
 62
           7
100
AcDbCircle
 10
9.695797848198
 20
360.792299741469
 40
40.0
100
AcDbArc
 50
-177.130153150156
 51
-140.647904304078
  0
ARC
  5
EB
100
AcDbEntity
  8
1
  6
CONTINUOUS
 62
           7
100
AcDbCircle
 10
-76.24734150159
 20
357.665512460093
 40
40.0
100
AcDbArc
 50
-34.138917529034
 51
1.297390554121
  0
ARC
  5
EA
100
AcDbEntity
  8
1
  6
CONTINUOUS
 62
           7
100
AcDbCircle
 10
-75.757188356595
 20
357.945256452329
 40
40.0
100
AcDbArc
 50
-33.256120433289
 51
-5.604041503767
  0
ARC
  5
E9
100
AcDbEntity
  8
1
  6
CONTINUOUS
 62
           7
100
AcDbCircle
 10
-39.408830988362
 20
222.762302438952
 40
4.226806092613
100
AcDbArc
 50
-114.326441270777
 51
-65.673558729222
  0
ARC
  5
E8
100
AcDbEntity
  8
1
  6
CONTINUOUS
 62
           7
100
AcDbCircle
 10
-39.408830988362
 20
217.323750316292
 40
4.213099773554
100
AcDbArc
 50
65.589265071955
 51
114.410734928045
  0
ARC
  5
E7
100
AcDbEntity
  8
1
  6
CONTINUOUS
 62
           7
100
AcDbCircle
 10
-31.79420709746
 20
204.205110375731
 40
17.331614402427
100
AcDbArc
 50
90.68033719075
 51
101.96436521624
  0
ARC
  5
E6
100
AcDbEntity
  8
1
  6
CONTINUOUS
 62
           7
100
AcDbCircle
 10
-31.761188087271
 20
236.1639120718
 40
17.630026630516
100
AcDbArc
 50
-101.868564431797
 51
-90.776137975192
  0
ARC
  5
E5
100
AcDbEntity
  8
1
  6
CONTINUOUS
 62
           7
100
AcDbCircle
 10
-32.3559149862
 20
229.884679371757
 40
15.854818947499
100
AcDbArc
 50
88.713694570987
 51
108.874259203007
  0
ARC
  5
E4
100
AcDbEntity
  8
1
  6
CONTINUOUS
 62
           7
100
AcDbCircle
 10
-32.388832210923
 20
246.873546259902
 40
15.642876614686
100
AcDbArc
 50
-109.012291507877
 51
-88.575662266116
  0
ARC
  5
E3
100
AcDbEntity
  8
1
  6
CONTINUOUS
 62
           7
100
AcDbCircle
 10
-40.227241335952
 20
236.076001663066
 40
4.84322628773
100
AcDbArc
 50
-124.488232881412
 51
-55.511767118588
  0
ARC
  5
E2
100
AcDbEntity
  8
1
  6
CONTINUOUS
 62
           7
100
AcDbCircle
 10
-40.227241335952
 20
240.895004254095
 40
4.84322628773
100
AcDbArc
 50
55.511767118588
 51
124.488232881412
  0
LINE
  5
E1
100
AcDbEntity
  8
1
  6
CONTINUOUS
 62
           7
100
AcDbLine
 10
-32.0
 20
231.23550295858
 11
-22.5
 21
231.23550295858
  0
LINE
  5
E0
100
AcDbEntity
  8
1
  6
CONTINUOUS
 62
           7
100
AcDbLine
 10
-22.5
 20
245.73550295858
 11
-21.030344885397
 21
244.886997182548
  0
LINE
  5
DF
100
AcDbEntity
  8
1
  6
CONTINUOUS
 62
           7
100
AcDbLine
 10
-22.5
 20
231.23550295858
 11
-21.030344885397
 21
232.084008734612
  0
LINE
  5
DE
100
AcDbEntity
  8
1
  6
CONTINUOUS
 62
           7
100
AcDbLine
 10
-21.030344885397
 20
244.886997182548
 11
-21.030344885397
 21
232.084008734612
  0
LINE
  5
DD
100
AcDbEntity
  8
1
  6
CONTINUOUS
 62
           7
100
AcDbLine
 10
-32.0
 20
245.73550295858
 11
-22.5
 21
245.73550295858
  0
LINE
  5
DC
100
AcDbEntity
  8
1
  6
CONTINUOUS
 62
           7
100
AcDbLine
 10
-26.515172442699
 20
232.084008734612
 11
-26.515172442699
 21
244.886997182548
  0
LINE
  5
DB
100
AcDbEntity
  8
1
  6
CONTINUOUS
 62
           7
100
AcDbLine
 10
-26.0
 20
226.53550295858
 11
-26.0
 21
221.53550295858
  0
LINE
  5
DA
100
AcDbEntity
  8
1
  6
CONTINUOUS
 62
           7
100
AcDbLine
 10
-32.0
 20
224.53550295858
 11
-26.5
 21
224.53550295858
  0
LINE
  5
D9
100
AcDbEntity
  8
1
  6
CONTINUOUS
 62
           7
100
AcDbLine
 10
-32.0
 20
226.53550295858
 11
-26.0
 21
226.53550295858
  0
LINE
  5
D8
100
AcDbEntity
  8
1
  6
CONTINUOUS
 62
           7
100
AcDbLine
 10
-25.65
 20
231.23550295858
 11
-25.65
 21
226.53550295858
  0
LINE
  5
D7
100
AcDbEntity
  8
1
  6
CONTINUOUS
 62
           7
100
AcDbLine
 10
-25.65
 20
226.53550295858
 11
-26.0
 21
226.53550295858
  0
LINE
  5
D6
100
AcDbEntity
  8
1
  6
CONTINUOUS
 62
           2
100
AcDbLine
 10
-26.0
 20
224.53550295858
 11
-26.5
 21
224.53550295858
  0
LINE
  5
D5
100
AcDbEntity
  8
1
  6
CONTINUOUS
 62
           2
100
AcDbLine
 10
-26.0
 20
226.53550295858
 11
-26.5
 21
224.53550295858
  0
LINE
  5
D4
100
AcDbEntity
  8
1
  6
CONTINUOUS
 62
           2
100
AcDbLine
 10
-26.5
 20
221.53550295858
 11
-26.5
 21
224.53550295858
  0
LINE
  5
D3
100
AcDbEntity
  8
1
  6
CONTINUOUS
 62
           7
100
AcDbLine
 10
-26.332338023276
 20
221.160225283607
 11
-28.612892089112
 21
221.160225283607
  0
LINE
  5
D2
100
AcDbEntity
  8
1
  6
CONTINUOUS
 62
           7
100
AcDbLine
 10
-26.332338023276
 20
218.910780633554
 11
-28.612892089112
 21
218.910780633554
  0
LINE
  5
D1
100
AcDbEntity
  8
1
  6
CONTINUOUS
 62
           7
100
AcDbLine
 10
-26.332338023276
 20
218.910780633554
 11
-26.332338023276
 21
221.160225283607
  0
LINE
  5
D0
100
AcDbEntity
  8
1
  6
CONTINUOUS
 62
           7
100
AcDbLine
 10
-28.612892089112
 20
218.910780633554
 11
-28.612892089112
 21
221.160225283607
  0
LINE
  5
CF
100
AcDbEntity
  8
1
  6
CONTINUOUS
 62
           7
100
AcDbLine
 10
-22.85
 20
221.160225283607
 11
-23.5
 21
221.53550295858
  0
LINE
  5
CE
100
AcDbEntity
  8
1
  6
CONTINUOUS
 62
           7
100
AcDbLine
 10
-22.85
 20
218.910780633554
 11
-23.5
 21
218.53550295858
  0
LINE
  5
CD
100
AcDbEntity
  8
1
  6
CONTINUOUS
 62
           7
100
AcDbLine
 10
-22.85
 20
221.160225283607
 11
-22.85
 21
218.910780633554
  0
LINE
  5
CC
100
AcDbEntity
  8
1
  6
CONTINUOUS
 62
           7
100
AcDbLine
 10
-23.5
 20
221.53550295858
 11
-26.5
 21
221.53550295858
  0
LINE
  5
CB
100
AcDbEntity
  8
1
  6
CONTINUOUS
 62
           7
100
AcDbLine
 10
-23.5
 20
218.53550295858
 11
-26.5
 21
218.53550295858
  0
LINE
  5
CA
100
AcDbEntity
  8
1
  6
CONTINUOUS
 62
           7
100
AcDbLine
 10
-26.5
 20
218.53550295858
 11
-32.0
 21
218.53550295858
  0
LINE
  5
C9
100
AcDbEntity
  8
1
  6
CONTINUOUS
 62
           7
100
AcDbLine
 10
-26.5
 20
221.53550295858
 11
-32.0
 21
221.53550295858
  0
LINE
  5
C8
100
AcDbEntity
  8
1
  6
CONTINUOUS
 62
           7
100
AcDbLine
 10
-16.819470772449
 20
192.924918407562
 11
-16.5
 21
186.53550295858
  0
LINE
  5
C7
100
AcDbEntity
  8
1
  6
CONTINUOUS
 62
           7
100
AcDbLine
 10
-17.0
 20
193.444044663604
 11
-16.846573957661
 21
193.466982111795
  0
LINE
  5
C6
100
AcDbEntity
  8
1
  6
CONTINUOUS
 62
           7
100
AcDbLine
 10
-16.822503119153
 20
192.985565341636
 11
-16.846573957661
 21
193.466982111795
  0
LINE
  5
C5
100
AcDbEntity
  8
1
  6
CONTINUOUS
 62
           7
100
AcDbLine
 10
-32.0
 20
197.944044663604
 11
-16.9
 21
197.944044663604
  0
LINE
  5
C4
100
AcDbEntity
  8
1
  6
CONTINUOUS
 62
           7
100
AcDbLine
 10
22.0
 20
154.444044663604
 11
21.043413612254
 21
179.697925300089
  0
LINE
  5
C3
100
AcDbEntity
  8
1
  6
CONTINUOUS
 62
           7
100
AcDbLine
 10
15.0
 20
154.444044663604
 11
22.0
 21
154.444044663604
  0
LINE
  5
C2
100
AcDbEntity
  8
1
  6
CONTINUOUS
 62
           7
100
AcDbLine
 10
-19.0
 20
208.444044663604
 11
-20.0
 21
210.444044663604
  0
LINE
  5
C1
100
AcDbEntity
  8
1
  6
CONTINUOUS
 62
           7
100
AcDbLine
 10
-22.5
 20
210.444044663604
 11
-20.0
 21
210.444044663604
  0
LINE
  5
C0
100
AcDbEntity
  8
1
  6
CONTINUOUS
 62
           7
100
AcDbLine
 10
-17.0
 20
193.444044663604
 11
-16.9
 21
197.944044663604
  0
LINE
  5
BF
100
AcDbEntity
  8
1
  6
CONTINUOUS
 62
           7
100
AcDbLine
 10
-16.9
 20
197.944044663604
 11
-16.268361714446
 21
197.944044663604
  0
LINE
  5
BE
100
AcDbEntity
  8
1
  6
CONTINUOUS
 62
           7
100
AcDbLine
 10
-19.0
 20
208.444044663604
 11
-18.955608515782
 21
208.444044663604
  0
LINE
  5
BD
100
AcDbEntity
  8
1
  6
CONTINUOUS
 62
           7
100
AcDbLine
 10
-22.5
 20
210.444044663604
 11
-32.0
 21
210.444044663604
  0
LINE
  5
BC
100
AcDbEntity
  8
1
  6
CONTINUOUS
 62
           7
100
AcDbLine
 10
15.0
 20
154.444044663604
 11
14.702592235323
 21
176.248927707586
  0
LINE
  5
BB
100
AcDbEntity
  8
1
  6
CONTINUOUS
 62
           7
100
AcDbLine
 10
-19.597138242058
 20
208.444044663604
 11
-32.0
 21
208.444044663604
  0
LINE
  5
BA
100
AcDbEntity
  8
1
  6
CONTINUOUS
 62
           7
100
AcDbLine
 10
22.5
 20
162.11285322777
 11
21.726432234599
 21
161.66623367018
  0
LINE
  5
B9
100
AcDbEntity
  8
1
  6
CONTINUOUS
 62
           7
100
AcDbLine
 10
12.4
 20
168.03550295858
 11
14.814619265691
 21
168.03550295858
  0
LINE
  5
B8
100
AcDbEntity
  8
1
  6
CONTINUOUS
 62
           7
100
AcDbLine
 10
10.0
 20
159.33550295858
 11
10.0
 21
159.265128699827
  0
LINE
  5
B7
100
AcDbEntity
  8
1
  6
CONTINUOUS
 62
           7
100
AcDbLine
 10
-32.0
 20
159.33550295858
 11
10.0
 21
159.33550295858
  0
LINE
  5
B6
100
AcDbEntity
  8
1
  6
CONTINUOUS
 62
           7
100
AcDbLine
 10
-32.0
 20
77.03550295858
 11
21.0
 21
77.03550295858
  0
LINE
  5
B5
100
AcDbEntity
  8
1
  6
CONTINUOUS
 62
           7
100
AcDbLine
 10
21.8
 20
77.03550295858
 11
21.8
 21
61.53550295858
  0
LINE
  5
B4
100
AcDbEntity
  8
1
  6
CONTINUOUS
 62
           7
100
AcDbLine
 10
19.636342439892
 20
60.03550295858
 11
20.3
 21
60.03550295858
  0
LINE
  5
B3
100
AcDbEntity
  8
1
  6
CONTINUOUS
 62
           7
100
AcDbLine
 10
21.0
 20
77.03550295858
 11
21.8
 21
77.03550295858
  0
LINE
  5
B2
100
AcDbEntity
  8
1
  6
CONTINUOUS
 62
           7
100
AcDbLine
 10
19.636342439892
 20
60.03550295858
 11
-32.0
 21
60.03550295858
  0
LINE
  5
B1
100
AcDbEntity
  8
1
  6
CONTINUOUS
 62
           7
100
AcDbLine
 10
21.0
 20
77.03550295858
 11
21.0
 21
85.311059890527
  0
LINE
  5
B0
100
AcDbEntity
  8
1
  6
CONTINUOUS
 62
           7
100
AcDbLine
 10
21.0
 20
85.311059890527
 11
21.0
 21
125.208923572219
  0
LINE
  5
AF
100
AcDbEntity
  8
1
  6
CONTINUOUS
 62
           7
100
AcDbLine
 10
11.0
 20
159.33550295858
 11
10.0
 21
159.33550295858
  0
LINE
  5
AE
100
AcDbEntity
  8
1
  6
DOT_CENTER
 62
           2
100
AcDbLine
 10
25.451783225553
 20
164.78550295858
 11
2.700445930347
 21
164.78550295858
  0
LINE
  5
AD
100
AcDbEntity
  8
1
  6
CONTINUOUS
 62
           7
100
AcDbLine
 10
11.0
 20
169.78550295858
 11
12.4
 21
169.78550295858
  0
LINE
  5
AC
100
AcDbEntity
  8
1
  6
CONTINUOUS
 62
           7
100
AcDbLine
 10
12.4
 20
169.78550295858
 11
12.4
 21
168.03550295858
  0
LINE
  5
AB
100
AcDbEntity
  8
1
  6
CONTINUOUS
 62
           7
100
AcDbLine
 10
12.4
 20
168.03550295858
 11
12.4
 21
164.78550295858
  0
LINE
  5
AA
100
AcDbEntity
  8
1
  6
CONTINUOUS
 62
           7
100
AcDbLine
 10
21.484840506336
 20
168.044255296328
 11
22.5
 21
167.458152689391
  0
LINE
  5
A9
100
AcDbEntity
  8
1
  6
CONTINUOUS
 62
           7
100
AcDbLine
 10
22.5
 20
167.458152689391
 11
22.5
 21
164.78550295858
  0
LINE
  5
A8
100
AcDbEntity
  8
1
  6
CONTINUOUS
 62
           7
100
AcDbLine
 10
22.5
 20
164.78550295858
 11
22.5
 21
162.11285322777
  0
LINE
  5
A7
100
AcDbEntity
  8
1
  6
CONTINUOUS
 62
           7
100
AcDbLine
 10
14.903276034292
 20
161.53550295858
 11
12.4
 21
161.53550295858
  0
LINE
  5
A6
100
AcDbEntity
  8
1
  6
CONTINUOUS
 62
           7
100
AcDbLine
 10
12.4
 20
161.53550295858
 11
12.4
 21
159.78550295858
  0
LINE
  5
A5
100
AcDbEntity
  8
1
  6
CONTINUOUS
 62
           7
100
AcDbLine
 10
12.4
 20
164.78550295858
 11
12.4
 21
161.53550295858
  0
LINE
  5
A4
100
AcDbEntity
  8
1
  6
CONTINUOUS
 62
           7
100
AcDbLine
 10
12.4
 20
159.78550295858
 11
11.0
 21
159.78550295858
  0
LINE
  5
A3
100
AcDbEntity
  8
1
  6
CONTINUOUS
 62
           7
100
AcDbLine
 10
11.0
 20
159.78550295858
 11
11.0
 21
160.53550295858
  0
LINE
  5
A2
100
AcDbEntity
  8
1
  6
CONTINUOUS
 62
           7
100
AcDbLine
 10
11.0
 20
159.33550295858
 11
11.0
 21
171.53550295858
  0
LINE
  5
A1
100
AcDbEntity
  8
1
  6
CONTINUOUS
 62
           7
100
AcDbLine
 10
-32.125
 20
218.53550295858
 11
-24.885
 21
218.53550295858
  0
LINE
  5
A0
100
AcDbEntity
  8
1
  6
CONTINUOUS
 62
           7
100
AcDbLine
 10
-23.090534669317
 20
210.444044663604
 11
-23.34107894882
 21
217.570637502806
  0
LINE
  5
9F
100
AcDbEntity
  8
1
  6
CENTER_DASH_DASH
 62
           2
100
AcDbLine
 10
-24.885
 20
218.53550295858
 11
-24.340461540125
 21
218.53550295858
  0
LINE
  5
9E
100
AcDbEntity
  8
1
  6
CONTINUOUS
 62
           7
100
AcDbLine
 10
-16.5
 20
186.53550295858
 11
-20.801807689813
 21
186.53550295858
  0
LINE
  5
9D
100
AcDbEntity
  8
1
  6
CONTINUOUS
 62
           7
100
AcDbLine
 10
-32.0
 20
171.53550295858
 11
13.713815644988
 21
171.53550295858
  0
LINE
  5
9C
100
AcDbEntity
  8
1
  6
CONTINUOUS
 62
           7
100
AcDbLine
 10
-16.5
 20
186.53550295858
 11
-16.5
 21
186.119372348785
  0
LINE
  5
9B
100
AcDbEntity
  8
1
  6
CONTINUOUS
 62
           7
100
AcDbLine
 10
12.422033020984
 20
178.407173044945
 11
12.276028234197
 21
178.446683693376
  0
LINE
  5
9A
100
AcDbEntity
  8
1
  6
CONTINUOUS
 62
           7
100
AcDbLine
 10
13.894728264714
 20
176.616125475343
 11
14.212597670117
 21
172.070381195452
  0
LINE
  5
99
100
AcDbEntity
  8
1
  6
CONTINUOUS
 62
           7
100
AcDbLine
 10
-32.0
 20
186.53550295858
 11
-16.5
 21
186.53550295858
  0
LINE
  5
98
100
AcDbEntity
  8
1
  6
CONTINUOUS
 62
           7
100
AcDbLine
 10
12.276028234197
 20
178.03550295858
 11
-32.0
 21
178.03550295858
  0
LINE
  5
97
100
AcDbEntity
  8
1
  6
CONTINUOUS
 62
           7
100
AcDbLine
 10
-16.969419021347
 20
184.39550295858
 11
-32.0
 21
184.39550295858
  0
LINE
  5
96
100
AcDbEntity
  8
1
  6
CONTINUOUS
 62
           7
100
AcDbLine
 10
-32.0
 20
184.39550295858
 11
-47.030580978653
 21
184.39550295858
  0
LINE
  5
95
100
AcDbEntity
  8
1
  6
CONTINUOUS
 62
           7
100
AcDbLine
 10
-32.0
 20
178.03550295858
 11
-76.276028234197
 21
178.03550295858
  0
LINE
  5
94
100
AcDbEntity
  8
1
  6
CONTINUOUS
 62
           7
100
AcDbLine
 10
-47.5
 20
186.53550295858
 11
-32.0
 21
186.53550295858
  0
LINE
  5
93
100
AcDbEntity
  8
1
  6
DOT_CENTER
 62
           2
100
AcDbLine
 10
-29.193952405578
 20
297.162933901993
 11
-34.779407550424
 21
297.162933901993
  0
LINE
  5
92
100
AcDbEntity
  8
1
  6
CONTINUOUS
 62
           7
100
AcDbLine
 10
-78.212597670117
 20
172.070381195452
 11
-77.894728264714
 21
176.616125475343
  0
LINE
  5
91
100
AcDbEntity
  8
1
  6
CONTINUOUS
 62
           7
100
AcDbLine
 10
-76.276028234197
 20
178.446683693376
 11
-76.422033020984
 21
178.407173044945
  0
LINE
  5
90
100
AcDbEntity
  8
1
  6
CONTINUOUS
 62
           7
100
AcDbLine
 10
-47.5
 20
186.119372348785
 11
-47.5
 21
186.53550295858
  0
LINE
  5
8F
100
AcDbEntity
  8
1
  6
CONTINUOUS
 62
           7
100
AcDbLine
 10
-77.713815644988
 20
171.53550295858
 11
-32.0
 21
171.53550295858
  0
LINE
  5
8E
100
AcDbEntity
  8
1
  6
CONTINUOUS
 62
           7
100
AcDbLine
 10
-43.198192310187
 20
186.53550295858
 11
-47.5
 21
186.53550295858
  0
LINE
  5
8D
100
AcDbEntity
  8
1
  6
CENTER_DASH_DASH
 62
           2
100
AcDbLine
 10
-39.659538459875
 20
218.53550295858
 11
-39.115
 21
218.53550295858
  0
LINE
  5
8C
100
AcDbEntity
  8
1
  6
CONTINUOUS
 62
           7
100
AcDbLine
 10
-40.65892105118
 20
217.570637502806
 11
-40.909465330683
 21
210.444044663604
  0
LINE
  5
8B
100
AcDbEntity
  8
1
  6
CONTINUOUS
 62
           7
100
AcDbLine
 10
-39.115
 20
218.53550295858
 11
-31.875
 21
218.53550295858
  0
LINE
  5
8A
100
AcDbEntity
  8
1
  6
CONTINUOUS
 62
           7
100
AcDbLine
 10
-75.0
 20
171.53550295858
 11
-75.0
 21
159.33550295858
  0
LINE
  5
89
100
AcDbEntity
  8
1
  6
CONTINUOUS
 62
           7
100
AcDbLine
 10
-75.0
 20
160.53550295858
 11
-75.0
 21
159.78550295858
  0
LINE
  5
88
100
AcDbEntity
  8
1
  6
CONTINUOUS
 62
           7
100
AcDbLine
 10
-75.0
 20
159.78550295858
 11
-76.4
 21
159.78550295858
  0
LINE
  5
87
100
AcDbEntity
  8
1
  6
CONTINUOUS
 62
           7
100
AcDbLine
 10
-76.4
 20
161.53550295858
 11
-76.4
 21
164.78550295858
  0
LINE
  5
86
100
AcDbEntity
  8
1
  6
CONTINUOUS
 62
           7
100
AcDbLine
 10
-76.4
 20
159.78550295858
 11
-76.4
 21
161.53550295858
  0
LINE
  5
85
100
AcDbEntity
  8
1
  6
CONTINUOUS
 62
           7
100
AcDbLine
 10
-76.4
 20
161.53550295858
 11
-78.903276034292
 21
161.53550295858
  0
LINE
  5
84
100
AcDbEntity
  8
1
  6
CONTINUOUS
 62
           7
100
AcDbLine
 10
-86.5
 20
162.11285322777
 11
-86.5
 21
164.78550295858
  0
LINE
  5
83
100
AcDbEntity
  8
1
  6
CONTINUOUS
 62
           7
100
AcDbLine
 10
-86.5
 20
164.78550295858
 11
-86.5
 21
167.458152689391
  0
LINE
  5
82
100
AcDbEntity
  8
1
  6
CONTINUOUS
 62
           7
100
AcDbLine
 10
-86.5
 20
167.458152689391
 11
-85.484840506336
 21
168.044255296328
  0
LINE
  5
81
100
AcDbEntity
  8
1
  6
CONTINUOUS
 62
           7
100
AcDbLine
 10
-76.4
 20
164.78550295858
 11
-76.4
 21
168.03550295858
  0
LINE
  5
80
100
AcDbEntity
  8
1
  6
CONTINUOUS
 62
           7
100
AcDbLine
 10
-76.4
 20
168.03550295858
 11
-76.4
 21
169.78550295858
  0
LINE
  5
7F
100
AcDbEntity
  8
1
  6
CONTINUOUS
 62
           7
100
AcDbLine
 10
-76.4
 20
169.78550295858
 11
-75.0
 21
169.78550295858
  0
LINE
  5
7E
100
AcDbEntity
  8
1
  6
DOT_CENTER
 62
           2
100
AcDbLine
 10
-66.700445930347
 20
164.78550295858
 11
-89.451783225553
 21
164.78550295858
  0
LINE
  5
7D
100
AcDbEntity
  8
1
  6
CONTINUOUS
 62
           7
100
AcDbLine
 10
-74.0
 20
159.33550295858
 11
-75.0
 21
159.33550295858
  0
LINE
  5
7C
100
AcDbEntity
  8
1
  6
CONTINUOUS
 62
           7
100
AcDbLine
 10
-85.0
 20
125.208923572219
 11
-85.0
 21
85.311059890527
  0
LINE
  5
7B
100
AcDbEntity
  8
1
  6
CONTINUOUS
 62
           7
100
AcDbLine
 10
-85.0
 20
85.311059890527
 11
-85.0
 21
77.03550295858
  0
LINE
  5
7A
100
AcDbEntity
  8
1
  6
CONTINUOUS
 62
           7
100
AcDbLine
 10
-32.0
 20
60.03550295858
 11
-83.636342439892
 21
60.03550295858
  0
LINE
  5
79
100
AcDbEntity
  8
1
  6
CONTINUOUS
 62
           7
100
AcDbLine
 10
-85.8
 20
77.03550295858
 11
-85.0
 21
77.03550295858
  0
LINE
  5
78
100
AcDbEntity
  8
1
  6
CONTINUOUS
 62
           7
100
AcDbLine
 10
-84.3
 20
60.03550295858
 11
-83.636342439892
 21
60.03550295858
  0
LINE
  5
77
100
AcDbEntity
  8
1
  6
CONTINUOUS
 62
           7
100
AcDbLine
 10
-85.8
 20
61.53550295858
 11
-85.8
 21
77.03550295858
  0
LINE
  5
76
100
AcDbEntity
  8
1
  6
CONTINUOUS
 62
           7
100
AcDbLine
 10
-85.0
 20
77.03550295858
 11
-32.0
 21
77.03550295858
  0
LINE
  5
75
100
AcDbEntity
  8
1
  6
CONTINUOUS
 62
           7
100
AcDbLine
 10
-74.0
 20
159.33550295858
 11
-32.0
 21
159.33550295858
  0
LINE
  5
74
100
AcDbEntity
  8
1
  6
CONTINUOUS
 62
           7
100
AcDbLine
 10
-74.0
 20
159.265128699827
 11
-74.0
 21
159.33550295858
  0
LINE
  5
73
100
AcDbEntity
  8
1
  6
CONTINUOUS
 62
           7
100
AcDbLine
 10
-78.814619265691
 20
168.03550295858
 11
-76.4
 21
168.03550295858
  0
LINE
  5
72
100
AcDbEntity
  8
1
  6
CONTINUOUS
 62
           7
100
AcDbLine
 10
-85.726432234599
 20
161.66623367018
 11
-86.5
 21
162.11285322777
  0
LINE
  5
71
100
AcDbEntity
  8
1
  6
CONTINUOUS
 62
           7
100
AcDbLine
 10
-32.0
 20
208.444044663604
 11
-44.402861757942
 21
208.444044663604
  0
LINE
  5
70
100
AcDbEntity
  8
1
  6
CONTINUOUS
 62
           7
100
AcDbLine
 10
14.224993239589
 20
332.662933901993
 11
14.196662291854
 21
332.374040384674
  0
LINE
  5
6F
100
AcDbEntity
  8
1
  6
CONTINUOUS
 62
           7
100
AcDbLine
 10
14.224993239589
 20
332.662933901993
 11
19.59215056576
 21
332.662933901993
  0
LINE
  5
6E
100
AcDbEntity
  8
1
  6
CONTINUOUS
 62
           7
100
AcDbLine
 10
14.196662291854
 20
315.951827419311
 11
14.224993239589
 21
315.662933901993
  0
LINE
  5
6D
100
AcDbEntity
  8
1
  6
CONTINUOUS
 62
           7
100
AcDbLine
 10
19.59215056576
 20
315.662933901993
 11
14.224993239589
 21
315.662933901993
  0
LINE
  5
6C
100
AcDbEntity
  8
1
  6
CONTINUOUS
 62
           7
100
AcDbLine
 10
11.748260930814
 20
318.162933901993
 11
-1.888065841887
 21
318.162933901993
  0
LINE
  5
6B
100
AcDbEntity
  8
1
  6
CONTINUOUS
 62
           7
100
AcDbLine
 10
-1.888065841887
 20
330.162933901993
 11
11.748260930814
 21
330.162933901993
  0
LINE
  5
6A
100
AcDbEntity
  8
1
  6
CONTINUOUS
 62
           7
100
AcDbLine
 10
-78.196662291854
 20
332.374040384674
 11
-78.224993239588
 21
332.662933901993
  0
LINE
  5
69
100
AcDbEntity
  8
1
  6
CONTINUOUS
 62
           7
100
AcDbLine
 10
-83.592150565759
 20
332.662933901993
 11
-78.224993239588
 21
332.662933901993
  0
LINE
  5
68
100
AcDbEntity
  8
1
  6
CONTINUOUS
 62
           7
100
AcDbLine
 10
-78.224993239588
 20
315.662933901993
 11
-78.196662291854
 21
315.951827419311
  0
LINE
  5
67
100
AcDbEntity
  8
1
  6
CONTINUOUS
 62
           7
100
AcDbLine
 10
-78.224993239588
 20
315.662933901993
 11
-83.592150565759
 21
315.662933901993
  0
LINE
  5
66
100
AcDbEntity
  8
1
  6
CONTINUOUS
 62
           7
100
AcDbLine
 10
-62.111934158113
 20
318.162933901993
 11
-75.748260930814
 21
318.162933901993
  0
LINE
  5
65
100
AcDbEntity
  8
1
  6
CONTINUOUS
 62
           7
100
AcDbLine
 10
-75.748260930814
 20
330.162933901993
 11
-62.111934158113
 21
330.162933901993
  0
LINE
  5
64
100
AcDbEntity
  8
1
  6
CONTINUOUS
 62
           7
100
AcDbLine
 10
-78.702592235323
 20
176.248927707586
 11
-79.0
 21
154.444044663604
  0
LINE
  5
63
100
AcDbEntity
  8
1
  6
CONTINUOUS
 62
           7
100
AcDbLine
 10
-32.0
 20
210.444044663604
 11
-41.5
 21
210.444044663604
  0
LINE
  5
62
100
AcDbEntity
  8
1
  6
CONTINUOUS
 62
           7
100
AcDbLine
 10
-45.044391484218
 20
208.444044663604
 11
-45.0
 21
208.444044663604
  0
LINE
  5
61
100
AcDbEntity
  8
1
  6
CONTINUOUS
 62
           7
100
AcDbLine
 10
-47.731638285554
 20
197.944044663604
 11
-47.1
 21
197.944044663604
  0
LINE
  5
60
100
AcDbEntity
  8
1
  6
CONTINUOUS
 62
           7
100
AcDbLine
 10
-16.9
 20
197.944044663604
 11
-47.0
 21
193.444044663604
  0
LINE
  5
5F
100
AcDbEntity
  8
1
  6
CONTINUOUS
 62
           7
100
AcDbLine
 10
-47.1
 20
197.944044663604
 11
-47.0
 21
193.444044663604
  0
LINE
  5
5E
100
AcDbEntity
  8
1
  6
CONTINUOUS
 62
           7
100
AcDbLine
 10
-44.0
 20
210.444044663604
 11
-41.5
 21
210.444044663604
  0
LINE
  5
5D
100
AcDbEntity
  8
1
  6
CONTINUOUS
 62
           7
100
AcDbLine
 10
-44.0
 20
210.444044663604
 11
-45.0
 21
208.444044663604
  0
LINE
  5
5C
100
AcDbEntity
  8
1
  6
CONTINUOUS
 62
           7
100
AcDbLine
 10
-86.0
 20
154.444044663604
 11
-79.0
 21
154.444044663604
  0
LINE
  5
5B
100
AcDbEntity
  8
1
  6
CONTINUOUS
 62
           7
100
AcDbLine
 10
-85.043413612254
 20
179.697925300089
 11
-86.0
 21
154.444044663604
  0
LINE
  5
5A
100
AcDbEntity
  8
1
  6
CONTINUOUS
 62
           7
100
AcDbLine
 10
-47.1
 20
197.944044663604
 11
-32.0
 21
197.944044663604
  0
LINE
  5
59
100
AcDbEntity
  8
1
  6
CONTINUOUS
 62
           7
100
AcDbLine
 10
-47.153426042339
 20
193.466982111795
 11
-47.177496880847
 21
192.985565341636
  0
LINE
  5
58
100
AcDbEntity
  8
1
  6
CONTINUOUS
 62
           7
100
AcDbLine
 10
-47.153426042339
 20
193.466982111795
 11
-47.0
 21
193.444044663604
  0
LINE
  5
57
100
AcDbEntity
  8
1
  6
CONTINUOUS
 62
           7
100
AcDbLine
 10
-47.5
 20
186.53550295858
 11
-47.180529227551
 21
192.924918407562
  0
LINE
  5
56
100
AcDbEntity
  8
1
  6
CONTINUOUS
 62
           7
100
AcDbLine
 10
-32.191638366969
 20
370.686726468123
 11
-33.690646611442
 21
370.632189480657
  0
LINE
  5
55
100
AcDbEntity
  8
1
  6
CONTINUOUS
 62
           7
100
AcDbLine
 10
-30.63809313503
 20
369.242255211115
 11
-30.27775533775
 21
359.337980075713
  0
LINE
  5
54
100
AcDbEntity
  8
1
  6
CONTINUOUS
 62
           7
100
AcDbLine
 10
-36.273788315642
 20
359.119832125849
 11
-36.634126112922
 21
369.024107261252
  0
LINE
  5
53
100
AcDbEntity
  8
1
  6
CONTINUOUS
 62
           7
100
AcDbLine
 10
-33.690646611442
 20
370.632189480657
 11
-35.189654855915
 21
370.577652493191
  0
LINE
  5
52
100
AcDbEntity
  8
1
  6
CONTINUOUS
 62
           7
100
AcDbLine
 10
-86.5
 20
326.835583632803
 11
-85.916056669082
 21
327.1727234721
  0
LINE
  5
51
100
AcDbEntity
  8
1
  6
CONTINUOUS
 62
           7
100
AcDbLine
 10
-86.5
 20
324.162933901993
 11
-86.5
 21
326.835583632803
  0
LINE
  5
50
100
AcDbEntity
  8
1
  6
CONTINUOUS
 62
           7
100
AcDbLine
 10
-86.5
 20
321.490284171182
 11
-86.5
 21
324.162933901993
  0
LINE
  5
4F
100
AcDbEntity
  8
1
  6
CONTINUOUS
 62
           7
100
AcDbLine
 10
-85.916056669082
 20
321.153144331885
 11
-86.5
 21
321.490284171182
  0
LINE
  5
4E
100
AcDbEntity
  8
1
  6
CONTINUOUS
 62
           7
100
AcDbLine
 10
21.916056669082
 20
327.1727234721
 11
22.5
 21
326.835583632803
  0
LINE
  5
4D
100
AcDbEntity
  8
1
  6
CONTINUOUS
 62
           7
100
AcDbLine
 10
22.5
 20
326.835583632803
 11
22.5
 21
324.162933901993
  0
LINE
  5
4C
100
AcDbEntity
  8
1
  6
CONTINUOUS
 62
           7
100
AcDbLine
 10
22.5
 20
324.162933901993
 11
22.5
 21
321.490284171182
  0
LINE
  5
4B
100
AcDbEntity
  8
1
  6
CONTINUOUS
 62
           7
100
AcDbLine
 10
22.5
 20
321.490284171182
 11
21.916056669082
 21
321.153144331885
  0
LINE
  5
4A
100
AcDbEntity
  8
1
  6
CONTINUOUS
 62
           7
100
AcDbLine
 10
-32.0
 20
221.53550295858
 11
-37.5
 21
221.53550295858
  0
LINE
  5
49
100
AcDbEntity
  8
1
  6
CONTINUOUS
 62
           7
100
AcDbLine
 10
-32.0
 20
218.53550295858
 11
-37.5
 21
218.53550295858
  0
LINE
  5
48
100
AcDbEntity
  8
1
  6
CONTINUOUS
 62
           7
100
AcDbLine
 10
-37.5
 20
218.53550295858
 11
-40.5
 21
218.53550295858
  0
LINE
  5
47
100
AcDbEntity
  8
1
  6
CONTINUOUS
 62
           7
100
AcDbLine
 10
-37.5
 20
221.53550295858
 11
-40.5
 21
221.53550295858
  0
LINE
  5
46
100
AcDbEntity
  8
1
  6
CONTINUOUS
 62
           7
100
AcDbLine
 10
-41.15
 20
218.910780633554
 11
-41.15
 21
221.160225283607
  0
LINE
  5
45
100
AcDbEntity
  8
1
  6
CONTINUOUS
 62
           7
100
AcDbLine
 10
-40.5
 20
218.53550295858
 11
-41.15
 21
218.910780633554
  0
LINE
  5
44
100
AcDbEntity
  8
1
  6
CONTINUOUS
 62
           7
100
AcDbLine
 10
-40.5
 20
221.53550295858
 11
-41.15
 21
221.160225283607
  0
LINE
  5
43
100
AcDbEntity
  8
1
  6
CONTINUOUS
 62
           7
100
AcDbLine
 10
-35.387107910888
 20
221.160225283607
 11
-35.387107910888
 21
218.910780633554
  0
LINE
  5
42
100
AcDbEntity
  8
1
  6
CONTINUOUS
 62
           7
100
AcDbLine
 10
-37.667661976724
 20
221.160225283607
 11
-37.667661976724
 21
218.910780633554
  0
LINE
  5
41
100
AcDbEntity
  8
1
  6
CONTINUOUS
 62
           7
100
AcDbLine
 10
-35.387107910888
 20
218.910780633554
 11
-37.667661976724
 21
218.910780633554
  0
LINE
  5
40
100
AcDbEntity
  8
1
  6
CONTINUOUS
 62
           7
100
AcDbLine
 10
-35.387107910888
 20
221.160225283607
 11
-37.667661976724
 21
221.160225283607
  0
LINE
  5
3F
100
AcDbEntity
  8
1
  6
CONTINUOUS
 62
           2
100
AcDbLine
 10
-37.5
 20
224.53550295858
 11
-37.5
 21
221.53550295858
  0
LINE
  5
3E
100
AcDbEntity
  8
1
  6
CONTINUOUS
 62
           2
100
AcDbLine
 10
-37.5
 20
224.53550295858
 11
-38.0
 21
226.53550295858
  0
LINE
  5
3D
100
AcDbEntity
  8
1
  6
CONTINUOUS
 62
           2
100
AcDbLine
 10
-37.5
 20
224.53550295858
 11
-38.0
 21
224.53550295858
  0
LINE
  5
3C
100
AcDbEntity
  8
1
  6
CONTINUOUS
 62
           7
100
AcDbLine
 10
-38.0
 20
226.53550295858
 11
-38.35
 21
226.53550295858
  0
LINE
  5
3B
100
AcDbEntity
  8
1
  6
CONTINUOUS
 62
           7
100
AcDbLine
 10
-38.35
 20
226.53550295858
 11
-38.35
 21
231.23550295858
  0
LINE
  5
3A
100
AcDbEntity
  8
1
  6
CONTINUOUS
 62
           7
100
AcDbLine
 10
-38.0
 20
226.53550295858
 11
-32.0
 21
226.53550295858
  0
LINE
  5
39
100
AcDbEntity
  8
1
  6
CONTINUOUS
 62
           7
100
AcDbLine
 10
-37.5
 20
224.53550295858
 11
-32.0
 21
224.53550295858
  0
LINE
  5
38
100
AcDbEntity
  8
1
  6
CONTINUOUS
 62
           7
100
AcDbLine
 10
-38.0
 20
221.53550295858
 11
-38.0
 21
226.53550295858
  0
LINE
  5
37
100
AcDbEntity
  8
1
  6
CONTINUOUS
 62
           2
100
AcDbLine
 10
-22.5
 20
329.647761459294
 11
-32.0
 21
335.132589016595
  0
LINE
  5
36
100
AcDbEntity
  8
1
  6
CONTINUOUS
 62
           2
100
AcDbLine
 10
-32.0
 20
335.132589016595
 11
-41.5
 21
329.647761459294
  0
LINE
  5
35
100
AcDbEntity
  8
1
  6
CONTINUOUS
 62
           2
100
AcDbLine
 10
-41.5
 20
329.647761459294
 11
-41.5
 21
318.678106344691
  0
LINE
  5
34
100
AcDbEntity
  8
1
  6
CONTINUOUS
 62
           2
100
AcDbLine
 10
-41.5
 20
318.678106344691
 11
-32.0
 21
313.19327878739
  0
LINE
  5
33
100
AcDbEntity
  8
1
  6
CONTINUOUS
 62
           2
100
AcDbLine
 10
-32.0
 20
313.19327878739
 11
-22.5
 21
318.678106344691
  0
LINE
  5
32
100
AcDbEntity
  8
1
  6
CONTINUOUS
 62
           2
100
AcDbLine
 10
-22.5
 20
318.678106344691
 11
-22.5
 21
329.647761459294
  0
LINE
  5
31
100
AcDbEntity
  8
1
  6
CONTINUOUS
 62
           2
100
AcDbLine
 10
-32.0
 20
335.132589016595
 11
-41.5
 21
329.647761459294
  0
LINE
  5
30
100
AcDbEntity
  8
1
  6
CONTINUOUS
 62
           7
100
AcDbLine
 10
-37.484827557301
 20
244.886997182548
 11
-37.484827557301
 21
232.084008734612
  0
LINE
  5
2F
100
AcDbEntity
  8
1
  6
CONTINUOUS
 62
           7
100
AcDbLine
 10
-41.5
 20
245.73550295858
 11
-32.0
 21
245.73550295858
  0
LINE
  5
2E
100
AcDbEntity
  8
1
  6
CONTINUOUS
 62
           7
100
AcDbLine
 10
-42.969655114603
 20
232.084008734612
 11
-42.969655114603
 21
244.886997182548
  0
LINE
  5
2D
100
AcDbEntity
  8
1
  6
CONTINUOUS
 62
           7
100
AcDbLine
 10
-42.969655114603
 20
232.084008734612
 11
-41.5
 21
231.23550295858
  0
LINE
  5
2C
100
AcDbEntity
  8
1
  6
CONTINUOUS
 62
           7
100
AcDbLine
 10
-42.969655114603
 20
244.886997182548
 11
-41.5
 21
245.73550295858
  0
LINE
  5
2B
100
AcDbEntity
  8
1
  6
CONTINUOUS
 62
           7
100
AcDbLine
 10
-41.5
 20
231.23550295858
 11
-32.0
 21
231.23550295858
  0
LINE
  5
2A
100
AcDbEntity
  8
1
  6
DOT_CENTER
 62
           2
100
AcDbLine
 10
-32.0
 20
49.72409359522
 11
-32.0
 21
254.881767632495
  0
LINE
  5
29
100
AcDbEntity
  8
1
  6
DOT_CENTER
 62
           2
100
AcDbLine
 10
27.378538147492
 20
324.162933901993
 11
-91.792234787817
 21
324.162933901993
  0
LINE
  5
28
100
AcDbEntity
  8
1
  6
DOT_CENTER
 62
           2
100
AcDbLine
 10
-32.0
 20
383.16225112175
 11
-32.0
 21
264.116443980731
  0
ENDSEC
  0
SECTION
  2
OBJECTS
  0
DICTIONARY
  5
19
100
AcDbDictionary
  3
ACAD_GROUP
350
1A
  3
ACAD_MLINESTYLE
350
1B
  0
DICTIONARY
  5
1A
102
{ACAD_REACTORS
330
19
102
}
100
AcDbDictionary
  0
DICTIONARY
  5
1B
102
{ACAD_REACTORS
330
19
102
}
100
AcDbDictionary
  3
STANDARD
350
1C
  0
MLINESTYLE
  5
1C
102
{ACAD_REACTORS
330
1B
102
}
100
AcDbMlineStyle
  2
STANDARD
 70
           0
  3

 62
           0
 51
90.0
 52
90.0
 71
           2
 49
0.5
 62
         256
  6
BYLAYER
 49
-0.5
 62
         256
  6
BYLAYER
  0
ENDSEC
  0
EOF
