  0
SECTION
  2
HEADER
  9
$ACADVER
  1
AC1014
  9
$ACADMAINTVER
 70
           0
  9
$DWGCODEPAGE
  3
DOS932
  9
$INSBASE
 10
0.0
 20
0.0
 30
0.0
  9
$EXTMIN
 10
1.000000000000E+20
 20
1.000000000000E+20
 30
1.000000000000E+20
  9
$EXTMAX
 10
-1.000000000000E+20
 20
-1.000000000000E+20
 30
-1.000000000000E+20
  9
$LIMMIN
 10
0.0
 20
0.0
  9
$LIMMAX
 10
0.0
 20
0.0
  9
$ORTHOMODE
 70
           0
  9
$REGENMODE
 70
           1
  9
$FILLMODE
 70
           1
  9
$QTEXTMODE
 70
           0
  9
$MIRRTEXT
 70
           1
  9
$DRAGMODE
 70
           2
  9
$LTSCALE
 40
1.0
  9
$OSMODE
 70
           0
  9
$ATTMODE
 70
           1
  9
$TEXTSIZE
 40
0.2
  9
$TRACEWID
 40
0.05
  9
$TEXTSTYLE
  7
STANDARD
  9
$CLAYER
  8
0
  9
$CELTYPE
  6
CONTINUOUS
  9
$CECOLOR
 62
         256
  9
$CELTSCALE
 40
1.0
  9
$DELOBJ
 70
           1
  9
$DISPSILH
 70
           0
  9
$DIMSCALE
 40
1.0
  9
$DIMASZ
 40
0.18
  9
$DIMEXO
 40
0.0625
  9
$DIMDLI
 40
0.38
  9
$DIMRND
 40
0.0
  9
$DIMDLE
 40
0.0
  9
$DIMEXE
 40
0.18
  9
$DIMTP
 40
0.0
  9
$DIMTM
 40
0.0
  9
$DIMTXT
 40
0.18
  9
$DIMCEN
 40
0.09
  9
$DIMTSZ
 40
0.0
  9
$DIMTOL
 70
           0
  9
$DIMLIM
 70
           0
  9
$DIMTIH
 70
           1
  9
$DIMTOH
 70
           1
  9
$DIMSE1
 70
           0
  9
$DIMSE2
 70
           0
  9
$DIMTAD
 70
           0
  9
$DIMZIN
 70
           0
  9
$DIMBLK
  1

  9
$DIMASO
 70
           1
  9
$DIMSHO
 70
           1
  9
$DIMPOST
  1

  9
$DIMAPOST
  1

  9
$DIMALT
 70
           0
  9
$DIMALTD
 70
           2
  9
$DIMALTF
 40
25.4
  9
$DIMLFAC
 40
1.0
  9
$DIMTOFL
 70
           0
  9
$DIMTVP
 40
0.0
  9
$DIMTIX
 70
           0
  9
$DIMSOXD
 70
           0
  9
$DIMSAH
 70
           0
  9
$DIMBLK1
  1

  9
$DIMBLK2
  1

  9
$DIMSTYLE
  2
STANDARD
  9
$DIMCLRD
 70
           0
  9
$DIMCLRE
 70
           0
  9
$DIMCLRT
 70
           0
  9
$DIMTFAC
 40
1.0
  9
$DIMGAP
 40
0.09
  9
$DIMJUST
 70
           0
  9
$DIMSD1
 70
           0
  9
$DIMSD2
 70
           0
  9
$DIMTOLJ
 70
           1
  9
$DIMTZIN
 70
           0
  9
$DIMALTZ
 70
           0
  9
$DIMALTTZ
 70
           0
  9
$DIMFIT
 70
           3
  9
$DIMUPT
 70
           0
  9
$DIMUNIT
 70
           2
  9
$DIMDEC
 70
           4
  9
$DIMTDEC
 70
           4
  9
$DIMALTU
 70
           2
  9
$DIMALTTD
 70
           2
  9
$DIMTXSTY
  7
STANDARD
  9
$DIMAUNIT
 70
           0
  9
$LUNITS
 70
           2
  9
$LUPREC
 70
           4
  9
$SKETCHINC
 40
0.1
  9
$FILLETRAD
 40
0.0
  9
$AUNITS
 70
           0
  9
$AUPREC
 70
           0
  9
$MENU
  1
acad
  9
$ELEVATION
 40
0.0
  9
$PELEVATION
 40
0.0
  9
$THICKNESS
 40
0.0
  9
$LIMCHECK
 70
           0
  9
$BLIPMODE
 70
           1
  9
$CHAMFERA
 40
0.0
  9
$CHAMFERB
 40
0.0
  9
$CHAMFERC
 40
0.0
  9
$CHAMFERD
 40
0.0
  9
$SKPOLY
 70
           0
  9
$TDCREATE
 40
0.000000000
  9
$TDUPDATE
 40
0.000000000
  9
$TDINDWG
 40
0.0000000000
  9
$TDUSRTIMER
 40
0.0000000000
  9
$USRTIMER
 70
           1
  9
$ANGBASE
 50
0.0
  9
$ANGDIR
 70
           0
  9
$PDMODE
 70
           0
  9
$PDSIZE
 40
0.0
  9
$PLINEWID
 40
0.0
  9
$COORDS
 70
           0
  9
$SPLFRAME
 70
           0
  9
$SPLINETYPE
 70
           6
  9
$SPLINESEGS
 70
           8
  9
$ATTDIA
 70
           0
  9
$ATTREQ
 70
           1
  9
$HANDLING
 70
           1
  9
$HANDSEED
  5
3E3
  9
$SURFTAB1
 70
           6
  9
$SURFTAB2
 70
           6
  9
$SURFTYPE
 70
           6
  9
$SURFU
 70
           6
  9
$SURFV
 70
           6
  9
$UCSNAME
  2

  9
$UCSORG
 10
0.0
 20
0.0
 30
0.0
  9
$UCSXDIR
 10
1.0
 20
0.0
 30
0.0
  9
$UCSYDIR
 10
0.0
 20
1.0
 30
0.0
  9
$PUCSNAME
  2

  9
$PUCSORG
 10
0.0
 20
0.0
 30
0.0
  9
$PUCSXDIR
 10
1.0
 20
0.0
 30
0.0
  9
$PUCSYDIR
 10
0.0
 20
1.0
 30
0.0
  9
$USERI1
 70
           0
  9
$USERI2
 70
           0
  9
$USERI3
 70
           0
  9
$USERI4
 70
           0
  9
$USERI5
 70
           0
  9
$USERR1
 40
0.0
  9
$USERR2
 40
0.0
  9
$USERR3
 40
0.0
  9
$USERR4
 40
0.0
  9
$USERR5
 40
0.0
  9
$WORLDVIEW
 70
           1
  9
$SHADEDGE
 70
           3
  9
$SHADEDIF
 70
          70
  9
$TILEMODE
 70
           1
  9
$MAXACTVP
 70
          16
  9
$PINSBASE
 10
0.0
 20
0.0
 30
0.0
  9
$PLIMCHECK
 70
           0
  9
$PEXTMIN
 10
1.000000000000E+20
 20
1.000000000000E+20
 30
1.000000000000E+20
  9
$PEXTMAX
 10
-1.000000000000E+20
 20
-1.000000000000E+20
 30
-1.000000000000E+20
  9
$PLIMMIN
 10
0.0
 20
0.0
  9
$PLIMMAX
 10
12.0
 20
9.0
  9
$UNITMODE
 70
           0
  9
$VISRETAIN
 70
           0
  9
$PLINEGEN
 70
           1
  9
$PSLTSCALE
 70
           0
  9
$TREEDEPTH
 70
        3020
  9
$PICKSTYLE
 70
           1
  9
$CMLSTYLE
  2
STANDARD
  9
$CMLJUST
 70
           0
  9
$CMLSCALE
 40
1.0
  9
$PROXYGRAPHICS
 70
           0
  9
$MEASUREMENT
 70
           0
  0
ENDSEC
  0
SECTION
  2
CLASSES
  0
CLASS
  1
LWPOLYLINE
  2
AcDbPolyline
  3
"AutoCAD"
 90
        0
280
           0
281
           1
  0
CLASS
  1
IMAGE
  2
AcDbRasterImage
  3
ISM
 90
      127
280
           0
281
           1
  0
CLASS
  1
OLE2FRAME
  2
AcDbOle2Frame
  3
""
 90
        0
280
           0
281
           1
  0
CLASS
  1
HATCH
  2
AcDbHatch
  3
"ACAD_SEDONA"
 90
        0
280
           0
281
           1
  0
CLASS
  1
DICTIONARYVAR
  2
AcDbDictionaryVar
  3
"AutoCAD"
 90
        0
280
           0
281
           0
  0
CLASS
  1
RASTERVARIABLES
  2
AcDbRasterVariables
  3
ISM
 90
        0
280
           0
281
           0
  0
CLASS
  1
IMAGEDEF
  2
AcDbRasterImageDef
  3
ISM
 90
        0
280
           0
281
           0
  0
CLASS
  1
IMAGEDEF_REACTOR
  2
AcDbRasterImageDefReactor
  3
ISM
 90
        1
280
           0
281
           0
  0
CLASS
  1
IDBUFFER
  2
AcDbIdBuffer
  3
"Acad"
 90
        0
280
           0
281
           0
  0
CLASS
  1
SPATIAL_FILTER
  2
AcDbSpatialFilter
  3
"Acad"
 90
        0
280
           0
281
           0
  0
CLASS
  1
XRECORD
  2
AcDbXrecord
  3
"<Built In>"
 90
        0
280
           0
281
           0
  0
CLASS
  1
SORTENTSTABLE
  2
AcDbSortentsTable
  3
"AutoCAD"
 90
        0
280
           0
281
           0
  0
CLASS
  1
LAYER_INDEX
  2
AcDbLayerIndex
  3
"Acad"
 90
        0
280
           0
281
           0
  0
CLASS
  1
SPATIAL_INDEX
  2
AcDbSpatialIndex
  3
"Acad"
 90
        0
280
           0
281
           0
  0
CLASS
  1
OBJECT_PTR
  2
CAseDLPNTableRecord
  3
"ASE-LPNTableRecord"
 90
        1
280
           0
281
           0
  0
CLASS
  1
LAYOUT
  2
AcDbLayout
  3
"AutoCAD 2000"
 90
        1
280
           0
281
           0
  0
CLASS
  1
PLOTSETTINGS
  2
AcDbPlotSettings
  3
"AutoCAD 2000"
 90
        1
280
           0
281
           0
  0
CLASS
  1
ACDBDICTIONARYWDFLT
  2
AcDbDictionaryWithDefault
  3
"AutoCAD 2000"
 90
        1
280
           0
281
           0
  0
CLASS
  1
ACDBPLACEHOLDER
  2
AcDbPlaceHolder
  3
"AutoCAD 2000"
 90
        1
280
           0
281
           0
  0
CLASS
  1
VBA_PROJECT
  2
AcDbVbaProject
  3
"acadvba"
 90
        1
280
           0
281
           0
  0
CLASS
  1
WIPEOUT
  2
AcDbWipeout
  3
WipeOut|AutoCAD Express Tool|expresstools@autodesk.com
 90
      127
280
           0
281
           1
  0
CLASS
  1
WIPEOUTVARIABLES
  2
AcDbWipeoutVariables
  3
WipeOut|AutoCAD Express Tool|expresstools@autodesk.com
 90
        0
280
           0
281
           0
  0
CLASS
  1
RTEXT
  2
RText
  3
RText|AutoCAD Express Tool|expresstools@autodesk.com
 90
        0
280
           0
281
           1
  0
CLASS
  1
ARCALIGNEDTEXT
  2
AcDbArcAlignedText
  3
ATEXT|AutoCAD Express Tool|expresstools@autodesk.com
 90
        0
280
           0
281
           1
  0
ENDSEC
  0
SECTION
  2
TABLES
  0
TABLE
  2
VPORT
  5
7
100
AcDbSymbolTable
 70
           1
  0
VPORT
  5
15
100
AcDbSymbolTableRecord
100
AcDbViewportTableRecord
  2
*ACTIVE
 70
           0
 10
0.0
 20
0.0
 11
1.0
 21
1.0
 12
6.591288
 22
4.579184
 13
0.0
 23
0.0
 14
1.0
 24
1.0
 15
0.0
 25
0.0
 16
0.0
 26
0.0
 36
1.0
 17
0.0
 27
0.0
 37
0.0
 40
9.158369
 41
0.688564
 42
50.0
 43
0.0
 44
0.0
 50
0.0
 51
0.0
 71
           0
 72
         100
 73
           1
 74
           1
 75
           0
 76
           0
 77
           0
 78
           0
  0
ENDTAB
  0
TABLE
  2
LTYPE
  5
4
100
AcDbSymbolTable
 70
          10
  0
LTYPE
  5
11
100
AcDbSymbolTableRecord
100
AcDbLinetypeTableRecord
  2
BYBLOCK
 70
          64
  3

 72
          65
 73
           0
 40
0.0
  0
LTYPE
  5
12
100
AcDbSymbolTableRecord
100
AcDbLinetypeTableRecord
  2
BYLAYER
 70
          64
  3

 72
          65
 73
           0
 40
0.0
  0
LTYPE
  5
13
100
AcDbSymbolTableRecord
100
AcDbLinetypeTableRecord
  2
CONTINUOUS
 70
          64
  3
Solid line
 72
          65
 73
           0
 40
0.0
  0
LTYPE
  5
1D
100
AcDbSymbolTableRecord
100
AcDbLinetypeTableRecord
  2
DASHED
 70
          64
  3
Dashed
 72
          65
 73
           2
 40
15.0
 49
12.0
 74
           0
 49
-3.0
 74
           0
  0
LTYPE
  5
1E
100
AcDbSymbolTableRecord
100
AcDbLinetypeTableRecord
  2
DOTTED
 70
          64
  3
Dotted
 72
          65
 73
           2
 40
3.5
 49
0.5
 74
           0
 49
-3.0
 74
           0
  0
LTYPE
  5
1F
100
AcDbSymbolTableRecord
100
AcDbLinetypeTableRecord
  2
DOT_CENTER
 70
          64
  3
Dot_Center
 72
          65
 73
           4
 40
2.0
 49
1.25
 74
           0
 49
-0.25
 74
           0
 49
0.25
 74
           0
 49
-0.25
 74
           0
  0
LTYPE
  5
20
100
AcDbSymbolTableRecord
100
AcDbLinetypeTableRecord
  2
LONG_DASHED
 70
          64
  3
Long_Dashed
 72
          65
 73
           2
 40
2.0
 49
1.5
 74
           0
 49
-0.5
 74
           0
  0
LTYPE
  5
21
100
AcDbSymbolTableRecord
100
AcDbLinetypeTableRecord
  2
DASH_CENTER
 70
          64
  3
Dash_Center
 72
          65
 73
           4
 40
36.0
 49
24.0
 74
           0
 49
-3.0
 74
           0
 49
6.0
 74
           0
 49
-3.0
 74
           0
  0
LTYPE
  5
22
100
AcDbSymbolTableRecord
100
AcDbLinetypeTableRecord
  2
PHANTOM
 70
          64
  3
Phantom
 72
          65
 73
           6
 40
2.5
 49
1.25
 74
           0
 49
-0.25
 74
           0
 49
0.25
 74
           0
 49
-0.25
 74
           0
 49
0.25
 74
           0
 49
-0.25
 74
           0
  0
LTYPE
  5
23
100
AcDbSymbolTableRecord
100
AcDbLinetypeTableRecord
  2
CENTER_DASH_DASH
 70
          64
  3
Center_Dash_Dash
 72
          65
 73
           6
 40
22.0
 49
12.0
 74
           0
 49
-3.0
 74
           0
 49
0.5
 74
           0
 49
-3.0
 74
           0
 49
0.5
 74
           0
 49
-3.0
 74
           0
  0
ENDTAB
  0
TABLE
  2
LAYER
  5
2
100
AcDbSymbolTable
 70
           5
  0
LAYER
  5
14
100
AcDbSymbolTableRecord
100
AcDbLayerTableRecord
  2
0
 70
           0
 62
           7
  6
CONTINUOUS
  0
LAYER
  5
24
100
AcDbSymbolTableRecord
100
AcDbLayerTableRecord
  2
971
 70
           0
 62
           7
  6
CONTINUOUS
  0
LAYER
  5
25
100
AcDbSymbolTableRecord
100
AcDbLayerTableRecord
  2
972
 70
           0
 62
           7
  6
CONTINUOUS
  0
LAYER
  5
26
100
AcDbSymbolTableRecord
100
AcDbLayerTableRecord
  2
976
 70
           0
 62
           7
  6
CONTINUOUS
  0
LAYER
  5
27
100
AcDbSymbolTableRecord
100
AcDbLayerTableRecord
  2
1
 70
           0
 62
           7
  6
CONTINUOUS
  0
ENDTAB
  0
TABLE
  2
STYLE
  5
3
100
AcDbSymbolTable
 70
           4
  0
STYLE
  5
17
100
AcDbSymbolTableRecord
100
AcDbTextStyleTableRecord
  2
STANDARD
 70
           0
 40
0.0
 41
1.0
 50
0.0
 71
           0
 42
0.0
  3
txt
  4

  0
STYLE
  5
183
100
AcDbSymbolTableRecord
100
AcDbTextStyleTableRecord
  2
CONVERTER_1
 70
           0
 40
0.0
 41
0.89
 50
0.0
 71
           0
 42
0.0
  3
MS Mincho.ttf
  4

1001
ACAD
1000
MS Mincho
1071
    32785
  0
STYLE
  5
185
100
AcDbSymbolTableRecord
100
AcDbTextStyleTableRecord
  2
CONVERTER_2
 70
           0
 40
0.0
 41
0.9
 50
0.0
 71
           0
 42
0.0
  3
txt.shx
  4

  0
STYLE
  5
189
100
AcDbSymbolTableRecord
100
AcDbTextStyleTableRecord
  2
CONVERTER_3
 70
           0
 40
0.0
 41
1.35
 50
0.0
 71
           0
 42
0.0
  3
txt.shx
  4

  0
ENDTAB
  0
TABLE
  2
VIEW
  5
5
100
AcDbSymbolTable
 70
           0
  0
ENDTAB
  0
TABLE
  2
UCS
  5
6
100
AcDbSymbolTable
 70
           0
  0
ENDTAB
  0
TABLE
  2
APPID
  5
8
100
AcDbSymbolTable
 70
           1
  0
APPID
  5
16
100
AcDbSymbolTableRecord
100
AcDbRegAppTableRecord
  2
ACAD
 70
           0
  0
ENDTAB
  0
TABLE
  2
DIMSTYLE
  5
9
100
AcDbSymbolTable
 70
           8
  0
DIMSTYLE
105
18
100
AcDbSymbolTableRecord
100
AcDbDimStyleTableRecord
  2
STANDARD
 70
           0
  3

  4

  5

  6

  7

 40
1.0
 41
0.18
 42
0.0625
 43
0.38
 44
0.18
 45
0.0
 46
0.0
 47
0.0
 48
0.0
 71
           0
 72
           0
 73
           1
 74
           1
 75
           0
 76
           0
 77
           0
 78
           0
140
0.18
141
0.09
142
0.0
143
25.4
144
1.0
145
0.0
146
1.0
147
0.09
170
           0
171
           2
172
           0
173
           0
174
           0
175
           0
176
           0
177
           0
178
           0
270
           2
271
           4
272
           4
273
           2
274
           2
275
           0
280
           0
281
           0
282
           0
283
           1
284
           0
285
           0
286
           0
287
           0
288
           0
340
17
  0
DIMSTYLE
105
197
100
AcDbSymbolTableRecord
100
AcDbDimStyleTableRecord
  2
ME10_DIM_0
 70
           0
  3
�<>
  4

  5

  6

  7

 40
1.0
 41
2.8
 42
0.8
 43
0.38
 44
1.0
 45
0.0
 46
0.0
 47
0.0
 48
0.0
 71
           0
 72
           0
 73
           0
 74
           0
 75
           0
 76
           0
 77
           1
 78
           8
140
2.8
141
0.09
142
0.0
143
25.4
144
1.0
145
0.0
146
1.0
147
0.09
170
           0
171
           2
172
           0
173
           1
174
           0
175
           0
176
           2
177
           2
178
           2
270
           2
271
           3
272
           4
273
           2
274
           2
275
           0
280
           0
281
           0
282
           0
283
           1
284
           0
285
           0
286
           0
287
           3
288
           0
340
17
  0
DIMSTYLE
105
1A2
100
AcDbSymbolTableRecord
100
AcDbDimStyleTableRecord
  2
ME10_DIM_1
 70
           0
  3
�<>
  4

  5

  6

  7

 40
1.0
 41
2.8
 42
0.8
 43
0.38
 44
1.0
 45
0.0
 46
0.0
 47
0.0
 48
0.0
 71
           0
 72
           0
 73
           0
 74
           0
 75
           0
 76
           0
 77
           1
 78
           8
140
2.8
141
0.09
142
0.0
143
25.4
144
1.0
145
0.0
146
1.0
147
0.09
170
           0
171
           2
172
           0
173
           1
174
           0
175
           0
176
           2
177
           2
178
           2
270
           2
271
           3
272
           4
273
           2
274
           2
275
           0
280
           0
281
           0
282
           0
283
           1
284
           0
285
           0
286
           0
287
           3
288
           0
340
17
  0
DIMSTYLE
105
1AD
100
AcDbSymbolTableRecord
100
AcDbDimStyleTableRecord
  2
ME10_DIM_2
 70
           0
  3
�<>
  4

  5

  6

  7

 40
1.0
 41
2.8
 42
0.8
 43
0.38
 44
1.0
 45
0.0
 46
0.0
 47
0.0
 48
0.0
 71
           0
 72
           0
 73
           0
 74
           0
 75
           0
 76
           0
 77
           1
 78
           8
140
2.8
141
0.09
142
0.0
143
25.4
144
1.0
145
0.0
146
1.0
147
0.09
170
           0
171
           2
172
           0
173
           1
174
           0
175
           0
176
           2
177
           2
178
           2
270
           2
271
           3
272
           4
273
           2
274
           2
275
           0
280
           0
281
           0
282
           0
283
           1
284
           0
285
           0
286
           0
287
           3
288
           0
340
17
  0
DIMSTYLE
105
1BA
100
AcDbSymbolTableRecord
100
AcDbDimStyleTableRecord
  2
ME10_DIM_3
 70
           0
  3

  4

  5

  6

  7

 40
1.0
 41
2.8
 42
0.8
 43
0.38
 44
1.0
 45
0.0
 46
0.0
 47
0.0
 48
0.0
 71
           0
 72
           0
 73
           0
 74
           0
 75
           0
 76
           0
 77
           1
 78
           8
140
2.8
141
0.09
142
0.0
143
25.4
144
1.0
145
0.0
146
1.0
147
0.09
170
           0
171
           2
172
           0
173
           1
174
           0
175
           0
176
           2
177
           2
178
           2
270
           2
271
           3
272
           4
273
           2
274
           2
275
           0
280
           0
281
           0
282
           0
283
           1
284
           0
285
           0
286
           0
287
           3
288
           0
340
17
  0
DIMSTYLE
105
1C5
100
AcDbSymbolTableRecord
100
AcDbDimStyleTableRecord
  2
ME10_DIM_4
 70
           0
  3
(<>)
  4

  5

  6

  7

 40
1.0
 41
2.8
 42
0.8
 43
0.38
 44
1.0
 45
0.0
 46
0.0
 47
0.0
 48
0.0
 71
           0
 72
           0
 73
           0
 74
           0
 75
           0
 76
           0
 77
           1
 78
           8
140
2.8
141
0.09
142
0.0
143
25.4
144
1.0
145
0.0
146
1.0
147
0.09
170
           0
171
           2
172
           0
173
           1
174
           0
175
           0
176
           2
177
           2
178
           2
270
           2
271
           3
272
           4
273
           2
274
           2
275
           0
280
           0
281
           0
282
           0
283
           1
284
           0
285
           0
286
           0
287
           3
288
           0
340
17
  0
DIMSTYLE
105
34C
100
AcDbSymbolTableRecord
100
AcDbDimStyleTableRecord
  2
ME10_DIM_5
 70
           0
  3

  4

  5

  6

  7

 40
1.0
 41
2.8
 42
0.8
 43
0.38
 44
1.0
 45
0.0
 46
0.0
 47
0.0
 48
0.0
 71
           0
 72
           0
 73
           0
 74
           0
 75
           0
 76
           0
 77
           1
 78
           8
140
2.8
141
0.09
142
0.0
143
25.4
144
1.0
145
0.0
146
1.0
147
0.09
170
           0
171
           2
172
           0
173
           1
174
           0
175
           0
176
           2
177
           2
178
           2
270
           2
271
           3
272
           4
273
           2
274
           2
275
           0
280
           0
281
           0
282
           0
283
           1
284
           0
285
           0
286
           0
287
           3
288
           0
340
17
  0
DIMSTYLE
105
3E0
100
AcDbSymbolTableRecord
100
AcDbDimStyleTableRecord
  2
ME10_DIM_6
 70
           0
  3

  4

  5

  6

  7

 40
1.0
 41
2.8
 42
0.8
 43
0.38
 44
1.0
 45
0.0
 46
0.0
 47
0.0
 48
0.0
 71
           0
 72
           0
 73
           0
 74
           0
 75
           0
 76
           0
 77
           1
 78
           8
140
2.8
141
0.09
142
0.0
143
25.4
144
1.0
145
0.0
146
1.0
147
0.09
170
           0
171
           2
172
           0
173
           1
174
           0
175
           0
176
           2
177
           2
178
           2
270
           2
271
           3
272
           4
273
           2
274
           2
275
           0
280
           0
281
           0
282
           0
283
           1
284
           0
285
           0
286
           0
287
           3
288
           0
340
17
  0
ENDTAB
  0
TABLE
  2
BLOCK_RECORD
  5
1
100
AcDbSymbolTable
 70
          10
  0
BLOCK_RECORD
  5
A
100
AcDbSymbolTableRecord
100
AcDbBlockTableRecord
  2
*MODEL_SPACE
  0
BLOCK_RECORD
  5
B
100
AcDbSymbolTableRecord
100
AcDbBlockTableRecord
  2
*PAPER_SPACE
  0
BLOCK_RECORD
  5
28
100
AcDbSymbolTableRecord
100
AcDbBlockTableRecord
  2
_3
  0
BLOCK_RECORD
  5
2A
100
AcDbSymbolTableRecord
100
AcDbBlockTableRecord
  2
FORMAT_A4AI
  0
BLOCK_RECORD
  5
2C
100
AcDbSymbolTableRecord
100
AcDbBlockTableRecord
  2
13188610C
  0
BLOCK_RECORD
  5
18E
100
AcDbSymbolTableRecord
100
AcDbBlockTableRecord
  2
*D3
  0
BLOCK_RECORD
  5
199
100
AcDbSymbolTableRecord
100
AcDbBlockTableRecord
  2
*D4
  0
BLOCK_RECORD
  5
1A4
100
AcDbSymbolTableRecord
100
AcDbBlockTableRecord
  2
*D5
  0
BLOCK_RECORD
  5
1AF
100
AcDbSymbolTableRecord
100
AcDbBlockTableRecord
  2
*D6
  0
BLOCK_RECORD
  5
1BC
100
AcDbSymbolTableRecord
100
AcDbBlockTableRecord
  2
*D7
  0
BLOCK_RECORD
  5
343
100
AcDbSymbolTableRecord
100
AcDbBlockTableRecord
  2
*D8
  0
BLOCK_RECORD
  5
3D7
100
AcDbSymbolTableRecord
100
AcDbBlockTableRecord
  2
*D9
  0
ENDTAB
  0
ENDSEC
  0
SECTION
  2
BLOCKS
  0
BLOCK
  5
D
100
AcDbEntity
  8
0
100
AcDbBlockBegin
  2
*MODEL_SPACE
 70
           0
 10
0.0
 20
0.0
 30
0.0
  3
*MODEL_SPACE
  1

  0
ENDBLK
  5
E
100
AcDbEntity
  8
0
100
AcDbBlockEnd
  0
BLOCK
  5
F
100
AcDbEntity
 67
           1
  8
0
100
AcDbBlockBegin
  2
*PAPER_SPACE
 70
           0
 10
0.0
 20
0.0
 30
0.0
  3
*PAPER_SPACE
  1

  0
ENDBLK
  5
10
100
AcDbEntity
 67
           1
  8
0
100
AcDbBlockEnd
  0
BLOCK
  5
29
100
AcDbEntity
  8
0
100
AcDbBlockBegin
  2
_3
 70
           0
 10
0.0
 20
0.0
 30
0.0
  3
_3
  1

  0
DIMENSION
  5
1C6
100
AcDbEntity
  8
0
100
AcDbDimension
  2
*D7
 10
0.679802598655
 20
-14.947474619729
 11
34.96791912201
 21
-12.547474619729
 31
0.0
  1
<>
  3
ME10_DIM_4
100
AcDbAlignedDimension
 13
70.93544445928
 23
10.113057337919
 14
0.679802598655
 24
14.363057337917
100
AcDbRotatedDimension
  0
DIMENSION
  5
1BB
100
AcDbEntity
  8
0
100
AcDbDimension
  2
*D6
 10
29.524843156555
 20
0.223648970561
 11
41.434906613956
 21
2.623648970561
 31
0.0
  1
<>
  3
ME10_DIM_3
100
AcDbAlignedDimension
 13
35.024817752769
 23
1.223648970561
 14
29.524843156555
 24
8.911351415747
100
AcDbRotatedDimension
  0
DIMENSION
  5
1AE
100
AcDbEntity
  8
0
100
AcDbDimension
  2
*D5
 10
-2.60981965844
 20
32.61305733792
 11
-5.00981965844
 21
20.680421676154
 31
0.0
 53
90.0
  1
<>
  3
ME10_DIM_2
100
AcDbAlignedDimension
 13
15.179802596405
 23
10.613057337918
 14
15.179802596405
 24
32.61305733792
 50
90.0
100
AcDbRotatedDimension
  0
DIMENSION
  5
1A3
100
AcDbEntity
  8
0
100
AcDbDimension
  2
*D4
 10
93.757011237857
 20
36.613057337919
 11
91.357011237857
 21
21.908634845885
 31
0.0
 53
90.0
  1
<>
  3
ME10_DIM_1
100
AcDbAlignedDimension
 13
60.43544445928
 23
6.613057337919
 14
60.43544445928
 24
36.613057337919
 50
90.0
100
AcDbRotatedDimension
  0
DIMENSION
  5
198
100
AcDbEntity
  8
0
100
AcDbDimension
  2
*D3
 10
85.492113177222
 20
35.613057337919
 11
83.092113177222
 21
21.908634845885
 31
0.0
 53
90.0
  1
<>
  3
ME10_DIM_0
100
AcDbAlignedDimension
 13
69.43544445928
 23
7.613057337919
 14
69.43544445928
 24
35.613057337919
 50
90.0
100
AcDbRotatedDimension
  0
TEXT
  5
18D
100
AcDbEntity
  8
976
 62
           2
100
AcDbText
 10
41.076718345142
 20
14.653569975222
 40
2.0
  1
L
 41
1.35
  7
CONVERTER_3
100
AcDbText
  0
TEXT
  5
18C
100
AcDbEntity
  8
976
 62
           2
100
AcDbText
 10
95.87381505245
 20
73.150462301749
 40
3.5
  1
塗料洩れ検知穴
 41
0.89
  7
CONVERTER_1
100
AcDbText
  0
TEXT
  5
18B
100
AcDbEntity
  8
976
 62
           2
100
AcDbText
 10
75.454687723658
 20
88.757192857801
 40
2.0
  1
L
 41
1.35
  7
CONVERTER_3
100
AcDbText
  0
TEXT
  5
18A
100
AcDbEntity
  8
976
 62
           2
100
AcDbText
 10
75.139251751762
 20
111.597076000364
 40
2.0
  1
C
 41
1.35
  7
CONVERTER_3
100
AcDbText
  0
TEXT
  5
188
100
AcDbEntity
  8
1
 62
           2
100
AcDbText
 10
4.17273802
 20
47.745245415841
 40
3.5
  1
M19X1
 41
0.9
  7
CONVERTER_2
100
AcDbText
  0
TEXT
  5
187
100
AcDbEntity
  8
1
 62
           2
100
AcDbText
 10
23.754960213928
 20
40.372467099981
 40
3.5
  1
A
 41
0.9
  7
CONVERTER_2
100
AcDbText
  0
TEXT
  5
186
100
AcDbEntity
  8
1
 62
           2
100
AcDbText
 10
23.754960213928
 20
-7.076306664695
 40
3.5
  1
A
 41
0.9
  7
CONVERTER_2
100
AcDbText
  0
TEXT
  5
184
100
AcDbEntity
  8
1
 62
           2
100
AcDbText
 10
16.935909137927
 20
-14.288283144387
 40
3.5
  1
全閉時
 41
0.89
  7
CONVERTER_1
100
AcDbText
  0
LEADER
  5
182
100
AcDbEntity
  8
976
  6
CONTINUOUS
 62
           2
100
AcDbLeader
  3
Standard
 71
           0
 73
           3
 74
           0
 75
           0
 40
0.0
 76
           3
 10
83.173388383875
 20
98.317705250253
 30
0.0
 10
94.513048419013
 20
72.037107783482
 30
0.0
 10
123.583971951533
 20
72.037107783482
 30
0.0
 77
           2
  0
LEADER
  5
180
100
AcDbEntity
  8
976
  6
CONTINUOUS
 62
           2
100
AcDbLeader
  3
Standard
 71
           0
 73
           3
 74
           0
 75
           0
 40
0.0
 76
           2
 10
35.02371696759
 20
41.849665393651
 30
0.0
 10
28.022421951178
 20
41.849665393651
 30
0.0
 77
           2
  0
LEADER
  5
17E
100
AcDbEntity
  8
976
  6
CONTINUOUS
 62
           2
100
AcDbLeader
  3
Standard
 71
           0
 73
           3
 74
           0
 75
           0
 40
0.0
 76
           2
 10
35.02371696759
 20
-5.599108371026
 30
0.0
 10
28.022421951178
 20
-5.599108371026
 30
0.0
 77
           2
  0
LEADER
  5
17C
100
AcDbEntity
  8
976
  6
CONTINUOUS
 62
           2
100
AcDbLeader
  3
Standard
 71
           0
 73
           3
 74
           0
 75
           0
 40
0.0
 76
           3
 10
22.831485695305
 20
31.11305733792
 30
0.0
 10
19.78698246195
 20
46.313168941585
 30
0.0
 10
2.775820645575
 20
46.313168941585
 30
0.0
 77
           2
  0
ARC
  5
17A
100
AcDbEntity
  8
1
  6
CONTINUOUS
 62
           7
100
AcDbCircle
 10
45.808677844454
 20
90.749010327566
 40
1.0
100
AcDbArc
 50
180.0
 51
-90.0
  0
ARC
  5
179
100
AcDbEntity
  8
1
  6
CONTINUOUS
 62
           7
100
AcDbCircle
 10
45.808677844454
 20
109.749010327568
 40
1.0
100
AcDbArc
 50
90.0
 51
180.0
  0
ARC
  5
178
100
AcDbEntity
  8
1
  6
CONTINUOUS
 62
           7
100
AcDbCircle
 10
40.339320745857
 20
96.749010327568
 40
0.8
100
AcDbArc
 50
-90.0
 51
20.000000000047
  0
ARC
  5
177
100
AcDbEntity
  8
1
  6
CONTINUOUS
 62
           7
100
AcDbCircle
 10
40.339320745857
 20
103.749010327566
 40
0.799999999999
100
AcDbArc
 50
-20.000000000049
 51
90.0
  0
ARC
  5
176
100
AcDbEntity
  8
1
  6
CONTINUOUS
 62
           7
100
AcDbCircle
 10
4.710445497808
 20
25.113057337918
 40
0.799999999999
100
AcDbArc
 50
-20.000000000046
 51
90.0
  0
ARC
  5
175
100
AcDbEntity
  8
1
  6
CONTINUOUS
 62
           7
100
AcDbCircle
 10
4.710445497808
 20
18.11305733792
 40
0.8
100
AcDbArc
 50
-90.0
 51
20.000000000046
  0
ARC
  5
174
100
AcDbEntity
  8
1
  6
CONTINUOUS
 62
           7
100
AcDbCircle
 10
10.179802596405
 20
31.11305733792
 40
1.0
100
AcDbArc
 50
90.0
 51
180.0
  0
ARC
  5
173
100
AcDbEntity
  8
1
  6
CONTINUOUS
 62
           7
100
AcDbCircle
 10
10.179802596405
 20
12.113057337918
 40
1.0
100
AcDbArc
 50
180.0
 51
-90.0
  0
CIRCLE
  5
172
100
AcDbEntity
  8
1
  6
CONTINUOUS
 62
           7
100
AcDbCircle
 10
82.653714737881
 20
100.249010327567
 40
2.0
  0
CIRCLE
  5
171
100
AcDbEntity
  8
1
  6
CONTINUOUS
 62
           2
100
AcDbCircle
 10
70.653693000818
 20
100.249010327567
 40
2.0
  0
CIRCLE
  5
170
100
AcDbEntity
  8
1
  6
CONTINUOUS
 62
           7
100
AcDbCircle
 10
70.653693000818
 20
100.249010327567
 40
1.65
  0
ARC
  5
16F
100
AcDbEntity
  8
1
  6
CONTINUOUS
 62
           7
100
AcDbCircle
 10
81.10859158985
 20
106.599863288654
 40
20.957810191194
100
AcDbArc
 50
162.360294623949
 51
-162.360294623948
  0
ARC
  5
16E
100
AcDbEntity
  8
1
  6
CONTINUOUS
 62
           7
100
AcDbCircle
 10
81.10859158985
 20
93.898157366481
 40
20.957810191194
100
AcDbArc
 50
162.360294623949
 51
-162.360294623949
  0
ARC
  5
16D
100
AcDbEntity
  8
1
  6
CONTINUOUS
 62
           7
100
AcDbCircle
 10
45.479716341801
 20
15.262204376833
 40
20.957810191194
100
AcDbArc
 50
162.360294623949
 51
-162.360294623949
  0
ARC
  5
16C
100
AcDbEntity
  8
1
  6
CONTINUOUS
 62
           7
100
AcDbCircle
 10
45.479716341801
 20
27.963910299005
 40
20.957810191194
100
AcDbArc
 50
162.360294623949
 51
-162.360294623948
  0
LINE
  5
16B
100
AcDbEntity
  8
1
  6
CONTINUOUS
 62
           7
100
AcDbLine
 10
61.13619877685
 20
87.547304405395
 11
60.153718404603
 21
89.249010327567
  0
LINE
  5
16A
100
AcDbEntity
  8
1
  6
CONTINUOUS
 62
           7
100
AcDbLine
 10
65.153718404603
 20
87.547304405395
 11
61.13619877685
 21
87.547304405395
  0
LINE
  5
169
100
AcDbEntity
  8
1
  6
CONTINUOUS
 62
           7
100
AcDbLine
 10
60.153718404603
 20
109.249010327567
 11
60.153718404603
 21
89.249010327567
  0
LINE
  5
168
100
AcDbEntity
  8
1
  6
CONTINUOUS
 62
           7
100
AcDbLine
 10
65.153718404603
 20
91.249010327567
 11
65.153718404603
 21
87.547304405395
  0
LINE
  5
167
100
AcDbEntity
  8
1
  6
CONTINUOUS
 62
           7
100
AcDbLine
 10
65.153718404603
 20
112.95071624974
 11
65.153718404603
 21
91.249010327567
  0
LINE
  5
166
100
AcDbEntity
  8
1
  6
CONTINUOUS
 62
           7
100
AcDbLine
 10
60.153718404603
 20
111.249010327567
 11
60.153718404603
 21
109.249010327567
  0
LINE
  5
165
100
AcDbEntity
  8
1
  6
CONTINUOUS
 62
           7
100
AcDbLine
 10
61.13619877685
 20
112.95071624974
 11
65.153718404603
 21
112.95071624974
  0
LINE
  5
164
100
AcDbEntity
  8
1
  6
CONTINUOUS
 62
           7
100
AcDbLine
 10
60.153718404603
 20
111.249010327567
 11
61.13619877685
 21
112.95071624974
  0
LINE
  5
163
100
AcDbEntity
  8
1
  6
CONTINUOUS
 62
           7
100
AcDbLine
 10
60.153718404603
 20
100.249010327567
 11
65.153718404603
 21
100.249010327567
  0
LINE
  5
162
100
AcDbEntity
  8
1
  6
CONTINUOUS
 62
           7
100
AcDbLine
 10
65.153718404603
 20
88.249010327567
 11
65.153718404603
 21
91.399010327567
  0
LINE
  5
161
100
AcDbEntity
  8
1
  6
CONTINUOUS
 62
           7
100
AcDbLine
 10
65.153718404603
 20
109.099010327568
 11
65.153718404603
 21
112.249010327567
  0
LINE
  5
160
100
AcDbEntity
  8
1
  6
CONTINUOUS
 62
           7
100
AcDbLine
 10
65.153718404603
 20
109.099010327568
 11
65.153718404603
 21
91.399010327567
  0
LINE
  5
15F
100
AcDbEntity
  8
1
  6
CONTINUOUS
 62
           7
100
AcDbLine
 10
60.153718404603
 20
90.749010327566
 11
57.808677844454
 21
90.749010327566
  0
LINE
  5
15E
100
AcDbEntity
  8
1
  6
CONTINUOUS
 62
           2
100
AcDbLine
 10
57.808677844454
 20
91.249010327567
 11
60.153718404603
 21
91.249010327567
  0
LINE
  5
15D
100
AcDbEntity
  8
1
  6
CONTINUOUS
 62
           2
100
AcDbLine
 10
60.153718404603
 20
109.249010327567
 11
57.808677844454
 21
109.249010327567
  0
LINE
  5
15C
100
AcDbEntity
  8
1
  6
CONTINUOUS
 62
           7
100
AcDbLine
 10
57.808677844454
 20
109.749010327568
 11
60.153718404603
 21
109.749010327568
  0
LINE
  5
15B
100
AcDbEntity
  8
1
  6
CONTINUOUS
 62
           7
100
AcDbLine
 10
41.008677846704
 20
97.249010327568
 11
41.008677846704
 21
103.249010327566
  0
LINE
  5
15A
100
AcDbEntity
  8
1
  6
CONTINUOUS
 62
           7
100
AcDbLine
 10
40.733126280294
 20
103.089920556524
 11
40.733126280294
 21
97.408100098611
  0
LINE
  5
159
100
AcDbEntity
  8
1
  6
CONTINUOUS
 62
           7
100
AcDbLine
 10
44.808677844454
 20
91.949010328917
 11
44.808677844454
 21
92.249010328917
  0
LINE
  5
158
100
AcDbEntity
  8
1
  6
CONTINUOUS
 62
           7
100
AcDbLine
 10
45.808677844454
 20
89.749010327566
 11
50.308677844454
 21
89.749010327566
  0
LINE
  5
157
100
AcDbEntity
  8
1
  6
CONTINUOUS
 62
           7
100
AcDbLine
 10
50.808677844454
 20
89.249010327566
 11
57.308677844454
 21
89.249010327566
  0
LINE
  5
156
100
AcDbEntity
  8
1
  6
CONTINUOUS
 62
           7
100
AcDbLine
 10
44.808677844454
 20
90.749010327566
 11
44.808677844454
 21
91.949010328917
  0
LINE
  5
155
100
AcDbEntity
  8
1
  6
CONTINUOUS
 62
           7
100
AcDbLine
 10
57.808677844454
 20
110.199010327568
 11
57.808677844454
 21
89.749010327566
  0
LINE
  5
154
100
AcDbEntity
  8
1
  6
CONTINUOUS
 62
           7
100
AcDbLine
 10
50.808677844454
 20
89.249010327566
 11
50.308677844454
 21
89.749010327566
  0
LINE
  5
153
100
AcDbEntity
  8
1
  6
CONTINUOUS
 62
           7
100
AcDbLine
 10
57.808677844454
 20
89.749010327566
 11
57.308677844454
 21
89.249010327566
  0
LINE
  5
152
100
AcDbEntity
  8
1
  6
CONTINUOUS
 62
           7
100
AcDbLine
 10
44.808677844454
 20
92.249010328917
 11
44.808677844454
 21
108.549010326218
  0
LINE
  5
151
100
AcDbEntity
  8
1
  6
CONTINUOUS
 62
           7
100
AcDbLine
 10
50.308677844454
 20
110.749010327568
 11
45.808677844454
 21
110.749010327568
  0
LINE
  5
150
100
AcDbEntity
  8
1
  6
CONTINUOUS
 62
           7
100
AcDbLine
 10
57.308677844454
 20
111.249010327568
 11
50.808677844454
 21
111.249010327568
  0
LINE
  5
14F
100
AcDbEntity
  8
1
  6
CONTINUOUS
 62
           7
100
AcDbLine
 10
44.808677844454
 20
108.549010326218
 11
44.808677844454
 21
109.749010327568
  0
LINE
  5
14E
100
AcDbEntity
  8
1
  6
CONTINUOUS
 62
           7
100
AcDbLine
 10
57.808677844454
 20
110.749010327568
 11
57.808677844454
 21
110.199010327568
  0
LINE
  5
14D
100
AcDbEntity
  8
1
  6
CONTINUOUS
 62
           7
100
AcDbLine
 10
50.308677844454
 20
110.749010327568
 11
50.808677844454
 21
111.249010327568
  0
LINE
  5
14C
100
AcDbEntity
  8
1
  6
CONTINUOUS
 62
           7
100
AcDbLine
 10
57.308677844454
 20
111.249010327568
 11
57.808677844454
 21
110.749010327568
  0
LINE
  5
14B
100
AcDbEntity
  8
1
  6
CONTINUOUS
 62
           2
100
AcDbLine
 10
57.308677844454
 20
111.249010327568
 11
57.308677844454
 21
89.249010327566
  0
LINE
  5
14A
100
AcDbEntity
  8
1
  6
CONTINUOUS
 62
           2
100
AcDbLine
 10
50.808677844454
 20
89.249010327566
 11
50.808677844454
 21
111.249010327568
  0
LINE
  5
149
100
AcDbEntity
  8
1
  6
CONTINUOUS
 62
           7
100
AcDbLine
 10
50.308677844454
 20
110.749010327568
 11
50.308677844454
 21
89.749010327566
  0
LINE
  5
148
100
AcDbEntity
  8
1
  6
CONTINUOUS
 62
           2
100
AcDbLine
 10
50.808677844454
 20
110.874194416748
 11
57.308677844454
 21
110.874194416748
  0
LINE
  5
147
100
AcDbEntity
  8
1
  6
CONTINUOUS
 62
           2
100
AcDbLine
 10
57.308677844454
 20
109.775289769197
 11
50.808677844454
 21
109.775289769197
  0
LINE
  5
146
100
AcDbEntity
  8
1
  6
CONTINUOUS
 62
           2
100
AcDbLine
 10
50.808677844454
 20
108.027184920621
 11
57.308677844454
 21
108.027184920621
  0
LINE
  5
145
100
AcDbEntity
  8
1
  6
CONTINUOUS
 62
           2
100
AcDbLine
 10
57.308677844454
 20
105.749010327567
 11
50.808677844454
 21
105.749010327567
  0
LINE
  5
144
100
AcDbEntity
  8
1
  6
CONTINUOUS
 62
           2
100
AcDbLine
 10
50.808677844454
 20
103.096019823696
 11
57.308677844454
 21
103.096019823696
  0
LINE
  5
143
100
AcDbEntity
  8
1
  6
CONTINUOUS
 62
           2
100
AcDbLine
 10
57.308677844454
 20
100.249010327567
 11
50.808677844454
 21
100.249010327567
  0
LINE
  5
142
100
AcDbEntity
  8
1
  6
CONTINUOUS
 62
           2
100
AcDbLine
 10
57.308677844454
 20
97.402000831439
 11
50.808677844454
 21
97.402000831439
  0
LINE
  5
141
100
AcDbEntity
  8
1
  6
CONTINUOUS
 62
           2
100
AcDbLine
 10
50.808677844454
 20
94.749010327567
 11
57.308677844454
 21
94.749010327567
  0
LINE
  5
140
100
AcDbEntity
  8
1
  6
CONTINUOUS
 62
           2
100
AcDbLine
 10
57.308677844454
 20
92.470835734516
 11
50.808677844454
 21
92.470835734516
  0
LINE
  5
13F
100
AcDbEntity
  8
1
  6
CONTINUOUS
 62
           2
100
AcDbLine
 10
50.808677844454
 20
90.722730885939
 11
57.308677844454
 21
90.722730885939
  0
LINE
  5
13E
100
AcDbEntity
  8
1
  6
CONTINUOUS
 62
           2
100
AcDbLine
 10
57.308677844454
 20
89.623826238387
 11
50.808677844454
 21
89.623826238387
  0
LINE
  5
13D
100
AcDbEntity
  8
1
  6
CONTINUOUS
 62
           7
100
AcDbLine
 10
40.208677846704
 20
101.049010327569
 11
40.208677846704
 21
101.349010327569
  0
LINE
  5
13C
100
AcDbEntity
  8
1
  6
CONTINUOUS
 62
           7
100
AcDbLine
 10
40.208677846704
 20
99.149010327566
 11
40.208677846704
 21
101.049010327569
  0
LINE
  5
13B
100
AcDbEntity
  8
1
  6
CONTINUOUS
 62
           7
100
AcDbLine
 10
40.339320745857
 20
95.949010327568
 11
38.82015151768
 21
95.949010327568
  0
LINE
  5
13A
100
AcDbEntity
  8
1
  6
CONTINUOUS
 62
           7
100
AcDbLine
 10
41.008677846704
 20
97.249010327568
 11
40.733126280294
 21
97.408100098611
  0
LINE
  5
139
100
AcDbEntity
  8
1
  6
CONTINUOUS
 62
           7
100
AcDbLine
 10
41.008677846704
 20
97.249010327568
 11
41.091074842485
 21
97.022626442229
  0
LINE
  5
138
100
AcDbEntity
  8
1
  6
CONTINUOUS
 62
           7
100
AcDbLine
 10
42.408677846704
 20
92.499010327565
 11
42.508677846704
 21
92.399010327566
  0
LINE
  5
137
100
AcDbEntity
  8
1
  6
CONTINUOUS
 62
           3
100
AcDbLine
 10
36.741690548597
 20
94.749010327565
 11
36.308677846704
 21
94.499010327565
  0
LINE
  5
136
100
AcDbEntity
  8
1
  6
CONTINUOUS
 62
           3
100
AcDbLine
 10
36.308677846704
 20
93.999010327565
 11
36.308677846704
 21
94.499010327565
  0
LINE
  5
135
100
AcDbEntity
  8
1
  6
CONTINUOUS
 62
           7
100
AcDbLine
 10
36.741690548597
 20
94.749010327565
 11
36.308677846704
 21
93.999010327565
  0
LINE
  5
134
100
AcDbEntity
  8
1
  6
CONTINUOUS
 62
           7
100
AcDbLine
 10
40.208677846704
 20
99.149010327566
 11
40.208677846704
 21
98.849010327567
  0
LINE
  5
133
100
AcDbEntity
  8
1
  6
CONTINUOUS
 62
           7
100
AcDbLine
 10
40.208677846704
 20
98.849010327567
 11
40.733126280294
 21
97.408100098611
  0
LINE
  5
132
100
AcDbEntity
  8
1
  6
CONTINUOUS
 62
           7
100
AcDbLine
 10
42.408677846704
 20
92.499010327565
 11
36.808677846704
 21
92.499010327565
  0
LINE
  5
131
100
AcDbEntity
  8
1
  6
CONTINUOUS
 62
           7
100
AcDbLine
 10
36.308677846704
 20
92.999010327565
 11
36.808677846704
 21
92.499010327565
  0
LINE
  5
130
100
AcDbEntity
  8
1
  6
CONTINUOUS
 62
           7
100
AcDbLine
 10
36.308677846704
 20
92.999010327565
 11
36.308677846704
 21
93.999010327565
  0
LINE
  5
12F
100
AcDbEntity
  8
1
  6
CONTINUOUS
 62
           7
100
AcDbLine
 10
37.708677846704
 20
95.307300704432
 11
36.741690548597
 21
94.749010327565
  0
LINE
  5
12E
100
AcDbEntity
  8
1
  6
CONTINUOUS
 62
           7
100
AcDbLine
 10
38.82015151768
 20
95.949010327566
 11
37.708677846704
 21
95.307300704432
  0
LINE
  5
12D
100
AcDbEntity
  8
1
  6
DOT_CENTER
 62
           2
100
AcDbLine
 10
37.658095497532
 20
95.394911903165
 11
37.708677846704
 21
95.307300704432
  0
LINE
  5
12C
100
AcDbEntity
  8
1
  6
DOT_CENTER
 62
           2
100
AcDbLine
 10
37.708677846704
 20
105.190719950703
 11
37.658095497532
 21
105.10310875197
  0
LINE
  5
12B
100
AcDbEntity
  8
1
  6
CONTINUOUS
 62
           7
100
AcDbLine
 10
37.708677846704
 20
105.190719950703
 11
38.82015151768
 21
104.549010327569
  0
LINE
  5
12A
100
AcDbEntity
  8
1
  6
CONTINUOUS
 62
           7
100
AcDbLine
 10
36.741690548597
 20
105.749010327568
 11
37.708677846704
 21
105.190719950703
  0
LINE
  5
129
100
AcDbEntity
  8
1
  6
CONTINUOUS
 62
           7
100
AcDbLine
 10
36.308677846704
 20
106.499010327568
 11
36.308677846704
 21
107.499010327568
  0
LINE
  5
128
100
AcDbEntity
  8
1
  6
CONTINUOUS
 62
           7
100
AcDbLine
 10
36.808677846704
 20
107.999010327568
 11
36.308677846704
 21
107.499010327568
  0
LINE
  5
127
100
AcDbEntity
  8
1
  6
CONTINUOUS
 62
           7
100
AcDbLine
 10
36.808677846704
 20
107.999010327568
 11
42.408677846704
 21
107.999010327568
  0
LINE
  5
126
100
AcDbEntity
  8
1
  6
CONTINUOUS
 62
           7
100
AcDbLine
 10
40.733126280294
 20
103.089920556524
 11
40.208677846704
 21
101.649010327568
  0
LINE
  5
125
100
AcDbEntity
  8
1
  6
CONTINUOUS
 62
           7
100
AcDbLine
 10
40.208677846704
 20
101.649010327568
 11
40.208677846704
 21
101.349010327569
  0
LINE
  5
124
100
AcDbEntity
  8
1
  6
CONTINUOUS
 62
           7
100
AcDbLine
 10
36.308677846704
 20
106.499010327568
 11
36.741690548597
 21
105.749010327568
  0
LINE
  5
123
100
AcDbEntity
  8
1
  6
CONTINUOUS
 62
           3
100
AcDbLine
 10
36.308677846704
 20
105.999010327568
 11
36.308677846704
 21
106.499010327568
  0
LINE
  5
122
100
AcDbEntity
  8
1
  6
CONTINUOUS
 62
           3
100
AcDbLine
 10
36.308677846704
 20
105.999010327568
 11
36.741690548597
 21
105.749010327568
  0
LINE
  5
121
100
AcDbEntity
  8
1
  6
CONTINUOUS
 62
           7
100
AcDbLine
 10
42.508677846704
 20
108.099010327569
 11
42.408677846704
 21
107.999010327568
  0
LINE
  5
120
100
AcDbEntity
  8
1
  6
CONTINUOUS
 62
           7
100
AcDbLine
 10
42.508677846704
 20
108.099010327569
 11
44.808677844454
 21
108.099010327569
  0
LINE
  5
11F
100
AcDbEntity
  8
1
  6
CONTINUOUS
 62
           7
100
AcDbLine
 10
41.091074842485
 20
103.475394212906
 11
41.008677846704
 21
103.249010327566
  0
LINE
  5
11E
100
AcDbEntity
  8
1
  6
CONTINUOUS
 62
           7
100
AcDbLine
 10
40.733126280294
 20
103.089920556524
 11
41.008677846704
 21
103.249010327566
  0
LINE
  5
11D
100
AcDbEntity
  8
1
  6
CONTINUOUS
 62
           7
100
AcDbLine
 10
38.82015151768
 20
104.549010327567
 11
40.339320745857
 21
104.549010327567
  0
LINE
  5
11C
100
AcDbEntity
  8
1
  6
CONTINUOUS
 62
           7
100
AcDbLine
 10
42.508677846704
 20
92.399010327566
 11
42.508677846704
 21
108.099010327569
  0
LINE
  5
11B
100
AcDbEntity
  8
1
  6
CONTINUOUS
 62
           2
100
AcDbLine
 10
41.251884637068
 20
103.917215492349
 11
42.430393639577
 21
107.155142365365
  0
LINE
  5
11A
100
AcDbEntity
  8
1
  6
CONTINUOUS
 62
           2
100
AcDbLine
 10
42.430393639577
 20
93.34287828977
 11
41.251884637068
 21
96.580805162786
  0
LINE
  5
119
100
AcDbEntity
  8
1
  6
CONTINUOUS
 62
           7
100
AcDbLine
 10
44.808677844454
 20
92.399010327566
 11
42.508677846704
 21
92.399010327566
  0
LINE
  5
118
100
AcDbEntity
  8
1
  6
CONTINUOUS
 62
           7
100
AcDbLine
 10
93.564319707329
 20
88.899010327567
 11
92.153714737881
 21
88.899010327568
  0
LINE
  5
117
100
AcDbEntity
  8
1
  6
CONTINUOUS
 62
           7
100
AcDbLine
 10
92.153714737881
 20
111.599010327567
 11
93.564319707329
 21
111.599010327567
  0
LINE
  5
116
100
AcDbEntity
  8
1
  6
CONTINUOUS
 62
           7
100
AcDbLine
 10
96.564319707329
 20
114.749010327567
 11
96.564319707329
 21
85.749010327567
  0
LINE
  5
115
100
AcDbEntity
  8
1
  6
CONTINUOUS
 62
           7
100
AcDbLine
 10
93.564319707329
 20
85.749010327567
 11
93.564319707329
 21
114.749010327567
  0
LINE
  5
114
100
AcDbEntity
  8
1
  6
CONTINUOUS
 62
           7
100
AcDbLine
 10
93.564319707329
 20
85.749010327567
 11
94.064319707329
 21
85.249010327567
  0
LINE
  5
113
100
AcDbEntity
  8
1
  6
CONTINUOUS
 62
           7
100
AcDbLine
 10
96.064319707329
 20
85.249010327567
 11
96.564319707329
 21
85.749010327567
  0
LINE
  5
112
100
AcDbEntity
  8
1
  6
CONTINUOUS
 62
           7
100
AcDbLine
 10
96.064319707329
 20
85.249010327567
 11
94.064319707329
 21
85.249010327567
  0
LINE
  5
111
100
AcDbEntity
  8
1
  6
CONTINUOUS
 62
           7
100
AcDbLine
 10
94.064319707329
 20
115.249010327567
 11
93.564319707329
 21
114.749010327567
  0
LINE
  5
110
100
AcDbEntity
  8
1
  6
CONTINUOUS
 62
           7
100
AcDbLine
 10
96.564319707329
 20
114.749010327567
 11
96.064319707329
 21
115.249010327567
  0
LINE
  5
10F
100
AcDbEntity
  8
1
  6
CONTINUOUS
 62
           7
100
AcDbLine
 10
94.064319707329
 20
115.249010327567
 11
96.064319707329
 21
115.249010327567
  0
LINE
  5
10E
100
AcDbEntity
  8
1
  6
CONTINUOUS
 62
           2
100
AcDbLine
 10
94.064319707329
 20
115.249010327567
 11
94.064319707329
 21
85.249010327567
  0
LINE
  5
10D
100
AcDbEntity
  8
1
  6
CONTINUOUS
 62
           2
100
AcDbLine
 10
96.064319707329
 20
85.249010327567
 11
96.064319707329
 21
115.249010327567
  0
LINE
  5
10C
100
AcDbEntity
  8
1
  6
CONTINUOUS
 62
           2
100
AcDbLine
 10
94.064319707329
 20
114.749010327567
 11
96.064319707329
 21
114.749010327567
  0
LINE
  5
10B
100
AcDbEntity
  8
1
  6
CONTINUOUS
 62
           2
100
AcDbLine
 10
96.064319707329
 20
113.239391384334
 11
94.064319707329
 21
113.239391384334
  0
LINE
  5
10A
100
AcDbEntity
  8
1
  6
CONTINUOUS
 62
           2
100
AcDbLine
 10
94.064319707329
 20
110.855612045366
 11
96.064319707329
 21
110.855612045366
  0
LINE
  5
109
100
AcDbEntity
  8
1
  6
CONTINUOUS
 62
           2
100
AcDbLine
 10
94.064319707329
 20
107.749010327567
 11
96.064319707329
 21
107.749010327567
  0
LINE
  5
108
100
AcDbEntity
  8
1
  6
CONTINUOUS
 62
           2
100
AcDbLine
 10
94.064319707329
 20
104.131296004105
 11
96.064319707329
 21
104.131296004105
  0
LINE
  5
107
100
AcDbEntity
  8
1
  6
CONTINUOUS
 62
           2
100
AcDbLine
 10
94.064319707329
 20
100.249010327567
 11
96.064319707329
 21
100.249010327567
  0
LINE
  5
106
100
AcDbEntity
  8
1
  6
CONTINUOUS
 62
           2
100
AcDbLine
 10
96.064319707329
 20
96.366724651029
 11
94.064319707329
 21
96.366724651029
  0
LINE
  5
105
100
AcDbEntity
  8
1
  6
CONTINUOUS
 62
           2
100
AcDbLine
 10
96.064319707329
 20
92.749010327567
 11
94.064319707329
 21
92.749010327567
  0
LINE
  5
104
100
AcDbEntity
  8
1
  6
CONTINUOUS
 62
           2
100
AcDbLine
 10
96.064319707329
 20
89.64240860977
 11
94.064319707329
 21
89.64240860977
  0
LINE
  5
103
100
AcDbEntity
  8
1
  6
CONTINUOUS
 62
           2
100
AcDbLine
 10
94.064319707329
 20
87.258629270802
 11
96.064319707329
 21
87.258629270802
  0
LINE
  5
102
100
AcDbEntity
  8
1
  6
CONTINUOUS
 62
           2
100
AcDbLine
 10
96.064319707329
 20
85.749010327567
 11
94.064319707329
 21
85.749010327567
  0
LINE
  5
101
100
AcDbEntity
  8
1
  6
CONTINUOUS
 62
           7
100
AcDbLine
 10
96.564319707329
 20
112.249010327567
 11
96.564319707329
 21
86.749010327567
  0
LINE
  5
100
100
AcDbEntity
  8
1
  6
CONTINUOUS
 62
           7
100
AcDbLine
 10
106.564319707329
 20
88.749010327567
 11
106.064319707329
 21
88.249010327567
  0
LINE
  5
FF
100
AcDbEntity
  8
1
  6
CONTINUOUS
 62
           7
100
AcDbLine
 10
97.064319707329
 20
86.249010327567
 11
96.564319707329
 21
86.749010327567
  0
LINE
  5
FE
100
AcDbEntity
  8
1
  6
CONTINUOUS
 62
           7
100
AcDbLine
 10
105.564319707329
 20
86.749010327567
 11
105.064319707329
 21
86.249010327567
  0
LINE
  5
FD
100
AcDbEntity
  8
1
  6
CONTINUOUS
 62
           7
100
AcDbLine
 10
97.064319707329
 20
86.249010327567
 11
105.064319707329
 21
86.249010327567
  0
LINE
  5
FC
100
AcDbEntity
  8
1
  6
CONTINUOUS
 62
           7
100
AcDbLine
 10
105.564319707329
 20
86.749010327567
 11
105.564319707329
 21
88.249010327567
  0
LINE
  5
FB
100
AcDbEntity
  8
1
  6
CONTINUOUS
 62
           7
100
AcDbLine
 10
105.564319707329
 20
88.249010327567
 11
106.064319707329
 21
88.249010327567
  0
LINE
  5
FA
100
AcDbEntity
  8
1
  6
CONTINUOUS
 62
           7
100
AcDbLine
 10
106.564319707329
 20
88.749010327567
 11
106.564319707329
 21
100.249010327567
  0
LINE
  5
F9
100
AcDbEntity
  8
1
  6
CONTINUOUS
 62
           7
100
AcDbLine
 10
96.564319707329
 20
113.749010327567
 11
96.564319707329
 21
112.399010327568
  0
LINE
  5
F8
100
AcDbEntity
  8
1
  6
CONTINUOUS
 62
           7
100
AcDbLine
 10
106.064319707329
 20
112.249010327567
 11
106.564319707329
 21
111.749010327567
  0
LINE
  5
F7
100
AcDbEntity
  8
1
  6
CONTINUOUS
 62
           7
100
AcDbLine
 10
96.564319707329
 20
113.749010327567
 11
97.064319707329
 21
114.249010327567
  0
LINE
  5
F6
100
AcDbEntity
  8
1
  6
CONTINUOUS
 62
           7
100
AcDbLine
 10
105.064319707329
 20
114.249010327567
 11
105.564319707329
 21
113.749010327567
  0
LINE
  5
F5
100
AcDbEntity
  8
1
  6
CONTINUOUS
 62
           7
100
AcDbLine
 10
96.564319707329
 20
112.399010327568
 11
96.564319707329
 21
112.249010327567
  0
LINE
  5
F4
100
AcDbEntity
  8
1
  6
CONTINUOUS
 62
           7
100
AcDbLine
 10
105.064319707329
 20
114.249010327567
 11
97.064319707329
 21
114.249010327567
  0
LINE
  5
F3
100
AcDbEntity
  8
1
  6
CONTINUOUS
 62
           7
100
AcDbLine
 10
105.564319707329
 20
112.249010327567
 11
105.564319707329
 21
113.749010327567
  0
LINE
  5
F2
100
AcDbEntity
  8
1
  6
CONTINUOUS
 62
           7
100
AcDbLine
 10
106.064319707329
 20
112.249010327567
 11
105.564319707329
 21
112.249010327567
  0
LINE
  5
F1
100
AcDbEntity
  8
1
  6
CONTINUOUS
 62
           7
100
AcDbLine
 10
106.564319707329
 20
100.249010327567
 11
106.564319707329
 21
111.749010327567
  0
LINE
  5
F0
100
AcDbEntity
  8
1
  6
CONTINUOUS
 62
           7
100
AcDbLine
 10
105.564319707329
 20
112.249010327567
 11
105.564319707329
 21
88.249010327567
  0
LINE
  5
EF
100
AcDbEntity
  8
1
  6
CONTINUOUS
 62
           2
100
AcDbLine
 10
105.064319707329
 20
86.249010327567
 11
105.064319707329
 21
114.249010327567
  0
LINE
  5
EE
100
AcDbEntity
  8
1
  6
CONTINUOUS
 62
           2
100
AcDbLine
 10
97.064319707329
 20
114.249010327567
 11
97.064319707329
 21
86.249010327567
  0
LINE
  5
ED
100
AcDbEntity
  8
1
  6
CONTINUOUS
 62
           2
100
AcDbLine
 10
106.064319707329
 20
88.249010327567
 11
106.064319707329
 21
112.249010327567
  0
LINE
  5
EC
100
AcDbEntity
  8
1
  6
CONTINUOUS
 62
           2
100
AcDbLine
 10
97.064319707329
 20
100.249010327567
 11
105.064319707329
 21
100.249010327567
  0
LINE
  5
EB
100
AcDbEntity
  8
1
  6
CONTINUOUS
 62
           2
100
AcDbLine
 10
105.064319707329
 20
113.771971895615
 11
97.064319707329
 21
113.771971895615
  0
LINE
  5
EA
100
AcDbEntity
  8
1
  6
CONTINUOUS
 62
           2
100
AcDbLine
 10
97.064319707329
 20
112.37336598055
 11
105.064319707329
 21
112.37336598055
  0
LINE
  5
E9
100
AcDbEntity
  8
1
  6
CONTINUOUS
 62
           2
100
AcDbLine
 10
105.064319707329
 20
110.148505264179
 11
97.064319707329
 21
110.148505264179
  0
LINE
  5
E8
100
AcDbEntity
  8
1
  6
CONTINUOUS
 62
           2
100
AcDbLine
 10
97.064319707329
 20
107.249010327567
 11
105.064319707329
 21
107.249010327567
  0
LINE
  5
E7
100
AcDbEntity
  8
1
  6
CONTINUOUS
 62
           2
100
AcDbLine
 10
105.064319707329
 20
103.872476959002
 11
97.064319707329
 21
103.872476959002
  0
LINE
  5
E6
100
AcDbEntity
  8
1
  6
CONTINUOUS
 62
           2
100
AcDbLine
 10
97.064319707329
 20
96.625543696131
 11
105.064319707329
 21
96.625543696131
  0
LINE
  5
E5
100
AcDbEntity
  8
1
  6
CONTINUOUS
 62
           2
100
AcDbLine
 10
105.064319707329
 20
93.249010327567
 11
97.064319707329
 21
93.249010327567
  0
LINE
  5
E4
100
AcDbEntity
  8
1
  6
CONTINUOUS
 62
           2
100
AcDbLine
 10
97.064319707329
 20
90.349515390956
 11
105.064319707329
 21
90.349515390956
  0
LINE
  5
E3
100
AcDbEntity
  8
1
  6
CONTINUOUS
 62
           2
100
AcDbLine
 10
105.064319707329
 20
88.124654674585
 11
97.064319707329
 21
88.124654674585
  0
LINE
  5
E2
100
AcDbEntity
  8
1
  6
CONTINUOUS
 62
           2
100
AcDbLine
 10
97.064319707329
 20
86.72604875952
 11
105.064319707329
 21
86.72604875952
  0
LINE
  5
E1
100
AcDbEntity
  8
1
  6
CONTINUOUS
 62
           7
100
AcDbLine
 10
105.564319707329
 20
88.249010327567
 11
106.064319707329
 21
88.249010327567
  0
LINE
  5
E0
100
AcDbEntity
  8
1
  6
CONTINUOUS
 62
           7
100
AcDbLine
 10
105.564319707329
 20
86.749010327567
 11
105.564319707329
 21
88.249010327567
  0
LINE
  5
DF
100
AcDbEntity
  8
1
  6
CONTINUOUS
 62
           7
100
AcDbLine
 10
97.064319707329
 20
86.249010327567
 11
105.064319707329
 21
86.249010327567
  0
LINE
  5
DE
100
AcDbEntity
  8
1
  6
CONTINUOUS
 62
           7
100
AcDbLine
 10
96.564319707329
 20
88.249010327567
 11
96.564319707329
 21
88.099010327567
  0
LINE
  5
DD
100
AcDbEntity
  8
1
  6
CONTINUOUS
 62
           7
100
AcDbLine
 10
105.564319707329
 20
86.749010327567
 11
105.064319707329
 21
86.249010327567
  0
LINE
  5
DC
100
AcDbEntity
  8
1
  6
CONTINUOUS
 62
           7
100
AcDbLine
 10
97.064319707329
 20
86.249010327567
 11
96.564319707329
 21
86.749010327567
  0
LINE
  5
DB
100
AcDbEntity
  8
1
  6
CONTINUOUS
 62
           7
100
AcDbLine
 10
106.564319707329
 20
88.749010327567
 11
106.064319707329
 21
88.249010327567
  0
LINE
  5
DA
100
AcDbEntity
  8
1
  6
CONTINUOUS
 62
           7
100
AcDbLine
 10
96.564319707329
 20
88.099010327567
 11
96.564319707329
 21
86.749010327567
  0
LINE
  5
D9
100
AcDbEntity
  8
1
  6
DOT_CENTER
 62
           2
100
AcDbLine
 10
70.653693000818
 20
94.550368057362
 11
70.653693000818
 21
85.941708794039
  0
LINE
  5
D8
100
AcDbEntity
  8
1
  6
DOT_CENTER
 62
           2
100
AcDbLine
 10
70.653693000818
 20
114.556311861096
 11
70.653693000818
 21
105.947652597773
  0
LINE
  5
D7
100
AcDbEntity
  8
1
  6
DOT_CENTER
 62
           2
100
AcDbLine
 10
70.653693000818
 20
104.164007015683
 11
70.653693000818
 21
95.55534775236
  0
LINE
  5
D6
100
AcDbEntity
  8
1
  6
CONTINUOUS
 62
           7
100
AcDbLine
 10
65.153718404603
 20
93.320807097292
 11
92.153714737881
 21
93.320807097292
  0
LINE
  5
D5
100
AcDbEntity
  8
1
  6
CONTINUOUS
 62
           7
100
AcDbLine
 10
65.153718404603
 20
107.442431076154
 11
92.153714737881
 21
107.442431076154
  0
LINE
  5
D4
100
AcDbEntity
  8
1
  6
CONTINUOUS
 62
           7
100
AcDbLine
 10
65.153718404603
 20
109.099010327568
 11
65.153718404603
 21
91.399010327567
  0
LINE
  5
D3
100
AcDbEntity
  8
1
  6
CONTINUOUS
 62
           7
100
AcDbLine
 10
92.153714737881
 20
111.599010327567
 11
92.153714737881
 21
88.899010327568
  0
LINE
  5
D2
100
AcDbEntity
  8
1
  6
CONTINUOUS
 62
           7
100
AcDbLine
 10
65.153718404604
 20
86.392603867017
 11
65.153718404603
 21
91.399010327567
  0
LINE
  5
D1
100
AcDbEntity
  8
1
  6
CONTINUOUS
 62
           7
100
AcDbLine
 10
65.153718404603
 20
109.099010327568
 11
65.153718404603
 21
114.105416788119
  0
LINE
  5
D0
100
AcDbEntity
  8
1
  6
DOT_CENTER
 62
           2
100
AcDbLine
 10
37.48455587224
 20
100.249010327567
 11
110.718541962673
 21
100.249010327567
  0
LINE
  5
CF
100
AcDbEntity
  8
1
  6
CONTINUOUS
 62
           7
100
AcDbLine
 10
92.153714737881
 20
114.105416788119
 11
92.153714737881
 21
111.599010327567
  0
LINE
  5
CE
100
AcDbEntity
  8
1
  6
CONTINUOUS
 62
           7
100
AcDbLine
 10
92.153714737881
 20
88.899010327568
 11
92.153714737881
 21
86.392603867016
  0
LINE
  5
CD
100
AcDbEntity
  8
1
  6
CONTINUOUS
 62
           7
100
AcDbLine
 10
92.153714737881
 20
86.392603867016
 11
65.153718404604
 21
86.392603867017
  0
LINE
  5
CC
100
AcDbEntity
  8
1
  6
CONTINUOUS
 62
           7
100
AcDbLine
 10
65.153718404603
 20
114.105416788119
 11
92.153714737881
 21
114.105416788119
  0
LINE
  5
CB
100
AcDbEntity
  8
1
  6
DOT_CENTER
 62
           2
100
AcDbLine
 10
35.024817752769
 20
1.223648970561
 11
35.024817752769
 21
-2.276750181511
  0
LINE
  5
CA
100
AcDbEntity
  8
1
  6
CONTINUOUS
 62
           7
100
AcDbLine
 10
60.93544445928
 20
9.463057337919
 11
60.93544445928
 21
8.113057337919
  0
LINE
  5
C9
100
AcDbEntity
  8
1
  6
CONTINUOUS
 62
           7
100
AcDbLine
 10
70.93544445928
 20
10.113057337919
 11
70.43544445928
 21
9.613057337919
  0
LINE
  5
C8
100
AcDbEntity
  8
1
  6
CONTINUOUS
 62
           7
100
AcDbLine
 10
61.43544445928
 20
7.613057337919
 11
60.93544445928
 21
8.113057337919
  0
LINE
  5
C7
100
AcDbEntity
  8
1
  6
CONTINUOUS
 62
           7
100
AcDbLine
 10
69.93544445928
 20
8.113057337919
 11
69.43544445928
 21
7.613057337919
  0
LINE
  5
C6
100
AcDbEntity
  8
1
  6
CONTINUOUS
 62
           7
100
AcDbLine
 10
60.93544445928
 20
9.613057337919
 11
60.93544445928
 21
9.463057337919
  0
LINE
  5
C5
100
AcDbEntity
  8
1
  6
CONTINUOUS
 62
           7
100
AcDbLine
 10
61.43544445928
 20
7.613057337919
 11
69.43544445928
 21
7.613057337919
  0
LINE
  5
C4
100
AcDbEntity
  8
1
  6
CONTINUOUS
 62
           7
100
AcDbLine
 10
69.93544445928
 20
8.113057337919
 11
69.93544445928
 21
9.613057337919
  0
LINE
  5
C3
100
AcDbEntity
  8
1
  6
CONTINUOUS
 62
           7
100
AcDbLine
 10
69.93544445928
 20
9.613057337919
 11
70.43544445928
 21
9.613057337919
  0
LINE
  5
C2
100
AcDbEntity
  8
1
  6
CONTINUOUS
 62
           2
100
AcDbLine
 10
61.43544445928
 20
8.090095769872
 11
69.43544445928
 21
8.090095769872
  0
LINE
  5
C1
100
AcDbEntity
  8
1
  6
CONTINUOUS
 62
           2
100
AcDbLine
 10
69.43544445928
 20
9.488701684937
 11
61.43544445928
 21
9.488701684937
  0
LINE
  5
C0
100
AcDbEntity
  8
1
  6
CONTINUOUS
 62
           2
100
AcDbLine
 10
61.43544445928
 20
11.713562401307
 11
69.43544445928
 21
11.713562401307
  0
LINE
  5
BF
100
AcDbEntity
  8
1
  6
CONTINUOUS
 62
           2
100
AcDbLine
 10
69.43544445928
 20
14.613057337919
 11
61.43544445928
 21
14.613057337919
  0
LINE
  5
BE
100
AcDbEntity
  8
1
  6
CONTINUOUS
 62
           2
100
AcDbLine
 10
61.43544445928
 20
17.989590706483
 11
69.43544445928
 21
17.989590706483
  0
LINE
  5
BD
100
AcDbEntity
  8
1
  6
CONTINUOUS
 62
           2
100
AcDbLine
 10
69.43544445928
 20
25.236523969354
 11
61.43544445928
 21
25.236523969354
  0
LINE
  5
BC
100
AcDbEntity
  8
1
  6
CONTINUOUS
 62
           2
100
AcDbLine
 10
61.43544445928
 20
28.613057337919
 11
69.43544445928
 21
28.613057337919
  0
LINE
  5
BB
100
AcDbEntity
  8
1
  6
CONTINUOUS
 62
           2
100
AcDbLine
 10
69.43544445928
 20
31.512552274531
 11
61.43544445928
 21
31.512552274531
  0
LINE
  5
BA
100
AcDbEntity
  8
1
  6
CONTINUOUS
 62
           2
100
AcDbLine
 10
61.43544445928
 20
33.737412990901
 11
69.43544445928
 21
33.737412990901
  0
LINE
  5
B9
100
AcDbEntity
  8
1
  6
CONTINUOUS
 62
           2
100
AcDbLine
 10
69.43544445928
 20
35.136018905966
 11
61.43544445928
 21
35.136018905966
  0
LINE
  5
B8
100
AcDbEntity
  8
1
  6
CONTINUOUS
 62
           2
100
AcDbLine
 10
61.43544445928
 20
21.613057337919
 11
69.43544445928
 21
21.613057337919
  0
LINE
  5
B7
100
AcDbEntity
  8
1
  6
CONTINUOUS
 62
           2
100
AcDbLine
 10
70.43544445928
 20
9.613057337919
 11
70.43544445928
 21
33.613057337919
  0
LINE
  5
B6
100
AcDbEntity
  8
1
  6
CONTINUOUS
 62
           2
100
AcDbLine
 10
61.43544445928
 20
35.613057337919
 11
61.43544445928
 21
7.613057337919
  0
LINE
  5
B5
100
AcDbEntity
  8
1
  6
CONTINUOUS
 62
           2
100
AcDbLine
 10
69.43544445928
 20
7.613057337919
 11
69.43544445928
 21
35.613057337919
  0
LINE
  5
B4
100
AcDbEntity
  8
1
  6
CONTINUOUS
 62
           7
100
AcDbLine
 10
69.93544445928
 20
33.613057337919
 11
69.93544445928
 21
9.613057337919
  0
LINE
  5
B3
100
AcDbEntity
  8
1
  6
CONTINUOUS
 62
           7
100
AcDbLine
 10
70.93544445928
 20
21.613057337919
 11
70.93544445928
 21
33.113057337919
  0
LINE
  5
B2
100
AcDbEntity
  8
1
  6
CONTINUOUS
 62
           7
100
AcDbLine
 10
70.43544445928
 20
33.613057337919
 11
69.93544445928
 21
33.613057337919
  0
LINE
  5
B1
100
AcDbEntity
  8
1
  6
CONTINUOUS
 62
           7
100
AcDbLine
 10
69.93544445928
 20
33.613057337919
 11
69.93544445928
 21
35.113057337919
  0
LINE
  5
B0
100
AcDbEntity
  8
1
  6
CONTINUOUS
 62
           7
100
AcDbLine
 10
69.43544445928
 20
35.613057337919
 11
61.43544445928
 21
35.613057337919
  0
LINE
  5
AF
100
AcDbEntity
  8
1
  6
CONTINUOUS
 62
           7
100
AcDbLine
 10
60.93544445928
 20
33.763057337919
 11
60.93544445928
 21
33.613057337919
  0
LINE
  5
AE
100
AcDbEntity
  8
1
  6
CONTINUOUS
 62
           7
100
AcDbLine
 10
69.43544445928
 20
35.613057337919
 11
69.93544445928
 21
35.113057337919
  0
LINE
  5
AD
100
AcDbEntity
  8
1
  6
CONTINUOUS
 62
           7
100
AcDbLine
 10
60.93544445928
 20
35.113057337919
 11
61.43544445928
 21
35.613057337919
  0
LINE
  5
AC
100
AcDbEntity
  8
1
  6
CONTINUOUS
 62
           7
100
AcDbLine
 10
70.43544445928
 20
33.613057337919
 11
70.93544445928
 21
33.113057337919
  0
LINE
  5
AB
100
AcDbEntity
  8
1
  6
CONTINUOUS
 62
           7
100
AcDbLine
 10
60.93544445928
 20
35.113057337919
 11
60.93544445928
 21
33.763057337919
  0
LINE
  5
AA
100
AcDbEntity
  8
1
  6
CONTINUOUS
 62
           7
100
AcDbLine
 10
70.93544445928
 20
10.113057337919
 11
70.93544445928
 21
21.613057337919
  0
LINE
  5
A9
100
AcDbEntity
  8
1
  6
CONTINUOUS
 62
           7
100
AcDbLine
 10
69.93544445928
 20
9.613057337919
 11
70.43544445928
 21
9.613057337919
  0
LINE
  5
A8
100
AcDbEntity
  8
1
  6
CONTINUOUS
 62
           7
100
AcDbLine
 10
69.93544445928
 20
8.113057337919
 11
69.93544445928
 21
9.613057337919
  0
LINE
  5
A7
100
AcDbEntity
  8
1
  6
CONTINUOUS
 62
           7
100
AcDbLine
 10
61.43544445928
 20
7.613057337919
 11
69.43544445928
 21
7.613057337919
  0
LINE
  5
A6
100
AcDbEntity
  8
1
  6
CONTINUOUS
 62
           7
100
AcDbLine
 10
69.93544445928
 20
8.113057337919
 11
69.43544445928
 21
7.613057337919
  0
LINE
  5
A5
100
AcDbEntity
  8
1
  6
CONTINUOUS
 62
           7
100
AcDbLine
 10
61.43544445928
 20
7.613057337919
 11
60.93544445928
 21
8.113057337919
  0
LINE
  5
A4
100
AcDbEntity
  8
1
  6
CONTINUOUS
 62
           7
100
AcDbLine
 10
70.93544445928
 20
10.113057337919
 11
70.43544445928
 21
9.613057337919
  0
LINE
  5
A3
100
AcDbEntity
  8
1
  6
CONTINUOUS
 62
           7
100
AcDbLine
 10
60.93544445928
 20
33.613057337919
 11
60.93544445928
 21
8.113057337919
  0
LINE
  5
A2
100
AcDbEntity
  8
1
  6
CONTINUOUS
 62
           2
100
AcDbLine
 10
60.43544445928
 20
7.113057337919
 11
58.43544445928
 21
7.113057337919
  0
LINE
  5
A1
100
AcDbEntity
  8
1
  6
CONTINUOUS
 62
           2
100
AcDbLine
 10
58.43544445928
 20
8.622676281153
 11
60.43544445928
 21
8.622676281153
  0
LINE
  5
A0
100
AcDbEntity
  8
1
  6
CONTINUOUS
 62
           2
100
AcDbLine
 10
60.43544445928
 20
11.006455620121
 11
58.43544445928
 21
11.006455620121
  0
LINE
  5
9F
100
AcDbEntity
  8
1
  6
CONTINUOUS
 62
           2
100
AcDbLine
 10
60.43544445928
 20
14.113057337919
 11
58.43544445928
 21
14.113057337919
  0
LINE
  5
9E
100
AcDbEntity
  8
1
  6
CONTINUOUS
 62
           2
100
AcDbLine
 10
60.43544445928
 20
17.730771661381
 11
58.43544445928
 21
17.730771661381
  0
LINE
  5
9D
100
AcDbEntity
  8
1
  6
CONTINUOUS
 62
           2
100
AcDbLine
 10
58.43544445928
 20
21.613057337919
 11
60.43544445928
 21
21.613057337919
  0
LINE
  5
9C
100
AcDbEntity
  8
1
  6
CONTINUOUS
 62
           2
100
AcDbLine
 10
58.43544445928
 20
25.495343014456
 11
60.43544445928
 21
25.495343014456
  0
LINE
  5
9B
100
AcDbEntity
  8
1
  6
CONTINUOUS
 62
           2
100
AcDbLine
 10
58.43544445928
 20
29.113057337919
 11
60.43544445928
 21
29.113057337919
  0
LINE
  5
9A
100
AcDbEntity
  8
1
  6
CONTINUOUS
 62
           2
100
AcDbLine
 10
58.43544445928
 20
32.219659055717
 11
60.43544445928
 21
32.219659055717
  0
LINE
  5
99
100
AcDbEntity
  8
1
  6
CONTINUOUS
 62
           2
100
AcDbLine
 10
60.43544445928
 20
34.603438394685
 11
58.43544445928
 21
34.603438394685
  0
LINE
  5
98
100
AcDbEntity
  8
1
  6
CONTINUOUS
 62
           2
100
AcDbLine
 10
58.43544445928
 20
36.113057337919
 11
60.43544445928
 21
36.113057337919
  0
LINE
  5
97
100
AcDbEntity
  8
1
  6
CONTINUOUS
 62
           2
100
AcDbLine
 10
60.43544445928
 20
6.613057337919
 11
60.43544445928
 21
36.613057337919
  0
LINE
  5
96
100
AcDbEntity
  8
1
  6
CONTINUOUS
 62
           2
100
AcDbLine
 10
58.43544445928
 20
36.613057337919
 11
58.43544445928
 21
6.613057337919
  0
LINE
  5
95
100
AcDbEntity
  8
1
  6
CONTINUOUS
 62
           7
100
AcDbLine
 10
58.43544445928
 20
36.613057337919
 11
60.43544445928
 21
36.613057337919
  0
LINE
  5
94
100
AcDbEntity
  8
1
  6
CONTINUOUS
 62
           7
100
AcDbLine
 10
60.93544445928
 20
36.113057337919
 11
60.43544445928
 21
36.613057337919
  0
LINE
  5
93
100
AcDbEntity
  8
1
  6
CONTINUOUS
 62
           7
100
AcDbLine
 10
58.43544445928
 20
36.613057337919
 11
57.93544445928
 21
36.113057337919
  0
LINE
  5
92
100
AcDbEntity
  8
1
  6
CONTINUOUS
 62
           7
100
AcDbLine
 10
60.43544445928
 20
6.613057337919
 11
58.43544445928
 21
6.613057337919
  0
LINE
  5
91
100
AcDbEntity
  8
1
  6
CONTINUOUS
 62
           7
100
AcDbLine
 10
60.43544445928
 20
6.613057337919
 11
60.93544445928
 21
7.113057337919
  0
LINE
  5
90
100
AcDbEntity
  8
1
  6
CONTINUOUS
 62
           7
100
AcDbLine
 10
57.93544445928
 20
7.113057337919
 11
58.43544445928
 21
6.613057337919
  0
LINE
  5
8F
100
AcDbEntity
  8
1
  6
CONTINUOUS
 62
           7
100
AcDbLine
 10
57.93544445928
 20
7.113057337919
 11
57.93544445928
 21
36.113057337919
  0
LINE
  5
8E
100
AcDbEntity
  8
1
  6
CONTINUOUS
 62
           7
100
AcDbLine
 10
60.93544445928
 20
36.113057337919
 11
60.93544445928
 21
7.113057337919
  0
LINE
  5
8D
100
AcDbEntity
  8
1
  6
CONTINUOUS
 62
           2
100
AcDbLine
 10
22.179802596405
 20
12.613057337919
 11
24.524843156555
 21
12.613057337919
  0
LINE
  5
8C
100
AcDbEntity
  8
1
  6
CONTINUOUS
 62
           7
100
AcDbLine
 10
22.179802596405
 20
31.11305733792
 11
24.524843156555
 21
31.11305733792
  0
LINE
  5
8B
100
AcDbEntity
  8
1
  6
CONTINUOUS
 62
           2
100
AcDbLine
 10
24.524843156555
 20
30.613057337919
 11
22.179802596405
 21
30.613057337919
  0
LINE
  5
8A
100
AcDbEntity
  8
1
  6
CONTINUOUS
 62
           7
100
AcDbLine
 10
24.524843156555
 20
12.113057337918
 11
22.179802596405
 21
12.113057337918
  0
LINE
  5
89
100
AcDbEntity
  8
1
  6
DOT_CENTER
 62
           2
100
AcDbLine
 10
39.05300583137
 20
15.613057337919
 11
30.99430069536
 21
15.613057337919
  0
LINE
  5
88
100
AcDbEntity
  8
1
  6
DOT_CENTER
 62
           2
100
AcDbLine
 10
31.39518427638
 20
27.613057337919
 11
39.05300583137
 21
27.613057337919
  0
LINE
  5
87
100
AcDbEntity
  8
1
  6
CONTINUOUS
 62
           7
100
AcDbLine
 10
57.93544445928
 20
10.263057337919
 11
56.524839489832
 21
10.263057337919
  0
LINE
  5
86
100
AcDbEntity
  8
1
  6
DOT_CENTER
 62
           2
100
AcDbLine
 10
1.684341154392
 20
21.613057337919
 11
75.728765640817
 21
21.613057337919
  0
LINE
  5
85
100
AcDbEntity
  8
1
  6
CONTINUOUS
 62
           7
100
AcDbLine
 10
29.524843156555
 20
21.613057337919
 11
56.524839489832
 21
21.613057337919
  0
LINE
  5
84
100
AcDbEntity
  8
1
  6
CONTINUOUS
 62
           7
100
AcDbLine
 10
29.524843156555
 20
30.463057337919
 11
29.524843156555
 21
12.763057337919
  0
LINE
  5
83
100
AcDbEntity
  8
1
  6
CONTINUOUS
 62
           7
100
AcDbLine
 10
56.524839489832
 20
32.963057337919
 11
56.524839489832
 21
10.263057337919
  0
LINE
  5
82
100
AcDbEntity
  8
1
  6
CONTINUOUS
 62
           7
100
AcDbLine
 10
56.524839489832
 20
10.263057337919
 11
56.524839489832
 21
9.613057337919
  0
LINE
  5
81
100
AcDbEntity
  8
1
  6
CONTINUOUS
 62
           7
100
AcDbLine
 10
56.524839489832
 20
32.963057337919
 11
57.93544445928
 21
32.963057337919
  0
LINE
  5
80
100
AcDbEntity
  8
1
  6
CONTINUOUS
 62
           7
100
AcDbLine
 10
56.524839489832
 20
33.613057337919
 11
56.524839489832
 21
32.963057337919
  0
LINE
  5
7F
100
AcDbEntity
  8
1
  6
CONTINUOUS
 62
           7
100
AcDbLine
 10
29.524843156555
 20
30.463057337919
 11
29.524843156555
 21
33.613057337919
  0
LINE
  5
7E
100
AcDbEntity
  8
1
  6
CONTINUOUS
 62
           7
100
AcDbLine
 10
56.524839489832
 20
9.613057337919
 11
29.524843156554
 21
9.613057337919
  0
LINE
  5
7D
100
AcDbEntity
  8
1
  6
CONTINUOUS
 62
           7
100
AcDbLine
 10
29.524843156555
 20
33.613057337919
 11
56.524839489832
 21
33.613057337919
  0
LINE
  5
7C
100
AcDbEntity
  8
1
  6
CONTINUOUS
 62
           7
100
AcDbLine
 10
29.524843156554
 20
9.613057337919
 11
29.524843156555
 21
12.763057337919
  0
LINE
  5
7B
100
AcDbEntity
  8
1
  6
CONTINUOUS
 62
           7
100
AcDbLine
 10
24.524843156555
 20
21.613057337919
 11
29.524843156555
 21
21.613057337919
  0
LINE
  5
7A
100
AcDbEntity
  8
1
  6
CONTINUOUS
 62
           7
100
AcDbLine
 10
24.524843156555
 20
32.613057337919
 11
25.507323528801
 21
34.314763260091
  0
LINE
  5
79
100
AcDbEntity
  8
1
  6
CONTINUOUS
 62
           7
100
AcDbLine
 10
25.507323528801
 20
34.314763260091
 11
29.524843156555
 21
34.314763260091
  0
LINE
  5
78
100
AcDbEntity
  8
1
  6
CONTINUOUS
 62
           7
100
AcDbLine
 10
24.524843156555
 20
32.613057337919
 11
24.524843156555
 21
30.613057337919
  0
LINE
  5
77
100
AcDbEntity
  8
1
  6
CONTINUOUS
 62
           7
100
AcDbLine
 10
29.524843156555
 20
34.314763260091
 11
29.524843156555
 21
12.613057337919
  0
LINE
  5
76
100
AcDbEntity
  8
1
  6
CONTINUOUS
 62
           7
100
AcDbLine
 10
29.524843156555
 20
12.613057337919
 11
29.524843156555
 21
8.911351415747
  0
LINE
  5
75
100
AcDbEntity
  8
1
  6
CONTINUOUS
 62
           7
100
AcDbLine
 10
24.524843156555
 20
30.613057337919
 11
24.524843156555
 21
10.613057337919
  0
LINE
  5
74
100
AcDbEntity
  8
1
  6
CONTINUOUS
 62
           7
100
AcDbLine
 10
29.524843156555
 20
8.911351415747
 11
25.507323528801
 21
8.911351415747
  0
LINE
  5
73
100
AcDbEntity
  8
1
  6
CONTINUOUS
 62
           7
100
AcDbLine
 10
25.507323528801
 20
8.911351415747
 11
24.524843156555
 21
10.613057337919
  0
LINE
  5
72
100
AcDbEntity
  8
1
  6
CONTINUOUS
 62
           7
100
AcDbLine
 10
9.179802596405
 20
13.763057337918
 11
6.879802598655
 21
13.763057337918
  0
LINE
  5
71
100
AcDbEntity
  8
1
  6
CONTINUOUS
 62
           2
100
AcDbLine
 10
6.801518391528
 20
14.706925300122
 11
5.623009389019
 21
17.944852173138
  0
LINE
  5
70
100
AcDbEntity
  8
1
  6
CONTINUOUS
 62
           2
100
AcDbLine
 10
5.623009389019
 20
25.2812625027
 11
6.801518391528
 21
28.519189375716
  0
LINE
  5
6F
100
AcDbEntity
  8
1
  6
CONTINUOUS
 62
           7
100
AcDbLine
 10
6.879802598655
 20
13.763057337918
 11
6.879802598655
 21
29.46305733792
  0
LINE
  5
6E
100
AcDbEntity
  8
1
  6
CONTINUOUS
 62
           7
100
AcDbLine
 10
3.191276269631
 20
25.913057337918
 11
4.710445497808
 21
25.913057337918
  0
LINE
  5
6D
100
AcDbEntity
  8
1
  6
CONTINUOUS
 62
           7
100
AcDbLine
 10
5.104251032245
 20
24.453967566875
 11
5.379802598655
 21
24.613057337918
  0
LINE
  5
6C
100
AcDbEntity
  8
1
  6
CONTINUOUS
 62
           7
100
AcDbLine
 10
5.462199594436
 20
24.839441223257
 11
5.379802598655
 21
24.613057337918
  0
LINE
  5
6B
100
AcDbEntity
  8
1
  6
CONTINUOUS
 62
           7
100
AcDbLine
 10
6.879802598655
 20
29.46305733792
 11
9.179802596405
 21
29.46305733792
  0
LINE
  5
6A
100
AcDbEntity
  8
1
  6
CONTINUOUS
 62
           7
100
AcDbLine
 10
6.879802598655
 20
29.46305733792
 11
6.779802598655
 21
29.36305733792
  0
LINE
  5
69
100
AcDbEntity
  8
1
  6
CONTINUOUS
 62
           7
100
AcDbLine
 10
0.679802598655
 20
27.86305733792
 11
1.112815300548
 21
27.11305733792
  0
LINE
  5
68
100
AcDbEntity
  8
1
  6
CONTINUOUS
 62
           7
100
AcDbLine
 10
4.579802598655
 20
23.013057337919
 11
4.579802598655
 21
22.71305733792
  0
LINE
  5
67
100
AcDbEntity
  8
1
  6
CONTINUOUS
 62
           7
100
AcDbLine
 10
5.104251032245
 20
24.453967566875
 11
4.579802598655
 21
23.013057337919
  0
LINE
  5
66
100
AcDbEntity
  8
1
  6
CONTINUOUS
 62
           7
100
AcDbLine
 10
1.179802598655
 20
29.36305733792
 11
6.779802598655
 21
29.36305733792
  0
LINE
  5
65
100
AcDbEntity
  8
1
  6
CONTINUOUS
 62
           7
100
AcDbLine
 10
1.179802598655
 20
29.36305733792
 11
0.679802598655
 21
28.86305733792
  0
LINE
  5
64
100
AcDbEntity
  8
1
  6
CONTINUOUS
 62
           7
100
AcDbLine
 10
0.679802598655
 20
27.86305733792
 11
0.679802598655
 21
28.86305733792
  0
LINE
  5
63
100
AcDbEntity
  8
1
  6
CONTINUOUS
 62
           7
100
AcDbLine
 10
1.112815300548
 20
27.11305733792
 11
2.079802598655
 21
26.554766961055
  0
LINE
  5
62
100
AcDbEntity
  8
1
  6
CONTINUOUS
 62
           7
100
AcDbLine
 10
2.079802598655
 20
26.554766961055
 11
3.191276269631
 21
25.91305733792
  0
LINE
  5
61
100
AcDbEntity
  8
1
  6
CONTINUOUS
 62
           7
100
AcDbLine
 10
3.191276269631
 20
17.313057337918
 11
2.079802598655
 21
16.671347714783
  0
LINE
  5
60
100
AcDbEntity
  8
1
  6
CONTINUOUS
 62
           7
100
AcDbLine
 10
2.079802598655
 20
16.671347714783
 11
1.112815300548
 21
16.113057337917
  0
LINE
  5
5F
100
AcDbEntity
  8
1
  6
CONTINUOUS
 62
           7
100
AcDbLine
 10
0.679802598655
 20
14.363057337917
 11
0.679802598655
 21
15.363057337917
  0
LINE
  5
5E
100
AcDbEntity
  8
1
  6
CONTINUOUS
 62
           7
100
AcDbLine
 10
0.679802598655
 20
14.363057337917
 11
1.179802598655
 21
13.863057337917
  0
LINE
  5
5D
100
AcDbEntity
  8
1
  6
CONTINUOUS
 62
           7
100
AcDbLine
 10
6.779802598655
 20
13.863057337917
 11
1.179802598655
 21
13.863057337917
  0
LINE
  5
5C
100
AcDbEntity
  8
1
  6
CONTINUOUS
 62
           7
100
AcDbLine
 10
4.579802598655
 20
20.213057337919
 11
5.104251032245
 21
18.772147108963
  0
LINE
  5
5B
100
AcDbEntity
  8
1
  6
CONTINUOUS
 62
           7
100
AcDbLine
 10
4.579802598655
 20
20.513057337918
 11
4.579802598655
 21
20.213057337919
  0
LINE
  5
5A
100
AcDbEntity
  8
1
  6
CONTINUOUS
 62
           7
100
AcDbLine
 10
1.112815300548
 20
16.113057337917
 11
0.679802598655
 21
15.363057337917
  0
LINE
  5
59
100
AcDbEntity
  8
1
  6
CONTINUOUS
 62
           7
100
AcDbLine
 10
6.779802598655
 20
13.863057337917
 11
6.879802598655
 21
13.763057337918
  0
LINE
  5
58
100
AcDbEntity
  8
1
  6
CONTINUOUS
 62
           7
100
AcDbLine
 10
5.379802598655
 20
18.61305733792
 11
5.462199594436
 21
18.386673452581
  0
LINE
  5
57
100
AcDbEntity
  8
1
  6
CONTINUOUS
 62
           7
100
AcDbLine
 10
5.379802598655
 20
18.61305733792
 11
5.104251032245
 21
18.772147108963
  0
LINE
  5
56
100
AcDbEntity
  8
1
  6
CONTINUOUS
 62
           7
100
AcDbLine
 10
4.710445497808
 20
17.31305733792
 11
3.191276269631
 21
17.31305733792
  0
LINE
  5
55
100
AcDbEntity
  8
1
  6
CONTINUOUS
 62
           7
100
AcDbLine
 10
4.579802598655
 20
20.513057337918
 11
4.579802598655
 21
22.413057337921
  0
LINE
  5
54
100
AcDbEntity
  8
1
  6
CONTINUOUS
 62
           7
100
AcDbLine
 10
4.579802598655
 20
22.413057337921
 11
4.579802598655
 21
22.71305733792
  0
LINE
  5
53
100
AcDbEntity
  8
1
  6
CONTINUOUS
 62
           2
100
AcDbLine
 10
21.679802596405
 20
10.987873248739
 11
15.179802596405
 21
10.987873248739
  0
LINE
  5
52
100
AcDbEntity
  8
1
  6
CONTINUOUS
 62
           2
100
AcDbLine
 10
15.179802596405
 20
12.08677789629
 11
21.679802596405
 21
12.08677789629
  0
LINE
  5
51
100
AcDbEntity
  8
1
  6
CONTINUOUS
 62
           2
100
AcDbLine
 10
21.679802596405
 20
13.834882744867
 11
15.179802596405
 21
13.834882744867
  0
LINE
  5
50
100
AcDbEntity
  8
1
  6
CONTINUOUS
 62
           2
100
AcDbLine
 10
15.179802596405
 20
16.113057337919
 11
21.679802596405
 21
16.113057337919
  0
LINE
  5
4F
100
AcDbEntity
  8
1
  6
CONTINUOUS
 62
           2
100
AcDbLine
 10
21.679802596405
 20
18.766047841791
 11
15.179802596405
 21
18.766047841791
  0
LINE
  5
4E
100
AcDbEntity
  8
1
  6
CONTINUOUS
 62
           2
100
AcDbLine
 10
21.679802596405
 20
21.613057337919
 11
15.179802596405
 21
21.613057337919
  0
LINE
  5
4D
100
AcDbEntity
  8
1
  6
CONTINUOUS
 62
           2
100
AcDbLine
 10
15.179802596405
 20
24.460066834047
 11
21.679802596405
 21
24.460066834047
  0
LINE
  5
4C
100
AcDbEntity
  8
1
  6
CONTINUOUS
 62
           2
100
AcDbLine
 10
21.679802596405
 20
27.113057337919
 11
15.179802596405
 21
27.113057337919
  0
LINE
  5
4B
100
AcDbEntity
  8
1
  6
CONTINUOUS
 62
           2
100
AcDbLine
 10
15.179802596405
 20
29.391231930972
 11
21.679802596405
 21
29.391231930972
  0
LINE
  5
4A
100
AcDbEntity
  8
1
  6
CONTINUOUS
 62
           2
100
AcDbLine
 10
21.679802596405
 20
31.139336779548
 11
15.179802596405
 21
31.139336779548
  0
LINE
  5
49
100
AcDbEntity
  8
1
  6
CONTINUOUS
 62
           2
100
AcDbLine
 10
15.179802596405
 20
32.238241427099
 11
21.679802596405
 21
32.238241427099
  0
LINE
  5
48
100
AcDbEntity
  8
1
  6
CONTINUOUS
 62
           7
100
AcDbLine
 10
14.679802596405
 20
32.11305733792
 11
14.679802596405
 21
11.113057337918
  0
LINE
  5
47
100
AcDbEntity
  8
1
  6
CONTINUOUS
 62
           2
100
AcDbLine
 10
15.179802596405
 20
10.613057337918
 11
15.179802596405
 21
32.61305733792
  0
LINE
  5
46
100
AcDbEntity
  8
1
  6
CONTINUOUS
 62
           2
100
AcDbLine
 10
21.679802596405
 20
32.61305733792
 11
21.679802596405
 21
10.613057337918
  0
LINE
  5
45
100
AcDbEntity
  8
1
  6
CONTINUOUS
 62
           7
100
AcDbLine
 10
21.679802596405
 20
32.61305733792
 11
22.179802596405
 21
32.11305733792
  0
LINE
  5
44
100
AcDbEntity
  8
1
  6
CONTINUOUS
 62
           7
100
AcDbLine
 10
14.679802596405
 20
32.11305733792
 11
15.179802596405
 21
32.61305733792
  0
LINE
  5
43
100
AcDbEntity
  8
1
  6
CONTINUOUS
 62
           7
100
AcDbLine
 10
22.179802596405
 20
32.11305733792
 11
22.179802596405
 21
31.563057337919
  0
LINE
  5
42
100
AcDbEntity
  8
1
  6
CONTINUOUS
 62
           7
100
AcDbLine
 10
9.179802596405
 20
29.913057336569
 11
9.179802596405
 21
31.11305733792
  0
LINE
  5
41
100
AcDbEntity
  8
1
  6
CONTINUOUS
 62
           7
100
AcDbLine
 10
21.679802596405
 20
32.61305733792
 11
15.179802596405
 21
32.61305733792
  0
LINE
  5
40
100
AcDbEntity
  8
1
  6
CONTINUOUS
 62
           7
100
AcDbLine
 10
14.679802596405
 20
32.11305733792
 11
10.179802596405
 21
32.11305733792
  0
LINE
  5
3F
100
AcDbEntity
  8
1
  6
CONTINUOUS
 62
           7
100
AcDbLine
 10
9.179802596405
 20
13.613057339268
 11
9.179802596405
 21
29.913057336569
  0
LINE
  5
3E
100
AcDbEntity
  8
1
  6
CONTINUOUS
 62
           7
100
AcDbLine
 10
22.179802596405
 20
11.113057337918
 11
21.679802596405
 21
10.613057337918
  0
LINE
  5
3D
100
AcDbEntity
  8
1
  6
CONTINUOUS
 62
           7
100
AcDbLine
 10
15.179802596405
 20
10.613057337918
 11
14.679802596405
 21
11.113057337918
  0
LINE
  5
3C
100
AcDbEntity
  8
1
  6
CONTINUOUS
 62
           7
100
AcDbLine
 10
22.179802596405
 20
31.563057337919
 11
22.179802596405
 21
11.113057337918
  0
LINE
  5
3B
100
AcDbEntity
  8
1
  6
CONTINUOUS
 62
           7
100
AcDbLine
 10
9.179802596405
 20
12.113057337918
 11
9.179802596405
 21
13.313057339269
  0
LINE
  5
3A
100
AcDbEntity
  8
1
  6
CONTINUOUS
 62
           7
100
AcDbLine
 10
15.179802596405
 20
10.613057337918
 11
21.679802596405
 21
10.613057337918
  0
LINE
  5
39
100
AcDbEntity
  8
1
  6
CONTINUOUS
 62
           7
100
AcDbLine
 10
10.179802596405
 20
11.113057337918
 11
14.679802596405
 21
11.113057337918
  0
LINE
  5
38
100
AcDbEntity
  8
1
  6
CONTINUOUS
 62
           7
100
AcDbLine
 10
9.179802596405
 20
13.313057339269
 11
9.179802596405
 21
13.613057339268
  0
LINE
  5
37
100
AcDbEntity
  8
1
  6
DOT_CENTER
 62
           2
100
AcDbLine
 10
35.024817752769
 20
38.712290706202
 11
35.024817752769
 21
1.223648970561
  0
LINE
  5
36
100
AcDbEntity
  8
1
  6
CONTINUOUS
 62
           7
100
AcDbLine
 10
35.024362728748
 20
38.712290706202
 11
35.024986499047
 21
46.117127130911
  0
LINE
  5
35
100
AcDbEntity
  8
1
  6
CONTINUOUS
 62
           7
100
AcDbLine
 10
35.024362728748
 20
-8.229275001837
 11
35.024986499047
 21
-2.276750181511
  0
LINE
  5
34
100
AcDbEntity
  8
1
  6
CONTINUOUS
 62
           7
100
AcDbLine
 10
5.104251032245
 20
24.453967566875
 11
5.104251032245
 21
18.772147108963
  0
LINE
  5
33
100
AcDbEntity
  8
1
  6
CONTINUOUS
 62
           7
100
AcDbLine
 10
5.379802598655
 20
18.61305733792
 11
5.379802598655
 21
24.613057337918
  0
SOLID
  5
17B
100
AcDbEntity
  8
0
 62
           2
100
AcDbTrace
 10
21.92013431709
 20
33.786131322226
 11
22.64303031837
 21
33.930923628405
 12
22.831485695305
 22
31.11305733792
 13
22.831485695305
 23
31.11305733792
  0
SOLID
  5
17D
100
AcDbEntity
  8
0
 62
           2
100
AcDbTrace
 10
32.22371696759
 20
-5.96773536427
 11
32.22371696759
 21
-5.230481377781
 12
35.02371696759
 22
-5.599108371026
 13
35.02371696759
 23
-5.599108371026
  0
SOLID
  5
17F
100
AcDbEntity
  8
0
 62
           2
100
AcDbTrace
 10
32.22371696759
 20
41.481038400406
 11
32.22371696759
 21
42.218292386895
 12
35.02371696759
 22
41.849665393651
 13
35.02371696759
 23
41.849665393651
  0
SOLID
  5
181
100
AcDbEntity
  8
0
 62
           2
100
AcDbTrace
 10
84.621148995175
 20
95.892859879406
 11
83.944221585209
 21
95.600776462841
 12
83.173388383875
 22
98.317705250253
 13
83.173388383875
 23
98.317705250253
  0
ENDBLK
  5
1C7
100
AcDbEntity
  8
0
100
AcDbBlockEnd
  0
BLOCK
  5
2B
100
AcDbEntity
  8
0
100
AcDbBlockBegin
  2
FORMAT_A4AI
 70
           0
 10
0.0
 20
0.0
 30
0.0
  3
FORMAT_A4AI
  1

  0
HATCH
  5
311
100
AcDbEntity
  8
0
  6
CONTINUOUS
 62
           3
100
AcDbHatch
 10
0.0
 20
0.0
 30
0.0
210
0.0
220
0.0
230
1.0
  2
USER
 70
           0
 71
           1
 91
        1
 92
        1
 93
        4
 72
           1
 10
113.1939411997683
 20
-43.644084361874732
 11
113.1939411997683
 21
-43.157110189620148
 72
           1
 10
112.4368376171774
 20
-43.644084361874732
 11
113.1939411997683
 21
-43.644084361874732
 72
           1
 10
112.4368376171774
 20
-43.157110189620177
 11
112.4368376171774
 21
-43.644084361874732
 72
           1
 10
113.1939411997683
 20
-43.157110189620148
 11
112.4368376171774
 21
-43.157110189620177
 97
        4
330
270
330
26F
330
26E
330
1FF
 75
           1
 76
           0
 52
45.0
 41
0.07
 77
           0
 78
           1
 53
45.0
 43
0.0
 44
0.0
 45
-0.0494974746830583
 46
0.0494974746830583
 79
           0
 98
        1
 10
0.0
 20
0.0
  0
TEXT
  5
310
100
AcDbEntity
  8
976
 62
           2
100
AcDbText
 10
77.028452843697
 20
-30.366823835892
 40
3.5
  1
自動ガン
 41
0.89
  7
CONVERTER_1
100
AcDbText
  0
TEXT
  5
30F
100
AcDbEntity
  8
1
 62
           6
100
AcDbText
 10
96.093880482909
 20
-57.500936380102
 40
6.0
  1
★
 41
0.89
  7
CONVERTER_1
100
AcDbText
  0
TEXT
  5
30E
100
AcDbEntity
  8
1
 62
           6
100
AcDbText
 10
104.883866827925
 20
-57.500936380102
 40
6.0
  1
★
 41
0.89
  7
CONVERTER_1
100
AcDbText
  0
TEXT
  5
30D
100
AcDbEntity
  8
1
 62
           6
100
AcDbText
 10
113.673853172941
 20
-57.500936380102
 40
6.0
  1
★
 41
0.89
  7
CONVERTER_1
100
AcDbText
  0
TEXT
  5
30C
100
AcDbEntity
  8
1
 62
           6
100
AcDbText
 10
122.463839517957
 20
-57.500936380102
 40
6.0
  1
★
 41
0.89
  7
CONVERTER_1
100
AcDbText
  0
TEXT
  5
30B
100
AcDbEntity
  8
1
 62
           2
100
AcDbText
 10
64.614085758947
 20
-23.862255622591
 40
3.5
  1
形式
 41
0.89
  7
CONVERTER_1
100
AcDbText
  0
TEXT
  5
30A
100
AcDbEntity
  8
1
 62
           2
100
AcDbText
 10
66.638877132512
 20
-29.31361701296
 40
3.5
  1
名
 41
0.89
  7
CONVERTER_1
100
AcDbText
  0
TEXT
  5
309
100
AcDbEntity
  8
1
 62
           2
100
AcDbText
 10
66.638877132512
 20
-37.724288872386
 40
3.5
  1
称
 41
0.89
  7
CONVERTER_1
100
AcDbText
  0
TEXT
  5
308
100
AcDbEntity
  8
1
 62
           2
100
AcDbText
 10
77.028452843697
 20
-23.416823835892
 40
3.5
  1
AS-80-011
 41
0.9
  7
CONVERTER_2
100
AcDbText
  0
SPLINE
  5
307
100
AcDbEntity
  8
971
  6
CONTINUOUS
 62
           3
100
AcDbSpline
210
0.0
220
0.0
230
1.0
 70
           0
 71
           4
 72
          10
 73
           6
 74
           7
 42
0.00000000001
 43
0.00000000001
 44
0.00000000001
 40
0.0
 40
0.0
 40
0.0
 40
0.0
 40
0.2706186364532013
 40
0.540816773602965
 40
0.812321774007997
 40
0.812321774007997
 40
0.812321774007997
 40
0.812321774007997
 10
112.7363519422349
 20
-46.795333350847571
 30
0.0
 10
112.80849806516891
 20
-46.909188978024467
 30
0.0
 10
112.8988273489565
 20
-47.010629687521423
 30
0.0
 10
113.108767173484
 20
-47.180724670976453
 30
0.0
 10
113.22697923003589
 20
-47.248245881470467
 30
0.0
 10
113.3537973923714
 20
-47.295592764999782
 30
0.0
 11
112.7363519422349
 21
-46.795333350847571
 31
0.0
 11
112.82927710427477
 21
-46.927051307377496
 31
0.0
 11
112.91127722516799
 21
-47.013663866540092
 31
0.0
 11
113.00454778102127
 21
-47.094524935858871
 31
0.0
 11
113.10300868246125
 21
-47.169029341662906
 31
0.0
 11
113.20511694861109
 21
-47.231571404566836
 31
0.0
 11
113.3537973923714
 21
-47.295592764999782
 31
0.0
  0
SPLINE
  5
306
100
AcDbEntity
  8
971
  6
CONTINUOUS
 62
           3
100
AcDbSpline
210
0.0
220
0.0
230
1.0
 70
           0
 71
           4
 72
          10
 73
           6
 74
           7
 42
0.00000000001
 43
0.00000000001
 44
0.00000000001
 40
0.0
 40
0.0
 40
0.0
 40
0.0
 40
0.417546313274566
 40
0.8337691541518446
 40
1.2527267117383323
 40
1.2527267117383323
 40
1.2527267117383323
 40
1.2527267117383323
 10
112.2825574429277
 20
-47.356657402900773
 30
0.0
 10
112.4125268656007
 20
-47.518436812768343
 30
0.0
 10
112.5747752047243
 20
-47.651802662563853
 30
0.0
 10
112.9434617239
 20
-47.844965039454543
 30
0.0
 10
113.1459240824645
 20
-47.902678552691867
 30
0.0
 10
113.3537973923714
 20
-47.917901831683977
 30
0.0
 11
112.2825574429277
 21
-47.356657402900773
 31
0.0
 11
112.4496700284715
 21
-47.53980676698491
 31
0.0
 11
112.59588276843425
 21
-47.650809536908646
 31
0.0
 11
112.76015511657405
 21
-47.745919109020299
 31
0.0
 11
112.93189339646675
 21
-47.826893043503048
 31
0.0
 11
113.10706841636579
 21
-47.884251556947753
 31
0.0
 11
113.3537973923714
 21
-47.917901831683977
 31
0.0
  0
SPLINE
  5
305
100
AcDbEntity
  8
971
  6
CONTINUOUS
 62
           3
100
AcDbSpline
210
0.0
220
0.0
230
1.0
 70
           0
 71
           4
 72
           8
 73
           4
 74
           3
 42
0.00000000001
 43
0.00000000001
 44
0.00000000001
 40
0.0
 40
0.0
 40
0.0
 40
0.0
 40
0.8303817909230673
 40
0.8303817909230673
 40
0.8303817909230673
 40
0.8303817909230673
 10
111.8773733431487
 20
-46.644039531032568
 30
0.0
 10
111.9641202281595
 20
-46.905630992448842
 30
0.0
 10
112.1017892146826
 20
-47.147756436788541
 30
0.0
 10
112.2825574429277
 20
-47.356657402900773
 30
0.0
 11
111.8773733431487
 21
-46.644039531032568
 31
0.0
 11
112.04470738932532
 21
-47.02010740270569
 31
0.0
 11
112.2825574429277
 21
-47.356657402900773
 31
0.0
  0
SPLINE
  5
304
100
AcDbEntity
  8
971
  6
CONTINUOUS
 62
           3
100
AcDbSpline
210
0.0
220
0.0
230
1.0
 70
           0
 71
           4
 72
           8
 73
           4
 74
           3
 42
0.00000000001
 43
0.00000000001
 44
0.00000000001
 40
0.0
 40
0.0
 40
0.0
 40
0.0
 40
0.7576243308687414
 40
0.7576243308687414
 40
0.7576243308687414
 40
0.7576243308687414
 10
112.4278916532914
 20
-46.110199382246762
 30
0.0
 10
112.4938967081922
 20
-46.353219207363438
 30
0.0
 10
112.59798865676009
 20
-46.584422160800322
 30
0.0
 10
112.7363519422349
 20
-46.795333350847571
 30
0.0
 11
112.4278916532914
 21
-46.110199382246762
 31
0.0
 11
112.5549874612979
 21
-46.464807104698203
 31
0.0
 11
112.7363519422349
 21
-46.795333350847571
 31
0.0
  0
SPLINE
  5
303
100
AcDbEntity
  8
971
  6
CONTINUOUS
 62
           3
100
AcDbSpline
210
0.0
220
0.0
230
1.0
 70
           0
 71
           4
 72
           8
 73
           4
 74
           3
 42
0.00000000001
 43
0.00000000001
 44
0.00000000001
 40
0.0
 40
0.0
 40
0.0
 40
0.0
 40
1.385215761189579
 40
1.385215761189579
 40
1.385215761189579
 40
1.385215761189579
 10
111.5854858086129
 20
-45.296530648131608
 30
0.0
 10
111.629172549838
 20
-45.755516763474617
 30
0.0
 10
111.7271429057198
 20
-46.207800294601441
 30
0.0
 10
111.8773733431487
 20
-46.644039531032568
 30
0.0
 11
111.5854858086129
 21
-45.296530648131608
 31
0.0
 11
111.69147568980438
 21
-45.978815169174041
 31
0.0
 11
111.8773733431487
 21
-46.644039531032568
 31
0.0
  0
SPLINE
  5
302
100
AcDbEntity
  8
971
  6
CONTINUOUS
 62
           3
100
AcDbSpline
210
0.0
220
0.0
230
1.0
 70
           0
 71
           4
 72
           8
 73
           4
 74
           3
 42
0.00000000001
 43
0.00000000001
 44
0.00000000001
 40
0.0
 40
0.0
 40
0.0
 40
0.0
 40
1.6091192133092456
 40
1.6091192133092456
 40
1.6091192133092456
 40
1.6091192133092456
 10
112.1815362589596
 20
-44.525015785731512
 30
0.0
 10
112.2135219490108
 20
-45.066551025218033
 30
0.0
 10
112.2960066378642
 20
-45.59398115679609
 30
0.0
 10
112.4278916532914
 20
-46.110199382246762
 30
0.0
 11
112.1815362589596
 21
-44.525015785731512
 31
0.0
 11
112.2672517091095
 21
-45.327101464252586
 31
0.0
 11
112.4278916532914
 21
-46.110199382246762
 31
0.0
  0
SPLINE
  5
301
100
AcDbEntity
  8
971
  6
CONTINUOUS
 62
           3
100
AcDbSpline
210
0.0
220
0.0
230
1.0
 70
           0
 71
           4
 72
           8
 73
           4
 74
           3
 42
0.00000000001
 43
0.00000000001
 44
0.00000000001
 40
0.0
 40
0.0
 40
0.0
 40
0.0
 40
0.7765866697767199
 40
0.7765866697767199
 40
0.7765866697767199
 40
0.7765866697767199
 10
111.49822372720389
 20
-44.525015785731512
 30
0.0
 10
111.52160241876869
 20
-44.789412367875087
 30
0.0
 10
111.5506970185519
 20
-45.043341031570883
 30
0.0
 10
111.5854858086129
 20
-45.296530648131608
 30
0.0
 11
111.49822372720389
 21
-44.525015785731512
 31
0.0
 11
111.53757598097232
 21
-44.914975829025124
 31
0.0
 11
111.5854858086129
 21
-45.296530648131608
 31
0.0
  0
SPLINE
  5
300
100
AcDbEntity
  8
971
  6
CONTINUOUS
 62
           3
100
AcDbSpline
210
0.0
220
0.0
230
1.0
 70
           0
 71
           4
 72
          14
 73
          10
 74
          15
 42
0.00000000001
 43
0.00000000001
 44
0.00000000001
 40
0.0
 40
0.0
 40
0.0
 40
0.0
 40
0.0534690567032877
 40
0.1066790151393774
 40
0.1334624079939772
 40
0.1865489055608843
 40
0.2132652869208905
 40
0.2662257064510079
 40
0.3193360691362551
 40
0.3193360691362551
 40
0.3193360691362551
 40
0.3193360691362551
 10
113.1403955877107
 20
-44.525015785731512
 30
0.0
 10
113.16697447277529
 20
-44.523273708369103
 30
0.0
 10
113.1930324226044
 20
-44.516870525764432
 30
0.0
 10
113.24168993416821
 20
-44.495335757477108
 30
0.0
 10
113.2639049481952
 20
-44.480374364340634
 30
0.0
 10
113.30204735472959
 20
-44.443451024192612
 30
0.0
 10
113.31767330200201
 20
-44.421780887949083
 30
0.0
 10
113.3405855921611
 20
-44.374033291187871
 30
0.0
 10
113.3476908557369
 20
-44.348333187183037
 30
0.0
 10
113.3501157799129
 20
-44.321998443718357
 30
0.0
 11
113.1403955877107
 21
-44.525015785731512
 31
0.0
 11
113.17221804093971
 21
-44.52114615926196
 31
0.0
 11
113.19632004545332
 21
-44.514139339796067
 31
0.0
 11
113.22175038114155
 21
-44.503830523797298
 31
0.0
 11
113.24432888323622
 21
-44.492803561604809
 31
0.0
 11
113.25280053979712
 21
-44.487640268758348
 31
0.0
 11
113.26122896009606
 21
-44.48122986297038
 31
0.0
 11
113.28277011010618
 21
-44.461677710112816
 31
0.0
 11
113.30300307082881
 21
-44.440785294177573
 31
0.0
 11
113.30966067073368
 21
-44.432590603378777
 31
0.0
 11
113.31507580752566
 21
-44.424305533253865
 31
0.0
 11
113.32674475859369
 21
-44.402176116571134
 31
0.0
 11
113.33776834271622
 21
-44.37718862535732
 31
0.0
 11
113.34541953694192
 21
-44.35347385540323
 31
0.0
 11
113.3501157799129
 21
-44.321998443718357
 31
0.0
  0
SPLINE
  5
2FF
100
AcDbEntity
  8
971
  6
CONTINUOUS
 62
           3
100
AcDbSpline
210
0.0
220
0.0
230
1.0
 70
           0
 71
           4
 72
           8
 73
           4
 74
           3
 42
0.00000000001
 43
0.00000000001
 44
0.00000000001
 40
0.0
 40
0.0
 40
0.0
 40
0.0
 40
0.8989053455147721
 40
0.8989053455147721
 40
0.8989053455147721
 40
0.8989053455147721
 10
112.08715753098561
 20
-43.004485669375107
 30
0.0
 10
112.0880137017523
 20
-43.307326788699697
 30
0.0
 10
112.10476526928019
 20
-43.609917892096497
 30
0.0
 10
112.1373440906746
 20
-43.901109665013593
 30
0.0
 11
112.08715753098561
 21
-43.004485669375107
 31
0.0
 11
112.10035481684471
 21
-43.45716617209716
 31
0.0
 11
112.1373440906746
 21
-43.901109665013593
 31
0.0
  0
SPLINE
  5
2FE
100
AcDbEntity
  8
971
  6
CONTINUOUS
 62
           3
100
AcDbSpline
210
0.0
220
0.0
230
1.0
 70
           0
 71
           4
 72
           8
 73
           4
 74
           3
 42
0.00000000001
 43
0.00000000001
 44
0.00000000001
 40
0.0
 40
0.0
 40
0.0
 40
0.0
 40
0.8971042279560035
 40
0.8971042279560035
 40
0.8971042279560035
 40
0.8971042279560035
 10
111.4546919269297
 20
-43.901109665013543
 30
0.0
 10
111.4455715666296
 20
-43.608826768141569
 30
0.0
 10
111.4357968862098
 20
-43.306645265184898
 30
0.0
 10
111.42536795341969
 20
-43.004485669375107
 30
0.0
 11
111.4546919269297
 21
-43.901109665013543
 31
0.0
 11
111.44052065485845
 21
-43.456501429296004
 31
0.0
 11
111.42536795341969
 21
-43.004485669375107
 31
0.0
  0
SPLINE
  5
2FD
100
AcDbEntity
  8
971
  6
CONTINUOUS
 62
           3
100
AcDbSpline
210
0.0
220
0.0
230
1.0
 70
           0
 71
           4
 72
          12
 73
           8
 74
          11
 42
0.00000000001
 43
0.00000000001
 44
0.00000000001
 40
0.0
 40
0.0
 40
0.0
 40
0.0
 40
0.0542442949972407
 40
0.1082117345904384
 40
0.1325559712128946
 40
0.1863986820111913
 40
0.2403640618353415
 40
0.2403640618353415
 40
0.2403640618353415
 40
0.2403640618353415
 10
111.44795189730389
 20
-47.367974666670278
 30
0.0
 10
111.4728925095994
 20
-47.357524172362609
 30
0.0
 10
111.49589681569699
 20
-47.343005574613898
 30
0.0
 10
111.536128057979
 20
-47.307034312741507
 30
0.0
 10
111.55307178969851
 20
-47.289554272348319
 30
0.0
 10
111.5792125325918
 20
-47.242483059626572
 30
0.0
 10
111.58822552819259
 20
-47.216942648204103
 30
0.0
 10
111.5928080097392
 20
-47.190454805292561
 30
0.0
 11
111.44795189730389
 21
-47.367974666670278
 31
0.0
 11
111.47729119528523
 21
-47.353815485808767
 31
0.0
 11
111.49842786483661
 21
-47.339237800126611
 31
0.0
 11
111.5200407955154
 21
-47.32114806685415
 31
0.0
 11
111.53859953336381
 21
-47.304168703272936
 31
0.0
 11
111.54450803967769
 21
-47.298205466484468
 31
0.0
 11
111.54981726597214
 21
-47.29175876690875
 31
0.0
 11
111.56315119579564
 21
-47.270657162202262
 31
0.0
 11
111.5761172007785
 21
-47.24573435365911
 31
0.0
 11
111.58559293789597
 21
-47.222024907112498
 31
0.0
 11
111.5928080097392
 21
-47.190454805292561
 31
0.0
  0
SPLINE
  5
2FC
100
AcDbEntity
  8
971
  6
CONTINUOUS
 62
           3
100
AcDbSpline
210
0.0
220
0.0
230
1.0
 70
           0
 71
           4
 72
          14
 73
          10
 74
          15
 42
0.00000000001
 43
0.00000000001
 44
0.00000000001
 40
0.0
 40
0.0
 40
0.0
 40
0.0
 40
0.0569208319579812
 40
0.1135486024407683
 40
0.1420659597215784
 40
0.1985567009299533
 40
0.2270003831302897
 40
0.2833551730854165
 40
0.3398892904476308
 40
0.3398892904476308
 40
0.3398892904476308
 40
0.3398892904476308
 10
111.08818136822831
 20
-45.880460464673547
 30
0.0
 10
111.11647655984579
 20
-45.878729855888857
 30
0.0
 10
111.1442133840019
 20
-45.871868987832023
 30
0.0
 10
111.19582418835989
 20
-45.848565999539268
 30
0.0
 10
111.219262042967
 20
-45.832320796010308
 30
0.0
 10
111.2590821713239
 20
-45.792251341061281
 30
0.0
 10
111.27512795395729
 20
-45.76876568763636
 30
0.0
 10
111.29790232910371
 20
-45.717217746963847
 30
0.0
 10
111.3044384718373
 20
-45.689591054095757
 30
0.0
 10
111.30580001140891
 20
-45.661479241387838
 30
0.0
 11
111.08818136822831
 21
-45.880460464673547
 31
0.0
 11
111.12205428387787
 21
-45.87642708835245
 31
0.0
 11
111.14768092710744
 21
-45.868894970072077
 31
0.0
 11
111.17466701489438
 21
-45.857754490758829
 31
0.0
 11
111.19858658283596
 21
-45.845813005109093
 31
0.0
 11
111.20754012501391
 21
-45.840209247166023
 31
0.0
 11
111.21640769662379
 21
-45.83324773609376
 31
0.0
 11
111.23894046981744
 21
-45.812032028620386
 31
0.0
 11
111.26000584200159
 21
-45.789370144430663
 31
0.0
 11
111.26688682478628
 21
-45.780483092101612
 31
0.0
 11
111.27241206174453
 21
-45.77151130135892
 31
0.0
 11
111.28411154844146
 21
-45.74760710808696
 31
0.0
 11
111.29496897961728
 21
-45.720659162006186
 31
0.0
 11
111.30219750420777
 21
-45.695148824501644
 31
0.0
 11
111.30580001140891
 21
-45.661479241387838
 31
0.0
  0
SPLINE
  5
2FB
100
AcDbEntity
  8
971
  6
CONTINUOUS
 62
           3
100
AcDbSpline
210
0.0
220
0.0
230
1.0
 70
           0
 71
           4
 72
          14
 73
          10
 74
          15
 42
0.00000000001
 43
0.00000000001
 44
0.00000000001
 40
0.0
 40
0.0
 40
0.0
 40
0.0
 40
0.0696611993756941
 40
0.1390509256231236
 40
0.1740913817064143
 40
0.2436365406668651
 40
0.2787691523228026
 40
0.3484981913486753
 40
0.4186313188728434
 40
0.4186313188728434
 40
0.4186313188728434
 40
0.4186313188728434
 10
114.13240304326359
 20
-47.573151188650563
 30
0.0
 10
114.1296656839551
 20
-47.607717173356612
 30
0.0
 10
114.13357729386981
 20
-47.642484818395353
 30
0.0
 10
114.1542810994613
 20
-47.708713864460677
 30
0.0
 10
114.1708844017941
 20
-47.739571017831828
 30
0.0
 10
114.2148223014874
 20
-47.793478253945132
 30
0.0
 10
114.2417560268068
 20
-47.816036508358678
 30
0.0
 10
114.3026793107159
 20
-47.849955416967333
 30
0.0
 10
114.3361130293282
 20
-47.861006608438473
 30
0.0
 10
114.3707352044902
 20
-47.865559978745956
 30
0.0
 11
114.13240304326359
 21
-47.573151188650563
 31
0.0
 11
114.13162869208591
 21
-47.614851336597198
 31
0.0
 11
114.13675351969805
 21
-47.647103179616657
 31
0.0
 11
114.14624544241107
 21
-47.681578743801353
 31
0.0
 11
114.15728303105504
 21
-47.712418735248008
 31
0.0
 11
114.16286225194578
 21
-47.724136139877857
 31
0.0
 11
114.17016298181582
 21
-47.735898441912212
 31
0.0
 11
114.19318070532555
 21
-47.766230565677461
 31
0.0
 11
114.21824949283575
 21
-47.794904936841021
 31
0.0
 11
114.22832408989603
 21
-47.804462328269103
 31
0.0
 11
114.2386934315038
 21
-47.81232075305418
 31
0.0
 11
114.26677373627648
 21
-47.829478753304734
 31
0.0
 11
114.29874604603381
 21
-47.845885749818493
 31
0.0
 11
114.32948299424771
 21
-47.857607587310738
 31
0.0
 11
114.3707352044902
 21
-47.865559978745956
 31
0.0
  0
SPLINE
  5
2FA
100
AcDbEntity
  8
971
  6
CONTINUOUS
 62
           3
100
AcDbSpline
210
0.0
220
0.0
230
1.0
 70
           0
 71
           4
 72
           8
 73
           4
 74
           3
 42
0.00000000001
 43
0.00000000001
 44
0.00000000001
 40
0.0
 40
0.0
 40
0.0
 40
0.0
 40
1.1178041209799385
 40
1.1178041209799385
 40
1.1178041209799385
 40
1.1178041209799385
 10
115.8553802090957
 20
-47.851908773557028
 30
0.0
 10
116.227493960855
 20
-47.848507995051207
 30
0.0
 10
116.59826948664541
 20
-47.809120736762353
 30
0.0
 10
116.96347624317811
 20
-47.734196406727442
 30
0.0
 11
115.8553802090957
 21
-47.851908773557028
 31
0.0
 11
116.41201834934688
 21
-47.819873921965645
 31
0.0
 11
116.96347624317811
 21
-47.734196406727442
 31
0.0
  0
SPLINE
  5
2F9
100
AcDbEntity
  8
971
  6
CONTINUOUS
 62
           3
100
AcDbSpline
210
0.0
220
0.0
230
1.0
 70
           0
 71
           4
 72
           8
 73
           4
 74
           3
 42
0.00000000001
 43
0.00000000001
 44
0.00000000001
 40
0.0
 40
0.0
 40
0.0
 40
0.0
 40
0.6398209451396759
 40
0.6398209451396759
 40
0.6398209451396759
 40
0.6398209451396759
 10
116.96347624317811
 20
-47.734196406727442
 30
0.0
 10
117.1714803698769
 20
-47.689826300675612
 30
0.0
 10
117.37508373428101
 20
-47.624602912726758
 30
0.0
 10
117.5721705008251
 20
-47.542923447974758
 30
0.0
 11
116.96347624317811
 21
-47.734196406727442
 31
0.0
 11
117.27191738205961
 21
-47.652550936863669
 31
0.0
 11
117.5721705008251
 21
-47.542923447974758
 31
0.0
  0
SPLINE
  5
2F8
100
AcDbEntity
  8
971
  6
CONTINUOUS
 62
           3
100
AcDbSpline
210
0.0
220
0.0
230
1.0
 70
           0
 71
           4
 72
           8
 73
           4
 74
           3
 42
0.00000000001
 43
0.00000000001
 44
0.00000000001
 40
0.0
 40
0.0
 40
0.0
 40
0.0
 40
0.5051289039532634
 40
0.5051289039532634
 40
0.5051289039532634
 40
0.5051289039532634
 10
116.7751986236857
 20
-47.174222633170793
 30
0.0
 10
116.9408965823859
 20
-47.147053204592503
 30
0.0
 10
117.1039747472271
 20
-47.103638825576617
 30
0.0
 10
117.2630087785235
 20
-47.048078088342329
 30
0.0
 11
116.7751986236857
 21
-47.174222633170793
 31
0.0
 11
117.02160267388103
 21
-47.121797101502558
 31
0.0
 11
117.2630087785235
 21
-47.048078088342329
 31
0.0
  0
SPLINE
  5
2F7
100
AcDbEntity
  8
971
  6
CONTINUOUS
 62
           3
100
AcDbSpline
210
0.0
220
0.0
230
1.0
 70
           0
 71
           4
 72
           8
 73
           4
 74
           3
 42
0.00000000001
 43
0.00000000001
 44
0.00000000001
 40
0.0
 40
0.0
 40
0.0
 40
0.0
 40
0.4057205829703412
 40
0.4057205829703412
 40
0.4057205829703412
 40
0.4057205829703412
 10
116.3748268625113
 20
-47.236670193222892
 30
0.0
 10
116.5094516177259
 20
-47.22405574047265
 30
0.0
 10
116.64316332033231
 20
-47.203200199727988
 30
0.0
 10
116.7751986236857
 20
-47.174222633170793
 30
0.0
 11
116.3748268625113
 21
-47.236670193222892
 31
0.0
 11
116.57598378754643
 21
-47.211582580874442
 31
0.0
 11
116.7751986236857
 21
-47.174222633170793
 31
0.0
  0
SPLINE
  5
2F6
100
AcDbEntity
  8
971
  6
CONTINUOUS
 62
           3
100
AcDbSpline
210
0.0
220
0.0
230
1.0
 70
           0
 71
           4
 72
           8
 73
           4
 74
           3
 42
0.00000000001
 43
0.00000000001
 44
0.00000000001
 40
0.0
 40
0.0
 40
0.0
 40
0.0
 40
0.418619915766826
 40
0.418619915766826
 40
0.418619915766826
 40
0.418619915766826
 10
117.5721705008251
 20
-47.542923447974758
 30
0.0
 10
117.63885493007621
 20
-47.665490435317459
 30
0.0
 10
117.70644377955961
 20
-47.787570305829277
 30
0.0
 10
117.774931597738
 20
-47.909153212872283
 30
0.0
 11
117.5721705008251
 21
-47.542923447974758
 31
0.0
 11
117.67287477843382
 21
-47.726407360535909
 31
0.0
 11
117.774931597738
 21
-47.909153212872283
 31
0.0
  0
SPLINE
  5
2F5
100
AcDbEntity
  8
971
  6
CONTINUOUS
 62
           3
100
AcDbSpline
210
0.0
220
0.0
230
1.0
 70
           0
 71
           4
 72
           8
 73
           4
 74
           3
 42
0.00000000001
 43
0.00000000001
 44
0.00000000001
 40
0.0
 40
0.0
 40
0.0
 40
0.0
 40
0.662867034682615
 40
0.662867034682615
 40
0.662867034682615
 40
0.662867034682615
 10
116.8626040897494
 20
-46.519813479273701
 30
0.0
 10
116.9953192042245
 20
-46.696463066346062
 30
0.0
 10
117.1287886350491
 20
-46.8725528541881
 30
0.0
 10
117.2630087785235
 20
-47.048078088342329
 30
0.0
 11
116.8626040897494
 21
-46.519813479273701
 31
0.0
 11
117.06224204826171
 21
-46.784367416152314
 31
0.0
 11
117.2630087785235
 21
-47.048078088342329
 31
0.0
  0
SPLINE
  5
2F4
100
AcDbEntity
  8
971
  6
CONTINUOUS
 62
           3
100
AcDbSpline
210
0.0
220
0.0
230
1.0
 70
           0
 71
           4
 72
           8
 73
           4
 74
           3
 42
0.00000000001
 43
0.00000000001
 44
0.00000000001
 40
0.0
 40
0.0
 40
0.0
 40
0.0
 40
1.6969871367417546
 40
1.6969871367417546
 40
1.6969871367417546
 40
1.6969871367417546
 10
118.5634220206246
 20
-47.909153212872283
 30
0.0
 10
118.2741624127018
 20
-47.424515418049218
 30
0.0
 10
117.9501679453101
 20
-46.959790620850598
 30
0.0
 10
117.59393238381899
 20
-46.519865584016863
 30
0.0
 11
118.5634220206246
 21
-47.909153212872283
 31
0.0
 11
118.10379318480989
 21
-47.197742114198569
 31
0.0
 11
117.59393238381899
 21
-46.519865584016863
 31
0.0
  0
SPLINE
  5
2F3
100
AcDbEntity
  8
971
  6
CONTINUOUS
 62
           3
100
AcDbSpline
210
0.0
220
0.0
230
1.0
 70
           0
 71
           4
 72
           8
 73
           4
 74
           3
 42
0.00000000001
 43
0.00000000001
 44
0.00000000001
 40
0.0
 40
0.0
 40
0.0
 40
0.0
 40
1.4198848083633573
 40
1.4198848083633573
 40
1.4198848083633573
 40
1.4198848083633573
 10
114.9566147072303
 20
-47.274105788876312
 30
0.0
 10
115.42967248426891
 20
-47.285238184091767
 30
0.0
 10
115.90283423129129
 20
-47.27274845060991
 30
0.0
 10
116.3748268625113
 20
-47.236670193222892
 30
0.0
 11
114.9566147072303
 21
-47.274105788876312
 31
0.0
 11
115.66612021455275
 21
-47.273091985775523
 31
0.0
 11
116.3748268625113
 21
-47.236670193222892
 31
0.0
  0
SPLINE
  5
2F2
100
AcDbEntity
  8
971
  6
CONTINUOUS
 62
           3
100
AcDbSpline
210
0.0
220
0.0
230
1.0
 70
           0
 71
           4
 72
           8
 73
           4
 74
           3
 42
0.00000000001
 43
0.00000000001
 44
0.00000000001
 40
0.0
 40
0.0
 40
0.0
 40
0.0
 40
1.2943058541651618
 40
1.2943058541651618
 40
1.2943058541651618
 40
1.2943058541651618
 10
114.9566147072303
 20
-47.274105788876312
 30
0.0
 10
115.2256922280088
 20
-46.939266213314433
 30
0.0
 10
115.48342287615409
 20
-46.591968831191998
 30
0.0
 10
115.729384401288
 20
-46.236502040673287
 30
0.0
 11
114.9566147072303
 21
-47.274105788876312
 31
0.0
 11
115.35166805262587
 21
-46.76303912038361
 31
0.0
 11
115.729384401288
 21
-46.236502040673287
 31
0.0
  0
SPLINE
  5
2F1
100
AcDbEntity
  8
971
  6
CONTINUOUS
 62
           3
100
AcDbSpline
210
0.0
220
0.0
230
1.0
 70
           0
 71
           4
 72
          14
 73
          10
 74
          15
 42
0.00000000001
 43
0.00000000001
 44
0.00000000001
 40
0.0
 40
0.0
 40
0.0
 40
0.0
 40
0.0661622021223996
 40
0.1319387845577457
 40
0.1651005028054925
 40
0.2307042284667129
 40
0.2637747374341267
 40
0.329217303860777
 40
0.3949223480404992
 40
0.3949223480404992
 40
0.3949223480404992
 40
0.3949223480404992
 10
118.37622890641001
 20
-46.236858870679072
 30
0.0
 10
118.4091246112762
 20
-46.23534869364866
 30
0.0
 10
118.4414016969842
 20
-46.227440112818542
 30
0.0
 10
118.5010538629024
 20
-46.199724090410157
 30
0.0
 10
118.5278488238017
 20
-46.180186188077833
 30
0.0
 10
118.5723341793136
 20
-46.131968950852823
 30
0.0
 10
118.5895919523544
 20
-46.103758530206612
 30
0.0
 10
118.6121782270875
 20
-46.042337119491883
 30
0.0
 10
118.6172870765018
 20
-46.009723454699127
 30
0.0
 10
118.6159216064562
 20
-45.977058321796527
 30
0.0
 11
118.37622890641001
 21
-46.236858870679072
 31
0.0
 11
118.41561257995848
 21
-46.232611191394412
 31
0.0
 11
118.44536693187317
 21
-46.223836041641178
 31
0.0
 11
118.47658284872605
 21
-46.210638298859024
 31
0.0
 11
118.50415914173394
 21
-46.196397473616308
 31
0.0
 11
118.51443266605408
 21
-46.189669370056265
 31
0.0
 11
118.52450967964106
 21
-46.181288226983909
 31
0.0
 11
118.54979147819907
 21
-46.155772348339205
 31
0.0
 11
118.57318080646715
 21
-46.128525218662404
 31
0.0
 11
118.58069467494961
 21
-46.117837950632243
 31
0.0
 11
118.5865473578192
 21
-46.107079049330132
 31
0.0
 11
118.59841440181435
 21
-46.078564092783949
 31
0.0
 11
118.60892281011978
 21
-46.046528509586011
 31
0.0
 11
118.61511103303144
 21
-46.01636824573108
 31
0.0
 11
118.6159216064562
 21
-45.977058321796527
 31
0.0
  0
SPLINE
  5
2F0
100
AcDbEntity
  8
971
  6
CONTINUOUS
 62
           3
100
AcDbSpline
210
0.0
220
0.0
230
1.0
 70
           0
 71
           4
 72
           8
 73
           4
 74
           3
 42
0.00000000001
 43
0.00000000001
 44
0.00000000001
 40
0.0
 40
0.0
 40
0.0
 40
0.0
 40
1.3179194435092561
 40
1.3179194435092561
 40
1.3179194435092561
 40
1.3179194435092561
 10
114.1328777440951
 20
-47.282556282015378
 30
0.0
 10
114.4135401216092
 20
-46.94450969237279
 30
0.0
 10
114.68059495811271
 20
-46.595551005301317
 30
0.0
 10
114.9334133225036
 20
-46.236502040673301
 30
0.0
 11
114.1328777440951
 21
-47.282556282015378
 31
0.0
 11
114.54358703822055
 21
-46.767405051963877
 31
0.0
 11
114.9334133225036
 21
-46.236502040673301
 31
0.0
  0
SPLINE
  5
2EF
100
AcDbEntity
  8
971
  6
CONTINUOUS
 62
           3
100
AcDbSpline
210
0.0
220
0.0
230
1.0
 70
           0
 71
           4
 72
          14
 73
          10
 74
          15
 42
0.00000000001
 43
0.00000000001
 44
0.00000000001
 40
0.0
 40
0.0
 40
0.0
 40
0.0
 40
0.0883609178920353
 40
0.1763848469957441
 40
0.2208931853726724
 40
0.3091839532276864
 40
0.3538369675797849
 40
0.4423891969845227
 40
0.5314669996713651
 40
0.5314669996713651
 40
0.5314669996713651
 40
0.5314669996713651
 10
101.94418554014339
 20
-47.793755680144592
 30
0.0
 10
101.9881417829033
 20
-47.793755680144592
 30
0.0
 10
102.031656364073
 20
-47.784909415440467
 30
0.0
 10
102.11270209654541
 20
-47.750561179053918
 30
0.0
 10
102.1494189201251
 20
-47.725404330060201
 30
0.0
 10
102.2109371033697
 20
-47.662073667512651
 30
0.0
 10
102.2351203433569
 20
-47.624536184985843
 30
0.0
 10
102.2675007344197
 20
-47.542116480987531
 30
0.0
 10
102.2753725352367
 20
-47.498062392568521
 30
0.0
 10
102.2744646359217
 20
-47.453745737424647
 30
0.0
 11
101.94418554014339
 21
-47.793755680144592
 31
0.0
 11
101.99693660557959
 21
-47.790403061965122
 31
0.0
 11
102.03706003135861
 21
-47.780229483364771
 31
0.0
 11
102.07941783507198
 21
-47.764051198842203
 31
0.0
 11
102.11693871953489
 21
-47.746225162765946
 31
0.0
 11
102.13099985805165
 21
-47.737622584908827
 31
0.0
 11
102.14483019879798
 21
-47.726767791853646
 31
0.0
 11
102.17973592599407
 21
-47.69335572781501
 31
0.0
 11
102.21213960522628
 21
-47.657489138271281
 31
0.0
 11
102.22263748529753
 21
-47.64330176620377
 31
0.0
 11
102.23087357717183
 21
-47.628962502237044
 31
0.0
 11
102.24778403444981
 21
-47.590758534896551
 31
0.0
 11
102.262949793479
 21
-47.547731353021589
 31
0.0
 11
102.27222587535832
 21
-47.507016012489402
 31
0.0
 11
102.2744646359217
 21
-47.453745737424647
 31
0.0
  0
SPLINE
  5
2EE
100
AcDbEntity
  8
971
  6
CONTINUOUS
 62
           3
100
AcDbSpline
210
0.0
220
0.0
230
1.0
 70
           0
 71
           4
 72
          14
 73
          10
 74
          15
 42
0.00000000001
 43
0.00000000001
 44
0.00000000001
 40
0.0
 40
0.0
 40
0.0
 40
0.0
 40
0.087900750051331
 40
0.1752883206750141
 40
0.2193425623623976
 40
0.3064723965733414
 40
0.3503856027350274
 40
0.437256935864728
 40
0.5244521572899188
 40
0.5244521572899188
 40
0.5244521572899188
 40
0.5244521572899188
 10
97.604676450332107
 20
-47.460626394889829
 30
0.0
 10
97.604676450332107
 20
-47.504373447974132
 30
0.0
 10
97.613221235003692
 20
-47.547692446240163
 30
0.0
 10
97.646424392919386
 20
-47.628526460144798
 30
0.0
 10
97.670757880926402
 20
-47.665250533612522
 30
0.0
 10
97.73210931695283
 20
-47.727118209398199
 30
0.0
 10
97.768526955329804
 20
-47.751656450786747
 30
0.0
 10
97.848686469483795
 20
-47.785138995647131
 30
0.0
 10
97.891644002914717
 20
-47.793755680144713
 30
0.0
 10
97.935026019364699
 20
-47.793755680144713
 30
0.0
 11
97.604676450332107
 21
-47.460626394889829
 31
0.0
 11
97.607919985373798
 21
-47.513150777280742
 31
0.0
 11
97.61777002970031
 21
-47.55317040508374
 31
0.0
 11
97.633409524405579
 21
-47.595393734328844
 31
0.0
 11
97.650657379695005
 21
-47.632846669481253
 31
0.0
 11
97.658973653853209
 21
-47.646882775410113
 31
0.0
 11
97.669498948539214
 21
-47.660754639095067
 31
0.0
 11
97.701860446716793
 21
-47.695806566980124
 31
0.0
 11
97.736634781420236
 21
-47.728442170130322
 31
0.0
 11
97.750372386499478
 21
-47.739034642839968
 31
0.0
 11
97.764305892378999
 21
-47.747423666515481
 31
0.0
 11
97.801440047208345
 21
-47.764805134728697
 31
0.0
 11
97.843323579463402
 21
-47.7805759331263
 31
0.0
 11
97.882957177320321
 21
-47.790489577199793
 31
0.0
 11
97.935026019364699
 21
-47.793755680144713
 31
0.0
  0
SPLINE
  5
2ED
100
AcDbEntity
  8
971
  6
CONTINUOUS
 62
           3
100
AcDbSpline
210
0.0
220
0.0
230
1.0
 70
           0
 71
           4
 72
          12
 73
           8
 74
          11
 42
0.00000000001
 43
0.00000000001
 44
0.00000000001
 40
0.0
 40
0.0
 40
0.0
 40
0.0
 40
0.0958177936777162
 40
0.1909630599960771
 40
0.2389791564644964
 40
0.3338035869328237
 40
0.4289502443603263
 40
0.4289502443603263
 40
0.4289502443603263
 40
0.4289502443603263
 10
79.144850101783817
 20
-43.113176862095621
 30
0.0
 10
79.140745396921687
 20
-43.065690963238659
 30
0.0
 10
79.126771375081233
 20
-43.019608284616297
 30
0.0
 10
79.080903957213337
 20
-42.936248811963672
 30
0.0
 10
79.049524095171222
 20
-42.899905314907357
 30
0.0
 10
78.973957368385214
 20
-42.842622312048817
 30
0.0
 10
78.930616552628834
 20
-42.822324149713992
 30
0.0
 10
78.884539526786995
 20
-42.811690622179142
 30
0.0
 11
79.144850101783817
 21
-43.113176862095621
 31
0.0
 11
79.136162547540465
 21
-43.056529118621775
 31
0.0
 11
79.121012749639249
 21
-43.014277764049666
 31
0.0
 11
79.099021510356408
 21
-42.970504617575322
 31
0.0
 11
79.075657164595853
 21
-42.932209708760269
 31
0.0
 11
79.064939206208422
 21
-42.91826981427208
 31
0.0
 11
79.052699240342818
 21
-42.905633412108024
 31
0.0
 11
79.018291142074887
 21
-42.877035519844057
 31
0.0
 11
78.978290202932925
 21
-42.84903519214236
 31
0.0
 11
78.938956317560056
 21
-42.828146200050192
 31
0.0
 11
78.884539526786995
 21
-42.811690622179142
 31
0.0
  0
SPLINE
  5
2EC
100
AcDbEntity
  8
971
  6
CONTINUOUS
 62
           3
100
AcDbSpline
210
0.0
220
0.0
230
1.0
 70
           0
 71
           4
 72
           8
 73
           4
 74
           3
 42
0.00000000001
 43
0.00000000001
 44
0.00000000001
 40
0.0
 40
0.0
 40
0.0
 40
0.0
 40
2.227660198606328
 40
2.227660198606328
 40
2.227660198606328
 40
2.227660198606328
 10
76.272375018071415
 20
-47.018622317102682
 30
0.0
 10
76.97945024621842
 20
-46.793341915070002
 30
0.0
 10
77.672689917723829
 20
-46.526076220297803
 30
0.0
 10
78.348460888768926
 20
-46.218225923985798
 30
0.0
 11
76.272375018071415
 21
-47.018622317102682
 31
0.0
 11
77.322157049833393
 21
-46.649387830898988
 31
0.0
 11
78.348460888768926
 21
-46.218225923985798
 31
0.0
  0
SPLINE
  5
2EB
100
AcDbEntity
  8
971
  6
CONTINUOUS
 62
           3
100
AcDbSpline
210
0.0
220
0.0
230
1.0
 70
           0
 71
           4
 72
           8
 73
           4
 74
           3
 42
0.00000000001
 43
0.00000000001
 44
0.00000000001
 40
0.0
 40
0.0
 40
0.0
 40
0.0
 40
1.7996526192961275
 40
1.7996526192961275
 40
1.7996526192961275
 40
1.7996526192961275
 10
78.348460888768926
 20
-45.393796767600982
 30
0.0
 10
78.874773790865532
 20
-45.109140042763222
 30
0.0
 10
79.360730668550417
 20
-44.754392883316342
 30
0.0
 10
79.793261682416613
 20
-44.339096235415852
 30
0.0
 11
78.348460888768926
 21
-45.393796767600982
 31
0.0
 11
79.106029493679173
 21
-44.915436472656943
 31
0.0
 11
79.793261682416613
 21
-44.339096235415852
 31
0.0
  0
SPLINE
  5
2EA
100
AcDbEntity
  8
971
  6
CONTINUOUS
 62
           3
100
AcDbSpline
210
0.0
220
0.0
230
1.0
 70
           0
 71
           4
 72
           8
 73
           4
 74
           3
 42
0.00000000001
 43
0.00000000001
 44
0.00000000001
 40
0.0
 40
0.0
 40
0.0
 40
0.0
 40
1.3288721514261221
 40
1.3288721514261221
 40
1.3288721514261221
 40
1.3288721514261221
 10
77.142524294040783
 20
-45.94843913795691
 30
0.0
 10
77.554789810396613
 20
-45.787203532721207
 30
0.0
 10
77.957443612521189
 20
-45.602012320994632
 30
0.0
 10
78.348460888768926
 20
-45.393796767600982
 30
0.0
 11
77.142524294040783
 21
-45.94843913795691
 31
0.0
 11
77.753460681445389
 21
-45.688735433338167
 31
0.0
 11
78.348460888768926
 21
-45.393796767600982
 31
0.0
  0
SPLINE
  5
2E9
100
AcDbEntity
  8
971
  6
CONTINUOUS
 62
           3
100
AcDbSpline
210
0.0
220
0.0
230
1.0
 70
           0
 71
           4
 72
           8
 73
           4
 74
           3
 42
0.00000000001
 43
0.00000000001
 44
0.00000000001
 40
0.0
 40
0.0
 40
0.0
 40
0.0
 40
0.9349485083897684
 40
0.9349485083897684
 40
0.9349485083897684
 40
0.9349485083897684
 10
76.272375018071415
 20
-46.289295905009062
 30
0.0
 10
76.566441013870389
 20
-46.186391701563167
 30
0.0
 10
76.856684018768334
 20
-46.072697080374333
 30
0.0
 10
77.142524294040783
 20
-45.94843913795691
 30
0.0
 11
76.272375018071415
 21
-46.289295905009062
 31
0.0
 11
76.710534301253531
 21
-46.126875173597298
 31
0.0
 11
77.142524294040783
 21
-45.94843913795691
 31
0.0
  0
SPLINE
  5
2E8
100
AcDbEntity
  8
971
  6
CONTINUOUS
 62
           3
100
AcDbSpline
210
0.0
220
0.0
230
1.0
 70
           0
 71
           4
 72
           8
 73
           4
 74
           3
 42
0.00000000001
 43
0.00000000001
 44
0.00000000001
 40
0.0
 40
0.0
 40
0.0
 40
0.0
 40
1.3395268109566805
 40
1.3395268109566805
 40
1.3395268109566805
 40
1.3395268109566805
 10
79.158816903554197
 20
-45.791490778970321
 30
0.0
 10
79.546418467837412
 20
-45.571456818859957
 30
0.0
 10
79.909323218573917
 20
-45.309855897094067
 30
0.0
 10
80.241218901842529
 20
-45.011238219866122
 30
0.0
 11
79.158816903554197
 21
-45.791490778970321
 31
0.0
 11
79.720907608078846
 21
-45.430833393337316
 31
0.0
 11
80.241218901842529
 21
-45.011238219866122
 31
0.0
  0
SPLINE
  5
2E7
100
AcDbEntity
  8
971
  6
CONTINUOUS
 62
           3
100
AcDbSpline
210
0.0
220
0.0
230
1.0
 70
           0
 71
           4
 72
           8
 73
           4
 74
           3
 42
0.00000000001
 43
0.00000000001
 44
0.00000000001
 40
0.0
 40
0.0
 40
0.0
 40
0.0
 40
0.8742373282387781
 40
0.8742373282387781
 40
0.8742373282387781
 40
0.8742373282387781
 10
80.241218901842529
 20
-45.011238219866122
 30
0.0
 10
80.459317884990497
 20
-44.819169360754188
 30
0.0
 10
80.649938751791325
 20
-44.597516516947941
 30
0.0
 10
80.807629730118123
 20
-44.352618977611982
 30
0.0
 11
80.241218901842529
 21
-45.011238219866122
 31
0.0
 11
80.547077317788265
 21
-44.701739353823065
 31
0.0
 11
80.807629730118123
 21
-44.352618977611982
 31
0.0
  0
SPLINE
  5
2E6
100
AcDbEntity
  8
971
  6
CONTINUOUS
 62
           3
100
AcDbSpline
210
0.0
220
0.0
230
1.0
 70
           0
 71
           4
 72
          10
 73
           6
 74
           7
 42
0.00000000001
 43
0.00000000001
 44
0.00000000001
 40
0.0
 40
0.0
 40
0.0
 40
0.0
 40
0.1064204609147037
 40
0.2127344640522629
 40
0.3192745166161783
 40
0.3192745166161783
 40
0.3192745166161783
 40
0.3192745166161783
 10
80.807629730118123
 20
-44.352618977611982
 30
0.0
 10
80.830033485936013
 20
-44.304483381031488
 30
0.0
 10
80.846548119147116
 20
-44.253778477267879
 30
0.0
 10
80.867071463610984
 20
-44.149464242404413
 30
0.0
 10
80.871004009805716
 20
-44.096242036305043
 30
0.0
 10
80.8685207909692
 20
-44.043127294424878
 30
0.0
 11
80.807629730118123
 21
-44.352618977611982
 31
0.0
 11
80.832307589052164
 21
-44.294059021994514
 31
0.0
 11
80.84584572034791
 21
-44.249048328850328
 31
0.0
 11
80.856413252782247
 21
-44.201562956901363
 31
0.0
 11
80.864624616114881
 21
-44.153609947421025
 31
0.0
 11
80.869158047765509
 21
-44.106763443900832
 31
0.0
 11
80.8685207909692
 21
-44.043127294424878
 31
0.0
  0
SPLINE
  5
2E5
100
AcDbEntity
  8
971
  6
CONTINUOUS
 62
           3
100
AcDbSpline
210
0.0
220
0.0
230
1.0
 70
           0
 71
           4
 72
          14
 73
          10
 74
          15
 42
0.00000000001
 43
0.00000000001
 44
0.00000000001
 40
0.0
 40
0.0
 40
0.0
 40
0.0
 40
0.0958307969428314
 40
0.1911963253397079
 40
0.2392064488587226
 40
0.334328292919094
 40
0.3821991754405451
 40
0.4770472651189162
 40
0.5721387546562534
 40
0.5721387546562534
 40
0.5721387546562534
 40
0.5721387546562534
 10
80.8685207909692
 20
-44.043127294424878
 30
0.0
 10
80.868852358712587
 20
-43.995398628743807
 30
0.0
 10
80.860671799306232
 20
-43.947998389451321
 30
0.0
 10
80.8280673385282
 20
-43.858379568081091
 30
0.0
 10
80.803908856919833
 20
-43.816890536678933
 30
0.0
 10
80.742185548500203
 20
-43.744513755766953
 30
0.0
 10
80.705123186245913
 20
-43.714215196436278
 30
0.0
 10
80.622135001229339
 20
-43.668290026177573
 30
0.0
 10
80.576884751807
 20
-43.653037273535958
 30
0.0
 10
80.530038129181122
 20
-43.646222363660833
 30
0.0
 11
80.8685207909692
 21
-44.043127294424878
 31
0.0
 11
80.865686794376003
 21
-43.985755165099498
 31
0.0
 11
80.856160111464945
 21
-43.941795632702714
 31
0.0
 11
80.840832072753216
 21
-43.895068674507257
 31
0.0
 11
80.823833303338631
 21
-43.853368011803546
 31
0.0
 11
80.815599508541354
 21
-43.837604554851723
 31
0.0
 11
80.805108230287999
 21
-43.82178528673316
 31
0.0
 11
80.772595067933381
 21
-43.781045693536832
 31
0.0
 11
80.737504085716679
 21
-43.742525672152595
 31
0.0
 11
80.72358058371762
 21
-43.729719021238971
 31
0.0
 11
80.709342355937082
 21
-43.719144261922906
 31
0.0
 11
80.671002116855476
 21
-43.695962180034442
 31
0.0
 11
80.627464607588465
 21
-43.67368024791103
 31
0.0
 11
80.585846700160175
 21
-43.657629337553125
 31
0.0
 11
80.530038129181122
 21
-43.646222363660833
 31
0.0
  0
SPLINE
  5
2E4
100
AcDbEntity
  8
971
  6
CONTINUOUS
 62
           3
100
AcDbSpline
210
0.0
220
0.0
230
1.0
 70
           0
 71
           4
 72
           8
 73
           4
 74
           3
 42
0.00000000001
 43
0.00000000001
 44
0.00000000001
 40
0.0
 40
0.0
 40
0.0
 40
0.0
 40
1.9305632329355638
 40
1.9305632329355638
 40
1.9305632329355638
 40
1.9305632329355638
 10
79.578960938394431
 20
-45.564777002568107
 30
0.0
 10
80.157541294219328
 20
-45.846659680259307
 30
0.0
 10
80.747780732976395
 20
-46.10352930454043
 30
0.0
 10
81.348070117756123
 20
-46.334685586060303
 30
0.0
 11
79.578960938394431
 21
-45.564777002568107
 31
0.0
 11
80.455374642217222
 21
-45.968753692878451
 31
0.0
 11
81.348070117756123
 21
-46.334685586060303
 31
0.0
  0
SPLINE
  5
2E3
100
AcDbEntity
  8
971
  6
CONTINUOUS
 62
           3
100
AcDbSpline
210
0.0
220
0.0
230
1.0
 70
           0
 71
           4
 72
           8
 73
           4
 74
           3
 42
0.00000000001
 43
0.00000000001
 44
0.00000000001
 40
0.0
 40
0.0
 40
0.0
 40
0.0
 40
1.9144536346577976
 40
1.9144536346577976
 40
1.9144536346577976
 40
1.9144536346577976
 10
79.578960938394431
 20
-46.347143653754472
 30
0.0
 10
80.153080519496626
 20
-46.625824892349492
 30
0.0
 10
80.74393940588223
 20
-46.867985114705029
 30
0.0
 10
81.348070117756123
 20
-47.072203193547843
 30
0.0
 11
79.578960938394431
 21
-46.347143653754472
 31
0.0
 11
80.452261354035898
 21
-46.737597108558241
 31
0.0
 11
81.348070117756123
 21
-47.072203193547843
 31
0.0
  0
SPLINE
  5
2E2
100
AcDbEntity
  8
971
  6
CONTINUOUS
 62
           3
100
AcDbSpline
210
0.0
220
0.0
230
1.0
 70
           0
 71
           4
 72
          10
 73
           6
 74
           7
 42
0.00000000001
 43
0.00000000001
 44
0.00000000001
 40
0.0
 40
0.0
 40
0.0
 40
0.0
 40
0.1974409266018716
 40
0.3947204901733344
 40
0.5925573167908279
 40
0.5925573167908279
 40
0.5925573167908279
 40
0.5925573167908279
 10
75.193088223914089
 20
-44.563968265873697
 30
0.0
 10
75.248934886062017
 20
-44.482868603339668
 30
0.0
 10
75.294144547689228
 20
-44.394825043173668
 30
0.0
 10
75.361039197144322
 20
-44.209233200472468
 30
0.0
 10
75.382443311398021
 20
-44.112464170756802
 30
0.0
 10
75.39127143462602
 20
-44.014130759165482
 30
0.0
 11
75.193088223914089
 21
-44.563968265873697
 31
0.0
 11
75.25606754727464
 21
-44.464368265839347
 31
0.0
 11
75.294000622683313
 21
-44.385885569796123
 31
0.0
 11
75.326826265807227
 21
-44.301820856887105
 31
0.0
 11
75.355192350443872
 21
-44.21613456091287
 31
0.0
 11
75.376121525034208
 21
-44.131301076300623
 31
0.0
 11
75.39127143462602
 21
-44.014130759165482
 31
0.0
  0
SPLINE
  5
2E1
100
AcDbEntity
  8
971
  6
CONTINUOUS
 62
           3
100
AcDbSpline
210
0.0
220
0.0
230
1.0
 70
           0
 71
           4
 72
          10
 73
           6
 74
           7
 42
0.00000000001
 43
0.00000000001
 44
0.00000000001
 40
0.0
 40
0.0
 40
0.0
 40
0.0
 40
0.2218875293007976
 40
0.4436420638578836
 40
0.6662437959996931
 40
0.6662437959996931
 40
0.6662437959996931
 40
0.6662437959996931
 10
74.720801746636226
 20
-45.020010176231352
 30
0.0
 10
74.817794725358425
 20
-44.966768660169208
 30
0.0
 10
74.907346524512917
 20
-44.90077324542365
 30
0.0
 10
75.066870111099234
 20
-44.746736564989192
 30
0.0
 10
75.136135661327984
 20
-44.659377245065819
 30
0.0
 10
75.193088223914089
 20
-44.563968265873697
 30
0.0
 11
74.720801746636226
 21
-45.020010176231352
 31
0.0
 11
74.834185261972053
 21
-44.951650434263804
 31
0.0
 11
74.911544029583538
 21
-44.891604135079191
 31
0.0
 11
74.986387633056324
 21
-44.823173860409241
 31
0.0
 11
75.057420148336689
 21
-44.750761942280505
 31
0.0
 11
75.120403240643924
 21
-44.675285311724103
 31
0.0
 11
75.193088223914089
 21
-44.563968265873697
 31
0.0
  0
SPLINE
  5
2E0
100
AcDbEntity
  8
971
  6
CONTINUOUS
 62
           3
100
AcDbSpline
210
0.0
220
0.0
230
1.0
 70
           0
 71
           4
 72
           8
 73
           4
 74
           3
 42
0.00000000001
 43
0.00000000001
 44
0.00000000001
 40
0.0
 40
0.0
 40
0.0
 40
0.0
 40
0.6979670134929155
 40
0.6979670134929155
 40
0.6979670134929155
 40
0.6979670134929155
 10
74.061382891569423
 20
-45.222196244862751
 30
0.0
 10
74.291816040913233
 20
-45.197092157451408
 30
0.0
 10
74.515512064082628
 20
-45.128504158874243
 30
0.0
 10
74.720801746636226
 20
-45.020010176231352
 30
0.0
 11
74.061382891569423
 21
-45.222196244862751
 31
0.0
 11
74.400521119149147
 21
-45.152374421258884
 31
0.0
 11
74.720801746636226
 21
-45.020010176231352
 31
0.0
  0
SPLINE
  5
2DF
100
AcDbEntity
  8
971
  6
CONTINUOUS
 62
           3
100
AcDbSpline
210
0.0
220
0.0
230
1.0
 70
           0
 71
           4
 72
           8
 73
           4
 74
           3
 42
0.00000000001
 43
0.00000000001
 44
0.00000000001
 40
0.0
 40
0.0
 40
0.0
 40
0.0
 40
1.202410018332186
 40
1.202410018332186
 40
1.202410018332186
 40
1.202410018332186
 10
74.004946142712726
 20
-45.920112600286657
 30
0.0
 10
74.403585000856737
 20
-45.899894724856573
 30
0.0
 10
74.793961378585635
 20
-45.797975970766061
 30
0.0
 10
75.152245839872336
 20
-45.620577683795773
 30
0.0
 11
74.004946142712726
 21
-45.920112600286657
 31
0.0
 11
74.593728890114022
 21
-45.829287796368789
 31
0.0
 11
75.152245839872336
 21
-45.620577683795773
 31
0.0
  0
SPLINE
  5
2DE
100
AcDbEntity
  8
971
  6
CONTINUOUS
 62
           3
100
AcDbSpline
210
0.0
220
0.0
230
1.0
 70
           0
 71
           4
 72
          10
 73
           6
 74
           7
 42
0.00000000001
 43
0.00000000001
 44
0.00000000001
 40
0.0
 40
0.0
 40
0.0
 40
0.0
 40
0.4903110225505133
 40
0.9795434067659999
 40
1.4720138644753904
 40
1.4720138644753904
 40
1.4720138644753904
 40
1.4720138644753904
 10
75.152245839872336
 20
-45.620577683795773
 30
0.0
 10
75.369089273579192
 20
-45.508974100164913
 30
0.0
 10
75.562832003675823
 20
-45.356681507223563
 30
0.0
 10
75.883335979522627
 20
-44.987052602466967
 30
0.0
 10
76.007157322996392
 20
-44.773106803531789
 30
0.0
 10
76.087907728818919
 20
-44.54150314713695
 30
0.0
 11
75.152245839872336
 21
-45.620577683795773
 31
0.0
 11
75.403206926360298
 21
-45.472346915757171
 31
0.0
 11
75.567939820492114
 21
-45.333043479458446
 31
0.0
 11
75.720666330755066
 21
-45.170228200291547
 31
0.0
 11
75.860297407954164
 21
-44.995953063908132
 31
0.0
 11
75.975600554545281
 21
-44.812259282124202
 31
0.0
 11
76.087907728818919
 21
-44.54150314713695
 31
0.0
  0
SPLINE
  5
2DD
100
AcDbEntity
  8
971
  6
CONTINUOUS
 62
           3
100
AcDbSpline
210
0.0
220
0.0
230
1.0
 70
           0
 71
           4
 72
           8
 73
           4
 74
           3
 42
0.00000000001
 43
0.00000000001
 44
0.00000000001
 40
0.0
 40
0.0
 40
0.0
 40
0.0
 40
0.9225467776806402
 40
0.9225467776806402
 40
0.9225467776806402
 40
0.9225467776806402
 10
76.087907728818919
 20
-44.54150314713695
 30
0.0
 10
76.196038906543521
 20
-44.254734316234867
 30
0.0
 10
76.251190998083615
 20
-43.950422950025597
 30
0.0
 10
76.250635627195237
 20
-43.643623344351433
 30
0.0
 11
76.087907728818919
 21
-44.54150314713695
 31
0.0
 11
76.210029133736953
 21
-44.100074786283727
 31
0.0
 11
76.250635627195237
 21
-43.643623344351433
 31
0.0
  0
SPLINE
  5
2DC
100
AcDbEntity
  8
971
  6
CONTINUOUS
 62
           3
100
AcDbSpline
210
0.0
220
0.0
230
1.0
 70
           0
 71
           4
 72
          14
 73
          10
 74
          15
 42
0.00000000001
 43
0.00000000001
 44
0.00000000001
 40
0.0
 40
0.0
 40
0.0
 40
0.0
 40
0.0853401972541089
 40
0.1702409822950548
 40
0.2129917594539677
 40
0.2976628627587919
 40
0.3402862186413309
 40
0.424714853427261
 40
0.5093860809928528
 40
0.5093860809928528
 40
0.5093860809928528
 40
0.5093860809928528
 10
76.250635627195237
 20
-43.643623344351433
 30
0.0
 10
76.249739918326298
 20
-43.601132326394442
 30
0.0
 10
76.241134452681223
 20
-43.559165801050639
 30
0.0
 10
76.209356003288832
 20
-43.480436686646982
 30
0.0
 10
76.186451557416689
 20
-43.444339383326913
 30
0.0
 10
76.128879908123423
 20
-43.382253145459657
 30
0.0
 10
76.094699203217516
 20
-43.356788859119277
 30
0.0
 10
76.01893213854683
 20
-43.31953907679771
 30
0.0
 10
75.977986034271595
 20
-43.308068353174733
 30
0.0
 10
75.93600431952089
 20
-43.304319634131772
 30
0.0
 11
76.250635627195237
 21
-43.643623344351433
 31
0.0
 11
76.246628190213983
 21
-43.592636915319822
 31
0.0
 11
76.236891900621188
 21
-43.553790288742405
 31
0.0
 11
76.221837612493715
 21
-43.512687369282574
 31
0.0
 11
76.205400703171989
 21
-43.476128766566603
 31
0.0
 11
76.197551745263183
 21
-43.462375968011621
 31
0.0
 11
76.187664908017794
 21
-43.448667913241671
 31
0.0
 11
76.157268690715895
 21
-43.413624543574066
 31
0.0
 11
76.124619642880418
 21
-43.380690419634476
 31
0.0
 11
76.11173489716704
 21
-43.369843729205442
 31
0.0
 11
76.098639633228103
 21
-43.361020886540473
 31
0.0
 11
76.063571521026105
 21
-43.342042074523889
 31
0.0
 11
76.023896878462892
 21
-43.324138671317684
 31
0.0
 11
75.986165584089619
 21
-43.311762399249737
 31
0.0
 11
75.93600431952089
 21
-43.304319634131772
 31
0.0
  0
SPLINE
  5
2DB
100
AcDbEntity
  8
971
  6
CONTINUOUS
 62
           3
100
AcDbSpline
210
0.0
220
0.0
230
1.0
 70
           0
 71
           4
 72
          10
 73
           6
 74
           7
 42
0.00000000001
 43
0.00000000001
 44
0.00000000001
 40
0.0
 40
0.0
 40
0.0
 40
0.0
 40
0.3060796773135421
 40
0.6119286824711954
 40
0.9183960306191139
 40
0.9183960306191139
 40
0.9183960306191139
 40
0.9183960306191139
 10
73.032154813728795
 20
-46.343205669830233
 30
0.0
 10
73.100210583209133
 20
-46.206466923763813
 30
0.0
 10
73.15255708232533
 20
-46.062337337813872
 30
0.0
 10
73.223796174367834
 20
-45.764900612238691
 30
0.0
 10
73.242455760956688
 20
-45.612566318277871
 30
0.0
 10
73.243792621942731
 20
-45.4595776661819
 30
0.0
 11
73.032154813728795
 21
-46.343205669830233
 31
0.0
 11
73.107915451197059
 21
-46.176811364255677
 31
0.0
 11
73.151355949175695
 21
-46.048759577020661
 31
0.0
 11
73.187109871068571
 21
-45.913427651095319
 31
0.0
 11
73.216553463048697
 21
-45.776571122039492
 31
0.0
 11
73.235882875748359
 21
-45.642534861157984
 31
0.0
 11
73.243792621942731
 21
-45.4595776661819
 31
0.0
  0
SPLINE
  5
2DA
100
AcDbEntity
  8
971
  6
CONTINUOUS
 62
           3
100
AcDbSpline
210
0.0
220
0.0
230
1.0
 70
           0
 71
           4
 72
          10
 73
           6
 74
           7
 42
0.00000000001
 43
0.00000000001
 44
0.00000000001
 40
0.0
 40
0.0
 40
0.0
 40
0.0
 40
0.2673045637254505
 40
0.5342941238517713
 40
0.8025992325166222
 40
0.8025992325166222
 40
0.8025992325166222
 40
0.8025992325166222
 10
72.47403944377092
 20
-46.897205505383567
 30
0.0
 10
72.592868267441617
 20
-46.837091978119886
 30
0.0
 10
72.701630677413192
 20
-46.758586276967911
 30
0.0
 10
72.89111815208949
 20
-46.570496080101499
 30
0.0
 10
72.970675279691733
 20
-46.462070909137282
 30
0.0
 10
73.032154813728795
 20
-46.343205669830233
 30
0.0
 11
72.47403944377092
 21
-46.897205505383567
 31
0.0
 11
72.612566731116232
 21
-46.818597363268289
 31
0.0
 11
72.706045001028087
 21
-46.746849510639429
 31
0.0
 11
72.795342800105644
 21
-46.663729871282762
 31
0.0
 11
72.879159574086898
 21
-46.575038951305366
 31
0.0
 11
72.951967136662958
 21
-46.481713441687006
 31
0.0
 11
73.032154813728795
 21
-46.343205669830233
 31
0.0
  0
SPLINE
  5
2D9
100
AcDbEntity
  8
971
  6
CONTINUOUS
 62
           3
100
AcDbSpline
210
0.0
220
0.0
230
1.0
 70
           0
 71
           4
 72
           8
 73
           4
 74
           3
 42
0.00000000001
 43
0.00000000001
 44
0.00000000001
 40
0.0
 40
0.0
 40
0.0
 40
0.0
 40
0.9311833866416508
 40
0.9311833866416508
 40
0.9311833866416508
 40
0.9311833866416508
 10
71.593671332901039
 20
-47.185449197833513
 30
0.0
 10
71.897830402766516
 20
-47.126496848911223
 30
0.0
 10
72.193550574749423
 20
-47.029674311552412
 30
0.0
 10
72.47403944377092
 20
-46.897205505383567
 30
0.0
 11
71.593671332901039
 21
-47.185449197833513
 31
0.0
 11
72.042731713652458
 21
-47.068896023075986
 31
0.0
 11
72.47403944377092
 21
-46.897205505383567
 31
0.0
  0
SPLINE
  5
2D8
100
AcDbEntity
  8
971
  6
CONTINUOUS
 62
           3
100
AcDbSpline
210
0.0
220
0.0
230
1.0
 70
           0
 71
           4
 72
           8
 73
           4
 74
           3
 42
0.00000000001
 43
0.00000000001
 44
0.00000000001
 40
0.0
 40
0.0
 40
0.0
 40
0.0
 40
1.0103684554629562
 40
1.0103684554629562
 40
1.0103684554629562
 40
1.0103684554629562
 10
71.593671332901039
 20
-47.915203216155597
 30
0.0
 10
71.925440871868517
 20
-47.859366816125252
 30
0.0
 10
72.251450611875015
 20
-47.773046212063733
 30
0.0
 10
72.567626165074927
 20
-47.657320217199583
 30
0.0
 11
71.593671332901039
 21
-47.915203216155597
 31
0.0
 11
72.086496493650813
 21
-47.808720314740263
 31
0.0
 11
72.567626165074927
 21
-47.657320217199583
 31
0.0
  0
SPLINE
  5
2D7
100
AcDbEntity
  8
971
  6
CONTINUOUS
 62
           3
100
AcDbSpline
210
0.0
220
0.0
230
1.0
 70
           0
 71
           4
 72
          10
 73
           6
 74
           7
 42
0.00000000001
 43
0.00000000001
 44
0.00000000001
 40
0.0
 40
0.0
 40
0.0
 40
0.0
 40
0.3868680682840001
 40
0.7734528515802088
 40
1.1614021703194151
 40
1.1614021703194151
 40
1.1614021703194151
 40
1.1614021703194151
 10
72.567626165074927
 20
-47.657320217199583
 30
0.0
 10
72.751059617549828
 20
-47.597377470915767
 30
0.0
 10
72.926238667025217
 20
-47.514279930533647
 30
0.0
 10
73.251746790747035
 20
-47.305731959871551
 30
0.0
 10
73.400769340735991
 20
-47.181118599275841
 30
0.0
 10
73.532512516502123
 20
-47.039132602681072
 30
0.0
 11
72.567626165074927
 21
-47.657320217199583
 31
0.0
 11
72.784194825185736
 21
-47.577148168032963
 31
0.0
 11
72.936709915231205
 21
-47.50029226512406
 31
0.0
 11
73.08802088132677
 21
-47.40881140625995
 31
0.0
 11
73.23440989367262
 21
-47.309580847319594
 31
0.0
 11
73.368451352361802
 21
-47.202834299116084
 31
0.0
 11
73.532512516502123
 21
-47.039132602681072
 31
0.0
  0
SPLINE
  5
2D6
100
AcDbEntity
  8
971
  6
CONTINUOUS
 62
           3
100
AcDbSpline
210
0.0
220
0.0
230
1.0
 70
           0
 71
           4
 72
           8
 73
           4
 74
           3
 42
0.00000000001
 43
0.00000000001
 44
0.00000000001
 40
0.0
 40
0.0
 40
0.0
 40
0.0
 40
0.7873183703797683
 40
0.7873183703797683
 40
0.7873183703797683
 40
0.7873183703797683
 10
73.532512516502123
 20
-47.039132602681072
 30
0.0
 10
73.699814188296813
 20
-46.838572608090253
 30
0.0
 10
73.825113245428184
 20
-46.605926320212482
 30
0.0
 10
73.900855120217983
 20
-46.355220517598461
 30
0.0
 11
73.532512516502123
 21
-47.039132602681072
 31
0.0
 11
73.75101874223688
 21
-46.715981238148458
 31
0.0
 11
73.900855120217983
 21
-46.355220517598461
 31
0.0
  0
SPLINE
  5
2D5
100
AcDbEntity
  8
971
  6
CONTINUOUS
 62
           3
100
AcDbSpline
210
0.0
220
0.0
230
1.0
 70
           0
 71
           4
 72
           8
 73
           4
 74
           3
 42
0.00000000001
 43
0.00000000001
 44
0.00000000001
 40
0.0
 40
0.0
 40
0.0
 40
0.0
 40
0.4474191311599288
 40
0.4474191311599288
 40
0.4474191311599288
 40
0.4474191311599288
 10
74.004946142712726
 20
-45.920112600286657
 30
0.0
 10
73.968077058336036
 20
-46.064611397403837
 30
0.0
 10
73.933376086853428
 20
-46.209663939580061
 30
0.0
 10
73.900855120217983
 20
-46.355220517598461
 30
0.0
 11
74.004946142712726
 21
-45.920112600286657
 31
0.0
 11
73.951270087312366
 21
-46.137269891104594
 31
0.0
 11
73.900855120217983
 21
-46.355220517598461
 31
0.0
  0
SPLINE
  5
2D4
100
AcDbEntity
  8
971
  6
CONTINUOUS
 62
           3
100
AcDbSpline
210
0.0
220
0.0
230
1.0
 70
           0
 71
           4
 72
           8
 73
           4
 74
           3
 42
0.00000000001
 43
0.00000000001
 44
0.00000000001
 40
0.0
 40
0.0
 40
0.0
 40
0.0
 40
0.5496797398834201
 40
0.5496797398834201
 40
0.5496797398834201
 40
0.5496797398834201
 10
84.790479987782902
 20
-44.541503147136993
 30
0.0
 10
84.853991233622338
 20
-44.369796074590987
 30
0.0
 10
84.904578223797188
 20
-44.193505927991033
 30
0.0
 10
84.941811087808702
 20
-44.014130759165532
 30
0.0
 11
84.790479987782902
 21
-44.541503147136993
 31
0.0
 11
84.875999930981266
 21
-44.280692489256076
 31
0.0
 11
84.941811087808702
 21
-44.014130759165532
 31
0.0
  0
SPLINE
  5
2D3
100
AcDbEntity
  8
971
  6
CONTINUOUS
 62
           3
100
AcDbSpline
210
0.0
220
0.0
230
1.0
 70
           0
 71
           4
 72
           8
 73
           4
 74
           3
 42
0.00000000001
 43
0.00000000001
 44
0.00000000001
 40
0.0
 40
0.0
 40
0.0
 40
0.0
 40
1.4524935926300739
 40
1.4524935926300739
 40
1.4524935926300739
 40
1.4524935926300739
 10
84.012397450910925
 20
-45.741588719640113
 30
0.0
 10
84.354683208738919
 20
-45.402940778595593
 30
0.0
 10
84.620136792247735
 20
-44.993515042067692
 30
0.0
 10
84.790479987782902
 20
-44.541503147136993
 30
0.0
 11
84.012397450910925
 21
-45.741588719640113
 31
0.0
 11
84.465917180206716
 21
-45.184057416095875
 31
0.0
 11
84.790479987782902
 21
-44.541503147136993
 31
0.0
  0
SPLINE
  5
2D2
100
AcDbEntity
  8
971
  6
CONTINUOUS
 62
           3
100
AcDbSpline
210
0.0
220
0.0
230
1.0
 70
           0
 71
           4
 72
           8
 73
           4
 74
           3
 42
0.00000000001
 43
0.00000000001
 44
0.00000000001
 40
0.0
 40
0.0
 40
0.0
 40
0.0
 40
1.5093400379973181
 40
1.5093400379973181
 40
1.5093400379973181
 40
1.5093400379973181
 10
82.796447310335537
 20
-46.615533953104332
 30
0.0
 10
83.243852628369694
 20
-46.388896919654307
 30
0.0
 10
83.653977293768918
 20
-46.094126201274108
 30
0.0
 10
84.012397450910925
 20
-45.741588719640113
 30
0.0
 11
82.796447310335537
 21
-46.615533953104332
 31
0.0
 11
83.437791815957794
 21
-46.225774004441213
 31
0.0
 11
84.012397450910925
 21
-45.741588719640113
 31
0.0
  0
SPLINE
  5
2D1
100
AcDbEntity
  8
971
  6
CONTINUOUS
 62
           3
100
AcDbSpline
210
0.0
220
0.0
230
1.0
 70
           0
 71
           4
 72
           8
 73
           4
 74
           3
 42
0.00000000001
 43
0.00000000001
 44
0.00000000001
 40
0.0
 40
0.0
 40
0.0
 40
0.0
 40
0.9522130492481313
 40
0.9522130492481313
 40
0.9522130492481313
 40
0.9522130492481313
 10
85.843297827043301
 20
-47.344544598014977
 30
0.0
 10
86.111523416796018
 20
-47.514318776237801
 30
0.0
 10
86.390340655154404
 20
-47.666449647171092
 30
0.0
 10
86.678009197380703
 20
-47.799987627632177
 30
0.0
 11
85.843297827043301
 21
-47.344544598014977
 31
0.0
 11
86.253362405034409
 21
-47.585854686984227
 31
0.0
 11
86.678009197380703
 21
-47.799987627632177
 31
0.0
  0
SPLINE
  5
2D0
100
AcDbEntity
  8
971
  6
CONTINUOUS
 62
           3
100
AcDbSpline
210
0.0
220
0.0
230
1.0
 70
           0
 71
           4
 72
           8
 73
           4
 74
           3
 42
0.00000000001
 43
0.00000000001
 44
0.00000000001
 40
0.0
 40
0.0
 40
0.0
 40
0.0
 40
1.0540538130363037
 40
1.0540538130363037
 40
1.0540538130363037
 40
1.0540538130363037
 10
85.786546912346438
 20
-46.436043057259688
 30
0.0
 10
86.073135074899113
 20
-46.639403923477687
 30
0.0
 10
86.370751697173688
 20
-46.82648194313451
 30
0.0
 10
86.678009197380703
 20
-46.996404899982792
 30
0.0
 11
85.786546912346438
 21
-46.436043057259688
 31
0.0
 11
86.224527053243193
 21
-46.728763194634887
 31
0.0
 11
86.678009197380703
 21
-46.996404899982792
 31
0.0
  0
SPLINE
  5
2CF
100
AcDbEntity
  8
971
  6
CONTINUOUS
 62
           3
100
AcDbSpline
210
0.0
220
0.0
230
1.0
 70
           0
 71
           4
 72
           8
 73
           4
 74
           3
 42
0.00000000001
 43
0.00000000001
 44
0.00000000001
 40
0.0
 40
0.0
 40
0.0
 40
0.0
 40
0.9926942111078583
 40
0.9926942111078583
 40
0.9926942111078583
 40
0.9926942111078583
 10
85.006221835260106
 20
-45.823221807984098
 30
0.0
 10
85.2584034588983
 20
-46.037557416602937
 30
0.0
 10
85.518706111968498
 20
-46.241983753431782
 30
0.0
 10
85.786546912346438
 20
-46.436043057259688
 30
0.0
 11
85.006221835260106
 21
-45.823221807984098
 31
0.0
 11
85.390512182525853
 21
-46.137236046918481
 31
0.0
 11
85.786546912346438
 21
-46.436043057259688
 31
0.0
  0
SPLINE
  5
2CE
100
AcDbEntity
  8
971
  6
CONTINUOUS
 62
           3
100
AcDbSpline
210
0.0
220
0.0
230
1.0
 70
           0
 71
           4
 72
           8
 73
           4
 74
           3
 42
0.00000000001
 43
0.00000000001
 44
0.00000000001
 40
0.0
 40
0.0
 40
0.0
 40
0.0
 40
1.6581153661196302
 40
1.6581153661196302
 40
1.6581153661196302
 40
1.6581153661196302
 10
84.506969338787684
 20
-46.371622598333289
 30
0.0
 10
84.92042040309903
 20
-46.738420914122237
 30
0.0
 10
85.367927405558106
 20
-47.064231080956631
 30
0.0
 10
85.843297827043301
 20
-47.344544598014977
 30
0.0
 11
84.506969338787684
 21
-46.371622598333289
 31
0.0
 11
85.151913823975278
 21
-46.890515397698096
 31
0.0
 11
85.843297827043301
 21
-47.344544598014977
 31
0.0
  0
SPLINE
  5
2CD
100
AcDbEntity
  8
971
  6
CONTINUOUS
 62
           3
100
AcDbSpline
210
0.0
220
0.0
230
1.0
 70
           0
 71
           4
 72
           8
 73
           4
 74
           3
 42
0.00000000001
 43
0.00000000001
 44
0.00000000001
 40
0.0
 40
0.0
 40
0.0
 40
0.0
 40
1.30926772822202
 40
1.30926772822202
 40
1.30926772822202
 40
1.30926772822202
 10
83.443207059642333
 20
-47.12278437940526
 30
0.0
 10
83.827867414486292
 20
-46.918767144954103
 30
0.0
 10
84.185308540624789
 20
-46.666364781942761
 30
0.0
 10
84.506969338787684
 20
-46.371622598333289
 30
0.0
 11
83.443207059642333
 21
-47.12278437940526
 31
0.0
 11
83.998713032970414
 21
-46.781225344803644
 31
0.0
 11
84.506969338787684
 21
-46.371622598333289
 31
0.0
  0
SPLINE
  5
2CC
100
AcDbEntity
  8
971
  6
CONTINUOUS
 62
           3
100
AcDbSpline
210
0.0
220
0.0
230
1.0
 70
           0
 71
           4
 72
           8
 73
           4
 74
           3
 42
0.00000000001
 43
0.00000000001
 44
0.00000000001
 40
0.0
 40
0.0
 40
0.0
 40
0.0
 40
1.7197541083032291
 40
1.7197541083032291
 40
1.7197541083032291
 40
1.7197541083032291
 10
81.863456556124817
 20
-47.790315673313309
 30
0.0
 10
82.408971181210205
 20
-47.616428291489967
 30
0.0
 10
82.937720978836609
 20
-47.393002481036177
 30
0.0
 10
83.443207059642333
 20
-47.12278437940526
 30
0.0
 11
81.863456556124817
 21
-47.790315673313309
 31
0.0
 11
82.668342511988442
 21
-47.492674046287121
 31
0.0
 11
83.443207059642333
 21
-47.12278437940526
 31
0.0
  0
SPLINE
  5
2CB
100
AcDbEntity
  8
971
  6
CONTINUOUS
 62
           3
100
AcDbSpline
210
0.0
220
0.0
230
1.0
 70
           0
 71
           4
 72
           8
 73
           4
 74
           3
 42
0.00000000001
 43
0.00000000001
 44
0.00000000001
 40
0.0
 40
0.0
 40
0.0
 40
0.0
 40
1.0231543725308696
 40
1.0231543725308696
 40
1.0231543725308696
 40
1.0231543725308696
 10
81.863456556124987
 20
-47.035078122484506
 30
0.0
 10
82.177528595208315
 20
-46.902290451345493
 30
0.0
 10
82.488603932446694
 20
-46.762407131615589
 30
0.0
 10
82.796447310335537
 20
-46.615533953104332
 30
0.0
 11
81.863456556124987
 21
-47.035078122484506
 31
0.0
 11
82.332287681178201
 21
-46.830588103059007
 31
0.0
 11
82.796447310335537
 21
-46.615533953104332
 31
0.0
  0
SPLINE
  5
2CA
100
AcDbEntity
  8
971
  6
CONTINUOUS
 62
           3
100
AcDbSpline
210
0.0
220
0.0
230
1.0
 70
           0
 71
           4
 72
           8
 73
           4
 74
           3
 42
0.00000000001
 43
0.00000000001
 44
0.00000000001
 40
0.0
 40
0.0
 40
0.0
 40
0.0
 40
1.649507381814534
 40
1.649507381814534
 40
1.649507381814534
 40
1.649507381814534
 10
85.006221835260106
 20
-45.823221807984098
 30
0.0
 10
85.326401466274916
 20
-45.378751214347993
 30
0.0
 10
85.566592191013086
 20
-44.880970793182613
 30
0.0
 10
85.715822182341839
 20
-44.352618977611961
 30
0.0
 11
85.006221835260106
 21
-45.823221807984098
 31
0.0
 11
85.425128123683223
 21
-45.11937585102347
 31
0.0
 11
85.715822182341839
 21
-44.352618977611961
 31
0.0
  0
SPLINE
  5
2C9
100
AcDbEntity
  8
971
  6
CONTINUOUS
 62
           3
100
AcDbSpline
210
0.0
220
0.0
230
1.0
 70
           0
 71
           4
 72
           8
 73
           4
 74
           3
 42
0.00000000001
 43
0.00000000001
 44
0.00000000001
 40
0.0
 40
0.0
 40
0.0
 40
0.0
 40
0.5849598412967689
 40
0.5849598412967689
 40
0.5849598412967689
 40
0.5849598412967689
 10
85.715822182341839
 20
-44.352618977611961
 30
0.0
 10
85.766262192608707
 20
-44.164351381732267
 30
0.0
 10
85.807008354195403
 20
-43.973578042406601
 30
0.0
 10
85.83789725193239
 20
-43.781064068697823
 30
0.0
 11
85.715822182341839
 21
-44.352618977611961
 31
0.0
 11
85.784191384335827
 21
-44.068433914840803
 31
0.0
 11
85.83789725193239
 21
-43.781064068697823
 31
0.0
  0
SPLINE
  5
2C8
100
AcDbEntity
  8
971
  6
CONTINUOUS
 62
           3
100
AcDbSpline
210
0.0
220
0.0
230
1.0
 70
           0
 71
           4
 72
           8
 73
           4
 74
           3
 42
0.00000000001
 43
0.00000000001
 44
0.00000000001
 40
0.0
 40
0.0
 40
0.0
 40
0.0
 40
0.1176923349179831
 40
0.1176923349179831
 40
0.1176923349179831
 40
0.1176923349179831
 10
85.83789725193239
 20
-43.781064068697823
 30
0.0
 10
85.840344230148418
 20
-43.735293721553163
 30
0.0
 10
85.841415555528982
 20
-43.709295959149557
 30
0.0
 10
85.841109753763789
 20
-43.663460181904512
 30
0.0
 11
85.83789725193239
 21
-43.781064068697823
 31
0.0
 11
85.840535795341054
 21
-43.722286661588811
 31
0.0
 11
85.841109753763789
 21
-43.663460181904512
 31
0.0
  0
SPLINE
  5
2C7
100
AcDbEntity
  8
971
  6
CONTINUOUS
 62
           3
100
AcDbSpline
210
0.0
220
0.0
230
1.0
 70
           0
 71
           4
 72
          14
 73
          10
 74
          15
 42
0.00000000001
 43
0.00000000001
 44
0.00000000001
 40
0.0
 40
0.0
 40
0.0
 40
0.0
 40
0.0779893645523411
 40
0.1556104268437354
 40
0.1947062258786
 40
0.2721428115195624
 40
0.3111262982616584
 40
0.3883313448616804
 40
0.4657319350414312
 40
0.4657319350414312
 40
0.4657319350414312
 40
0.4657319350414312
 10
85.841109753763789
 20
-43.663460181904512
 30
0.0
 10
85.844547132830627
 20
-43.624780489225643
 30
0.0
 10
85.840906319777531
 20
-43.585792880696033
 30
0.0
 10
85.819831184288518
 20
-43.511087673545767
 30
0.0
 10
85.802576173490792
 20
-43.476005682374442
 30
0.0
 10
85.756351049111487
 20
-43.413879498910077
 30
0.0
 10
85.727774228508537
 20
-43.387363889115129
 30
0.0
 10
85.662540283094216
 20
-43.34607040795656
 30
0.0
 10
85.626438182266014
 20
-43.331643870124367
 30
0.0
 10
85.588650076820016
 20
-43.324156471684859
 30
0.0
 11
85.841109753763789
 21
-43.663460181904512
 31
0.0
 11
85.842562477989219
 21
-43.616752504101143
 31
0.0
 11
85.837581418483396
 21
-43.580496743469396
 31
0.0
 11
85.827978161212044
 21
-43.541644363026506
 31
0.0
 11
85.816660957671445
 21
-43.506784740876682
 31
0.0
 11
85.810885562514457
 21
-43.493503575678709
 31
0.0
 11
85.803250654119068
 21
-43.480063797204238
 31
0.0
 11
85.77907018269093
 21
-43.445203186504273
 31
0.0
 11
85.752629289823986
 21
-43.412040752043922
 31
0.0
 11
85.741980102669771
 21
-43.400909383637149
 31
0.0
 11
85.730938216100583
 21
-43.391599275948678
 31
0.0
 11
85.700914133163778
 21
-43.370903013610935
 31
0.0
 11
85.666594950306504
 21
-43.350738288859731
 31
0.0
 11
85.633511970537469
 21
-43.335803144729823
 31
0.0
 11
85.588650076820016
 21
-43.324156471684859
 31
0.0
  0
SPLINE
  5
2C6
100
AcDbEntity
  8
971
  6
CONTINUOUS
 62
           3
100
AcDbSpline
210
0.0
220
0.0
230
1.0
 70
           0
 71
           4
 72
           8
 73
           4
 74
           3
 42
0.00000000001
 43
0.00000000001
 44
0.00000000001
 40
0.0
 40
0.0
 40
0.0
 40
0.0
 40
1.9300574641439763
 40
1.9300574641439763
 40
1.9300574641439763
 40
1.9300574641439763
 10
88.032880867686316
 20
-45.419340278558792
 30
0.0
 10
88.646274030241301
 20
-45.610976170552718
 30
0.0
 10
89.282680739039535
 20
-45.717526649908272
 30
0.0
 10
89.924574414391515
 20
-45.736057326648748
 30
0.0
 11
88.032880867686316
 21
-45.419340278558792
 31
0.0
 11
88.968039948740042
 21
-45.642613258323813
 31
0.0
 11
89.924574414391515
 21
-45.736057326648748
 31
0.0
  0
SPLINE
  5
2C5
100
AcDbEntity
  8
971
  6
CONTINUOUS
 62
           3
100
AcDbSpline
210
0.0
220
0.0
230
1.0
 70
           0
 71
           4
 72
          14
 73
          10
 74
          15
 42
0.00000000001
 43
0.00000000001
 44
0.00000000001
 40
0.0
 40
0.0
 40
0.0
 40
0.0
 40
0.0710027733851213
 40
0.141861170053626
 40
0.1775763702296495
 40
0.2486221210744605
 40
0.2844340003496171
 40
0.3556557959003521
 40
0.4271951593796485
 40
0.4271951593796485
 40
0.4271951593796485
 40
0.4271951593796485
 10
90.932028065702895
 20
-45.736057326648712
 30
0.0
 10
90.966886389211908
 20
-45.730066861660049
 30
0.0
 10
91.000522422012835
 20
-45.718304178750138
 30
0.0
 10
91.062626486358823
 20
-45.684186770141913
 30
0.0
 10
91.09066720762749
 20
-45.662066791065378
 30
0.0
 10
91.138455645963717
 20
-45.609495279060418
 30
0.0
 10
91.157874552171592
 20
-45.579405467181509
 30
0.0
 10
91.186189441636685
 20
-45.514054023463331
 30
0.0
 10
91.194890602810091
 20
-45.479242045664947
 30
0.0
 10
91.197783225521306
 20
-45.443703128411833
 30
0.0
 11
90.932028065702895
 21
-45.736057326648712
 31
0.0
 11
90.973551364048419
 21
-45.726650953363134
 31
0.0
 11
91.004559113488384
 21
-45.714411111557126
 31
0.0
 11
91.037113440151188
 21
-45.697770493362817
 31
0.0
 11
91.065878146518273
 21
-45.680619190654546
 31
0.0
 11
91.076609830953529
 21
-45.672874863541566
 31
0.0
 11
91.087208151819596
 21
-45.663549037113008
 31
0.0
 11
91.114257895842968
 21
-45.635535202846121
 31
0.0
 11
91.139583670636085
 21
-45.605939428539635
 31
0.0
 11
91.147890400928972
 21
-45.594469887336771
 31
0.0
 11
91.154606533472233
 21
-45.583028193403671
 31
0.0
 11
91.169059274236162
 21
-45.552642617115232
 31
0.0
 11
91.182670737860661
 21
-45.518509268268716
 31
0.0
 11
91.192089600659159
 21
-45.486249849334122
 31
0.0
 11
91.197783225521306
 21
-45.443703128411833
 31
0.0
  0
SPLINE
  5
2C4
100
AcDbEntity
  8
971
  6
CONTINUOUS
 62
           3
100
AcDbSpline
210
0.0
220
0.0
230
1.0
 70
           0
 71
           4
 72
           8
 73
           4
 74
           3
 42
0.00000000001
 43
0.00000000001
 44
0.00000000001
 40
0.0
 40
0.0
 40
0.0
 40
0.0
 40
1.110432525957509
 40
1.110432525957509
 40
1.110432525957509
 40
1.110432525957509
 10
88.975035669365894
 20
-44.863733823929238
 30
0.0
 10
89.337433049550413
 20
-44.938747503307617
 30
0.0
 10
89.704163125789393
 20
-44.990627393113471
 30
0.0
 10
90.073040044242219
 20
-45.019064269032377
 30
0.0
 11
88.975035669365894
 21
-44.863733823929238
 31
0.0
 11
89.521608029953441
 21
-44.958865347778108
 31
0.0
 11
90.073040044242219
 21
-45.019064269032377
 31
0.0
  0
SPLINE
  5
2C3
100
AcDbEntity
  8
971
  6
CONTINUOUS
 62
           3
100
AcDbSpline
210
0.0
220
0.0
230
1.0
 70
           0
 71
           4
 72
           8
 73
           4
 74
           3
 42
0.00000000001
 43
0.00000000001
 44
0.00000000001
 40
0.0
 40
0.0
 40
0.0
 40
0.0
 40
0.9842772017119833
 40
0.9842772017119833
 40
0.9842772017119833
 40
0.9842772017119833
 10
88.032880867686316
 20
-44.586922949254429
 30
0.0
 10
88.338772989858199
 20
-44.705391898352978
 30
0.0
 10
88.653912394822697
 20
-44.797981793534987
 30
0.0
 10
88.975035669365894
 20
-44.863733823929238
 30
0.0
 11
88.032880867686316
 21
-44.586922949254429
 31
0.0
 11
88.49824658638687
 21
-44.745097231105945
 31
0.0
 11
88.975035669365894
 21
-44.863733823929238
 31
0.0
  0
SPLINE
  5
2C2
100
AcDbEntity
  8
971
  6
CONTINUOUS
 62
           3
100
AcDbSpline
210
0.0
220
0.0
230
1.0
 70
           0
 71
           4
 72
          14
 73
          10
 74
          15
 42
0.00000000001
 43
0.00000000001
 44
0.00000000001
 40
0.0
 40
0.0
 40
0.0
 40
0.0
 40
0.0788794984419293
 40
0.1574133640402479
 40
0.196934076986294
 40
0.2752872355152988
 40
0.314700141193878
 40
0.3928312949013568
 40
0.4711267097201877
 40
0.4711267097201877
 40
0.4711267097201877
 40
0.4711267097201877
 10
88.032880867686316
 20
-43.304319634131772
 30
0.0
 10
88.034589484377733
 20
-43.265061533155702
 30
0.0
 10
88.029529709629088
 20
-43.225802009409662
 30
0.0
 10
88.006323797193119
 20
-43.150774989784537
 30
0.0
 10
87.988353551040603
 20
-43.115576168710788
 30
0.0
 10
87.941278185878815
 20
-43.052941294668003
 30
0.0
 10
87.912529879311109
 20
-43.025979988996397
 30
0.0
 10
87.847171185574297
 20
-42.983169729330292
 30
0.0
 10
87.811056191165591
 20
-42.967645259984188
 30
0.0
 10
87.773113023296133
 20
-42.958692443397759
 30
0.0
 11
88.032880867686316
 21
-43.304319634131772
 31
0.0
 11
88.032367865923177
 21
-43.25702318982492
 31
0.0
 11
88.026131480192134
 21
-43.220515274476654
 31
0.0
 11
88.015360146019702
 21
-43.181464347392797
 31
0.0
 11
88.003102806170844
 21
-43.146452682757712
 31
0.0
 11
87.997029785447381
 21
-43.133130311188474
 31
0.0
 11
87.989153033866813
 21
-43.119633486435681
 31
0.0
 11
87.964440898497685
 21
-43.0845095407998
 31
0.0
 11
87.937575742335525
 21
-43.051019243131321
 31
0.0
 11
87.926830376532592
 21
-43.039741272569245
 31
0.0
 11
87.915740813303472
 21
-43.030238749903596
 31
0.0
 11
87.885626700431217
 21
-43.008881286222206
 31
0.0
 11
87.851240109742633
 21
-42.987863383946525
 31
0.0
 11
87.818114957167239
 21
-42.971967318034366
 31
0.0
 11
87.773113023296133
 21
-42.958692443397759
 31
0.0
  0
SPLINE
  5
2C1
100
AcDbEntity
  8
971
  6
CONTINUOUS
 62
           3
100
AcDbSpline
210
0.0
220
0.0
230
1.0
 70
           0
 71
           4
 72
          14
 73
          10
 74
          15
 42
0.00000000001
 43
0.00000000001
 44
0.00000000001
 40
0.0
 40
0.0
 40
0.0
 40
0.0
 40
0.06975109722277
 40
0.1393660383625583
 40
0.1744596380081152
 40
0.2442630459703876
 40
0.2794511249858139
 40
0.3494208956814872
 40
0.4196946535117619
 40
0.4196946535117619
 40
0.4196946535117619
 40
0.4196946535117619
 10
96.292215989439939
 20
-44.343048113970603
 30
0.0
 10
96.326196332152307
 20
-44.335811453968333
 30
0.0
 10
96.358744156242409
 20
-44.322917678026677
 30
0.0
 10
96.418302051056884
 20
-44.286874687096898
 30
0.0
 10
96.444896398374937
 20
-44.263977057813293
 30
0.0
 10
96.489532055884098
 20
-44.210309806701723
 30
0.0
 10
96.507261802216334
 20
-44.179914790666352
 30
0.0
 10
96.532089223836721
 20
-44.114497912516377
 30
0.0
 10
96.539013599844708
 20
-44.079932670425791
 30
0.0
 10
96.540164337999926
 20
-44.044929815118238
 30
0.0
 11
96.292215989439939
 21
-44.343048113970603
 31
0.0
 11
96.332600515807002
 21
-44.332184981472111
 31
0.0
 11
96.362540710720083
 21
-44.318922573107869
 31
0.0
 11
96.393814242462653
 21
-44.301256379149287
 31
0.0
 11
96.421339962841216
 21
-44.28323186103723
 31
0.0
 11
96.431550973847919
 21
-44.27517939750085
 31
0.0
 11
96.441558642551385
 21
-44.265573898314244
 31
0.0
 11
96.466903855163608
 21
-44.236913582241627
 31
0.0
 11
96.490477148565944
 21
-44.206765579609709
 31
0.0
 11
96.498127315405284
 21
-44.195142270379165
 31
0.0
 11
96.504210375612743
 21
-44.183612087588216
 31
0.0
 11
96.517024584660533
 21
-44.153140531957973
 31
0.0
 11
96.528829403618829
 21
-44.119024650601311
 31
0.0
 11
96.536583282888714
 21
-44.086938841885846
 31
0.0
 11
96.540164337999926
 21
-44.044929815118238
 31
0.0
  0
SPLINE
  5
2C0
100
AcDbEntity
  8
971
  6
CONTINUOUS
 62
           3
100
AcDbSpline
210
0.0
220
0.0
230
1.0
 70
           0
 71
           4
 72
          14
 73
          10
 74
          15
 42
0.00000000001
 43
0.00000000001
 44
0.00000000001
 40
0.0
 40
0.0
 40
0.0
 40
0.0
 40
0.0720642678519561
 40
0.1438061630506302
 40
0.17988743811433
 40
0.2514526081138946
 40
0.2874354306934419
 40
0.3588079595520348
 40
0.4303297671156333
 40
0.4303297671156333
 40
0.4303297671156333
 40
0.4303297671156333
 10
92.129544676119593
 20
-44.044929815118238
 30
0.0
 10
92.131527039747795
 20
-44.080788386075163
 30
0.0
 10
92.139464787231788
 20
-44.116057109756802
 30
0.0
 10
92.166589109977309
 20
-44.182473754073527
 30
0.0
 10
92.1855833546106
 20
-44.213150733733087
 30
0.0
 10
92.232852053608639
 20
-44.266883811553917
 30
0.0
 10
92.260791339470785
 20
-44.289558904195502
 30
0.0
 10
92.322949887560497
 20
-44.324635289058392
 30
0.0
 10
92.356728401725292
 20
-44.336787864906363
 30
0.0
 10
92.391797737096311
 20
-44.343048113970738
 30
0.0
 11
92.129544676119593
 21
-44.044929815118238
 31
0.0
 11
92.134196843556339
 21
-44.08791181927694
 31
0.0
 11
92.142934521348749
 21
-44.120612743402383
 31
0.0
 11
92.155899516456074
 21
-44.155280042592601
 31
0.0
 11
92.169822834736678
 21
-44.186178921534093
 31
0.0
 11
92.176365266987943
 21
-44.197835249159631
 31
0.0
 11
92.184525770616361
 21
-44.209538943645633
 31
0.0
 11
92.209531937572322
 21
-44.239771022889485
 31
0.0
 11
92.236326302535588
 21
-44.268415107571492
 31
0.0
 11
92.24686492983588
 21
-44.27796585945341
 31
0.0
 11
92.257572711436708
 21
-44.285910378973384
 31
0.0
 11
92.286335624103558
 21
-44.303529194813805
 31
0.0
 11
92.318937238360874
 21
-44.320647334685994
 31
0.0
 11
92.350048085375988
 21
-44.333271841376593
 31
0.0
 11
92.391797737096311
 21
-44.343048113970738
 31
0.0
  0
SPLINE
  5
2BF
100
AcDbEntity
  8
971
  6
CONTINUOUS
 62
           3
100
AcDbSpline
210
0.0
220
0.0
230
1.0
 70
           0
 71
           4
 72
          10
 73
           6
 74
           7
 42
0.00000000001
 43
0.00000000001
 44
0.00000000001
 40
0.0
 40
0.0
 40
0.0
 40
0.0
 40
0.270915285518937
 40
0.5417921704549581
 40
0.8134348321075999
 40
0.8134348321075999
 40
0.8134348321075999
 40
0.8134348321075999
 10
92.452198913656702
 20
-45.960909002470792
 30
0.0
 10
92.562405248379406
 20
-45.882604118892239
 30
0.0
 10
92.663732157668704
 20
-45.792307647729842
 30
0.0
 10
92.844967995150938
 20
-45.590992327883697
 30
0.0
 10
92.924326748000595
 20
-45.480584609574642
 30
0.0
 10
92.990993428272503
 20
-45.36242036165963
 30
0.0
 11
92.452198913656702
 21
-45.960909002470792
 31
0.0
 11
92.580902261157675
 21
-45.8628039330371
 31
0.0
 11
92.668586548779075
 21
-45.781352055125481
 31
0.0
 11
92.753581050356658
 21
-45.691115235867308
 31
0.0
 11
92.834447580682109
 21
-45.59712985448563
 31
0.0
 11
92.906524417885933
 21
-45.501112901870734
 31
0.0
 11
92.990993428272503
 21
-45.36242036165963
 31
0.0
  0
SPLINE
  5
2BE
100
AcDbEntity
  8
971
  6
CONTINUOUS
 62
           3
100
AcDbSpline
210
0.0
220
0.0
230
1.0
 70
           0
 71
           4
 72
           8
 73
           4
 74
           3
 42
0.00000000001
 43
0.00000000001
 44
0.00000000001
 40
0.0
 40
0.0
 40
0.0
 40
0.0
 40
0.8031780532346124
 40
0.8031780532346124
 40
0.8031780532346124
 40
0.8031780532346124
 10
91.752853915808004
 20
-46.350066966257216
 30
0.0
 10
91.998585681850585
 20
-46.244874520989363
 30
0.0
 10
92.232934340374726
 20
-46.114468716918573
 30
0.0
 10
92.452198913656702
 20
-45.960909002470792
 30
0.0
 11
91.752853915808004
 21
-46.350066966257216
 31
0.0
 11
92.11245161201758
 21
-46.173625710306482
 31
0.0
 11
92.452198913656702
 21
-45.960909002470792
 31
0.0
  0
SPLINE
  5
2BD
100
AcDbEntity
  8
971
  6
CONTINUOUS
 62
           3
100
AcDbSpline
210
0.0
220
0.0
230
1.0
 70
           0
 71
           4
 72
           8
 73
           4
 74
           3
 42
0.00000000001
 43
0.00000000001
 44
0.00000000001
 40
0.0
 40
0.0
 40
0.0
 40
0.0
 40
1.0937286111815823
 40
1.0937286111815823
 40
1.0937286111815823
 40
1.0937286111815823
 10
91.752853915808004
 20
-46.990849155624844
 30
0.0
 10
92.094083183026811
 20
-46.863595735105633
 30
0.0
 10
92.424394439963834
 20
-46.708350446175352
 30
0.0
 10
92.740469579362326
 20
-46.526672789180658
 30
0.0
 11
91.752853915808004
 21
-46.990849155624844
 31
0.0
 11
92.256094545517783
 21
-46.779170061081061
 31
0.0
 11
92.740469579362326
 21
-46.526672789180658
 31
0.0
  0
SPLINE
  5
2BC
100
AcDbEntity
  8
971
  6
CONTINUOUS
 62
           3
100
AcDbSpline
210
0.0
220
0.0
230
1.0
 70
           0
 71
           4
 72
           8
 73
           4
 74
           3
 42
0.00000000001
 43
0.00000000001
 44
0.00000000001
 40
0.0
 40
0.0
 40
0.0
 40
0.0
 40
0.4831158297924545
 40
0.4831158297924545
 40
0.4831158297924545
 40
0.4831158297924545
 10
93.524969332675283
 20
-45.772581107399112
 30
0.0
 10
93.62056642410019
 20
-45.643230487703967
 30
0.0
 10
93.705248410398809
 20
-45.506030343827057
 30
0.0
 10
93.778126695849409
 20
-45.362420361659588
 30
0.0
 11
93.524969332675283
 21
-45.772581107399112
 31
0.0
 11
93.660067566502718
 21
-45.57284799545647
 31
0.0
 11
93.778126695849409
 21
-45.362420361659588
 31
0.0
  0
SPLINE
  5
2BB
100
AcDbEntity
  8
971
  6
CONTINUOUS
 62
           3
100
AcDbSpline
210
0.0
220
0.0
230
1.0
 70
           0
 71
           4
 72
          16
 73
          12
 74
          19
 42
0.00000000001
 43
0.00000000001
 44
0.00000000001
 40
0.0
 40
0.0
 40
0.0
 40
0.0
 40
0.0069126758324258
 40
0.0137985054805248
 40
0.0172739338496782
 40
0.0241527729263752
 40
0.0276209097753787
 40
0.034480041255389
 40
0.0379370848020026
 40
0.0447753305652285
 40
0.0516382462330889
 40
0.0516382462330889
 40
0.0516382462330889
 40
0.0516382462330889
 10
93.524969332675283
 20
-45.772581107399112
 30
0.0
 10
93.523551886978197
 20
-45.775713325866562
 30
0.0
 10
93.522761355029814
 20
-45.779096863877548
 30
0.0
 10
93.522524759821607
 20
-45.785978627652199
 30
0.0
 10
93.523081020737919
 20
-45.789409250939897
 30
0.0
 10
93.525478879576525
 20
-45.795856630255031
 30
0.0
 10
93.527296922317731
 20
-45.798810050948831
 30
0.0
 10
93.531962780422788
 20
-45.803837719673353
 30
0.0
 10
93.534764761088212
 20
-45.805862578787902
 30
0.0
 10
93.540985554795299
 20
-45.808702179247852
 30
0.0
 10
93.544343258348732
 20
-45.809489025997081
 30
0.0
 10
93.54775577400531
 20
-45.809597809938282
 30
0.0
 11
93.524969332675283
 21
-45.772581107399112
 31
0.0
 11
93.523500417112345
 21
-45.776447520181307
 31
0.0
 11
93.522910787349133
 21
-45.779633917387287
 31
0.0
 11
93.522664534247369
 21
-45.783174163194211
 31
0.0
 11
93.522688378510665
 21
-45.786424817769372
 31
0.0
 11
93.522830291474463
 21
-45.787704577862023
 31
0.0
 11
93.5231359349429
 21
-45.789043996169198
 31
0.0
 11
93.524322482899464
 21
-45.792618903888524
 31
0.0
 11
93.525760432592733
 21
-45.796099388093921
 31
0.0
 11
93.526412984544692
 21
-45.797320306914251
 31
0.0
 11
93.527209791011884
 21
-45.798452875207836
 31
0.0
 11
93.529664465776477
 21
-45.801295227233204
 31
0.0
 11
93.532315562047245
 21
-45.8039534923291
 31
0.0
 11
93.533369019814018
 21
-45.804822543236803
 31
0.0
 11
93.534443737594742
 21
-45.805518562309445
 31
0.0
 11
93.53732073312878
 21
-45.806981392612073
 31
0.0
 11
93.540575628103454
 21
-45.808329270881345
 31
0.0
 11
93.543668166024858
 21
-45.809209855189863
 31
0.0
 11
93.54775577400531
 21
-45.809597809938282
 31
0.0
  0
SPLINE
  5
2BA
100
AcDbEntity
  8
971
  6
CONTINUOUS
 62
           3
100
AcDbSpline
210
0.0
220
0.0
230
1.0
 70
           0
 71
           4
 72
          14
 73
          10
 74
          15
 42
0.00000000001
 43
0.00000000001
 44
0.00000000001
 40
0.0
 40
0.0
 40
0.0
 40
0.0
 40
0.074426034940128
 40
0.1484782019301451
 40
0.1857337035707875
 40
0.2595839999198286
 40
0.2967337479650723
 40
0.3703910519464072
 40
0.4442450809374046
 40
0.4442450809374046
 40
0.4442450809374046
 40
0.4442450809374046
 10
92.740469579362326
 20
-47.514067783419961
 30
0.0
 10
92.745050600541703
 20
-47.550868721040317
 30
0.0
 10
92.755938921678791
 20
-47.586587061293187
 30
0.0
 10
92.789358017124727
 20
-47.65266949084517
 30
0.0
 10
92.811634721550007
 20
-47.682531186082457
 30
0.0
 10
92.865333503047594
 20
-47.733229382662962
 30
0.0
 10
92.896347333189937
 20
-47.753680449132148
 30
0.0
 10
92.963934850880406
 20
-47.782960576902347
 30
0.0
 10
92.999994701879331
 20
-47.79156703497253
 30
0.0
 10
93.036710871296037
 20
-47.793755680144798
 30
0.0
 11
92.740469579362326
 21
-47.514067783419961
 31
0.0
 11
92.748386240771083
 21
-47.557996040276578
 31
0.0
 11
92.759943136679411
 21
-47.59097579405892
 31
0.0
 11
92.776117490655636
 21
-47.625574838806941
 31
0.0
 11
92.793041671876338
 21
-47.656178406668118
 31
0.0
 11
92.800793310760383
 21
-47.667595577435705
 31
0.0
 11
92.810253735868372
 21
-47.678886510845132
 31
0.0
 11
92.838794452167548
 21
-47.707586996141032
 31
0.0
 11
92.869082294489743
 21
-47.734419259986112
 31
0.0
 11
92.880863073561173
 21
-47.743180692163747
 31
0.0
 11
92.892682544111977
 21
-47.750232659392985
 31
0.0
 11
92.924077378056921
 21
-47.765242441624785
 31
0.0
 11
92.959392160049291
 21
-47.779243446932682
 31
0.0
 11
92.99273866632106
 21
-47.788684304138464
 31
0.0
 11
93.036710871296037
 21
-47.793755680144798
 31
0.0
  0
SPLINE
  5
2B9
100
AcDbEntity
  8
971
  6
CONTINUOUS
 62
           3
100
AcDbSpline
210
0.0
220
0.0
230
1.0
 70
           0
 71
           4
 72
          14
 73
          10
 74
          15
 42
0.00000000001
 43
0.00000000001
 44
0.00000000001
 40
0.0
 40
0.0
 40
0.0
 40
0.0
 40
0.0712092708882473
 40
0.1422779145148259
 40
0.1780993708199125
 40
0.249357296716334
 40
0.2852752607111881
 40
0.3567067005080464
 40
0.4284518434522793
 40
0.4284518434522793
 40
0.4284518434522793
 40
0.4284518434522793
 10
96.2597918398084
 20
-47.793755680144642
 30
0.0
 10
96.294633860048606
 20
-47.787102362404042
 30
0.0
 10
96.328146136640584
 20
-47.774688263814568
 30
0.0
 10
96.389801694837928
 20
-47.739342199673061
 30
0.0
 10
96.417521372524305
 20
-47.716653078914852
 30
0.0
 10
96.464503355937694
 20
-47.663077102604532
 30
0.0
 10
96.483442872401014
 20
-47.632558340282458
 30
0.0
 10
96.510687672254306
 20
-47.56652674578099
 30
0.0
 10
96.518805770509488
 20
-47.531467583036608
 30
0.0
 10
96.521091388110591
 20
-47.495782342442332
 30
0.0
 11
96.2597918398084
 21
-47.793755680144642
 31
0.0
 11
96.301254467537092
 21
-47.783555348163347
 31
0.0
 11
96.332122640088343
 21
-47.770712483734648
 31
0.0
 11
96.364464582385423
 21
-47.753430128744782
 31
0.0
 11
96.392998197168367
 21
-47.735706628802525
 31
0.0
 11
96.40361988635722
 21
-47.727745944469667
 31
0.0
 11
96.414080048071881
 21
-47.718202769621563
 31
0.0
 11
96.440703936823738
 21
-47.689624179120322
 31
0.0
 11
96.465572384352214
 21
-47.659491644874002
 31
0.0
 11
96.473698342181365
 21
-47.647842005478616
 31
0.0
 11
96.480230866310578
 21
-47.636249124960742
 31
0.0
 11
96.494188884924483
 21
-47.605523486270215
 31
0.0
 11
96.507239233076831
 21
-47.571055403380981
 31
0.0
 11
96.516120177056862
 21
-47.538543401411665
 31
0.0
 11
96.521091388110591
 21
-47.495782342442332
 31
0.0
  0
SPLINE
  5
2B8
100
AcDbEntity
  8
971
  6
CONTINUOUS
 62
           3
100
AcDbSpline
210
0.0
220
0.0
230
1.0
 70
           0
 71
           4
 72
          14
 73
          10
 74
          15
 42
0.00000000001
 43
0.00000000001
 44
0.00000000001
 40
0.0
 40
0.0
 40
0.0
 40
0.0
 40
0.0564890945056316
 40
0.1128464601717021
 40
0.1412746977026203
 40
0.1977892211733736
 40
0.2262978173219342
 40
0.282955249799153
 40
0.3398791044686276
 40
0.3398791044686276
 40
0.3398791044686276
 40
0.3398791044686276
 10
96.678443224696395
 20
-45.362420361659467
 30
0.0
 10
96.706229027900093
 20
-45.358037291801978
 30
0.0
 10
96.733047724219119
 20
-45.348816077589021
 30
0.0
 10
96.782354424978536
 20
-45.321521354197117
 30
0.0
 10
96.804467251537034
 20
-45.303655532337821
 30
0.0
 10
96.84163588829793
 20
-45.261083431092253
 30
0.0
 10
96.856408879934094
 20
-45.236701085584087
 30
0.0
 10
96.877012117546684
 20
-45.183922574286498
 30
0.0
 10
96.882685592152512
 20
-45.155928003610939
 30
0.0
 10
96.883477436005222
 20
-45.127578894140072
 30
0.0
 11
96.678443224696395
 21
-45.362420361659467
 31
0.0
 11
96.711540038788272
 21
-45.355306105022578
 31
0.0
 11
96.73622791440549
 21
-45.345652695301858
 31
0.0
 11
96.76208816580197
 21
-45.332378383204301
 31
0.0
 11
96.784890155955495
 21
-45.318626416892144
 31
0.0
 11
96.793372671325983
 21
-45.312382027006514
 31
0.0
 11
96.801699968548661
 21
-45.304839527011097
 31
0.0
 11
96.822793934373252
 21
-45.282169075031092
 31
0.0
 11
96.842421067572474
 21
-45.258205720339667
 31
0.0
 11
96.848796647592863
 21
-45.248909496506855
 31
0.0
 11
96.853862511721175
 21
-45.239642920421474
 31
0.0
 11
96.864506485376609
 21
-45.215091441196186
 31
0.0
 11
96.874287139014939
 21
-45.187553551670383
 31
0.0
 11
96.880668494253683
 21
-45.161598852722172
 31
0.0
 11
96.883477436005222
 21
-45.127578894140072
 31
0.0
  0
SPLINE
  5
2B7
100
AcDbEntity
  8
971
  6
CONTINUOUS
 62
           3
100
AcDbSpline
210
0.0
220
0.0
230
1.0
 70
           0
 71
           4
 72
          14
 73
          10
 74
          15
 42
0.00000000001
 43
0.00000000001
 44
0.00000000001
 40
0.0
 40
0.0
 40
0.0
 40
0.0
 40
0.0590812796892697
 40
0.1180365362676275
 40
0.147759218255116
 40
0.2068728696681157
 40
0.2366771943779807
 40
0.2959387033025722
 40
0.3554695510609143
 40
0.3554695510609143
 40
0.3554695510609143
 40
0.3554695510609143
 10
123.7541073560877
 20
-44.782451109461313
 30
0.0
 10
123.7831428020084
 20
-44.777663236542608
 30
0.0
 10
123.8111739986233
 20
-44.767988757136088
 30
0.0
 10
123.86288529899289
 20
-44.739675090960439
 30
0.0
 10
123.8861979275661
 20
-44.721237109142002
 30
0.0
 10
123.9257888825409
 20
-44.677339728040607
 30
0.0
 10
123.9417858643761
 20
-44.652192276011121
 30
0.0
 10
123.96484595347749
 20
-44.597601445914343
 30
0.0
 10
123.9717451892038
 20
-44.568546005785173
 30
0.0
 10
123.97372532819971
 20
-44.538944636210431
 30
0.0
 11
123.7541073560877
 21
-44.782451109461313
 31
0.0
 11
123.78869829839378
 21
-44.774829862656922
 31
0.0
 11
123.81453053232937
 21
-44.764735585257576
 31
0.0
 11
123.84163921231467
 21
-44.750943033716439
 31
0.0
 11
123.86558138399869
 21
-44.736694250347753
 31
0.0
 11
123.87450847501884
 21
-44.730244387034269
 31
0.0
 11
123.88331169202465
 21
-44.722464963198121
 31
0.0
 11
123.90573602142418
 21
-44.699081588279093
 31
0.0
 11
123.92669778274842
 21
-44.674366607367986
 31
0.0
 11
123.93355636700689
 21
-44.664782238709122
 31
0.0
 11
123.93907679922339
 21
-44.65522001171945
 31
0.0
 11
123.95088327004513
 21
-44.629836746795746
 31
0.0
 11
123.96193330689076
 21
-44.60133037807519
 31
0.0
 11
123.96946968158595
 21
-44.574404128203533
 31
0.0
 11
123.97372532819971
 21
-44.538944636210431
 31
0.0
  0
SPLINE
  5
2B6
100
AcDbEntity
  8
971
  6
CONTINUOUS
 62
           3
100
AcDbSpline
210
0.0
220
0.0
230
1.0
 70
           0
 71
           4
 72
          14
 73
          10
 74
          15
 42
0.00000000001
 43
0.00000000001
 44
0.00000000001
 40
0.0
 40
0.0
 40
0.0
 40
0.0
 40
0.0605398360203049
 40
0.1208614812897966
 40
0.1513523075453777
 40
0.2118550671639217
 40
0.2424433746441088
 40
0.3031221042816889
 40
0.3641510511806763
 40
0.3641510511806763
 40
0.3641510511806763
 40
0.3641510511806763
 10
123.8516959490174
 20
-47.78975095903327
 30
0.0
 10
123.8818110267426
 20
-47.789178968057719
 30
0.0
 10
123.91152256490869
 20
-47.782655170210923
 30
0.0
 10
123.9667718300355
 20
-47.758443198152321
 30
0.0
 10
123.9917733591252
 20
-47.740990002773692
 30
0.0
 10
124.0336971880554
 20
-47.697366884025818
 30
0.0
 10
124.0502126142877
 20
-47.671620325986581
 30
0.0
 10
124.0724790619185
 20
-47.61517465706207
 30
0.0
 10
124.0780139859303
 20
-47.585023355227207
 30
0.0
 10
124.0776370180547
 20
-47.554651867746223
 30
0.0
 11
123.8516959490174
 21
-47.78975095903327
 31
0.0
 11
123.88780011895618
 21
-47.786806323944845
 31
0.0
 11
123.91519107774512
 21
-47.779429187028839
 31
0.0
 11
123.94407956040094
 21
-47.767970334331388
 31
0.0
 11
123.96965517611463
 21
-47.755459288231549
 31
0.0
 11
123.97923130214011
 21
-47.749473232158842
 31
0.0
 11
123.98864944906681
 21
-47.741964295290813
 31
0.0
 11
124.01243607603655
 21
-47.718921864454316
 31
0.0
 11
124.03452835801636
 21
-47.694235032272552
 31
0.0
 11
124.04169022474474
 21
-47.684493832844403
 31
0.0
 11
124.04732147951754
 21
-47.67466444463652
 31
0.0
 11
124.05892817638308
 21
-47.648489809485682
 31
0.0
 11
124.06938063195499
 21
-47.619022314594758
 31
0.0
 11
124.07584691115305
 21
-47.591146426035586
 31
0.0
 11
124.0776370180547
 21
-47.554651867746223
 31
0.0
  0
SPLINE
  5
2B5
100
AcDbEntity
  8
971
  6
CONTINUOUS
 62
           3
100
AcDbSpline
210
0.0
220
0.0
230
1.0
 70
           0
 71
           4
 72
          14
 73
          10
 74
          15
 42
0.00000000001
 43
0.00000000001
 44
0.00000000001
 40
0.0
 40
0.0
 40
0.0
 40
0.0
 40
0.0671888115660612
 40
0.1341045724103133
 40
0.1677934964959559
 40
0.2345785726225635
 40
0.2681812586596793
 40
0.3347755121610129
 40
0.40150068261755
 40
0.40150068261755
 40
0.40150068261755
 40
0.40150068261755
 10
121.21468823253031
 20
-44.175439655057993
 30
0.0
 10
121.21971377563111
 20
-44.142356772913082
 30
0.0
 10
121.2189216876934
 20
-44.108639678353633
 30
0.0
 10
121.20577486474041
 20
-44.043028093282032
 30
0.0
 10
121.1935228160946
 20
-44.011646077571932
 30
0.0
 10
121.15878465619591
 20
-43.954606559340363
 30
0.0
 10
121.1365698755565
 20
-43.929394577465622
 30
0.0
 10
121.0844854622888
 20
-43.887897487278977
 30
0.0
 10
121.0550226472883
 20
-43.871936501803923
 30
0.0
 10
121.023489731922
 20
-43.861494690987548
 30
0.0
 11
121.21468823253031
 21
-44.175439655057993
 31
0.0
 11
121.21853271472172
 21
-44.135346663586716
 31
0.0
 11
121.21648138252235
 21
-44.103871635212343
 31
0.0
 11
121.2107622220818
 21
-44.069834002294215
 31
0.0
 11
121.2034010066715
 21
-44.039095028463038
 31
0.0
 11
121.19938884503799
 21
-44.027275891156165
 31
0.0
 11
121.19384540742594
 21
-44.015163090029439
 31
0.0
 11
121.17581110035397
 21
-43.983311779834025
 31
0.0
 11
121.15578800922856
 21
-43.952683301263164
 31
0.0
 11
121.14758966600751
 21
-43.942234509825141
 31
0.0
 11
121.13894188296318
 21
-43.93327580167562
 31
0.0
 11
121.1150834821883
 21
-43.912759012929442
 31
0.0
 11
121.08755450881742
 21
-43.892217207654944
 31
0.0
 11
121.06067721809939
 21
-43.876161987215241
 31
0.0
 11
121.023489731922
 21
-43.861494690987548
 31
0.0
  0
SPLINE
  5
2B4
100
AcDbEntity
  8
971
  6
CONTINUOUS
 62
           3
100
AcDbSpline
210
0.0
220
0.0
230
1.0
 70
           0
 71
           4
 72
          10
 73
           6
 74
           7
 42
0.00000000001
 43
0.00000000001
 44
0.00000000001
 40
0.0
 40
0.0
 40
0.0
 40
0.0
 40
0.451308805786696
 40
0.9132664118949809
 40
1.3762738035432895
 40
1.3762738035432895
 40
1.3762738035432895
 40
1.3762738035432895
 10
120.6974347258372
 20
-45.435273432366628
 30
0.0
 10
120.82859027416831
 20
-45.245572032482819
 30
0.0
 10
120.9386578379905
 20
-45.054297394606003
 30
0.0
 10
121.11264625480059
 20
-44.626357140999012
 30
0.0
 10
121.17603947380159
 20
-44.403387312271668
 30
0.0
 10
121.21468823253031
 20
-44.175439655057993
 30
0.0
 11
120.6974347258372
 21
-45.435273432366628
 31
0.0
 11
120.84635533736619
 21
-45.207378709847184
 31
0.0
 11
120.93869008464198
 21
-45.033890579111258
 31
0.0
 11
121.02341553409697
 21
-44.841196723032979
 31
0.0
 11
121.0991587124397
 21
-44.642806880706246
 31
0.0
 11
121.15936075467941
 21
-44.44667559257951
 31
0.0
 11
121.21468823253031
 21
-44.175439655057993
 31
0.0
  0
SPLINE
  5
2B3
100
AcDbEntity
  8
971
  6
CONTINUOUS
 62
           3
100
AcDbSpline
210
0.0
220
0.0
230
1.0
 70
           0
 71
           4
 72
           8
 73
           4
 74
           3
 42
0.00000000001
 43
0.00000000001
 44
0.00000000001
 40
0.0
 40
0.0
 40
0.0
 40
0.0
 40
0.8184370993944454
 40
0.8184370993944454
 40
0.8184370993944454
 40
0.8184370993944454
 10
120.6974347258372
 20
-45.435273432366628
 30
0.0
 10
120.9039344626179
 20
-45.613508127899237
 30
0.0
 10
121.1288272248924
 20
-45.768853056814443
 30
0.0
 10
121.3682406439593
 20
-45.898633376068737
 30
0.0
 11
120.6974347258372
 21
-45.435273432366628
 31
0.0
 11
121.02049505404091
 21
-45.685123795322042
 31
0.0
 11
121.3682406439593
 21
-45.898633376068737
 31
0.0
  0
SPLINE
  5
2B2
100
AcDbEntity
  8
971
  6
CONTINUOUS
 62
           3
100
AcDbSpline
210
0.0
220
0.0
230
1.0
 70
           0
 71
           4
 72
           8
 73
           4
 74
           3
 42
0.00000000001
 43
0.00000000001
 44
0.00000000001
 40
0.0
 40
0.0
 40
0.0
 40
0.0
 40
0.6699290430242451
 40
0.6699290430242451
 40
0.6699290430242451
 40
0.6699290430242451
 10
120.7762253698134
 20
-46.243267854980111
 30
0.0
 10
120.96424220694099
 20
-46.363743813066961
 30
0.0
 10
121.1623331537298
 20
-46.467432269211699
 30
0.0
 10
121.3682406439593
 20
-46.553151526017487
 30
0.0
 11
120.7762253698134
 21
-46.243267854980111
 31
0.0
 11
121.06552401197314
 21
-46.411243453479194
 31
0.0
 11
121.3682406439593
 21
-46.553151526017487
 31
0.0
  0
SPLINE
  5
2B1
100
AcDbEntity
  8
971
  6
CONTINUOUS
 62
           3
100
AcDbSpline
210
0.0
220
0.0
230
1.0
 70
           0
 71
           4
 72
           8
 73
           4
 74
           3
 42
0.00000000001
 43
0.00000000001
 44
0.00000000001
 40
0.0
 40
0.0
 40
0.0
 40
0.0
 40
0.3439315580211781
 40
0.3439315580211781
 40
0.3439315580211781
 40
0.3439315580211781
 10
120.51859239598861
 20
-46.026319636274842
 30
0.0
 10
120.5897403635271
 20
-46.125103287747457
 30
0.0
 10
120.6774948460386
 20
-46.195567216873471
 30
0.0
 10
120.7762253698134
 20
-46.243267854980111
 30
0.0
 11
120.51859239598861
 21
-46.026319636274842
 31
0.0
 11
120.6370654243124
 21
-46.153949875639711
 31
0.0
 11
120.7762253698134
 21
-46.243267854980111
 31
0.0
  0
SPLINE
  5
2B0
100
AcDbEntity
  8
971
  6
CONTINUOUS
 62
           3
100
AcDbSpline
210
0.0
220
0.0
230
1.0
 70
           0
 71
           4
 72
           8
 73
           4
 74
           3
 42
0.00000000001
 43
0.00000000001
 44
0.00000000001
 40
0.0
 40
0.0
 40
0.0
 40
0.0
 40
1.0291468313453973
 40
1.0291468313453973
 40
1.0291468313453973
 40
1.0291468313453973
 10
119.0195254902809
 20
-46.772950447300097
 30
0.0
 10
119.3370080594925
 20
-46.653864719073887
 30
0.0
 10
119.6316938198151
 20
-46.480342224948849
 30
0.0
 10
119.8905698299176
 20
-46.247647469950017
 30
0.0
 11
119.0195254902809
 21
-46.772950447300097
 31
0.0
 11
119.47702511976516
 21
-46.552902343664798
 31
0.0
 11
119.8905698299176
 21
-46.247647469950017
 31
0.0
  0
SPLINE
  5
2AF
100
AcDbEntity
  8
971
  6
CONTINUOUS
 62
           3
100
AcDbSpline
210
0.0
220
0.0
230
1.0
 70
           0
 71
           4
 72
           8
 73
           4
 74
           3
 42
0.00000000001
 43
0.00000000001
 44
0.00000000001
 40
0.0
 40
0.0
 40
0.0
 40
0.0
 40
1.068347511333928
 40
1.068347511333928
 40
1.068347511333928
 40
1.068347511333928
 10
119.0195254902809
 20
-46.132277709622898
 30
0.0
 10
119.3270179801585
 20
-45.954412741495062
 30
0.0
 10
119.6098521560484
 20
-45.736347745405133
 30
0.0
 10
119.8606811303019
 20
-45.483747167744099
 30
0.0
 11
119.0195254902809
 21
-46.132277709622898
 31
0.0
 11
119.46135212865043
 21
-45.836038292258451
 31
0.0
 11
119.8606811303019
 21
-45.483747167744099
 31
0.0
  0
SPLINE
  5
2AE
100
AcDbEntity
  8
971
  6
CONTINUOUS
 62
           3
100
AcDbSpline
210
0.0
220
0.0
230
1.0
 70
           0
 71
           4
 72
          10
 73
           6
 74
           7
 42
0.00000000001
 43
0.00000000001
 44
0.00000000001
 40
0.0
 40
0.0
 40
0.0
 40
0.0
 40
0.3976566166372528
 40
0.795168232509079
 40
1.1938059818840867
 40
1.1938059818840867
 40
1.1938059818840867
 40
1.1938059818840867
 10
119.8606811303019
 20
-45.483747167744099
 30
0.0
 10
119.9953614937713
 20
-45.338084039463503
 30
0.0
 10
120.11245715637109
 20
-45.176845569331903
 30
0.0
 10
120.3065836489867
 20
-44.829958859269681
 30
0.0
 10
120.3829312971143
 20
-44.645531404377877
 30
0.0
 10
120.4369674099305
 20
-44.453975038755559
 30
0.0
 11
119.8606811303019
 21
-45.483747167744099
 31
0.0
 11
120.01550714779302
 21
-45.303713198624465
 31
0.0
 11
120.11553156651757
 21
-45.159355992979691
 31
0.0
 11
120.20816682300362
 21
-45.002825663846259
 31
0.0
 11
120.29315923161762
 21
-44.841980762588406
 31
0.0
 11
120.36412887053305
 21
-44.680772089003796
 31
0.0
 11
120.4369674099305
 21
-44.453975038755559
 31
0.0
  0
SPLINE
  5
2AD
100
AcDbEntity
  8
971
  6
CONTINUOUS
 62
           3
100
AcDbSpline
210
0.0
220
0.0
230
1.0
 70
           0
 71
           4
 72
          14
 73
          10
 74
          15
 42
0.00000000001
 43
0.00000000001
 44
0.00000000001
 40
0.0
 40
0.0
 40
0.0
 40
0.0
 40
0.0611166361931463
 40
0.1219926944001483
 40
0.1527648737402018
 40
0.2138156647701485
 40
0.2446866969895881
 40
0.3059243459934484
 40
0.3675341889665195
 40
0.3675341889665195
 40
0.3675341889665195
 40
0.3675341889665195
 10
117.4846454331684
 20
-45.152963646865089
 30
0.0
 10
117.5150231407106
 20
-45.154330497657519
 30
0.0
 10
117.545369483127
 20
-45.149630216783017
 30
0.0
 10
117.60251076927899
 20
-45.128635744183811
 30
0.0
 10
117.6287428639875
 20
-45.112548350717482
 30
0.0
 10
117.6735142693322
 20
-45.071042684250813
 30
0.0
 10
117.69161257585981
 20
-45.046033247409362
 30
0.0
 10
117.7171537837561
 20
-44.990376294971071
 30
0.0
 10
117.7243451009379
 20
-44.960277007521903
 30
0.0
 10
117.72554376817349
 20
-44.929637042122842
 30
0.0
 11
117.4846454331684
 21
-45.152963646865089
 31
0.0
 11
117.52120739329641
 21
-45.152309381712797
 31
0.0
 11
117.54926558770215
 21
-45.146592746119808
 31
0.0
 11
117.57906870811809
 21
-45.136834440795646
 31
0.0
 11
117.60559253499019
 21
-45.125795611077862
 31
0.0
 11
117.61559952328142
 21
-45.120342413925151
 31
0.0
 11
117.62553280327151
 21
-45.11333618941994
 31
0.0
 11
117.65083979920621
 21
-45.091517318983776
 31
0.0
 11
117.67452240554549
 21
-45.06792893590243
 31
0.0
 11
117.68229468650595
 21
-45.058522920520005
 31
0.0
 11
117.6885207919396
 21
-45.048935097064017
 31
0.0
 11
117.70166305010504
 21
-45.023204615922602
 31
0.0
 11
117.71380681525027
 21
-44.994084347725568
 31
0.0
 11
117.72182519146519
 21
-44.966333644368078
 31
0.0
 11
117.72554376817349
 21
-44.929637042122842
 31
0.0
  0
SPLINE
  5
2AC
100
AcDbEntity
  8
971
  6
CONTINUOUS
 62
           3
100
AcDbSpline
210
0.0
220
0.0
230
1.0
 70
           0
 71
           4
 72
           8
 73
           4
 74
           3
 42
0.00000000001
 43
0.00000000001
 44
0.00000000001
 40
0.0
 40
0.0
 40
0.0
 40
0.0
 40
0.8751901611734249
 40
0.8751901611734249
 40
0.8751901611734249
 40
0.8751901611734249
 10
113.796202733621
 20
-45.037669461693937
 30
0.0
 10
114.0791920148544
 20
-44.968242030142562
 30
0.0
 10
114.35509624071049
 20
-44.872190153373722
 30
0.0
 10
114.6202872443705
 20
-44.750777235140099
 30
0.0
 11
113.796202733621
 21
-45.037669461693937
 31
0.0
 11
114.21491934308577
 21
-44.913717905922866
 31
0.0
 11
114.6202872443705
 21
-44.750777235140099
 31
0.0
  0
SPLINE
  5
2AB
100
AcDbEntity
  8
971
  6
CONTINUOUS
 62
           3
100
AcDbSpline
210
0.0
220
0.0
230
1.0
 70
           0
 71
           4
 72
           8
 73
           4
 74
           3
 42
0.00000000001
 43
0.00000000001
 44
0.00000000001
 40
0.0
 40
0.0
 40
0.0
 40
0.0
 40
0.9578536084126266
 40
0.9578536084126266
 40
0.9578536084126266
 40
0.9578536084126266
 10
117.7258826774701
 20
-44.722168866235712
 30
0.0
 10
118.0057969205269
 20
-44.861999239268798
 30
0.0
 10
118.3071950589302
 20
-44.970451767059842
 30
0.0
 10
118.6249409636352
 20
-45.036999692441213
 30
0.0
 11
117.7258826774701
 21
-44.722168866235712
 31
0.0
 11
118.16122494743459
 21
-44.907065197207856
 31
0.0
 11
118.6249409636352
 21
-45.036999692441213
 31
0.0
  0
SPLINE
  5
2AA
100
AcDbEntity
  8
971
  6
CONTINUOUS
 62
           3
100
AcDbSpline
210
0.0
220
0.0
230
1.0
 70
           0
 71
           4
 72
           8
 73
           4
 74
           3
 42
0.00000000001
 43
0.00000000001
 44
0.00000000001
 40
0.0
 40
0.0
 40
0.0
 40
0.0
 40
1.5397894460871469
 40
1.5397894460871469
 40
1.5397894460871469
 40
1.5397894460871469
 10
116.20079619042519
 20
-43.668776080462592
 30
0.0
 10
116.5483992177799
 20
-44.037776470702298
 30
0.0
 10
116.9660455118415
 20
-44.339794334187182
 30
0.0
 10
117.4340228358608
 20
-44.560574911058531
 30
0.0
 11
116.20079619042519
 21
-43.668776080462592
 31
0.0
 11
116.77226915189377
 21
-44.170257925773697
 31
0.0
 11
117.4340228358608
 21
-44.560574911058531
 31
0.0
  0
SPLINE
  5
2A9
100
AcDbEntity
  8
971
  6
CONTINUOUS
 62
           3
100
AcDbSpline
210
0.0
220
0.0
230
1.0
 70
           0
 71
           4
 72
           8
 73
           4
 74
           3
 42
0.00000000001
 43
0.00000000001
 44
0.00000000001
 40
0.0
 40
0.0
 40
0.0
 40
0.0
 40
1.5123870450734644
 40
1.5123870450734644
 40
1.5123870450734644
 40
1.5123870450734644
 10
114.99450096717941
 20
-44.560574911058637
 30
0.0
 10
115.4390327597231
 20
-44.330207236005201
 30
0.0
 10
115.84383011052481
 20
-44.029076979279992
 30
0.0
 10
116.20079619042519
 20
-43.668776080462592
 30
0.0
 11
114.99450096717941
 21
-44.560574911058637
 31
0.0
 11
115.63048572104354
 21
-44.1634004546721
 31
0.0
 11
116.20079619042519
 21
-43.668776080462592
 31
0.0
  0
SPLINE
  5
2A8
100
AcDbEntity
  8
971
  6
CONTINUOUS
 62
           3
100
AcDbSpline
210
0.0
220
0.0
230
1.0
 70
           0
 71
           4
 72
          10
 73
           6
 74
           7
 42
0.00000000001
 43
0.00000000001
 44
0.00000000001
 40
0.0
 40
0.0
 40
0.0
 40
0.0
 40
0.8403261456955558
 40
1.6777959180122703
 40
2.5199795970024654
 40
2.5199795970024654
 40
2.5199795970024654
 40
2.5199795970024654
 10
116.5640383624865
 20
-43.066250264272249
 30
0.0
 10
116.8429638727754
 20
-43.379701411702008
 30
0.0
 10
117.159170486508
 20
-43.657256812711132
 30
0.0
 10
117.8518163301493
 20
-44.127998094978409
 30
0.0
 10
118.2256110586621
 20
-44.319386699909693
 30
0.0
 10
118.6258936843782
 20
-44.453778056678523
 30
0.0
 11
116.5640383624865
 21
-43.066250264272249
 31
0.0
 11
116.91162626517432
 21
-43.428528281182061
 31
0.0
 11
117.1960711099852
 21
-43.66672562475835
 31
0.0
 11
117.50702178131658
 21
-43.889768023588402
 31
0.0
 11
117.82867438478146
 21
-44.096694822647734
 31
0.0
 11
118.15574609495044
 21
-44.272363060021334
 31
0.0
 11
118.6258936843782
 21
-44.453778056678523
 31
0.0
  0
SPLINE
  5
2A7
100
AcDbEntity
  8
971
  6
CONTINUOUS
 62
           3
100
AcDbSpline
210
0.0
220
0.0
230
1.0
 70
           0
 71
           4
 72
          10
 73
           6
 74
           7
 42
0.00000000001
 43
0.00000000001
 44
0.00000000001
 40
0.0
 40
0.0
 40
0.0
 40
0.0
 40
0.8283919172704519
 40
1.6562859341479539
 40
2.5021859818110901
 40
2.5021859818110901
 40
2.5021859818110901
 40
2.5021859818110901
 10
113.7971499737794
 20
-44.457802845051589
 30
0.0
 10
114.1846577692199
 20
-44.314209588804992
 30
0.0
 10
114.5531507934009
 20
-44.123029244363757
 30
0.0
 10
115.2354585659794
 20
-43.65413202037908
 30
0.0
 10
115.5466762205385
 20
-43.378199922044928
 30
0.0
 10
115.8433962751043
 20
-43.067017725252221
 30
0.0
 11
113.7971499737794
 21
-44.457802845051589
 31
0.0
 11
114.25400800561552
 21
-44.268669706915226
 31
0.0
 11
114.57406175909426
 21
-44.093154000927925
 31
0.0
 11
114.89007406968805
 21
-43.887652146472284
 31
0.0
 11
115.19502531683544
 21
-43.666736566617338
 31
0.0
 11
115.48082881176815
 21
-43.427663066028323
 31
0.0
 11
115.8433962751043
 21
-43.067017725252221
 31
0.0
  0
SPLINE
  5
2A6
100
AcDbEntity
  8
971
  6
CONTINUOUS
 62
           3
100
AcDbSpline
210
0.0
220
0.0
230
1.0
 70
           0
 71
           4
 72
           8
 73
           4
 74
           3
 42
0.00000000001
 43
0.00000000001
 44
0.00000000001
 40
0.0
 40
0.0
 40
0.0
 40
0.0
 40
1.2824959566402068
 40
1.2824959566402068
 40
1.2824959566402068
 40
1.2824959566402068
 10
110.3352450544299
 20
-46.995854126237397
 30
0.0
 10
110.75796143275051
 20
-46.932914490589823
 30
0.0
 10
111.1777802036371
 20
-46.851565498089897
 30
0.0
 10
111.5935241892782
 20
-46.752035252470677
 30
0.0
 11
110.3352450544299
 21
-46.995854126237397
 31
0.0
 11
110.96699926910887
 21
-46.887666168093403
 31
0.0
 11
111.5935241892782
 21
-46.752035252470677
 31
0.0
  0
SPLINE
  5
2A5
100
AcDbEntity
  8
971
  6
CONTINUOUS
 62
           3
100
AcDbSpline
210
0.0
220
0.0
230
1.0
 70
           0
 71
           4
 72
           8
 73
           4
 74
           3
 42
0.00000000001
 43
0.00000000001
 44
0.00000000001
 40
0.0
 40
0.0
 40
0.0
 40
0.0
 40
1.0852764984346857
 40
1.0852764984346857
 40
1.0852764984346857
 40
1.0852764984346857
 10
108.5755877016378
 20
-47.200614605504462
 30
0.0
 10
108.9365188359189
 20
-47.176756280224389
 30
0.0
 10
109.2967013438768
 20
-47.142516673953743
 30
0.0
 10
109.6556954602902
 20
-47.097937591576859
 30
0.0
 11
108.5755877016378
 21
-47.200614605504462
 31
0.0
 11
109.11636796266438
 21
-47.157046382451966
 31
0.0
 11
109.6556954602902
 21
-47.097937591576859
 31
0.0
  0
SPLINE
  5
2A4
100
AcDbEntity
  8
971
  6
CONTINUOUS
 62
           3
100
AcDbSpline
210
0.0
220
0.0
230
1.0
 70
           0
 71
           4
 72
           8
 73
           4
 74
           3
 42
0.00000000001
 43
0.00000000001
 44
0.00000000001
 40
0.0
 40
0.0
 40
0.0
 40
0.0
 40
1.1564434417044631
 40
1.1564434417044631
 40
1.1564434417044631
 40
1.1564434417044631
 10
104.819209369105
 20
-47.662941018128443
 30
0.0
 10
105.1354632666274
 20
-47.472759180295228
 30
0.0
 10
105.4226254119082
 20
-47.210735950662951
 30
0.0
 10
105.67422451576169
 20
-46.901484897602103
 30
0.0
 11
104.819209369105
 21
-47.662941018128443
 31
0.0
 11
105.27096249005916
 21
-47.326863913575622
 31
0.0
 11
105.67422451576169
 21
-46.901484897602103
 31
0.0
  0
SPLINE
  5
2A3
100
AcDbEntity
  8
971
  6
CONTINUOUS
 62
           3
100
AcDbSpline
210
0.0
220
0.0
230
1.0
 70
           0
 71
           4
 72
           8
 73
           4
 74
           3
 42
0.00000000001
 43
0.00000000001
 44
0.00000000001
 40
0.0
 40
0.0
 40
0.0
 40
0.0
 40
0.7901372346427872
 40
0.7901372346427872
 40
0.7901372346427872
 40
0.7901372346427872
 10
105.67422451576169
 20
-46.901484897602103
 30
0.0
 10
105.8492653338273
 20
-46.719929339197492
 30
0.0
 10
105.9937902094326
 20
-46.482451647843313
 30
0.0
 10
106.1026875531014
 20
-46.246416037329588
 30
0.0
 11
105.67422451576169
 21
-46.901484897602103
 31
0.0
 11
105.91325983733036
 21
-46.594380487006759
 31
0.0
 11
106.1026875531014
 21
-46.246416037329588
 31
0.0
  0
SPLINE
  5
2A2
100
AcDbEntity
  8
971
  6
CONTINUOUS
 62
           3
100
AcDbSpline
210
0.0
220
0.0
230
1.0
 70
           0
 71
           4
 72
           8
 73
           4
 74
           3
 42
0.00000000001
 43
0.00000000001
 44
0.00000000001
 40
0.0
 40
0.0
 40
0.0
 40
0.0
 40
1.3245915443645921
 40
1.3245915443645921
 40
1.3245915443645921
 40
1.3245915443645921
 10
107.0880876673463
 20
-46.77468358530956
 30
0.0
 10
107.36202698756409
 20
-47.140923112057152
 30
0.0
 10
107.6827194491417
 20
-47.446937536855877
 30
0.0
 10
108.04082262204609
 20
-47.673893612253778
 30
0.0
 11
107.0880876673463
 21
-46.77468358530956
 31
0.0
 11
107.53289369993873
 21
-47.276519893037801
 31
0.0
 11
108.04082262204609
 21
-47.673893612253778
 31
0.0
  0
SPLINE
  5
2A1
100
AcDbEntity
  8
971
  6
CONTINUOUS
 62
           3
100
AcDbSpline
210
0.0
220
0.0
230
1.0
 70
           0
 71
           4
 72
           8
 73
           4
 74
           3
 42
0.00000000001
 43
0.00000000001
 44
0.00000000001
 40
0.0
 40
0.0
 40
0.0
 40
0.0
 40
0.6623686766859792
 40
0.6623686766859792
 40
0.6623686766859792
 40
0.6623686766859792
 10
106.7272632605403
 20
-46.224647511543651
 30
0.0
 10
106.8206528499807
 20
-46.424553076318873
 30
0.0
 10
106.9421821365649
 20
-46.6098107539582
 30
0.0
 10
107.0880876673463
 20
-46.77468358530956
 30
0.0
 11
106.7272632605403
 21
-46.224647511543651
 31
0.0
 11
106.88798198594041
 21
-46.512802823460554
 31
0.0
 11
107.0880876673463
 21
-46.77468358530956
 31
0.0
  0
SPLINE
  5
2A0
100
AcDbEntity
  8
971
  6
CONTINUOUS
 62
           3
100
AcDbSpline
210
0.0
220
0.0
230
1.0
 70
           0
 71
           4
 72
          12
 73
           8
 74
          11
 42
0.00000000001
 43
0.00000000001
 44
0.00000000001
 40
0.0
 40
0.0
 40
0.0
 40
0.0
 40
0.0700385358808011
 40
0.1398281685358198
 40
0.1751336109999959
 40
0.2451503594772714
 40
0.3156701291447183
 40
0.3156701291447183
 40
0.3156701291447183
 40
0.3156701291447183
 10
107.7853286859397
 20
-45.548911388175007
 30
0.0
 10
107.8200106564572
 20
-45.545695675216813
 30
0.0
 10
107.85368634911779
 20
-45.535422546150222
 30
0.0
 10
107.91495420480931
 20
-45.502003349794137
 30
0.0
 10
107.9419108514462
 20
-45.479203931606712
 30
0.0
 10
107.9852108577864
 20
-45.424181622328852
 30
0.0
 10
108.00110507717611
 20
-45.392529464116073
 30
0.0
 10
108.010282805708
 20
-45.358649479167802
 30
0.0
 11
107.7853286859397
 21
-45.548911388175007
 31
0.0
 11
107.82669577796013
 21
-45.542366962097411
 31
0.0
 11
107.85757014262546
 21
-45.531287381159132
 31
0.0
 11
107.88973545440444
 21
-45.515239272781244
 31
0.0
 11
107.91793928223443
 21
-45.498232539328598
 31
0.0
 11
107.92826117247776
 21
-45.490438009819194
 31
0.0
 11
107.93765981518766
 21
-45.481560984131796
 31
0.0
 11
107.95918167697522
 21
-45.456521482583305
 31
0.0
 11
107.98044241041825
 21
-45.427397708834555
 31
0.0
 11
107.99667862687843
 21
-45.398609018559732
 31
0.0
 11
108.010282805708
 21
-45.358649479167802
 31
0.0
  0
SPLINE
  5
29F
100
AcDbEntity
  8
971
  6
CONTINUOUS
 62
           3
100
AcDbSpline
210
0.0
220
0.0
230
1.0
 70
           0
 71
           4
 72
          12
 73
           8
 74
          11
 42
0.00000000001
 43
0.00000000001
 44
0.00000000001
 40
0.0
 40
0.0
 40
0.0
 40
0.0
 40
0.1016263906829075
 40
0.2025591539035089
 40
0.2535043885753802
 40
0.3541033517340618
 40
0.455032435115238
 40
0.455032435115238
 40
0.455032435115238
 40
0.455032435115238
 10
104.9494994325884
 20
-44.033642033046249
 30
0.0
 10
104.9508648138814
 20
-44.084168734382942
 30
0.0
 10
104.96280976281921
 20
-44.133833729329382
 30
0.0
 10
105.0062907497948
 20
-44.224920646408478
 30
0.0
 10
105.03733578984399
 20
-44.265313992693677
 30
0.0
 10
105.1139595955548
 20
-44.330497915458373
 30
0.0
 10
105.1586731063755
 20
-44.354552419066508
 30
0.0
 10
105.2068533925937
 20
-44.36849061458588
 30
0.0
 11
104.9494994325884
 21
-44.033642033046249
 31
0.0
 11
104.95515704289129
 21
-44.094153708151723
 31
0.0
 11
104.96858924884677
 21
-44.139822630160062
 31
0.0
 11
104.98919709314364
 21
-44.187528565011192
 31
0.0
 11
105.01160751425491
 21
-44.22951187114441
 31
0.0
 11
105.02211654970742
 21
-44.244928460449387
 31
0.0
 11
105.03432213044545
 21
-44.259051682884419
 31
0.0
 11
105.0690574691765
 21
-44.291401775057352
 31
0.0
 11
105.10976067107644
 21
-44.323441503658415
 31
0.0
 11
105.15018407110554
 21
-44.347888221527697
 31
0.0
 11
105.2068533925937
 21
-44.36849061458588
 31
0.0
  0
SPLINE
  5
29E
100
AcDbEntity
  8
971
  6
CONTINUOUS
 62
           3
100
AcDbSpline
210
0.0
220
0.0
230
1.0
 70
           0
 71
           4
 72
          10
 73
           6
 74
           7
 42
0.00000000001
 43
0.00000000001
 44
0.00000000001
 40
0.0
 40
0.0
 40
0.0
 40
0.0
 40
0.4061504360725468
 40
0.8260700551573835
 40
1.2844691695246329
 40
1.2844691695246329
 40
1.2844691695246329
 40
1.2844691695246329
 10
102.9220750038604
 20
-46.682258527271323
 30
0.0
 10
103.08378653157639
 20
-46.549015501838419
 30
0.0
 10
103.2286599559734
 20
-46.41608740783964
 30
0.0
 10
103.4782243627653
 20
-46.078374373807847
 30
0.0
 10
103.58197117412639
 20
-45.894703932948062
 30
0.0
 10
103.6623529695912
 20
-45.660670193791297
 30
0.0
 11
102.9220750038604
 21
-46.682258527271323
 31
0.0
 11
103.10856310859194
 21
-46.5222770995479
 31
0.0
 11
103.23002272924282
 21
-46.397933871173592
 31
0.0
 11
103.34695951649381
 21
-46.252728023603574
 31
0.0
 11
103.45545523056968
 21
-46.099293256410412
 31
0.0
 11
103.55589965548474
 21
-45.926970340309893
 31
0.0
 11
103.6623529695912
 21
-45.660670193791297
 31
0.0
  0
SPLINE
  5
29D
100
AcDbEntity
  8
971
  6
CONTINUOUS
 62
           3
100
AcDbSpline
210
0.0
220
0.0
230
1.0
 70
           0
 71
           4
 72
          10
 73
           6
 74
           7
 42
0.00000000001
 43
0.00000000001
 44
0.00000000001
 40
0.0
 40
0.0
 40
0.0
 40
0.0
 40
0.2321047043106786
 40
0.4633449425402836
 40
0.6855063816323261
 40
0.6855063816323261
 40
0.6855063816323261
 40
0.6855063816323261
 10
104.2398137742924
 20
-45.57508535511792
 30
0.0
 10
104.30705298410589
 20
-45.669449247219809
 30
0.0
 10
104.38620397550009
 20
-45.754571683240343
 30
0.0
 10
104.5643277862536
 20
-45.902030002161773
 30
0.0
 10
104.6625409202931
 20
-45.943900148320751
 30
0.0
 10
104.7674225411603
 20
-45.992025057890672
 30
0.0
 11
104.2398137742924
 21
-45.57508535511792
 31
0.0
 11
104.32472266055755
 21
-45.684760444268328
 31
0.0
 11
104.39670160955768
 21
-45.75838084134282
 31
0.0
 11
104.47720457560591
 21
-45.828013439360191
 31
0.0
 11
104.56158865618185
 21
-45.889504971712384
 31
0.0
 11
104.64498586375358
 21
-45.935422911990493
 31
0.0
 11
104.7674225411603
 21
-45.992025057890672
 31
0.0
  0
SPLINE
  5
29C
100
AcDbEntity
  8
971
  6
CONTINUOUS
 62
           3
100
AcDbSpline
210
0.0
220
0.0
230
1.0
 70
           0
 71
           4
 72
           8
 73
           4
 74
           3
 42
0.00000000001
 43
0.00000000001
 44
0.00000000001
 40
0.0
 40
0.0
 40
0.0
 40
0.0
 40
0.7113489145902342
 40
0.7113489145902342
 40
0.7113489145902342
 40
0.7113489145902342
 10
104.2575575651021
 20
-44.842702808865511
 30
0.0
 10
104.4045570858496
 20
-45.033483781278647
 30
0.0
 10
104.5760081871701
 20
-45.203754147253122
 30
0.0
 10
104.7674225411603
 20
-45.329219651179571
 30
0.0
 11
104.2575575651021
 21
-44.842702808865511
 31
0.0
 11
104.49583449066519
 21
-45.110454530705049
 31
0.0
 11
104.7674225411603
 21
-45.329219651179571
 31
0.0
  0
SPLINE
  5
29B
100
AcDbEntity
  8
971
  6
CONTINUOUS
 62
           3
100
AcDbSpline
210
0.0
220
0.0
230
1.0
 70
           0
 71
           4
 72
           8
 73
           4
 74
           3
 42
0.00000000001
 43
0.00000000001
 44
0.00000000001
 40
0.0
 40
0.0
 40
0.0
 40
0.0
 40
1.6492603427582657
 40
1.6492603427582657
 40
1.6492603427582657
 40
1.6492603427582657
 10
102.9220750038604
 20
-45.945177543732399
 30
0.0
 10
103.2300747482017
 20
-45.512528786391243
 30
0.0
 10
103.47098389211629
 20
-45.01716131882398
 30
0.0
 10
103.6371948198956
 20
-44.474718238950878
 30
0.0
 11
102.9220750038604
 21
-45.945177543732399
 31
0.0
 11
103.33280571808875
 21
-45.251120762291116
 31
0.0
 11
103.6371948198956
 21
-44.474718238950878
 31
0.0
  0
SPLINE
  5
29A
100
AcDbEntity
  8
971
  6
CONTINUOUS
 62
           3
100
AcDbSpline
210
0.0
220
0.0
230
1.0
 70
           0
 71
           4
 72
          14
 73
          10
 74
          15
 42
0.00000000001
 43
0.00000000001
 44
0.00000000001
 40
0.0
 40
0.0
 40
0.0
 40
0.0
 40
0.0510709965088574
 40
0.1020271510672573
 40
0.12770971618045
 40
0.1787957650371569
 40
0.2045482786930035
 40
0.2557672644567385
 40
0.3072259734033816
 40
0.3072259734033816
 40
0.3072259734033816
 40
0.3072259734033816
 10
104.5661152384402
 20
-44.433034878164378
 30
0.0
 10
104.5914143355688
 20
-44.430340713042739
 30
0.0
 10
104.61609581409461
 20
-44.423436906289012
 30
0.0
 10
104.6622166749235
 20
-44.401771360282012
 30
0.0
 10
104.6833373494735
 20
-44.387159335872433
 30
0.0
 10
104.7199818579534
 20
-44.351564892681722
 30
0.0
 10
104.7352524683144
 20
-44.330828441230302
 30
0.0
 10
104.7584487430027
 20
-44.285163166203752
 30
0.0
 10
104.76621411473261
 20
-44.260549902158381
 30
0.0
 10
104.7698310184014
 20
-44.235156667819439
 30
0.0
 11
104.5661152384402
 21
-44.433034878164378
 31
0.0
 11
104.59635458676063
 21
-44.428191734077892
 31
0.0
 11
104.61917155216636
 21
-44.420822082739477
 31
0.0
 11
104.64329077371526
 21
-44.410360143282155
 31
0.0
 11
104.66471097098696
 21
-44.399355463026652
 31
0.0
 11
104.67276193748035
 21
-44.394282196487893
 31
0.0
 11
104.68078689395429
 21
-44.388065439741531
 31
0.0
 11
104.70145207086364
 21
-44.369171572117914
 31
0.0
 11
104.72094705657847
 21
-44.349061594963771
 31
0.0
 11
104.72741835649992
 21
-44.341198756985776
 31
0.0
 11
104.73274437401032
 21
-44.333283879477747
 31
0.0
 11
104.74445530339993
 21
-44.312110966030296
 31
0.0
 11
104.75572310411826
 21
-44.288208363689094
 31
0.0
 11
104.76389544480278
 21
-44.26545881724654
 31
0.0
 11
104.7698310184014
 21
-44.235156667819439
 31
0.0
  0
SPLINE
  5
299
100
AcDbEntity
  8
971
  6
CONTINUOUS
 62
           3
100
AcDbSpline
210
0.0
220
0.0
230
1.0
 70
           0
 71
           4
 72
          14
 73
          10
 74
          15
 42
0.00000000001
 43
0.00000000001
 44
0.00000000001
 40
0.2054375419641353
 40
0.2054375419641353
 40
0.2054375419641353
 40
0.2054375419641353
 40
0.2542489860377809
 40
0.3094068318800265
 40
0.3404616810977236
 40
0.4021208287218887
 40
0.433270001947874
 40
0.4950898716550466
 40
0.5572292168898939
 40
0.5572292168898939
 40
0.5572292168898939
 40
0.5572292168898939
 10
107.6684208464638
 20
-44.368490614585703
 30
0.0
 10
107.6922392707375
 20
-44.363619298095429
 30
0.0
 10
107.7152341574002
 20
-44.355164451243027
 30
0.0
 10
107.7635448769328
 20
-44.328547495440382
 30
0.0
 10
107.7874369618946
 20
-44.308708847903013
 30
0.0
 10
107.8266381824085
 20
-44.261115625738938
 30
0.0
 10
107.841593013067
 20
-44.233791203830357
 30
0.0
 10
107.86063007531941
 20
-44.174975503958557
 30
0.0
 10
107.8645402478746
 20
-44.144015808687527
 30
0.0
 10
107.8626353681546
 20
-44.113140813273972
 30
0.0
 11
107.6684208464638
 21
-44.368490614585703
 31
0.0
 11
107.69640059096604
 21
-44.361415624124014
 31
0.0
 11
107.71696137725553
 21
-44.353026720146829
 31
0.0
 11
107.74220029134021
 21
-44.339959974958767
 31
0.0
 11
107.76524428350125
 21
-44.326018172939918
 31
0.0
 11
107.774892756101
 21
-44.318827164735104
 31
0.0
 11
107.78410355170367
 21
-44.310213449717772
 31
0.0
 11
107.80669134244556
 21
-44.284711178531047
 31
0.0
 11
107.8272913122327
 21
-44.257893828347804
 31
0.0
 11
107.83385456480279
 21
-44.247474671444692
 31
0.0
 11
107.83889825236346
 21
-44.237097850672079
 31
0.0
 11
107.8489920419786
 21
-44.209717335155048
 31
0.0
 11
107.85777945523
 21
-44.179087127223504
 31
0.0
 11
107.86272199193543
 21
-44.150360252806991
 31
0.0
 11
107.8626353681546
 21
-44.113140813273972
 31
0.0
  0
SPLINE
  5
298
100
AcDbEntity
  8
971
  6
CONTINUOUS
 62
           3
100
AcDbSpline
210
0.0
220
0.0
230
1.0
 70
           0
 71
           4
 72
           8
 73
           4
 74
           3
 42
0.00000000001
 43
0.00000000001
 44
0.00000000001
 40
0.0
 40
0.0
 40
0.0
 40
0.0
 40
1.7987497243801864
 40
1.7987497243801864
 40
1.7987497243801864
 40
1.7987497243801864
 10
104.819209369105
 20
-46.970336464258459
 30
0.0
 10
105.2709061871292
 20
-46.578427501466592
 30
0.0
 10
105.631175735564
 20
-46.09334782619058
 30
0.0
 10
105.8749043330366
 20
-45.548911388174993
 30
0.0
 11
104.819209369105
 21
-46.970336464258459
 31
0.0
 11
105.42504493377766
 21
-46.316821729425619
 31
0.0
 11
105.8749043330366
 21
-45.548911388174993
 31
0.0
  0
SPLINE
  5
297
100
AcDbEntity
  8
971
  6
CONTINUOUS
 62
           3
100
AcDbSpline
210
0.0
220
0.0
230
1.0
 70
           0
 71
           4
 72
           8
 73
           4
 74
           3
 42
0.00000000001
 43
0.00000000001
 44
0.00000000001
 40
0.0
 40
0.0
 40
0.0
 40
0.0
 40
1.7647936928485466
 40
1.7647936928485466
 40
1.7647936928485466
 40
1.7647936928485466
 10
106.9947268152583
 20
-45.603091465608593
 30
0.0
 10
107.2553350603866
 20
-46.128002499256269
 30
0.0
 10
107.60979713136609
 20
-46.601466618621693
 30
0.0
 10
108.04082262204609
 20
-47.000388582797882
 30
0.0
 11
106.9947268152583
 21
-45.603091465608593
 31
0.0
 11
107.45386825157031
 21
-46.34898592525505
 31
0.0
 11
108.04082262204609
 21
-47.000388582797882
 31
0.0
  0
SPLINE
  5
296
100
AcDbEntity
  8
971
  6
CONTINUOUS
 62
           3
100
AcDbSpline
210
0.0
220
0.0
230
1.0
 70
           0
 71
           4
 72
           8
 73
           4
 74
           3
 42
0.00000000001
 43
0.00000000001
 44
0.00000000001
 40
0.0
 40
0.0
 40
0.0
 40
0.0
 40
1.0275034151331974
 40
1.0275034151331974
 40
1.0275034151331974
 40
1.0275034151331974
 10
108.5755877016378
 20
-47.821305333405043
 30
0.0
 10
108.9177842965438
 20
-47.807880784239181
 30
0.0
 10
109.2592170741723
 20
-47.779440588646651
 30
0.0
 10
109.59888751233601
 20
-47.736067920148479
 30
0.0
 11
108.5755877016378
 21
-47.821305333405043
 31
0.0
 11
109.08818491576525
 21
-47.789917171526369
 31
0.0
 11
109.59888751233601
 21
-47.736067920148479
 31
0.0
  0
SPLINE
  5
295
100
AcDbEntity
  8
971
  6
CONTINUOUS
 62
           3
100
AcDbSpline
210
0.0
220
0.0
230
1.0
 70
           0
 71
           4
 72
           8
 73
           4
 74
           3
 42
0.00000000001
 43
0.00000000001
 44
0.00000000001
 40
0.0
 40
0.0
 40
0.0
 40
0.0
 40
1.8897513903181056
 40
1.8897513903181056
 40
1.8897513903181056
 40
1.8897513903181056
 10
109.59888751233601
 20
-47.736067920148479
 30
0.0
 10
110.2245468038646
 20
-47.665163394113307
 30
0.0
 10
110.84308691065699
 20
-47.542030612925757
 30
0.0
 10
111.44795189730389
 20
-47.367974666670278
 30
0.0
 11
109.59888751233601
 21
-47.736067920148479
 31
0.0
 11
110.53121756915058
 21
-47.590703075991996
 31
0.0
 11
111.44795189730389
 21
-47.367974666670278
 31
0.0
  0
LINE
  5
294
100
AcDbEntity
  8
1
  6
CONTINUOUS
 62
           6
100
AcDbLine
 10
132.278452843697
 20
-51.116823835892
 11
132.278452843697
 21
-58.116823835892
  0
LINE
  5
293
100
AcDbEntity
  8
1
  6
CONTINUOUS
 62
           7
100
AcDbLine
 10
-122.721547156303
 20
126.883176164108
 11
-122.721547156303
 21
-51.116823835892
  0
LINE
  5
292
100
AcDbEntity
  8
1
  6
CONTINUOUS
 62
           7
100
AcDbLine
 10
132.278452843697
 20
126.883176164108
 11
132.278452843697
 21
-51.116823835892
  0
LINE
  5
291
100
AcDbEntity
  8
1
  6
CONTINUOUS
 62
           7
100
AcDbLine
 10
63.278452843697
 20
-51.116823835892
 11
63.278452843697
 21
-17.616823835892
  0
LINE
  5
290
100
AcDbEntity
  8
1
  6
CONTINUOUS
 62
           7
100
AcDbLine
 10
63.278452843697
 20
-17.616823835892
 11
132.278452843697
 21
-17.616823835892
  0
LINE
  5
28F
100
AcDbEntity
  8
1
  6
CONTINUOUS
 62
           7
100
AcDbLine
 10
132.278452843697
 20
-39.616823835892
 11
63.278452843697
 21
-39.616823835892
  0
LINE
  5
28E
100
AcDbEntity
  8
1
  6
CONTINUOUS
 62
           6
100
AcDbLine
 10
-122.721547156303
 20
-58.116823835892
 11
132.278452843697
 21
-58.116823835892
  0
LINE
  5
28D
100
AcDbEntity
  8
1
  6
CONTINUOUS
 62
           6
100
AcDbLine
 10
-122.721547156303
 20
-51.116823835892
 11
-122.721547156303
 21
-58.116823835892
  0
LINE
  5
28C
100
AcDbEntity
  8
1
  6
CONTINUOUS
 62
           7
100
AcDbLine
 10
132.278452843697
 20
-51.116823835892
 11
-122.721547156303
 21
-51.116823835892
  0
LINE
  5
28B
100
AcDbEntity
  8
1
  6
CONTINUOUS
 62
           6
100
AcDbLine
 10
-122.721547156303
 20
134.883176164108
 11
-122.721547156303
 21
126.883176164108
  0
LINE
  5
28A
100
AcDbEntity
  8
1
  6
CONTINUOUS
 62
           6
100
AcDbLine
 10
132.278452843697
 20
134.883176164108
 11
132.278452843697
 21
126.883176164108
  0
LINE
  5
289
100
AcDbEntity
  8
1
  6
CONTINUOUS
 62
           7
100
AcDbLine
 10
-122.721547156303
 20
126.883176164108
 11
132.278452843697
 21
126.883176164108
  0
LINE
  5
288
100
AcDbEntity
  8
1
  6
CONTINUOUS
 62
           5
100
AcDbLine
 10
4.778452843697
 20
134.883176164108
 11
4.778452843697
 21
132.883176164108
  0
LINE
  5
287
100
AcDbEntity
  8
971
  6
CONTINUOUS
 62
           3
100
AcDbLine
 10
120.436967409931
 20
-44.453975038756
 11
119.098791423076
 21
-44.453975038756
  0
LINE
  5
286
100
AcDbEntity
  8
971
  6
CONTINUOUS
 62
           3
100
AcDbLine
 10
119.098791423076
 20
-43.861494690988
 11
119.098791423076
 21
-44.453975038756
  0
LINE
  5
285
100
AcDbEntity
  8
971
  6
CONTINUOUS
 62
           3
100
AcDbLine
 10
119.86473334511
 20
-43.861494690988
 11
119.098791423076
 21
-43.861494690988
  0
LINE
  5
284
100
AcDbEntity
  8
971
  6
CONTINUOUS
 62
           3
100
AcDbLine
 10
119.86473334511
 20
-43.014483549016
 11
119.86473334511
 21
-43.861494690988
  0
LINE
  5
283
100
AcDbEntity
  8
971
  6
CONTINUOUS
 62
           3
100
AcDbLine
 10
120.513473742168
 20
-43.014483549016
 11
119.86473334511
 21
-43.014483549016
  0
LINE
  5
282
100
AcDbEntity
  8
971
  6
CONTINUOUS
 62
           3
100
AcDbLine
 10
120.513473742168
 20
-43.861494690988
 11
120.513473742168
 21
-43.014483549016
  0
LINE
  5
281
100
AcDbEntity
  8
971
  6
CONTINUOUS
 62
           3
100
AcDbLine
 10
120.513473742168
 20
-43.861494690988
 11
121.023489731922
 21
-43.861494690988
  0
LINE
  5
280
100
AcDbEntity
  8
971
  6
CONTINUOUS
 62
           3
100
AcDbLine
 10
124.077637018055
 20
-47.182625990979
 11
122.968280525666
 21
-47.182625990979
  0
LINE
  5
27F
100
AcDbEntity
  8
971
  6
CONTINUOUS
 62
           3
100
AcDbLine
 10
124.077637018055
 20
-47.554651867746
 11
124.077637018055
 21
-47.182625990979
  0
LINE
  5
27E
100
AcDbEntity
  8
971
  6
CONTINUOUS
 62
           3
100
AcDbLine
 10
122.968280525666
 20
-44.782451109461
 11
122.968280525666
 21
-47.182625990979
  0
LINE
  5
27D
100
AcDbEntity
  8
971
  6
CONTINUOUS
 62
           3
100
AcDbLine
 10
121.068670626015
 20
-47.789750959033
 11
123.851695949017
 21
-47.789750959033
  0
LINE
  5
27C
100
AcDbEntity
  8
971
  6
CONTINUOUS
 62
           3
100
AcDbLine
 10
121.068670626015
 20
-47.182625990979
 11
121.068670626015
 21
-47.789750959033
  0
LINE
  5
27B
100
AcDbEntity
  8
971
  6
CONTINUOUS
 62
           3
100
AcDbLine
 10
122.278722354165
 20
-47.182625990979
 11
121.068670626015
 21
-47.182625990979
  0
LINE
  5
27A
100
AcDbEntity
  8
971
  6
CONTINUOUS
 62
           3
100
AcDbLine
 10
122.278722354165
 20
-44.782451109461
 11
122.278722354165
 21
-47.182625990979
  0
LINE
  5
279
100
AcDbEntity
  8
971
  6
CONTINUOUS
 62
           3
100
AcDbLine
 10
121.357163302533
 20
-44.782451109461
 11
122.278722354165
 21
-44.782451109461
  0
LINE
  5
278
100
AcDbEntity
  8
971
  6
CONTINUOUS
 62
           3
100
AcDbLine
 10
121.357163302533
 20
-44.184645994635
 11
121.357163302533
 21
-44.782451109461
  0
LINE
  5
277
100
AcDbEntity
  8
971
  6
CONTINUOUS
 62
           3
100
AcDbLine
 10
122.278722354165
 20
-44.184645994635
 11
121.357163302533
 21
-44.184645994635
  0
LINE
  5
276
100
AcDbEntity
  8
971
  6
CONTINUOUS
 62
           3
100
AcDbLine
 10
123.754107356088
 20
-44.782451109461
 11
122.968280525666
 21
-44.782451109461
  0
LINE
  5
275
100
AcDbEntity
  8
971
  6
CONTINUOUS
 62
           3
100
AcDbLine
 10
123.9737253282
 20
-44.184645994635
 11
123.9737253282
 21
-44.53894463621
  0
LINE
  5
274
100
AcDbEntity
  8
971
  6
CONTINUOUS
 62
           3
100
AcDbLine
 10
122.968280525666
 20
-44.184645994635
 11
123.9737253282
 21
-44.184645994635
  0
LINE
  5
273
100
AcDbEntity
  8
971
  6
CONTINUOUS
 62
           3
100
AcDbLine
 10
122.968280525666
 20
-43.014483549016
 11
122.968280525666
 21
-44.184645994635
  0
LINE
  5
272
100
AcDbEntity
  8
971
  6
CONTINUOUS
 62
           3
100
AcDbLine
 10
122.278722354165
 20
-43.014483549016
 11
122.968280525666
 21
-43.014483549016
  0
LINE
  5
271
100
AcDbEntity
  8
971
  6
CONTINUOUS
 62
           3
100
AcDbLine
 10
122.278722354165
 20
-44.184645994635
 11
122.278722354165
 21
-43.014483549016
  0
LINE
  5
270
100
AcDbEntity
  8
971
  6
CONTINUOUS
 62
           3
100
AcDbLine
 10
113.193941199768
 20
-43.644084361875
 11
113.193941199768
 21
-43.15711018962
  0
LINE
  5
26F
100
AcDbEntity
  8
971
  6
CONTINUOUS
 62
           3
100
AcDbLine
 10
112.436837617177
 20
-43.644084361875
 11
113.193941199768
 21
-43.644084361875
  0
LINE
  5
26E
100
AcDbEntity
  8
971
  6
CONTINUOUS
 62
           3
100
AcDbLine
 10
112.436837617177
 20
-43.15711018962
 11
112.436837617177
 21
-43.644084361875
  0
LINE
  5
26D
100
AcDbEntity
  8
971
  6
CONTINUOUS
 62
           3
100
AcDbLine
 10
102.274464635921
 20
-43.147941418262
 11
97.604676450332
 21
-43.147941418262
  0
LINE
  5
26C
100
AcDbEntity
  8
971
  6
CONTINUOUS
 62
           3
100
AcDbLine
 10
102.274464635922
 20
-47.453745737425
 11
102.274464635921
 21
-43.147941418262
  0
LINE
  5
26B
100
AcDbEntity
  8
971
  6
CONTINUOUS
 62
           3
100
AcDbLine
 10
97.935026019365
 20
-47.793755680145
 11
101.944185540143
 21
-47.793755680145
  0
LINE
  5
26A
100
AcDbEntity
  8
971
  6
CONTINUOUS
 62
           3
100
AcDbLine
 10
97.604676450332
 20
-43.147941418262
 11
97.604676450332
 21
-47.46062639489
  0
LINE
  5
269
100
AcDbEntity
  8
971
  6
CONTINUOUS
 62
           3
100
AcDbLine
 10
76.753085610722
 20
-43.643623344351
 11
78.351031714664
 21
-43.643623344351
  0
LINE
  5
268
100
AcDbEntity
  8
971
  6
CONTINUOUS
 62
           3
100
AcDbLine
 10
78.351031714664
 20
-43.643623344351
 11
78.351031714664
 21
-42.811690622179
  0
LINE
  5
267
100
AcDbEntity
  8
971
  6
CONTINUOUS
 62
           3
100
AcDbLine
 10
78.351031714664
 20
-42.811690622179
 11
78.884539526787
 21
-42.811690622179
  0
LINE
  5
266
100
AcDbEntity
  8
971
  6
CONTINUOUS
 62
           3
100
AcDbLine
 10
79.144850101784
 20
-43.113176862096
 11
79.144850101784
 21
-43.646222363661
  0
LINE
  5
265
100
AcDbEntity
  8
971
  6
CONTINUOUS
 62
           3
100
AcDbLine
 10
76.753085610722
 20
-43.643623344351
 11
76.753085610722
 21
-44.352618977612
  0
LINE
  5
264
100
AcDbEntity
  8
971
  6
CONTINUOUS
 62
           3
100
AcDbLine
 10
76.753085610722
 20
-44.352618977612
 11
79.524774877554
 21
-44.352618977612
  0
LINE
  5
263
100
AcDbEntity
  8
971
  6
CONTINUOUS
 62
           3
100
AcDbLine
 10
76.272375018071
 20
-46.289295905009
 11
76.272375018071
 21
-47.018622317103
  0
LINE
  5
262
100
AcDbEntity
  8
971
  6
CONTINUOUS
 62
           3
100
AcDbLine
 10
78.348460888769
 20
-46.218225923986
 11
78.348460888769
 21
-47.917901831684
  0
LINE
  5
261
100
AcDbEntity
  8
971
  6
CONTINUOUS
 62
           3
100
AcDbLine
 10
78.348460888769
 20
-47.917901831684
 11
79.158816903554
 21
-47.917901831684
  0
LINE
  5
260
100
AcDbEntity
  8
971
  6
CONTINUOUS
 62
           3
100
AcDbLine
 10
79.158816903554
 20
-47.917901831684
 11
79.158816903554
 21
-45.79149077897
  0
LINE
  5
25F
100
AcDbEntity
  8
971
  6
CONTINUOUS
 62
           3
100
AcDbLine
 10
79.144850101784
 20
-43.646222363661
 11
80.530038129181
 21
-43.646222363661
  0
LINE
  5
25E
100
AcDbEntity
  8
971
  6
CONTINUOUS
 62
           3
100
AcDbLine
 10
79.578960938394
 20
-45.564777002568
 11
79.578960938394
 21
-46.347143653754
  0
LINE
  5
25D
100
AcDbEntity
  8
971
  6
CONTINUOUS
 62
           3
100
AcDbLine
 10
81.348070117756
 20
-46.33468558606
 11
81.348070117756
 21
-47.072203193548
  0
LINE
  5
25C
100
AcDbEntity
  8
971
  6
CONTINUOUS
 62
           3
100
AcDbLine
 10
71.477637018055
 20
-43.304319634132
 11
71.477637018055
 21
-44.014130759166
  0
LINE
  5
25B
100
AcDbEntity
  8
971
  6
CONTINUOUS
 62
           3
100
AcDbLine
 10
71.477637018055
 20
-44.014130759166
 11
75.391271434626
 21
-44.014130759165
  0
LINE
  5
25A
100
AcDbEntity
  8
971
  6
CONTINUOUS
 62
           3
100
AcDbLine
 10
71.477637018055
 20
-43.304319634132
 11
75.936004319521
 21
-43.304319634132
  0
LINE
  5
259
100
AcDbEntity
  8
971
  6
CONTINUOUS
 62
           3
100
AcDbLine
 10
74.061382891569
 20
-45.222196244863
 11
74.06138289157
 21
-44.541503147137
  0
LINE
  5
258
100
AcDbEntity
  8
971
  6
CONTINUOUS
 62
           3
100
AcDbLine
 10
74.06138289157
 20
-44.541503147137
 11
73.243792621943
 21
-44.541503147137
  0
LINE
  5
257
100
AcDbEntity
  8
971
  6
CONTINUOUS
 62
           3
100
AcDbLine
 10
73.243792621943
 20
-44.541503147137
 11
73.243792621943
 21
-45.459577666182
  0
LINE
  5
256
100
AcDbEntity
  8
971
  6
CONTINUOUS
 62
           3
100
AcDbLine
 10
71.593671332901
 20
-47.185449197834
 11
71.593671332901
 21
-47.915203216156
  0
LINE
  5
255
100
AcDbEntity
  8
971
  6
CONTINUOUS
 62
           3
100
AcDbLine
 10
82.211168013944
 20
-43.324156471685
 11
85.58865007682
 21
-43.324156471685
  0
LINE
  5
254
100
AcDbEntity
  8
971
  6
CONTINUOUS
 62
           3
100
AcDbLine
 10
82.211168013943
 20
-44.014130759166
 11
84.941811087809
 21
-44.014130759166
  0
LINE
  5
253
100
AcDbEntity
  8
971
  6
CONTINUOUS
 62
           3
100
AcDbLine
 10
82.211168013944
 20
-43.324156471685
 11
82.211168013943
 21
-44.014130759166
  0
LINE
  5
252
100
AcDbEntity
  8
971
  6
CONTINUOUS
 62
           3
100
AcDbLine
 10
81.863456556125
 20
-47.035078122485
 11
81.863456556125
 21
-47.790315673313
  0
LINE
  5
251
100
AcDbEntity
  8
971
  6
CONTINUOUS
 62
           3
100
AcDbLine
 10
86.678009197381
 20
-47.799987627632
 11
86.678009197381
 21
-46.996404899983
  0
LINE
  5
250
100
AcDbEntity
  8
971
  6
CONTINUOUS
 62
           3
100
AcDbLine
 10
87.211455828248
 20
-42.958692443398
 11
87.211455828248
 21
-47.820060873181
  0
LINE
  5
24F
100
AcDbEntity
  8
971
  6
CONTINUOUS
 62
           3
100
AcDbLine
 10
87.211455828248
 20
-47.820060873181
 11
88.032880867686
 21
-47.820060873181
  0
LINE
  5
24E
100
AcDbEntity
  8
971
  6
CONTINUOUS
 62
           3
100
AcDbLine
 10
88.032880867686
 20
-47.820060873181
 11
88.032880867686
 21
-45.419340278559
  0
LINE
  5
24D
100
AcDbEntity
  8
971
  6
CONTINUOUS
 62
           3
100
AcDbLine
 10
89.924574414392
 20
-45.736057326649
 11
90.932028065703
 21
-45.736057326649
  0
LINE
  5
24C
100
AcDbEntity
  8
971
  6
CONTINUOUS
 62
           3
100
AcDbLine
 10
91.197783225521
 20
-45.443703128412
 11
91.197783225521
 21
-45.019064269032
  0
LINE
  5
24B
100
AcDbEntity
  8
971
  6
CONTINUOUS
 62
           3
100
AcDbLine
 10
91.197783225521
 20
-45.019064269032
 11
90.073040044242
 21
-45.019064269032
  0
LINE
  5
24A
100
AcDbEntity
  8
971
  6
CONTINUOUS
 62
           3
100
AcDbLine
 10
88.032880867686
 20
-44.586922949254
 11
88.032880867686
 21
-43.304319634132
  0
LINE
  5
249
100
AcDbEntity
  8
971
  6
CONTINUOUS
 62
           3
100
AcDbLine
 10
87.211455828248
 20
-42.958692443398
 11
87.773113023296
 21
-42.958692443398
  0
LINE
  5
248
100
AcDbEntity
  8
971
  6
CONTINUOUS
 62
           3
100
AcDbLine
 10
92.12954467612
 20
-43.117519799866
 11
92.820939109604
 21
-43.117519799866
  0
LINE
  5
247
100
AcDbEntity
  8
971
  6
CONTINUOUS
 62
           3
100
AcDbLine
 10
93.979620815373
 20
-42.971090466868
 11
94.680551723802
 21
-42.971090466868
  0
LINE
  5
246
100
AcDbEntity
  8
971
  6
CONTINUOUS
 62
           3
100
AcDbLine
 10
95.853538141988
 20
-43.117519799866
 11
96.540164338
 21
-43.117519799866
  0
LINE
  5
245
100
AcDbEntity
  8
971
  6
CONTINUOUS
 62
           3
100
AcDbLine
 10
92.820939109603
 20
-43.737798195866
 11
93.979620815373
 21
-43.737798195866
  0
LINE
  5
244
100
AcDbEntity
  8
971
  6
CONTINUOUS
 62
           3
100
AcDbLine
 10
94.680551723802
 20
-43.737798195866
 11
95.853538141988
 21
-43.737798195866
  0
LINE
  5
243
100
AcDbEntity
  8
971
  6
CONTINUOUS
 62
           3
100
AcDbLine
 10
92.391797737096
 20
-44.343048113971
 11
96.29221598944
 21
-44.343048113971
  0
LINE
  5
242
100
AcDbEntity
  8
971
  6
CONTINUOUS
 62
           3
100
AcDbLine
 10
93.778126695849
 20
-45.36242036166
 11
96.678443224696
 21
-45.362420361659
  0
LINE
  5
241
100
AcDbEntity
  8
971
  6
CONTINUOUS
 62
           3
100
AcDbLine
 10
95.853538141988
 20
-43.117519799866
 11
95.853538141988
 21
-43.737798195866
  0
LINE
  5
240
100
AcDbEntity
  8
971
  6
CONTINUOUS
 62
           3
100
AcDbLine
 10
94.680551723802
 20
-42.971090466868
 11
94.680551723802
 21
-43.737798195866
  0
LINE
  5
23F
100
AcDbEntity
  8
971
  6
CONTINUOUS
 62
           3
100
AcDbLine
 10
93.979620815373
 20
-42.971090466868
 11
93.979620815373
 21
-43.737798195866
  0
LINE
  5
23E
100
AcDbEntity
  8
971
  6
CONTINUOUS
 62
           3
100
AcDbLine
 10
92.820939109604
 20
-43.117519799866
 11
92.820939109603
 21
-43.737798195866
  0
LINE
  5
23D
100
AcDbEntity
  8
971
  6
CONTINUOUS
 62
           3
100
AcDbLine
 10
92.12954467612
 20
-43.117519799866
 11
92.12954467612
 21
-44.044929815118
  0
LINE
  5
23C
100
AcDbEntity
  8
971
  6
CONTINUOUS
 62
           3
100
AcDbLine
 10
96.540164338
 20
-43.117519799866
 11
96.540164338
 21
-44.044929815118
  0
LINE
  5
23B
100
AcDbEntity
  8
971
  6
CONTINUOUS
 62
           3
100
AcDbLine
 10
96.883477436005
 20
-45.12757889414
 11
96.883477436006
 21
-44.732525246342
  0
LINE
  5
23A
100
AcDbEntity
  8
971
  6
CONTINUOUS
 62
           3
100
AcDbLine
 10
96.883477436006
 20
-44.732525246342
 11
91.752853915808
 21
-44.732525246342
  0
LINE
  5
239
100
AcDbEntity
  8
971
  6
CONTINUOUS
 62
           3
100
AcDbLine
 10
91.752853915808
 20
-44.732525246342
 11
91.752853915808
 21
-45.36242036166
  0
LINE
  5
238
100
AcDbEntity
  8
971
  6
CONTINUOUS
 62
           3
100
AcDbLine
 10
91.752853915808
 20
-45.36242036166
 11
92.990993428273
 21
-45.36242036166
  0
LINE
  5
237
100
AcDbEntity
  8
971
  6
CONTINUOUS
 62
           3
100
AcDbLine
 10
91.752853915808
 20
-46.350066966257
 11
91.752853915808
 21
-46.990849155625
  0
LINE
  5
236
100
AcDbEntity
  8
971
  6
CONTINUOUS
 62
           3
100
AcDbLine
 10
92.740469579362
 20
-46.526672789181
 11
92.740469579362
 21
-47.51406778342
  0
LINE
  5
235
100
AcDbEntity
  8
971
  6
CONTINUOUS
 62
           3
100
AcDbLine
 10
96.521091388111
 20
-45.809597809938
 11
93.547755774005
 21
-45.809597809938
  0
LINE
  5
234
100
AcDbEntity
  8
971
  6
CONTINUOUS
 62
           3
100
AcDbLine
 10
96.521091388111
 20
-45.809597809938
 11
96.521091388111
 21
-47.495782342442
  0
LINE
  5
233
100
AcDbEntity
  8
971
  6
CONTINUOUS
 62
           3
100
AcDbLine
 10
93.036710871296
 20
-47.793755680145
 11
96.259791839808
 21
-47.793755680145
  0
LINE
  5
232
100
AcDbEntity
  8
971
  6
CONTINUOUS
 62
           3
100
AcDbLine
 10
95.807899348168
 20
-46.423078326715
 11
93.431245985977
 21
-46.423078326715
  0
LINE
  5
231
100
AcDbEntity
  8
971
  6
CONTINUOUS
 62
           3
100
AcDbLine
 10
93.431245985977
 20
-46.423078326715
 11
93.431245985977
 21
-47.174887978763
  0
LINE
  5
230
100
AcDbEntity
  8
971
  6
CONTINUOUS
 62
           3
100
AcDbLine
 10
93.431245985977
 20
-47.174887978763
 11
95.807899348168
 21
-47.174887978763
  0
LINE
  5
22F
100
AcDbEntity
  8
971
  6
CONTINUOUS
 62
           3
100
AcDbLine
 10
95.807899348168
 20
-47.174887978763
 11
95.807899348168
 21
-46.423078326715
  0
LINE
  5
22E
100
AcDbEntity
  8
971
  6
CONTINUOUS
 62
           3
100
AcDbLine
 10
98.315038547908
 20
-47.174887978763
 11
99.576810886234
 21
-47.174887978763
  0
LINE
  5
22D
100
AcDbEntity
  8
971
  6
CONTINUOUS
 62
           3
100
AcDbLine
 10
99.576810886234
 20
-47.174887978763
 11
99.576810886234
 21
-45.762847535371
  0
LINE
  5
22C
100
AcDbEntity
  8
971
  6
CONTINUOUS
 62
           3
100
AcDbLine
 10
99.576810886234
 20
-45.762847535371
 11
98.315038547908
 21
-45.762847535371
  0
LINE
  5
22B
100
AcDbEntity
  8
971
  6
CONTINUOUS
 62
           3
100
AcDbLine
 10
98.315038547908
 20
-45.762847535371
 11
98.315038547908
 21
-47.174887978763
  0
LINE
  5
22A
100
AcDbEntity
  8
971
  6
CONTINUOUS
 62
           3
100
AcDbLine
 10
98.315038547908
 20
-45.132586539519
 11
99.576810886234
 21
-45.132586539519
  0
LINE
  5
229
100
AcDbEntity
  8
971
  6
CONTINUOUS
 62
           3
100
AcDbLine
 10
99.576810886234
 20
-45.132586539519
 11
99.576810886234
 21
-43.781778173808
  0
LINE
  5
228
100
AcDbEntity
  8
971
  6
CONTINUOUS
 62
           3
100
AcDbLine
 10
99.576810886234
 20
-43.781778173808
 11
98.315038547908
 21
-43.781778173808
  0
LINE
  5
227
100
AcDbEntity
  8
971
  6
CONTINUOUS
 62
           3
100
AcDbLine
 10
98.315038547908
 20
-43.781778173808
 11
98.315038547908
 21
-45.132586539519
  0
LINE
  5
226
100
AcDbEntity
  8
971
  6
CONTINUOUS
 62
           3
100
AcDbLine
 10
100.297875359401
 20
-45.132586539519
 11
101.559647697727
 21
-45.132586539519
  0
LINE
  5
225
100
AcDbEntity
  8
971
  6
CONTINUOUS
 62
           3
100
AcDbLine
 10
101.559647697727
 20
-45.132586539519
 11
101.559647697727
 21
-43.781778173808
  0
LINE
  5
224
100
AcDbEntity
  8
971
  6
CONTINUOUS
 62
           3
100
AcDbLine
 10
101.559647697727
 20
-43.781778173808
 11
100.297875359401
 21
-43.781778173808
  0
LINE
  5
223
100
AcDbEntity
  8
971
  6
CONTINUOUS
 62
           3
100
AcDbLine
 10
100.297875359401
 20
-43.781778173808
 11
100.297875359401
 21
-45.132586539519
  0
LINE
  5
222
100
AcDbEntity
  8
971
  6
CONTINUOUS
 62
           3
100
AcDbLine
 10
100.2978753594
 20
-47.174887978763
 11
101.559647697727
 21
-47.174887978763
  0
LINE
  5
221
100
AcDbEntity
  8
971
  6
CONTINUOUS
 62
           3
100
AcDbLine
 10
101.559647697727
 20
-47.174887978763
 11
101.559647697727
 21
-45.762847535371
  0
LINE
  5
220
100
AcDbEntity
  8
971
  6
CONTINUOUS
 62
           3
100
AcDbLine
 10
101.559647697727
 20
-45.762847535371
 11
100.2978753594
 21
-45.762847535371
  0
LINE
  5
21F
100
AcDbEntity
  8
971
  6
CONTINUOUS
 62
           3
100
AcDbLine
 10
100.2978753594
 20
-45.762847535371
 11
100.2978753594
 21
-47.174887978763
  0
LINE
  5
21E
100
AcDbEntity
  8
971
  6
CONTINUOUS
 62
           3
100
AcDbLine
 10
121.368240643959
 20
-45.898633376069
 11
121.368240643959
 21
-46.553151526017
  0
LINE
  5
21D
100
AcDbEntity
  8
971
  6
CONTINUOUS
 62
           3
100
AcDbLine
 10
119.019525490281
 20
-46.132277709623
 11
119.019525490281
 21
-46.7729504473
  0
LINE
  5
21C
100
AcDbEntity
  8
971
  6
CONTINUOUS
 62
           3
100
AcDbLine
 10
120.518592395989
 20
-46.026319636275
 11
120.53510987444
 21
-46.293523833075
  0
LINE
  5
21B
100
AcDbEntity
  8
971
  6
CONTINUOUS
 62
           3
100
AcDbLine
 10
119.890569829918
 20
-46.24764746995
 11
119.874052351466
 21
-46.509892457362
  0
LINE
  5
21A
100
AcDbEntity
  8
971
  6
CONTINUOUS
 62
           3
100
AcDbLine
 10
119.874052351466
 20
-47.91542222699
 11
120.53510987444
 21
-47.91542222699
  0
LINE
  5
219
100
AcDbEntity
  8
971
  6
CONTINUOUS
 62
           3
100
AcDbLine
 10
117.72588267747
 20
-44.722168866236
 11
117.725543768173
 21
-44.929637042123
  0
LINE
  5
218
100
AcDbEntity
  8
971
  6
CONTINUOUS
 62
           3
100
AcDbLine
 10
118.37622890641
 20
-46.236858870679
 11
115.729384401288
 21
-46.236502040673
  0
LINE
  5
217
100
AcDbEntity
  8
971
  6
CONTINUOUS
 62
           3
100
AcDbLine
 10
116.862604089749
 20
-46.519813479274
 11
117.593932383819
 21
-46.519865584017
  0
LINE
  5
216
100
AcDbEntity
  8
971
  6
CONTINUOUS
 62
           3
100
AcDbLine
 10
117.774931597738
 20
-47.909153212872
 11
118.563422020625
 21
-47.909153212872
  0
LINE
  5
215
100
AcDbEntity
  8
971
  6
CONTINUOUS
 62
           3
100
AcDbLine
 10
114.37073520449
 20
-47.865559978746
 11
115.855380209096
 21
-47.851908773557
  0
LINE
  5
214
100
AcDbEntity
  8
971
  6
CONTINUOUS
 62
           3
100
AcDbLine
 10
114.132877744095
 20
-47.282556282015
 11
114.132403043264
 21
-47.573151188651
  0
LINE
  5
213
100
AcDbEntity
  8
971
  6
CONTINUOUS
 62
           3
100
AcDbLine
 10
113.795221312848
 20
-45.639030264378
 11
118.615921606456
 21
-45.639030264378
  0
LINE
  5
212
100
AcDbEntity
  8
971
  6
CONTINUOUS
 62
           3
100
AcDbLine
 10
113.797149973779
 20
-44.457802845052
 11
113.796202733621
 21
-45.037669461694
  0
LINE
  5
211
100
AcDbEntity
  8
971
  6
CONTINUOUS
 62
           3
100
AcDbLine
 10
118.625893684378
 20
-44.453778056679
 11
118.624940963635
 21
-45.036999692441
  0
LINE
  5
210
100
AcDbEntity
  8
971
  6
CONTINUOUS
 62
           3
100
AcDbLine
 10
114.994500967179
 20
-44.560574911059
 11
117.434022835861
 21
-44.560574911059
  0
LINE
  5
20F
100
AcDbEntity
  8
971
  6
CONTINUOUS
 62
           3
100
AcDbLine
 10
115.843396275104
 20
-43.067017725252
 11
116.564038362487
 21
-43.066250264272
  0
LINE
  5
20E
100
AcDbEntity
  8
971
  6
CONTINUOUS
 62
           3
100
AcDbLine
 10
111.593524189278
 20
-46.752035252471
 11
111.592808009739
 21
-47.190454805293
  0
LINE
  5
20D
100
AcDbEntity
  8
971
  6
CONTINUOUS
 62
           3
100
AcDbLine
 10
110.337056741357
 20
-45.880460464674
 11
110.33524505443
 21
-46.995854126237
  0
LINE
  5
20C
100
AcDbEntity
  8
971
  6
CONTINUOUS
 62
           3
100
AcDbLine
 10
108.767989086826
 20
-45.281188418534
 11
111.305800011409
 21
-45.281188418534
  0
LINE
  5
20B
100
AcDbEntity
  8
971
  6
CONTINUOUS
 62
           3
100
AcDbLine
 10
104.819209369105
 20
-46.970336464258
 11
104.819209369105
 21
-47.662941018128
  0
LINE
  5
20A
100
AcDbEntity
  8
971
  6
CONTINUOUS
 62
           3
100
AcDbLine
 10
106.994817466147
 20
-45.548911388175
 11
106.994726815258
 21
-45.603091465609
  0
LINE
  5
209
100
AcDbEntity
  8
971
  6
CONTINUOUS
 62
           3
100
AcDbLine
 10
107.78532868594
 20
-45.548911388175
 11
106.994817466147
 21
-45.548911388175
  0
LINE
  5
208
100
AcDbEntity
  8
971
  6
CONTINUOUS
 62
           3
100
AcDbLine
 10
105.206853392594
 20
-44.368490614586
 11
106.102687553101
 21
-44.368490614586
  0
LINE
  5
207
100
AcDbEntity
  8
971
  6
CONTINUOUS
 62
           3
100
AcDbLine
 10
103.646044483953
 20
-47.917901831684
 11
104.256331252744
 21
-47.917901831684
  0
LINE
  5
206
100
AcDbEntity
  8
971
  6
CONTINUOUS
 62
           3
100
AcDbLine
 10
103.662352969591
 20
-45.660670193791
 11
103.645858632013
 21
-45.970178589954
  0
LINE
  5
205
100
AcDbEntity
  8
971
  6
CONTINUOUS
 62
           3
100
AcDbLine
 10
102.92207500386
 20
-45.945177543732
 11
102.92207500386
 21
-46.682258527271
  0
LINE
  5
204
100
AcDbEntity
  8
971
  6
CONTINUOUS
 62
           3
100
AcDbLine
 10
104.256331252744
 20
-47.917901831684
 11
104.256331252744
 21
-45.843254429748
  0
LINE
  5
203
100
AcDbEntity
  8
971
  6
CONTINUOUS
 62
           3
100
AcDbLine
 10
104.76742254116
 20
-45.32921965118
 11
104.76742254116
 21
-45.992025057891
  0
LINE
  5
202
100
AcDbEntity
  8
971
  6
CONTINUOUS
 62
           3
100
AcDbLine
 10
104.259140274921
 20
-42.985720134564
 11
104.259140274921
 21
-43.872792885238
  0
LINE
  5
201
100
AcDbEntity
  8
971
  6
CONTINUOUS
 62
           3
100
AcDbLine
 10
103.6382104985
 20
-42.985720134564
 11
103.6382104985
 21
-43.872792885238
  0
LINE
  5
200
100
AcDbEntity
  8
971
  6
CONTINUOUS
 62
           3
100
AcDbLine
 10
103.6382104985
 20
-42.985720134564
 11
104.259140274921
 21
-42.985720134564
  0
LINE
  5
1FF
100
AcDbEntity
  8
971
  6
CONTINUOUS
 62
           3
100
AcDbLine
 10
113.193941199768
 20
-43.15711018962
 11
112.436837617177
 21
-43.15711018962
  0
LINE
  5
1FE
100
AcDbEntity
  8
971
  6
CONTINUOUS
 62
           3
100
AcDbLine
 10
120.53510987444
 20
-46.293523833075
 11
120.53510987444
 21
-47.91542222699
  0
LINE
  5
1FD
100
AcDbEntity
  8
971
  6
CONTINUOUS
 62
           3
100
AcDbLine
 10
119.874052351466
 20
-46.509892457362
 11
119.874052351466
 21
-47.91542222699
  0
LINE
  5
1FC
100
AcDbEntity
  8
971
  6
CONTINUOUS
 62
           3
100
AcDbLine
 10
104.256331252744
 20
-45.843254429748
 11
104.239813774292
 21
-45.575085355118
  0
LINE
  5
1FB
100
AcDbEntity
  8
971
  6
CONTINUOUS
 62
           3
100
AcDbLine
 10
103.645858632013
 20
-45.970178589954
 11
103.646044483953
 21
-47.917901831684
  0
LINE
  5
1FA
100
AcDbEntity
  8
971
  6
CONTINUOUS
 62
           3
100
AcDbLine
 10
79.524774877554
 20
-44.352618977612
 11
79.793261682417
 21
-44.339096235416
  0
LINE
  5
1F9
100
AcDbEntity
  8
971
  6
CONTINUOUS
 62
           3
100
AcDbLine
 10
117.484645433168
 20
-45.152963646865
 11
114.620287244371
 21
-45.152963646865
  0
LINE
  5
1F8
100
AcDbEntity
  8
971
  6
CONTINUOUS
 62
           3
100
AcDbLine
 10
114.620287244371
 20
-45.152963646865
 11
114.620287244371
 21
-44.75077723514
  0
LINE
  5
1F7
100
AcDbEntity
  8
971
  6
CONTINUOUS
 62
           3
100
AcDbLine
 10
113.795221312848
 20
-45.639030264378
 11
113.795221312848
 21
-46.236502040673
  0
LINE
  5
1F6
100
AcDbEntity
  8
971
  6
CONTINUOUS
 62
           3
100
AcDbLine
 10
113.795221312848
 20
-46.236502040673
 11
114.933413322504
 21
-46.236502040673
  0
LINE
  5
1F5
100
AcDbEntity
  8
971
  6
CONTINUOUS
 62
           3
100
AcDbLine
 10
118.615921606456
 20
-45.639030264378
 11
118.615921606456
 21
-45.977058321797
  0
LINE
  5
1F4
100
AcDbEntity
  8
971
  6
CONTINUOUS
 62
           3
100
AcDbLine
 10
113.350115779913
 20
-43.901109665014
 11
112.137344090675
 21
-43.901109665014
  0
LINE
  5
1F3
100
AcDbEntity
  8
971
  6
CONTINUOUS
 62
           3
100
AcDbLine
 10
108.555306474986
 20
-44.525015785732
 11
111.498223727204
 21
-44.525015785732
  0
LINE
  5
1F2
100
AcDbEntity
  8
971
  6
CONTINUOUS
 62
           3
100
AcDbLine
 10
113.350115779913
 20
-43.901109665014
 11
113.350115779913
 21
-44.321998443718
  0
LINE
  5
1F1
100
AcDbEntity
  8
971
  6
CONTINUOUS
 62
           3
100
AcDbLine
 10
113.140395587711
 20
-44.525015785732
 11
112.18153625896
 21
-44.525015785732
  0
LINE
  5
1F0
100
AcDbEntity
  8
971
  6
CONTINUOUS
 62
           3
100
AcDbLine
 10
108.555306474986
 20
-44.525015785732
 11
108.555306474986
 21
-43.901109665014
  0
LINE
  5
1EF
100
AcDbEntity
  8
971
  6
CONTINUOUS
 62
           3
100
AcDbLine
 10
108.555306474986
 20
-43.901109665014
 11
111.45469192693
 21
-43.901109665014
  0
LINE
  5
1EE
100
AcDbEntity
  8
971
  6
CONTINUOUS
 62
           3
100
AcDbLine
 10
108.767989086826
 20
-45.880460464674
 11
108.767989086826
 21
-45.281188418534
  0
LINE
  5
1ED
100
AcDbEntity
  8
971
  6
CONTINUOUS
 62
           3
100
AcDbLine
 10
108.767989086826
 20
-45.880460464674
 11
109.65569546029
 21
-45.880460464674
  0
LINE
  5
1EC
100
AcDbEntity
  8
971
  6
CONTINUOUS
 62
           3
100
AcDbLine
 10
109.65569546029
 20
-45.880460464674
 11
109.65569546029
 21
-47.097937591577
  0
LINE
  5
1EB
100
AcDbEntity
  8
971
  6
CONTINUOUS
 62
           3
100
AcDbLine
 10
110.337056741357
 20
-45.880460464674
 11
111.088181368228
 21
-45.880460464674
  0
LINE
  5
1EA
100
AcDbEntity
  8
971
  6
CONTINUOUS
 62
           3
100
AcDbLine
 10
111.305800011409
 20
-45.661479241388
 11
111.305800011409
 21
-45.281188418534
  0
LINE
  5
1E9
100
AcDbEntity
  8
971
  6
CONTINUOUS
 62
           3
100
AcDbLine
 10
108.575587701638
 20
-47.200614605504
 11
108.575587701638
 21
-47.821305333405
  0
LINE
  5
1E8
100
AcDbEntity
  8
971
  6
CONTINUOUS
 62
           3
100
AcDbLine
 10
112.087157530986
 20
-43.004485669375
 11
111.42536795342
 21
-43.004485669375
  0
LINE
  5
1E7
100
AcDbEntity
  8
971
  6
CONTINUOUS
 62
           3
100
AcDbLine
 10
113.353797392371
 20
-47.917901831684
 11
113.353797392371
 21
-47.295592765
  0
LINE
  5
1E6
100
AcDbEntity
  8
971
  6
CONTINUOUS
 62
           3
100
AcDbLine
 10
104.769831018401
 20
-43.872792885238
 11
104.259140274921
 21
-43.872792885238
  0
LINE
  5
1E5
100
AcDbEntity
  8
971
  6
CONTINUOUS
 62
           3
100
AcDbLine
 10
102.976765473503
 20
-43.872792885238
 11
103.6382104985
 21
-43.872792885238
  0
LINE
  5
1E4
100
AcDbEntity
  8
971
  6
CONTINUOUS
 62
           3
100
AcDbLine
 10
104.769831018401
 20
-43.872792885238
 11
104.769831018401
 21
-44.235156667819
  0
LINE
  5
1E3
100
AcDbEntity
  8
971
  6
CONTINUOUS
 62
           3
100
AcDbLine
 10
102.976765473503
 20
-43.872792885238
 11
102.976765473503
 21
-44.433034878164
  0
LINE
  5
1E2
100
AcDbEntity
  8
971
  6
CONTINUOUS
 62
           3
100
AcDbLine
 10
102.976765473503
 20
-44.433034878164
 11
103.637262911681
 21
-44.433034878164
  0
LINE
  5
1E1
100
AcDbEntity
  8
971
  6
CONTINUOUS
 62
           3
100
AcDbLine
 10
103.637262911681
 20
-44.433034878164
 11
103.637194819896
 21
-44.474718238951
  0
LINE
  5
1E0
100
AcDbEntity
  8
971
  6
CONTINUOUS
 62
           3
100
AcDbLine
 10
104.56611523844
 20
-44.433034878164
 11
104.258194373042
 21
-44.433034878164
  0
LINE
  5
1DF
100
AcDbEntity
  8
971
  6
CONTINUOUS
 62
           3
100
AcDbLine
 10
104.258194373042
 20
-44.433034878164
 11
104.257557565102
 21
-44.842702808866
  0
LINE
  5
1DE
100
AcDbEntity
  8
971
  6
CONTINUOUS
 62
           3
100
AcDbLine
 10
107.862635368155
 20
-43.783791885057
 11
107.862635368155
 21
-44.113140813274
  0
LINE
  5
1DD
100
AcDbEntity
  8
971
  6
CONTINUOUS
 62
           3
100
AcDbLine
 10
104.949499432588
 20
-44.033642033046
 11
104.949499432588
 21
-43.167449142332
  0
LINE
  5
1DC
100
AcDbEntity
  8
971
  6
CONTINUOUS
 62
           3
100
AcDbLine
 10
104.949499432588
 20
-43.167449142332
 11
105.553977492721
 21
-43.167449142332
  0
LINE
  5
1DB
100
AcDbEntity
  8
971
  6
CONTINUOUS
 62
           3
100
AcDbLine
 10
105.553977492721
 20
-43.167449142332
 11
105.553977492721
 21
-43.783791885057
  0
LINE
  5
1DA
100
AcDbEntity
  8
971
  6
CONTINUOUS
 62
           3
100
AcDbLine
 10
105.553977492721
 20
-43.783791885057
 11
106.102687553101
 21
-43.783791885057
  0
LINE
  5
1D9
100
AcDbEntity
  8
971
  6
CONTINUOUS
 62
           3
100
AcDbLine
 10
106.102687553101
 20
-43.783791885057
 11
106.102687553101
 21
-42.985720134564
  0
LINE
  5
1D8
100
AcDbEntity
  8
971
  6
CONTINUOUS
 62
           3
100
AcDbLine
 10
106.102687553101
 20
-47.917901831684
 11
106.102687553101
 21
-46.24641603733
  0
LINE
  5
1D7
100
AcDbEntity
  8
971
  6
CONTINUOUS
 62
           3
100
AcDbLine
 10
108.010915217358
 20
-44.971509638886
 11
108.010282805708
 21
-45.358649479168
  0
LINE
  5
1D6
100
AcDbEntity
  8
971
  6
CONTINUOUS
 62
           3
100
AcDbLine
 10
106.102687553101
 20
-47.917901831684
 11
106.72726326054
 21
-47.917901831684
  0
LINE
  5
1D5
100
AcDbEntity
  8
971
  6
CONTINUOUS
 62
           3
100
AcDbLine
 10
106.72726326054
 20
-47.917901831684
 11
106.72726326054
 21
-46.224647511544
  0
LINE
  5
1D4
100
AcDbEntity
  8
971
  6
CONTINUOUS
 62
           3
100
AcDbLine
 10
108.010915217358
 20
-44.971509638886
 11
106.72726326054
 21
-44.971509638886
  0
LINE
  5
1D3
100
AcDbEntity
  8
971
  6
CONTINUOUS
 62
           3
100
AcDbLine
 10
106.72726326054
 20
-44.971509638886
 11
106.72726326054
 21
-44.368490614586
  0
LINE
  5
1D2
100
AcDbEntity
  8
971
  6
CONTINUOUS
 62
           3
100
AcDbLine
 10
106.72726326054
 20
-44.368490614586
 11
107.668420846464
 21
-44.368490614586
  0
LINE
  5
1D1
100
AcDbEntity
  8
971
  6
CONTINUOUS
 62
           3
100
AcDbLine
 10
107.862635368155
 20
-43.783791885057
 11
106.72726326054
 21
-43.783791885057
  0
LINE
  5
1D0
100
AcDbEntity
  8
971
  6
CONTINUOUS
 62
           3
100
AcDbLine
 10
106.72726326054
 20
-43.783791885057
 11
106.72726326054
 21
-42.985720134564
  0
LINE
  5
1CF
100
AcDbEntity
  8
971
  6
CONTINUOUS
 62
           3
100
AcDbLine
 10
106.72726326054
 20
-42.985720134564
 11
106.102687553101
 21
-42.985720134564
  0
LINE
  5
1CE
100
AcDbEntity
  8
971
  6
CONTINUOUS
 62
           3
100
AcDbLine
 10
106.102687553101
 20
-44.368490614586
 11
106.102687553101
 21
-44.971509638886
  0
LINE
  5
1CD
100
AcDbEntity
  8
971
  6
CONTINUOUS
 62
           3
100
AcDbLine
 10
106.102687553101
 20
-44.971509638886
 11
104.885773248324
 21
-44.971509638886
  0
LINE
  5
1CC
100
AcDbEntity
  8
971
  6
CONTINUOUS
 62
           3
100
AcDbLine
 10
108.040822622046
 20
-47.673893612254
 11
108.040822622046
 21
-47.000388582798
  0
LINE
  5
1CB
100
AcDbEntity
  8
971
  6
CONTINUOUS
 62
           3
100
AcDbLine
 10
104.885773248324
 20
-44.971509638886
 11
104.885773248324
 21
-45.548911388175
  0
LINE
  5
1CA
100
AcDbEntity
  8
971
  6
CONTINUOUS
 62
           3
100
AcDbLine
 10
104.885773248324
 20
-45.548911388175
 11
105.874904333037
 21
-45.548911388175
  0
LINE
  5
1C9
100
AcDbEntity
  8
1
  6
CONTINUOUS
 62
           6
100
AcDbLine
 10
-122.721547156303
 20
134.883176164108
 11
132.278452843697
 21
134.883176164108
  0
LINE
  5
1C8
100
AcDbEntity
  8
1
  6
CONTINUOUS
 62
           2
100
AcDbLine
 10
72.778452843697
 20
-17.616823835892
 11
72.778452843697
 21
-39.616823835892
  0
ENDBLK
  5
312
100
AcDbEntity
  8
0
100
AcDbBlockEnd
  0
BLOCK
  5
2D
100
AcDbEntity
  8
0
100
AcDbBlockBegin
  2
13188610C
 70
           0
 10
0.0
 20
0.0
 30
0.0
  3
13188610C
  1

  0
DIMENSION
  5
34D
100
AcDbEntity
  8
0
100
AcDbDimension
  2
*D8
 10
-52.53224072239
 20
-3.992051335623
 11
-41.926912778511
 21
-1.592051335623
 31
0.0
  1
<>
  3
ME10_DIM_5
100
AcDbAlignedDimension
 13
-30.53224072239
 23
15.262204376833
 14
-52.53224072239
 24
15.262204376833
100
AcDbRotatedDimension
  0
CIRCLE
  5
342
100
AcDbEntity
  8
1
  6
CONTINUOUS
 62
           7
100
AcDbCircle
 10
-41.53224072239
 20
21.613057337919
 40
1.75
  0
CIRCLE
  5
341
100
AcDbEntity
  8
1
  6
CONTINUOUS
 62
           3
100
AcDbCircle
 10
-41.53224072239
 20
21.613057337919
 40
1.1
  0
CIRCLE
  5
340
100
AcDbEntity
  8
1
  6
CONTINUOUS
 62
           3
100
AcDbCircle
 10
-41.53224072239
 20
21.613057337919
 40
0.5
  0
CIRCLE
  5
33F
100
AcDbEntity
  8
1
  6
CONTINUOUS
 62
           3
100
AcDbCircle
 10
-41.53224072239
 20
21.613057337919
 40
0.412536333254
  0
CIRCLE
  5
33E
100
AcDbEntity
  8
1
  6
CONTINUOUS
 62
           7
100
AcDbCircle
 10
-41.53224072239
 20
21.613057337919
 40
10.5
  0
CIRCLE
  5
33D
100
AcDbEntity
  8
1
  6
CONTINUOUS
 62
           7
100
AcDbCircle
 10
-41.53224072239
 20
21.613057337919
 40
11.0
  0
CIRCLE
  5
33C
100
AcDbEntity
  8
1
  6
CONTINUOUS
 62
           7
100
AcDbCircle
 10
-41.53224072239
 20
21.613057337919
 40
8.0
  0
ARC
  5
33B
100
AcDbEntity
  8
1
  6
CONTINUOUS
 62
           7
100
AcDbCircle
 10
-41.53224072239
 20
21.613057337919
 40
5.7497142846
100
AcDbArc
 50
90.0
 51
102.256209264436
  0
ARC
  5
33A
100
AcDbEntity
  8
1
  6
CONTINUOUS
 62
           7
100
AcDbCircle
 10
-41.53224072239
 20
21.613057337919
 40
5.7497142846
100
AcDbArc
 50
77.743790735564
 51
90.0
  0
ARC
  5
339
100
AcDbEntity
  8
1
  6
CONTINUOUS
 62
           7
100
AcDbCircle
 10
-41.53224072239
 20
21.613057337919
 40
4.3
100
AcDbArc
 50
90.0
 51
117.717747689609
  0
ARC
  5
338
100
AcDbEntity
  8
1
  6
CONTINUOUS
 62
           7
100
AcDbCircle
 10
-41.53224072239
 20
21.613057337919
 40
4.3
100
AcDbArc
 50
62.282252310391
 51
90.0
  0
ARC
  5
337
100
AcDbEntity
  8
1
  6
CONTINUOUS
 62
           7
100
AcDbCircle
 10
-41.53224072239
 20
21.613057337919
 40
7.25
100
AcDbArc
 50
90.0
 51
106.013394423949
  0
ARC
  5
336
100
AcDbEntity
  8
1
  6
CONTINUOUS
 62
           7
100
AcDbCircle
 10
-41.53224072239
 20
21.613057337919
 40
7.25
100
AcDbArc
 50
73.986605576051
 51
90.0
  0
ARC
  5
335
100
AcDbEntity
  8
1
  6
CONTINUOUS
 62
           7
100
AcDbCircle
 10
-41.53224072239
 20
21.613057337919
 40
7.75
100
AcDbArc
 50
90.0
 51
104.955248316643
  0
ARC
  5
334
100
AcDbEntity
  8
1
  6
CONTINUOUS
 62
           7
100
AcDbCircle
 10
-41.53224072239
 20
21.613057337919
 40
7.75
100
AcDbArc
 50
75.044751683356
 51
90.0
  0
ARC
  5
333
100
AcDbEntity
  8
1
  6
CONTINUOUS
 62
           7
100
AcDbCircle
 10
-41.53224072239
 20
21.613057337919
 40
5.7497142846
100
AcDbArc
 50
-102.256209264436
 51
-90.0
  0
ARC
  5
332
100
AcDbEntity
  8
1
  6
CONTINUOUS
 62
           7
100
AcDbCircle
 10
-41.53224072239
 20
21.613057337919
 40
5.7497142846
100
AcDbArc
 50
-90.0
 51
-77.743790735564
  0
ARC
  5
331
100
AcDbEntity
  8
1
  6
CONTINUOUS
 62
           7
100
AcDbCircle
 10
-41.53224072239
 20
21.613057337919
 40
4.3
100
AcDbArc
 50
-117.717747689608
 51
-90.0
  0
ARC
  5
330
100
AcDbEntity
  8
1
  6
CONTINUOUS
 62
           7
100
AcDbCircle
 10
-41.53224072239
 20
21.613057337919
 40
4.3
100
AcDbArc
 50
-90.0
 51
-62.282252310392
  0
ARC
  5
32F
100
AcDbEntity
  8
1
  6
CONTINUOUS
 62
           7
100
AcDbCircle
 10
-41.53224072239
 20
21.613057337919
 40
7.25
100
AcDbArc
 50
-106.013394423949
 51
-90.0
  0
ARC
  5
32E
100
AcDbEntity
  8
1
  6
CONTINUOUS
 62
           7
100
AcDbCircle
 10
-41.53224072239
 20
21.613057337919
 40
7.25
100
AcDbArc
 50
-90.0
 51
-73.986605576051
  0
ARC
  5
32D
100
AcDbEntity
  8
1
  6
CONTINUOUS
 62
           7
100
AcDbCircle
 10
-41.53224072239
 20
21.613057337919
 40
7.75
100
AcDbArc
 50
-104.955248316643
 51
-90.0
  0
ARC
  5
32C
100
AcDbEntity
  8
1
  6
CONTINUOUS
 62
           7
100
AcDbCircle
 10
-41.53224072239
 20
21.613057337919
 40
7.75
100
AcDbArc
 50
-90.0
 51
-75.044751683357
  0
LINE
  5
32B
100
AcDbEntity
  8
1
  6
CONTINUOUS
 62
           7
100
AcDbLine
 10
-52.53224072239
 20
15.262204376833
 11
-52.53224072239
 21
27.963910299005
  0
LINE
  5
32A
100
AcDbEntity
  8
1
  6
CONTINUOUS
 62
           7
100
AcDbLine
 10
-52.53224072239
 20
27.963910299005
 11
-41.53224072239
 21
34.314763260091
  0
LINE
  5
329
100
AcDbEntity
  8
1
  6
CONTINUOUS
 62
           7
100
AcDbLine
 10
-41.53224072239
 20
34.314763260091
 11
-30.53224072239
 21
27.963910299005
  0
LINE
  5
328
100
AcDbEntity
  8
1
  6
CONTINUOUS
 62
           7
100
AcDbLine
 10
-30.53224072239
 20
27.963910299005
 11
-30.53224072239
 21
15.262204376833
  0
LINE
  5
327
100
AcDbEntity
  8
1
  6
CONTINUOUS
 62
           7
100
AcDbLine
 10
-30.53224072239
 20
15.262204376833
 11
-41.53224072239
 21
8.911351415747
  0
LINE
  5
326
100
AcDbEntity
  8
1
  6
CONTINUOUS
 62
           7
100
AcDbLine
 10
-41.53224072239
 20
8.911351415747
 11
-52.53224072239
 21
15.262204376833
  0
LINE
  5
325
100
AcDbEntity
  8
1
  6
DOT_CENTER
 62
           2
100
AcDbLine
 10
-41.53224072239
 20
7.622395121649
 11
-41.53224072239
 21
36.681107004849
  0
LINE
  5
324
100
AcDbEntity
  8
1
  6
DOT_CENTER
 62
           2
100
AcDbLine
 10
-52.53224072239
 20
21.613057337919
 11
-54.813128138571
 21
21.613057337919
  0
LINE
  5
323
100
AcDbEntity
  8
1
  6
CONTINUOUS
 62
           7
100
AcDbLine
 10
-43.53224072239
 20
25.419630600054
 11
-43.53224072239
 21
28.581737270302
  0
LINE
  5
322
100
AcDbEntity
  8
1
  6
CONTINUOUS
 62
           7
100
AcDbLine
 10
-39.53224072239
 20
25.419630600054
 11
-39.53224072239
 21
28.581737270302
  0
LINE
  5
321
100
AcDbEntity
  8
1
  6
CONTINUOUS
 62
           7
100
AcDbLine
 10
-40.311670815918
 20
25.736188320973
 11
-40.311670815918
 21
27.231724747363
  0
LINE
  5
320
100
AcDbEntity
  8
1
  6
CONTINUOUS
 62
           7
100
AcDbLine
 10
-42.752810628862
 20
25.736188320973
 11
-42.752810628862
 21
27.231724747363
  0
LINE
  5
31F
100
AcDbEntity
  8
1
  6
CONTINUOUS
 62
           7
100
AcDbLine
 10
-39.53224072239
 20
28.581737270302
 11
-40.311670815918
 21
27.231724747363
  0
LINE
  5
31E
100
AcDbEntity
  8
1
  6
CONTINUOUS
 62
           7
100
AcDbLine
 10
-42.752810628862
 20
27.231724747363
 11
-43.53224072239
 21
28.581737270302
  0
LINE
  5
31D
100
AcDbEntity
  8
1
  6
CONTINUOUS
 62
           7
100
AcDbLine
 10
-43.53224072239
 20
28.581737270302
 11
-43.53224072239
 21
29.359024030334
  0
LINE
  5
31C
100
AcDbEntity
  8
1
  6
CONTINUOUS
 62
           7
100
AcDbLine
 10
-39.53224072239
 20
28.581737270302
 11
-39.53224072239
 21
29.359024030334
  0
LINE
  5
31B
100
AcDbEntity
  8
1
  6
CONTINUOUS
 62
           7
100
AcDbLine
 10
-43.53224072239
 20
14.644377405536
 11
-43.53224072239
 21
17.806484075784
  0
LINE
  5
31A
100
AcDbEntity
  8
1
  6
CONTINUOUS
 62
           7
100
AcDbLine
 10
-39.53224072239
 20
14.644377405536
 11
-39.53224072239
 21
17.806484075784
  0
LINE
  5
319
100
AcDbEntity
  8
1
  6
CONTINUOUS
 62
           7
100
AcDbLine
 10
-40.311670815918
 20
15.994389928475
 11
-40.311670815918
 21
17.489926354865
  0
LINE
  5
318
100
AcDbEntity
  8
1
  6
CONTINUOUS
 62
           7
100
AcDbLine
 10
-42.752810628862
 20
15.994389928475
 11
-42.752810628862
 21
17.489926354865
  0
LINE
  5
317
100
AcDbEntity
  8
1
  6
CONTINUOUS
 62
           7
100
AcDbLine
 10
-40.311670815918
 20
15.994389928475
 11
-39.53224072239
 21
14.644377405536
  0
LINE
  5
316
100
AcDbEntity
  8
1
  6
CONTINUOUS
 62
           7
100
AcDbLine
 10
-43.53224072239
 20
14.644377405536
 11
-42.752810628862
 21
15.994389928475
  0
LINE
  5
315
100
AcDbEntity
  8
1
  6
CONTINUOUS
 62
           7
100
AcDbLine
 10
-43.53224072239
 20
13.867090645504
 11
-43.53224072239
 21
14.644377405536
  0
LINE
  5
314
100
AcDbEntity
  8
1
  6
CONTINUOUS
 62
           7
100
AcDbLine
 10
-39.53224072239
 20
13.867090645504
 11
-39.53224072239
 21
14.644377405536
  0
LINE
  5
313
100
AcDbEntity
  8
1
  6
DOT_CENTER
 62
           2
100
AcDbLine
 10
-26.924230225971
 20
21.613057337919
 11
-52.53224072239
 21
21.613057337919
  0
ENDBLK
  5
34E
100
AcDbEntity
  8
0
100
AcDbBlockEnd
  0
BLOCK
  5
18F
100
AcDbEntity
  8
0
100
AcDbBlockBegin
  2
*D3
 70
           1
 10
0.0
 20
0.0
 30
0.0
  3
*D3
  1

  0
LINE
  5
190
100
AcDbEntity
  8
0
  6
CONTINUOUS
 62
           2
100
AcDbLine
 10
85.492113177222
 20
7.613057337919
 11
85.492113177222
 21
35.613057337919
  0
LINE
  5
191
100
AcDbEntity
  8
0
  6
CONTINUOUS
 62
           2
100
AcDbLine
 10
70.23544445928
 20
7.613057337919
 11
86.492113177222
 21
7.613057337919
  0
LINE
  5
192
100
AcDbEntity
  8
0
  6
CONTINUOUS
 62
           2
100
AcDbLine
 10
70.23544445928
 20
35.613057337919
 11
86.492113177222
 21
35.613057337919
  0
SOLID
  5
193
100
AcDbEntity
  8
0
 62
           2
100
AcDbTrace
 10
85.860740170467
 20
32.813057337919
 11
85.123486183977
 21
32.813057337919
 12
85.492113177222
 22
35.613057337919
 13
85.492113177222
 23
35.613057337919
  0
SOLID
  5
194
100
AcDbEntity
  8
0
 62
           2
100
AcDbTrace
 10
85.123486183977
 20
10.413057337919
 11
85.860740170467
 21
10.413057337919
 12
85.492113177222
 22
7.613057337919
 13
85.492113177222
 23
7.613057337919
  0
MTEXT
  5
195
100
AcDbEntity
  8
0
 62
           2
100
AcDbMText
 10
84.492113177222
 20
19.192634845885
 30
0.0
 40
2.8
 41
0.0
 71
           7
 72
           1
  1
\C2;C2;28
  7
CONVERTER_1
 11
0.0
 21
1.0
 31
0.0
  0
ENDBLK
  5
196
100
AcDbEntity
  8
0
100
AcDbBlockEnd
  0
BLOCK
  5
19A
100
AcDbEntity
  8
0
100
AcDbBlockBegin
  2
*D4
 70
           1
 10
0.0
 20
0.0
 30
0.0
  3
*D4
  1

  0
LINE
  5
19B
100
AcDbEntity
  8
0
  6
CONTINUOUS
 62
           2
100
AcDbLine
 10
93.757011237857
 20
6.613057337919
 11
93.757011237857
 21
36.613057337919
  0
LINE
  5
19C
100
AcDbEntity
  8
0
  6
CONTINUOUS
 62
           2
100
AcDbLine
 10
61.23544445928
 20
6.613057337919
 11
94.757011237857
 21
6.613057337919
  0
LINE
  5
19D
100
AcDbEntity
  8
0
  6
CONTINUOUS
 62
           2
100
AcDbLine
 10
61.23544445928
 20
36.613057337919
 11
94.757011237857
 21
36.613057337919
  0
SOLID
  5
19E
100
AcDbEntity
  8
0
 62
           2
100
AcDbTrace
 10
94.125638231102
 20
33.813057337919
 11
93.388384244613
 21
33.813057337919
 12
93.757011237857
 22
36.613057337919
 13
93.757011237857
 23
36.613057337919
  0
SOLID
  5
19F
100
AcDbEntity
  8
0
 62
           2
100
AcDbTrace
 10
93.388384244613
 20
9.413057337919
 11
94.125638231102
 21
9.413057337919
 12
93.757011237857
 22
6.613057337919
 13
93.757011237857
 23
6.613057337919
  0
MTEXT
  5
1A0
100
AcDbEntity
  8
0
 62
           2
100
AcDbMText
 10
92.757011237857
 20
19.192634845885
 30
0.0
 40
2.8
 41
0.0
 71
           7
 72
           1
  1
\C2;C2;30
  7
CONVERTER_1
 11
0.0
 21
1.0
 31
0.0
  0
ENDBLK
  5
1A1
100
AcDbEntity
  8
0
100
AcDbBlockEnd
  0
BLOCK
  5
1A5
100
AcDbEntity
  8
0
100
AcDbBlockBegin
  2
*D5
 70
           1
 10
0.0
 20
0.0
 30
0.0
  3
*D5
  1

  0
LINE
  5
1A6
100
AcDbEntity
  8
0
  6
CONTINUOUS
 62
           2
100
AcDbLine
 10
-2.60981965844
 20
10.613057337918
 11
-2.60981965844
 21
32.61305733792
  0
LINE
  5
1A7
100
AcDbEntity
  8
0
  6
CONTINUOUS
 62
           2
100
AcDbLine
 10
14.379802596405
 20
10.613057337918
 11
-3.60981965844
 21
10.613057337918
  0
LINE
  5
1A8
100
AcDbEntity
  8
0
  6
CONTINUOUS
 62
           2
100
AcDbLine
 10
14.379802596405
 20
32.61305733792
 11
-3.60981965844
 21
32.61305733792
  0
SOLID
  5
1A9
100
AcDbEntity
  8
0
 62
           2
100
AcDbTrace
 10
-2.241192665196
 20
29.81305733792
 11
-2.978446651685
 21
29.81305733792
 12
-2.60981965844
 22
32.61305733792
 13
-2.60981965844
 23
32.61305733792
  0
SOLID
  5
1AA
100
AcDbEntity
  8
0
 62
           2
100
AcDbTrace
 10
-2.978446651685
 20
13.413057337918
 11
-2.241192665196
 21
13.413057337918
 12
-2.60981965844
 22
10.613057337918
 13
-2.60981965844
 23
10.613057337918
  0
MTEXT
  5
1AB
100
AcDbEntity
  8
0
 62
           2
100
AcDbMText
 10
-3.60981965844
 20
17.964421676154
 30
0.0
 40
2.8
 41
0.0
 71
           7
 72
           1
  1
\C2;C2;22
  7
CONVERTER_1
 11
0.0
 21
1.0
 31
0.0
  0
ENDBLK
  5
1AC
100
AcDbEntity
  8
0
100
AcDbBlockEnd
  0
BLOCK
  5
1B0
100
AcDbEntity
  8
0
100
AcDbBlockBegin
  2
*D6
 70
           1
 10
0.0
 20
0.0
 30
0.0
  3
*D6
  1

  0
LINE
  5
1B1
100
AcDbEntity
  8
0
  6
CONTINUOUS
 62
           2
100
AcDbLine
 10
35.024817752769
 20
0.223648970561
 11
43.989906613956
 21
0.223648970561
  0
LINE
  5
1B2
100
AcDbEntity
  8
0
  6
CONTINUOUS
 62
           2
100
AcDbLine
 10
29.524843156555
 20
0.223648970561
 11
35.024817752769
 21
0.223648970561
  0
LINE
  5
1B3
100
AcDbEntity
  8
0
  6
CONTINUOUS
 62
           2
100
AcDbLine
 10
23.924843156554
 20
0.223648970561
 11
29.524843156555
 21
0.223648970561
  0
LINE
  5
1B4
100
AcDbEntity
  8
0
  6
CONTINUOUS
 62
           2
100
AcDbLine
 10
35.024817752769
 20
0.423648970561
 11
35.024817752769
 21
-0.776351029439
  0
LINE
  5
1B5
100
AcDbEntity
  8
0
  6
CONTINUOUS
 62
           2
100
AcDbLine
 10
29.524843156555
 20
8.111351415747
 11
29.524843156555
 21
-0.776351029439
  0
SOLID
  5
1B6
100
AcDbEntity
  8
0
 62
           2
100
AcDbTrace
 10
26.724843156554
 20
-0.144978022684
 11
26.724843156554
 21
0.592275963806
 12
29.524843156555
 22
0.223648970561
 13
29.524843156555
 23
0.223648970561
  0
SOLID
  5
1B7
100
AcDbEntity
  8
0
 62
           2
100
AcDbTrace
 10
37.824817752769
 20
0.592275963806
 11
37.824817752769
 21
-0.144978022684
 12
35.024817752769
 22
0.223648970561
 13
35.024817752769
 23
0.223648970561
  0
TEXT
  5
1B8
100
AcDbEntity
  8
0
 62
           2
100
AcDbText
 10
38.879906613956
 20
1.223648970561
 40
2.8
  1
5.5
 41
0.9
  7
CONVERTER_2
100
AcDbText
  0
ENDBLK
  5
1B9
100
AcDbEntity
  8
0
100
AcDbBlockEnd
  0
BLOCK
  5
1BD
100
AcDbEntity
  8
0
100
AcDbBlockBegin
  2
*D7
 70
           1
 10
0.0
 20
0.0
 30
0.0
  3
*D7
  1

  0
LINE
  5
1BE
100
AcDbEntity
  8
0
  6
CONTINUOUS
 62
           2
100
AcDbLine
 10
0.679802598655
 20
-14.947474619729
 11
70.93544445928
 21
-14.947474619729
  0
LINE
  5
1BF
100
AcDbEntity
  8
0
  6
CONTINUOUS
 62
           2
100
AcDbLine
 10
0.679802598655
 20
13.563057337917
 11
0.679802598655
 21
-15.947474619729
  0
LINE
  5
1C0
100
AcDbEntity
  8
0
  6
CONTINUOUS
 62
           2
100
AcDbLine
 10
70.93544445928
 20
9.313057337919
 11
70.93544445928
 21
-15.947474619729
  0
SOLID
  5
1C1
100
AcDbEntity
  8
0
 62
           2
100
AcDbTrace
 10
3.479802598655
 20
-14.578847626485
 11
3.479802598655
 21
-15.316101612974
 12
0.679802598655
 22
-14.947474619729
 13
0.679802598655
 23
-14.947474619729
  0
SOLID
  5
1C2
100
AcDbEntity
  8
0
 62
           2
100
AcDbTrace
 10
68.13544445928
 20
-15.316101612974
 11
68.13544445928
 21
-14.578847626485
 12
70.93544445928
 22
-14.947474619729
 13
70.93544445928
 23
-14.947474619729
  0
MTEXT
  5
1C3
100
AcDbEntity
  8
0
 62
           2
100
AcDbMText
 10
28.85691912201
 20
-13.947474619729
 30
0.0
 40
2.8
 41
0.0
 71
           7
 72
           1
  1
\C2;(\C2;70.3\C2;)
  7
CONVERTER_2
  0
ENDBLK
  5
1C4
100
AcDbEntity
  8
0
100
AcDbBlockEnd
  0
BLOCK
  5
344
100
AcDbEntity
  8
0
100
AcDbBlockBegin
  2
*D8
 70
           1
 10
0.0
 20
0.0
 30
0.0
  3
*D8
  1

  0
LINE
  5
345
100
AcDbEntity
  8
0
  6
CONTINUOUS
 62
           2
100
AcDbLine
 10
-52.53224072239
 20
-3.992051335623
 11
-30.53224072239
 21
-3.992051335623
  0
LINE
  5
346
100
AcDbEntity
  8
0
  6
CONTINUOUS
 62
           2
100
AcDbLine
 10
-52.53224072239
 20
14.462204376833
 11
-52.53224072239
 21
-4.992051335623
  0
LINE
  5
347
100
AcDbEntity
  8
0
  6
CONTINUOUS
 62
           2
100
AcDbLine
 10
-30.53224072239
 20
14.462204376833
 11
-30.53224072239
 21
-4.992051335623
  0
SOLID
  5
348
100
AcDbEntity
  8
0
 62
           2
100
AcDbTrace
 10
-49.73224072239
 20
-3.623424342378
 11
-49.73224072239
 21
-4.360678328868
 12
-52.53224072239
 22
-3.992051335623
 13
-52.53224072239
 23
-3.992051335623
  0
SOLID
  5
349
100
AcDbEntity
  8
0
 62
           2
100
AcDbTrace
 10
-33.33224072239
 20
-4.360678328868
 11
-33.33224072239
 21
-3.623424342378
 12
-30.53224072239
 22
-3.992051335623
 13
-30.53224072239
 23
-3.992051335623
  0
TEXT
  5
34A
100
AcDbEntity
  8
0
 62
           2
100
AcDbText
 10
-44.026912778511
 20
-2.992051335623
 40
2.8
  1
22
 41
0.9
  7
CONVERTER_2
100
AcDbText
  0
ENDBLK
  5
34B
100
AcDbEntity
  8
0
100
AcDbBlockEnd
  0
BLOCK
  5
3D8
100
AcDbEntity
  8
0
100
AcDbBlockBegin
  2
*D9
 70
           1
 10
0.0
 20
0.0
 30
0.0
  3
*D9
  1

  0
LINE
  5
3D9
100
AcDbEntity
  8
0
  6
CONTINUOUS
 62
           2
100
AcDbLine
 10
-64.774698893266
 20
113.402199886736
 11
-37.061885972163
 21
113.402199886736
  0
LINE
  5
3DA
100
AcDbEntity
  8
0
  6
CONTINUOUS
 62
           2
100
AcDbLine
 10
-64.774698893266
 20
84.99553929376
 11
-64.774698893266
 21
114.402199886736
  0
LINE
  5
3DB
100
AcDbEntity
  8
0
  6
CONTINUOUS
 62
           2
100
AcDbLine
 10
-37.061885972163
 20
84.99553929376
 11
-37.061885972163
 21
114.402199886736
  0
SOLID
  5
3DC
100
AcDbEntity
  8
0
 62
           2
100
AcDbTrace
 10
-39.861885972163
 20
113.033572893491
 11
-39.861885972163
 21
113.770826879981
 12
-37.061885972163
 22
113.402199886736
 13
-37.061885972163
 23
113.402199886736
  0
SOLID
  5
3DD
100
AcDbEntity
  8
0
 62
           2
100
AcDbTrace
 10
-61.974698893266
 20
113.770826879981
 11
-61.974698893266
 21
113.033572893491
 12
-64.774698893266
 22
113.402199886736
 13
-64.774698893266
 23
113.402199886736
  0
TEXT
  5
3DE
100
AcDbEntity
  8
0
 62
           2
100
AcDbText
 10
-55.621570555841
 20
114.402199886736
 40
2.8
  1
（27.7）
 41
0.89
  7
CONVERTER_1
100
AcDbText
  0
ENDBLK
  5
3DF
100
AcDbEntity
  8
0
100
AcDbBlockEnd
  0
ENDSEC
  0
SECTION
  2
ENTITIES
  0
DIMENSION
  5
3E1
100
AcDbEntity
  8
0
100
AcDbDimension
  2
*D9
 10
-37.061885972163
 20
113.402199886736
 11
-49.286570555841
 21
115.802199886736
 31
0.0
  1
<>
  3
ME10_DIM_6
100
AcDbAlignedDimension
 13
-64.774698893266
 23
84.19553929376
 14
-37.061885972163
 24
84.19553929376
100
AcDbRotatedDimension
  0
TEXT
  5
3D6
100
AcDbEntity
  8
976
 62
           2
100
AcDbText
 10
67.916404191456
 20
68.607515268066
 40
3.5
  1
B矢視図
 41
0.89
  7
CONVERTER_1
100
AcDbText
  0
TEXT
  5
3D5
100
AcDbEntity
  8
976
 62
           2
100
AcDbText
 10
-77.752572393948
 20
67.838976613981
 40
3.5
  1
B
 41
0.9
  7
CONVERTER_2
100
AcDbText
  0
TEXT
  5
3D4
100
AcDbEntity
  8
1
 62
           2
100
AcDbText
 10
12.615309361405
 20
-26.202548982887
 40
3.5
  1
ノズル口径φ1.0
 41
0.89
  7
CONVERTER_1
100
AcDbText
  0
TEXT
  5
3D3
100
AcDbEntity
  8
1
 62
           2
100
AcDbText
 10
-44.410605093162
 20
-26.11950951348
 40
3.5
  1
スプレーパターン
 41
0.89
  7
CONVERTER_1
100
AcDbText
  0
TEXT
  5
3D2
100
AcDbEntity
  8
1
 62
           2
100
AcDbText
 10
-85.97521895202
 20
-32.013640337586
 40
3.5
  1
圧送式
 41
0.89
  7
CONVERTER_1
100
AcDbText
  0
TEXT
  5
3D1
100
AcDbEntity
  8
1
 62
           2
100
AcDbText
 10
-91.062009590479
 20
-26.202571272932
 40
3.5
  1
塗料供給方式
 41
0.89
  7
CONVERTER_1
100
AcDbText
  0
TEXT
  5
3D0
100
AcDbEntity
  8
1
 62
           2
100
AcDbText
 10
19.372334767207
 20
-35.522584025373
 40
3.5
  1
φ1.0
 41
0.89
  7
CONVERTER_1
100
AcDbText
  0
MTEXT
  5
3CF
100
AcDbEntity
  8
1
 62
           2
100
AcDbMText
 10
-49.86325968924
 20
-34.901497220291
 30
0.0
 40
3.5
 41
0.0
 71
           7
 72
           1
  1
平吹き、丸吹き可変買可能タイプ
  7
CONVERTER_1
  0
MTEXT
  5
3CE
100
AcDbEntity
  8
1
 62
           2
100
AcDbMText
 10
-98.864282092002
 20
-38.036798436166
 30
0.0
 40
3.5
 41
0.0
 71
           7
 72
           1
  1
（塗料循環可能タイプ）
  7
CONVERTER_1
  0
TEXT
  5
3CD
100
AcDbEntity
  8
1
 62
           2
100
AcDbText
 10
-98.105671243894
 20
-17.589907777497
 40
5.0
  1
仕様
 41
0.89
  7
CONVERTER_1
100
AcDbText
  0
MTEXT
  5
3CC
100
AcDbEntity
  8
1
 62
           2
100
AcDbMText
 10
-49.31090742152
 20
63.832575906246
 30
0.0
 40
2.5
 41
0.0
 71
           7
 72
           1
  1
作動用\P（C刻印)
  7
CONVERTER_1
  0
MTEXT
  5
3CB
100
AcDbEntity
  8
1
 62
           2
100
AcDbMText
 10
-35.23720807499
 20
72.161018652935
 30
0.0
 40
2.5
 41
0.0
 71
           7
 72
           1
  1
液体用 IN\P（L刻印）
  7
CONVERTER_1
  0
MTEXT
  5
3CA
100
AcDbEntity
  8
1
 62
           2
100
AcDbMText
 10
-83.789248196704
 20
93.507866452211
 30
0.0
 40
2.5
 41
0.0
 71
           7
 72
           1
  1
液体用 OUT\P（L刻印）
  7
CONVERTER_1
  0
TEXT
  5
3C9
100
AcDbEntity
  8
1
 62
           2
100
AcDbText
 10
-33.896288002847
 20
90.958923275705
 40
2.5
  1
霧化用
 41
0.89
  7
CONVERTER_1
100
AcDbText
  0
MTEXT
  5
3C8
100
AcDbEntity
  8
1
 62
           2
100
AcDbMText
 10
-56.567731597793
 20
101.872887383306
 30
0.0
 40
2.5
 41
0.0
 71
           7
 72
           1
  1
パターン用\P（F刻印）
  7
CONVERTER_1
  0
TEXT
  5
3C7
100
AcDbEntity
  8
1
 62
           2
100
AcDbText
 10
-33.550496333158
 20
109.375903259077
 40
2.5
  1
5-M5X0.8
 41
0.9
  7
CONVERTER_2
100
AcDbText
  0
TEXT
  5
3C6
100
AcDbEntity
  8
976
 62
           2
100
AcDbText
 10
-59.65125243137
 20
54.192224252034
 40
3.5
  1
A-A断面図
 41
0.89
  7
CONVERTER_1
100
AcDbText
  0
TEXT
  5
3C5
100
AcDbEntity
  8
1
 62
           2
100
AcDbText
 10
-89.181888859482
 20
83.506313797128
 40
2.5
  1
M4X0.7
 41
0.9
  7
CONVERTER_2
100
AcDbText
  0
TEXT
  5
3C4
100
AcDbEntity
  8
1
 62
           2
100
AcDbText
 10
-89.821230842461
 20
79.278680037591
 40
2.5
  1
ガン固定用ねじ
 41
0.89
  7
CONVERTER_1
100
AcDbText
  0
LEADER
  5
3C3
100
AcDbEntity
  8
976
  6
CONTINUOUS
 62
           2
100
AcDbLeader
  3
Standard
 71
           0
 73
           3
 74
           0
 75
           0
 40
0.0
 76
           2
 10
-63.479171798714
 20
76.943512210543
 30
0.0
 10
-71.664659797916
 20
72.217618510755
 30
0.0
 77
           2
  0
LEADER
  5
3C1
100
AcDbEntity
  8
976
  6
CONTINUOUS
 62
           2
100
AcDbLeader
  3
Standard
 71
           0
 73
           3
 74
           0
 75
           0
 40
0.0
 76
           3
 10
-48.168158926285
 20
93.128135175317
 30
0.0
 10
-34.904975540424
 20
107.996967049228
 30
0.0
 10
-15.327146570922
 20
107.996967049228
 30
0.0
 77
           2
  0
LEADER
  5
3BF
100
AcDbEntity
  8
976
  6
CONTINUOUS
 62
           2
100
AcDbLeader
  3
Standard
 71
           0
 73
           3
 74
           0
 75
           0
 40
0.0
 76
           3
 10
-61.319566400364
 20
80.486782606366
 30
0.0
 10
-75.161427447141
 20
82.913442075939
 30
0.0
 10
-89.711171945502
 20
82.913442075939
 30
0.0
 77
           2
  0
CIRCLE
  5
3BD
100
AcDbEntity
  8
1
  6
CONTINUOUS
 62
           7
100
AcDbCircle
 10
-50.918292432714
 20
75.89553929376
 40
1.0
  0
CIRCLE
  5
3BC
100
AcDbEntity
  8
1
  6
CONTINUOUS
 62
           7
100
AcDbCircle
 10
-50.918292432714
 20
84.19553929376
 40
2.750000000001
  0
LINE
  5
3BB
100
AcDbEntity
  8
976
  6
CONTINUOUS
 62
           7
100
AcDbLine
 10
64.67852096949
 20
67.22325221365
 11
84.644420998318
 21
67.22325221365
  0
LINE
  5
3BA
100
AcDbEntity
  8
1
  6
CONTINUOUS
 62
           7
100
AcDbLine
 10
-53.418292432714
 20
91.19553929376
 11
-48.418292432714
 21
91.19553929376
  0
LINE
  5
3B9
100
AcDbEntity
  8
1
  6
CONTINUOUS
 62
           7
100
AcDbLine
 10
-56.369758941016
 20
-21.315424898265
 11
-56.369758941016
 21
-39.315424898265
  0
LINE
  5
3B8
100
AcDbEntity
  8
1
  6
CONTINUOUS
 62
           7
100
AcDbLine
 10
9.234742167215
 20
-21.315424898265
 11
9.234742167215
 21
-39.315424898265
  0
LINE
  5
3B7
100
AcDbEntity
  8
1
  6
CONTINUOUS
 62
           7
100
AcDbLine
 10
-102.073046480287
 20
-27.315424898265
 11
43.204333786644
 21
-27.315424898265
  0
LINE
  5
3B6
100
AcDbEntity
  8
1
  6
CONTINUOUS
 62
           7
100
AcDbLine
 10
-102.073046480287
 20
-21.315424898265
 11
-102.073046480287
 21
-39.315424898265
  0
LINE
  5
3B5
100
AcDbEntity
  8
1
  6
CONTINUOUS
 62
           7
100
AcDbLine
 10
43.204333786644
 20
-21.315424898265
 11
-102.073046480287
 21
-21.315424898265
  0
LINE
  5
3B4
100
AcDbEntity
  8
1
  6
CONTINUOUS
 62
           7
100
AcDbLine
 10
43.204333786644
 20
-39.315424898265
 11
43.204333786644
 21
-21.315424898265
  0
LINE
  5
3B3
100
AcDbEntity
  8
1
  6
CONTINUOUS
 62
           7
100
AcDbLine
 10
-102.073046480287
 20
-39.315424898265
 11
43.204333786644
 21
-39.315424898265
  0
LINE
  5
3B2
100
AcDbEntity
  8
1
  6
CONTINUOUS
 62
           7
100
AcDbLine
 10
-62.241575762742
 20
52.502879067893
 11
-35.349125213807
 21
52.502879067893
  0
LINE
  5
3B1
100
AcDbEntity
  8
1
  6
DOT_CENTER
 62
           2
100
AcDbLine
 10
-67.79316971611
 20
84.19553929376
 11
-34.45358063074
 21
84.19553929376
  0
LINE
  5
3B0
100
AcDbEntity
  8
1
  6
DOT_CENTER
 62
           2
100
AcDbLine
 10
-50.918292432714
 20
69.115910252638
 11
-50.918292432714
 21
98.927341924902
  0
LINE
  5
3AF
100
AcDbEntity
  8
1
  6
CONTINUOUS
 62
           7
100
AcDbLine
 10
-48.851292432714
 20
89.19553929376
 11
-48.851292432714
 21
96.19553929376
  0
LINE
  5
3AE
100
AcDbEntity
  8
1
  6
CONTINUOUS
 62
           7
100
AcDbLine
 10
-52.985292432714
 20
89.19553929376
 11
-52.985292432714
 21
96.19553929376
  0
LINE
  5
3AD
100
AcDbEntity
  8
1
  6
CONTINUOUS
 62
           2
100
AcDbLine
 10
-48.418292432714
 20
91.19553929376
 11
-48.418292432714
 21
96.19553929376
  0
LINE
  5
3AC
100
AcDbEntity
  8
1
  6
CONTINUOUS
 62
           2
100
AcDbLine
 10
-48.851292432714
 20
89.19553929376
 11
-48.418292432714
 21
91.19553929376
  0
LINE
  5
3AB
100
AcDbEntity
  8
1
  6
CONTINUOUS
 62
           2
100
AcDbLine
 10
-53.418292432714
 20
91.19553929376
 11
-53.418292432714
 21
96.19553929376
  0
LINE
  5
3AA
100
AcDbEntity
  8
1
  6
CONTINUOUS
 62
           2
100
AcDbLine
 10
-52.985292432714
 20
89.19553929376
 11
-53.418292432714
 21
91.19553929376
  0
LINE
  5
3A9
100
AcDbEntity
  8
1
  6
CONTINUOUS
 62
           7
100
AcDbLine
 10
-48.851292432714
 20
89.19553929376
 11
-52.985292432714
 21
89.19553929376
  0
LINE
  5
3A8
100
AcDbEntity
  8
1
  6
CONTINUOUS
 62
           7
100
AcDbLine
 10
-48.851292432714
 20
89.19553929376
 11
-48.851292432714
 21
96.19553929376
  0
LINE
  5
3A7
100
AcDbEntity
  8
1
  6
CONTINUOUS
 62
           7
100
AcDbLine
 10
-48.851292432714
 20
89.19553929376
 11
-48.418292432714
 21
91.19553929376
  0
LINE
  5
3A6
100
AcDbEntity
  8
1
  6
CONTINUOUS
 62
           7
100
AcDbLine
 10
-50.918292432714
 20
88.002156287345
 11
-48.851292432714
 21
89.19553929376
  0
LINE
  5
3A5
100
AcDbEntity
  8
1
  6
CONTINUOUS
 62
           7
100
AcDbLine
 10
-48.851292432714
 20
89.19553929376
 11
-52.985292432714
 21
89.19553929376
  0
LINE
  5
3A4
100
AcDbEntity
  8
1
  6
CONTINUOUS
 62
           7
100
AcDbLine
 10
-50.918292432714
 20
88.002156287345
 11
-48.851292432714
 21
89.19553929376
  0
LINE
  5
3A3
100
AcDbEntity
  8
1
  6
CONTINUOUS
 62
           7
100
AcDbLine
 10
-52.985292432714
 20
89.19553929376
 11
-50.918292432714
 21
88.002156287345
  0
LINE
  5
3A2
100
AcDbEntity
  8
1
  6
CONTINUOUS
 62
           7
100
AcDbLine
 10
-47.621665413792
 20
88.485613803383
 11
-47.621665413792
 21
86.098847790553
  0
LINE
  5
3A1
100
AcDbEntity
  8
1
  6
CONTINUOUS
 62
           7
100
AcDbLine
 10
-47.621665413792
 20
86.098847790553
 11
-45.554665413792
 21
84.905464784138
  0
LINE
  5
3A0
100
AcDbEntity
  8
1
  6
CONTINUOUS
 62
           7
100
AcDbLine
 10
-45.554665413792
 20
84.905464784138
 11
-47.621665413792
 21
88.485613803383
  0
LINE
  5
39F
100
AcDbEntity
  8
1
  6
CONTINUOUS
 62
           7
100
AcDbLine
 10
-47.621665413792
 20
86.098847790553
 11
-45.554665413792
 21
84.905464784138
  0
LINE
  5
39E
100
AcDbEntity
  8
1
  6
CONTINUOUS
 62
           2
100
AcDbLine
 10
-45.554665413792
 20
84.905464784138
 11
-43.606114606224
 21
85.530475784299
  0
LINE
  5
39D
100
AcDbEntity
  8
1
  6
CONTINUOUS
 62
           7
100
AcDbLine
 10
-45.554665413792
 20
84.905464784138
 11
-39.492487587301
 21
88.405464784138
  0
LINE
  5
39C
100
AcDbEntity
  8
1
  6
CONTINUOUS
 62
           7
100
AcDbLine
 10
-45.554665413792
 20
84.905464784138
 11
-47.621665413792
 21
88.485613803383
  0
LINE
  5
39B
100
AcDbEntity
  8
1
  6
CONTINUOUS
 62
           7
100
AcDbLine
 10
-43.606114606224
 20
85.530475784299
 11
-46.106114606224
 21
89.860602803221
  0
LINE
  5
39A
100
AcDbEntity
  8
1
  6
CONTINUOUS
 62
           2
100
AcDbLine
 10
-47.621665413792
 20
88.485613803383
 11
-46.106114606224
 21
89.860602803221
  0
LINE
  5
399
100
AcDbEntity
  8
1
  6
CONTINUOUS
 62
           2
100
AcDbLine
 10
-46.106114606224
 20
89.860602803221
 11
-41.775987587301
 21
92.360602803222
  0
LINE
  5
398
100
AcDbEntity
  8
1
  6
CONTINUOUS
 62
           7
100
AcDbLine
 10
-45.554665413792
 20
84.905464784138
 11
-43.606114606224
 21
85.530475784299
  0
LINE
  5
397
100
AcDbEntity
  8
1
  6
CONTINUOUS
 62
           2
100
AcDbLine
 10
-43.606114606224
 20
85.530475784299
 11
-39.275987587301
 21
88.030475784299
  0
LINE
  5
396
100
AcDbEntity
  8
1
  6
CONTINUOUS
 62
           7
100
AcDbLine
 10
-47.621665413792
 20
88.485613803383
 11
-41.559487587301
 21
91.985613803383
  0
LINE
  5
395
100
AcDbEntity
  8
1
  6
CONTINUOUS
 62
           7
100
AcDbLine
 10
-45.554665413792
 20
84.905464784138
 11
-39.492487587301
 21
88.405464784138
  0
LINE
  5
394
100
AcDbEntity
  8
1
  6
CONTINUOUS
 62
           7
100
AcDbLine
 10
-47.621665413792
 20
79.905464784138
 11
-41.559487587301
 21
76.405464784138
  0
LINE
  5
393
100
AcDbEntity
  8
1
  6
CONTINUOUS
 62
           7
100
AcDbLine
 10
-45.554665413792
 20
83.485613803383
 11
-39.492487587301
 21
79.985613803383
  0
LINE
  5
392
100
AcDbEntity
  8
1
  6
CONTINUOUS
 62
           2
100
AcDbLine
 10
-46.106114606223
 20
78.530475784299
 11
-41.775987587301
 21
76.030475784299
  0
LINE
  5
391
100
AcDbEntity
  8
1
  6
CONTINUOUS
 62
           7
100
AcDbLine
 10
-47.621665413792
 20
79.905464784138
 11
-46.106114606223
 21
78.530475784299
  0
LINE
  5
390
100
AcDbEntity
  8
1
  6
CONTINUOUS
 62
           2
100
AcDbLine
 10
-43.606114606223
 20
82.860602803221
 11
-39.275987587301
 21
80.360602803221
  0
LINE
  5
38F
100
AcDbEntity
  8
1
  6
CONTINUOUS
 62
           2
100
AcDbLine
 10
-45.554665413792
 20
83.485613803383
 11
-43.606114606223
 21
82.860602803221
  0
LINE
  5
38E
100
AcDbEntity
  8
1
  6
CONTINUOUS
 62
           7
100
AcDbLine
 10
-46.106114606223
 20
78.530475784299
 11
-43.606114606223
 21
82.860602803221
  0
LINE
  5
38D
100
AcDbEntity
  8
1
  6
CONTINUOUS
 62
           7
100
AcDbLine
 10
-47.621665413792
 20
79.905464784138
 11
-45.554665413792
 21
83.485613803383
  0
LINE
  5
38C
100
AcDbEntity
  8
1
  6
CONTINUOUS
 62
           7
100
AcDbLine
 10
-47.621665413792
 20
79.905464784138
 11
-41.559487587301
 21
76.405464784138
  0
LINE
  5
38B
100
AcDbEntity
  8
1
  6
CONTINUOUS
 62
           2
100
AcDbLine
 10
-47.621665413792
 20
79.905464784138
 11
-46.106114606223
 21
78.530475784299
  0
LINE
  5
38A
100
AcDbEntity
  8
1
  6
CONTINUOUS
 62
           7
100
AcDbLine
 10
-47.621665413792
 20
82.292230796968
 11
-47.621665413792
 21
79.905464784138
  0
LINE
  5
389
100
AcDbEntity
  8
1
  6
CONTINUOUS
 62
           7
100
AcDbLine
 10
-47.621665413792
 20
79.905464784138
 11
-45.554665413792
 21
83.485613803383
  0
LINE
  5
388
100
AcDbEntity
  8
1
  6
CONTINUOUS
 62
           7
100
AcDbLine
 10
-47.621665413792
 20
82.292230796968
 11
-47.621665413792
 21
79.905464784138
  0
LINE
  5
387
100
AcDbEntity
  8
1
  6
CONTINUOUS
 62
           7
100
AcDbLine
 10
-45.554665413792
 20
83.485613803383
 11
-47.621665413792
 21
82.292230796968
  0
LINE
  5
386
100
AcDbEntity
  8
1
  6
CONTINUOUS
 62
           7
100
AcDbLine
 10
-52.985292432714
 20
79.19553929376
 11
-52.985292432714
 21
72.19553929376
  0
LINE
  5
385
100
AcDbEntity
  8
1
  6
CONTINUOUS
 62
           7
100
AcDbLine
 10
-48.851292432714
 20
79.19553929376
 11
-48.851292432714
 21
72.19553929376
  0
LINE
  5
384
100
AcDbEntity
  8
1
  6
CONTINUOUS
 62
           2
100
AcDbLine
 10
-53.418292432714
 20
77.19553929376
 11
-53.418292432714
 21
72.19553929376
  0
LINE
  5
383
100
AcDbEntity
  8
1
  6
CONTINUOUS
 62
           7
100
AcDbLine
 10
-52.985292432714
 20
79.19553929376
 11
-53.418292432714
 21
77.19553929376
  0
LINE
  5
382
100
AcDbEntity
  8
1
  6
CONTINUOUS
 62
           2
100
AcDbLine
 10
-48.418292432714
 20
77.19553929376
 11
-48.418292432715
 21
72.19553929376
  0
LINE
  5
381
100
AcDbEntity
  8
1
  6
CONTINUOUS
 62
           2
100
AcDbLine
 10
-48.851292432714
 20
79.19553929376
 11
-48.418292432714
 21
77.19553929376
  0
LINE
  5
380
100
AcDbEntity
  8
1
  6
CONTINUOUS
 62
           7
100
AcDbLine
 10
-53.418292432714
 20
77.19553929376
 11
-48.418292432714
 21
77.19553929376
  0
LINE
  5
37F
100
AcDbEntity
  8
1
  6
CONTINUOUS
 62
           7
100
AcDbLine
 10
-52.985292432714
 20
79.19553929376
 11
-48.851292432714
 21
79.19553929376
  0
LINE
  5
37E
100
AcDbEntity
  8
1
  6
CONTINUOUS
 62
           7
100
AcDbLine
 10
-52.985292432714
 20
79.19553929376
 11
-52.985292432714
 21
72.19553929376
  0
LINE
  5
37D
100
AcDbEntity
  8
1
  6
CONTINUOUS
 62
           2
100
AcDbLine
 10
-52.985292432714
 20
79.19553929376
 11
-53.418292432714
 21
77.19553929376
  0
LINE
  5
37C
100
AcDbEntity
  8
1
  6
CONTINUOUS
 62
           7
100
AcDbLine
 10
-50.918292432714
 20
80.388922300175
 11
-52.985292432714
 21
79.19553929376
  0
LINE
  5
37B
100
AcDbEntity
  8
1
  6
CONTINUOUS
 62
           7
100
AcDbLine
 10
-52.985292432714
 20
79.19553929376
 11
-48.851292432714
 21
79.19553929376
  0
LINE
  5
37A
100
AcDbEntity
  8
1
  6
CONTINUOUS
 62
           7
100
AcDbLine
 10
-50.918292432714
 20
80.388922300175
 11
-52.985292432714
 21
79.19553929376
  0
LINE
  5
379
100
AcDbEntity
  8
1
  6
CONTINUOUS
 62
           7
100
AcDbLine
 10
-48.851292432714
 20
79.19553929376
 11
-50.918292432714
 21
80.388922300175
  0
LINE
  5
378
100
AcDbEntity
  8
1
  6
CONTINUOUS
 62
           7
100
AcDbLine
 10
-54.214919451636
 20
88.485613803383
 11
-60.277097278128
 21
91.985613803383
  0
LINE
  5
377
100
AcDbEntity
  8
1
  6
CONTINUOUS
 62
           7
100
AcDbLine
 10
-56.281919451637
 20
84.905464784138
 11
-62.344097278128
 21
88.405464784138
  0
LINE
  5
376
100
AcDbEntity
  8
1
  6
CONTINUOUS
 62
           2
100
AcDbLine
 10
-55.730470259206
 20
89.860602803221
 11
-60.060597278128
 21
92.360602803222
  0
LINE
  5
375
100
AcDbEntity
  8
1
  6
CONTINUOUS
 62
           7
100
AcDbLine
 10
-54.214919451636
 20
88.485613803383
 11
-55.730470259206
 21
89.860602803221
  0
LINE
  5
374
100
AcDbEntity
  8
1
  6
CONTINUOUS
 62
           2
100
AcDbLine
 10
-58.230470259205
 20
85.530475784299
 11
-62.560597278128
 21
88.030475784299
  0
LINE
  5
373
100
AcDbEntity
  8
1
  6
CONTINUOUS
 62
           2
100
AcDbLine
 10
-56.281919451637
 20
84.905464784138
 11
-58.230470259205
 21
85.530475784299
  0
LINE
  5
372
100
AcDbEntity
  8
1
  6
CONTINUOUS
 62
           7
100
AcDbLine
 10
-55.730470259206
 20
89.860602803221
 11
-58.230470259205
 21
85.530475784299
  0
LINE
  5
371
100
AcDbEntity
  8
1
  6
CONTINUOUS
 62
           7
100
AcDbLine
 10
-54.214919451636
 20
88.485613803383
 11
-56.281919451637
 21
84.905464784138
  0
LINE
  5
370
100
AcDbEntity
  8
1
  6
CONTINUOUS
 62
           7
100
AcDbLine
 10
-54.214919451636
 20
88.485613803383
 11
-60.277097278128
 21
91.985613803383
  0
LINE
  5
36F
100
AcDbEntity
  8
1
  6
CONTINUOUS
 62
           2
100
AcDbLine
 10
-54.214919451636
 20
88.485613803383
 11
-55.730470259206
 21
89.860602803221
  0
LINE
  5
36E
100
AcDbEntity
  8
1
  6
CONTINUOUS
 62
           7
100
AcDbLine
 10
-54.214919451637
 20
86.098847790553
 11
-54.214919451636
 21
88.485613803383
  0
LINE
  5
36D
100
AcDbEntity
  8
1
  6
CONTINUOUS
 62
           7
100
AcDbLine
 10
-54.214919451636
 20
88.485613803383
 11
-56.281919451637
 21
84.905464784138
  0
LINE
  5
36C
100
AcDbEntity
  8
1
  6
CONTINUOUS
 62
           7
100
AcDbLine
 10
-54.214919451637
 20
86.098847790553
 11
-54.214919451636
 21
88.485613803383
  0
LINE
  5
36B
100
AcDbEntity
  8
1
  6
CONTINUOUS
 62
           7
100
AcDbLine
 10
-56.281919451637
 20
84.905464784138
 11
-54.214919451637
 21
86.098847790553
  0
LINE
  5
36A
100
AcDbEntity
  8
1
  6
DOT_CENTER
 62
           2
100
AcDbLine
 10
-62.074746231097
 20
90.636720897458
 11
-53.78456458527
 21
85.850382292609
  0
LINE
  5
369
100
AcDbEntity
  8
1
  6
DOT_CENTER
 62
           2
100
AcDbLine
 10
-39.931874068137
 20
77.852527693542
 11
-47.878956598628
 21
82.440777931793
  0
LINE
  5
368
100
AcDbEntity
  8
1
  6
DOT_CENTER
 62
           2
100
AcDbLine
 10
-40.962813834565
 20
89.943337542314
 11
-47.9729242838
 21
85.896048387398
  0
LINE
  5
367
100
AcDbEntity
  8
1
  6
CONTINUOUS
 62
           7
100
AcDbLine
 10
-52.414612776275
 20
86.502815919883
 11
-54.214919451636
 21
87.542223463527
  0
LINE
  5
366
100
AcDbEntity
  8
1
  6
CONTINUOUS
 62
           7
100
AcDbLine
 10
-55.464919451637
 20
85.377159954066
 11
-53.664612776275
 21
84.337752410422
  0
LINE
  5
365
100
AcDbEntity
  8
1
  6
CONTINUOUS
 62
           7
100
AcDbLine
 10
-48.171972089154
 20
84.053326177099
 11
-46.371665413792
 21
83.013918633455
  0
LINE
  5
364
100
AcDbEntity
  8
1
  6
CONTINUOUS
 62
           7
100
AcDbLine
 10
-47.621665413792
 20
80.848855123994
 11
-49.421972089154
 21
81.888262667638
  0
LINE
  5
363
100
AcDbEntity
  8
0
  6
DOT_CENTER
 62
           2
100
AcDbLine
 10
-38.812433846298
 20
91.184860007399
 11
-44.528757003593
 21
87.88453929376
  0
LINE
  5
362
100
AcDbEntity
  8
0
  6
DOT_CENTER
 62
           2
100
AcDbLine
 10
-50.918292432714
 20
69.115910252638
 11
-50.918292432714
 21
76.817539293761
  0
LINE
  5
361
100
AcDbEntity
  8
1
  6
CONTINUOUS
 62
           7
100
AcDbLine
 10
-43.990089202439
 20
96.19553929376
 11
-57.84649566299
 21
96.19553929376
  0
LINE
  5
360
100
AcDbEntity
  8
1
  6
CONTINUOUS
 62
           7
100
AcDbLine
 10
-37.061885972163
 20
84.19553929376
 11
-43.990089202439
 21
96.19553929376
  0
LINE
  5
35F
100
AcDbEntity
  8
1
  6
CONTINUOUS
 62
           7
100
AcDbLine
 10
-43.990089202439
 20
72.19553929376
 11
-37.061885972163
 21
84.19553929376
  0
LINE
  5
35E
100
AcDbEntity
  8
1
  6
CONTINUOUS
 62
           7
100
AcDbLine
 10
-57.84649566299
 20
72.19553929376
 11
-43.990089202439
 21
72.19553929376
  0
LINE
  5
35D
100
AcDbEntity
  8
1
  6
CONTINUOUS
 62
           7
100
AcDbLine
 10
-64.774698893266
 20
84.19553929376
 11
-57.84649566299
 21
72.19553929376
  0
LINE
  5
35C
100
AcDbEntity
  8
1
  6
CONTINUOUS
 62
           7
100
AcDbLine
 10
-57.84649566299
 20
96.19553929376
 11
-64.774698893266
 21
84.19553929376
  0
LINE
  5
35B
100
AcDbEntity
  8
1
  6
CONTINUOUS
 62
           2
100
AcDbLine
 10
-52.985292432714
 20
79.19553929376
 11
-53.418292432714
 21
77.19553929376
  0
LINE
  5
35A
100
AcDbEntity
  8
1
  6
CONTINUOUS
 62
           2
100
AcDbLine
 10
-55.980470259205
 20
78.963488486192
 11
-54.423419451637
 21
80.266597377516
  0
LINE
  5
359
100
AcDbEntity
  8
1
  6
CONTINUOUS
 62
           2
100
AcDbLine
 10
-57.980470259206
 20
82.427590101329
 11
-62.310597278128
 21
79.927590101329
  0
LINE
  5
358
100
AcDbEntity
  8
1
  6
CONTINUOUS
 62
           7
100
AcDbLine
 10
-56.073419451637
 20
83.124481210005
 11
-62.135597278128
 21
79.624481210005
  0
LINE
  5
357
100
AcDbEntity
  8
1
  6
CONTINUOUS
 62
           2
100
AcDbLine
 10
-55.980470259205
 20
78.963488486192
 11
-60.310597278128
 21
76.463488486192
  0
LINE
  5
356
100
AcDbEntity
  8
1
  6
CONTINUOUS
 62
           7
100
AcDbLine
 10
-57.980470259206
 20
82.427590101329
 11
-55.980470259205
 21
78.963488486192
  0
LINE
  5
355
100
AcDbEntity
  8
1
  6
CONTINUOUS
 62
           2
100
AcDbLine
 10
-56.073419451637
 20
83.124481210005
 11
-57.980470259206
 21
82.427590101329
  0
LINE
  5
354
100
AcDbEntity
  8
1
  6
DOT_CENTER
 62
           2
100
AcDbLine
 10
-62.020780083545
 20
77.785515059879
 11
-53.97387653834
 21
82.431396987846
  0
LINE
  5
353
100
AcDbEntity
  8
1
  6
CONTINUOUS
 62
           7
100
AcDbLine
 10
-54.423419451637
 20
80.266597377516
 11
-60.485597278128
 21
76.766597377516
  0
LINE
  5
352
100
AcDbEntity
  8
1
  6
CONTINUOUS
 62
           7
100
AcDbLine
 10
-54.423419451637
 20
82.171853265842
 11
-54.423419451637
 21
80.266597377516
  0
LINE
  5
351
100
AcDbEntity
  8
1
  6
CONTINUOUS
 62
           7
100
AcDbLine
 10
-54.423419451637
 20
82.171853265842
 11
-56.073419451637
 21
83.124481210005
  0
LINE
  5
350
100
AcDbEntity
  8
1
  6
CONTINUOUS
 62
           7
100
AcDbLine
 10
-54.423419451637
 20
80.266597377516
 11
-56.073419451637
 21
83.124481210005
  0
INSERT
  5
30
100
AcDbEntity
  8
0
100
AcDbBlockReference
  2
_3
 10
0.0
 20
0.0
  0
INSERT
  5
31
100
AcDbEntity
  8
0
100
AcDbBlockReference
  2
FORMAT_A4AI
 10
0.0
 20
0.0
  0
INSERT
  5
32
100
AcDbEntity
  8
0
100
AcDbBlockReference
  2
13188610C
 10
0.0
 20
0.0
  0
SOLID
  5
3BE
100
AcDbEntity
  8
0
 62
           2
100
AcDbTrace
 10
-64.141159303678
 20
80.607195845335
 11
-64.013850617421
 21
81.333374844617
 12
-61.319566400364
 22
80.486782606366
 13
-61.319566400364
 23
80.486782606366
  0
SOLID
  5
3C0
100
AcDbEntity
  8
0
 62
           2
100
AcDbTrace
 10
-46.579385204577
 20
95.463019309778
 11
-46.029208874251
 21
94.972255164649
 12
-48.168158926285
 22
93.128135175317
 13
-48.168158926285
 23
93.128135175317
  0
SOLID
  5
3C2
100
AcDbEntity
  8
0
 62
           2
100
AcDbTrace
 10
-65.719729432688
 20
75.224271869872
 11
-66.088356425932
 21
75.862752551213
 12
-63.479171798714
 22
76.943512210543
 13
-63.479171798714
 23
76.943512210543
  0
ENDSEC
  0
SECTION
  2
OBJECTS
  0
DICTIONARY
  5
19
100
AcDbDictionary
  3
ACAD_GROUP
350
1A
  3
ACAD_MLINESTYLE
350
1B
  0
DICTIONARY
  5
1A
102
{ACAD_REACTORS
330
19
102
}
100
AcDbDictionary
  0
DICTIONARY
  5
1B
102
{ACAD_REACTORS
330
19
102
}
100
AcDbDictionary
  3
STANDARD
350
1C
  0
MLINESTYLE
  5
1C
102
{ACAD_REACTORS
330
1B
102
}
100
AcDbMlineStyle
  2
STANDARD
 70
           0
  3

 62
           0
 51
90.0
 52
90.0
 71
           2
 49
0.5
 62
         256
  6
BYLAYER
 49
-0.5
 62
         256
  6
BYLAYER
  0
ENDSEC
  0
EOF
