  0
SECTION
  2
HEADER
  9
$ACADVER
  1
AC1014
  9
$ACADMAINTVER
 70
           0
  9
$DWGCODEPAGE
  3
DOS932
  9
$INSBASE
 10
0.0
 20
0.0
 30
0.0
  9
$EXTMIN
 10
1.000000000000E+20
 20
1.000000000000E+20
 30
1.000000000000E+20
  9
$EXTMAX
 10
-1.000000000000E+20
 20
-1.000000000000E+20
 30
-1.000000000000E+20
  9
$LIMMIN
 10
0.0
 20
0.0
  9
$LIMMAX
 10
0.0
 20
0.0
  9
$ORTHOMODE
 70
           0
  9
$REGENMODE
 70
           1
  9
$FILLMODE
 70
           1
  9
$QTEXTMODE
 70
           0
  9
$MIRRTEXT
 70
           1
  9
$DRAGMODE
 70
           2
  9
$LTSCALE
 40
1.0
  9
$OSMODE
 70
           0
  9
$ATTMODE
 70
           1
  9
$TEXTSIZE
 40
0.2
  9
$TRACEWID
 40
0.05
  9
$TEXTSTYLE
  7
STANDARD
  9
$CLAYER
  8
0
  9
$CELTYPE
  6
CONTINUOUS
  9
$CECOLOR
 62
         256
  9
$CELTSCALE
 40
1.0
  9
$DELOBJ
 70
           1
  9
$DISPSILH
 70
           0
  9
$DIMSCALE
 40
1.0
  9
$DIMASZ
 40
0.18
  9
$DIMEXO
 40
0.0625
  9
$DIMDLI
 40
0.38
  9
$DIMRND
 40
0.0
  9
$DIMDLE
 40
0.0
  9
$DIMEXE
 40
0.18
  9
$DIMTP
 40
0.0
  9
$DIMTM
 40
0.0
  9
$DIMTXT
 40
0.18
  9
$DIMCEN
 40
0.09
  9
$DIMTSZ
 40
0.0
  9
$DIMTOL
 70
           0
  9
$DIMLIM
 70
           0
  9
$DIMTIH
 70
           1
  9
$DIMTOH
 70
           1
  9
$DIMSE1
 70
           0
  9
$DIMSE2
 70
           0
  9
$DIMTAD
 70
           0
  9
$DIMZIN
 70
           0
  9
$DIMBLK
  1

  9
$DIMASO
 70
           1
  9
$DIMSHO
 70
           1
  9
$DIMPOST
  1

  9
$DIMAPOST
  1

  9
$DIMALT
 70
           0
  9
$DIMALTD
 70
           2
  9
$DIMALTF
 40
25.4
  9
$DIMLFAC
 40
1.0
  9
$DIMTOFL
 70
           0
  9
$DIMTVP
 40
0.0
  9
$DIMTIX
 70
           0
  9
$DIMSOXD
 70
           0
  9
$DIMSAH
 70
           0
  9
$DIMBLK1
  1

  9
$DIMBLK2
  1

  9
$DIMSTYLE
  2
STANDARD
  9
$DIMCLRD
 70
           0
  9
$DIMCLRE
 70
           0
  9
$DIMCLRT
 70
           0
  9
$DIMTFAC
 40
1.0
  9
$DIMGAP
 40
0.09
  9
$DIMJUST
 70
           0
  9
$DIMSD1
 70
           0
  9
$DIMSD2
 70
           0
  9
$DIMTOLJ
 70
           1
  9
$DIMTZIN
 70
           0
  9
$DIMALTZ
 70
           0
  9
$DIMALTTZ
 70
           0
  9
$DIMFIT
 70
           3
  9
$DIMUPT
 70
           0
  9
$DIMUNIT
 70
           2
  9
$DIMDEC
 70
           4
  9
$DIMTDEC
 70
           4
  9
$DIMALTU
 70
           2
  9
$DIMALTTD
 70
           2
  9
$DIMTXSTY
  7
STANDARD
  9
$DIMAUNIT
 70
           0
  9
$LUNITS
 70
           2
  9
$LUPREC
 70
           4
  9
$SKETCHINC
 40
0.1
  9
$FILLETRAD
 40
0.0
  9
$AUNITS
 70
           0
  9
$AUPREC
 70
           0
  9
$MENU
  1
acad
  9
$ELEVATION
 40
0.0
  9
$PELEVATION
 40
0.0
  9
$THICKNESS
 40
0.0
  9
$LIMCHECK
 70
           0
  9
$BLIPMODE
 70
           1
  9
$CHAMFERA
 40
0.0
  9
$CHAMFERB
 40
0.0
  9
$CHAMFERC
 40
0.0
  9
$CHAMFERD
 40
0.0
  9
$SKPOLY
 70
           0
  9
$TDCREATE
 40
0.000000000
  9
$TDUPDATE
 40
0.000000000
  9
$TDINDWG
 40
0.0000000000
  9
$TDUSRTIMER
 40
0.0000000000
  9
$USRTIMER
 70
           1
  9
$ANGBASE
 50
0.0
  9
$ANGDIR
 70
           0
  9
$PDMODE
 70
           0
  9
$PDSIZE
 40
0.0
  9
$PLINEWID
 40
0.0
  9
$COORDS
 70
           0
  9
$SPLFRAME
 70
           0
  9
$SPLINETYPE
 70
           6
  9
$SPLINESEGS
 70
           8
  9
$ATTDIA
 70
           0
  9
$ATTREQ
 70
           1
  9
$HANDLING
 70
           1
  9
$HANDSEED
  5
534
  9
$SURFTAB1
 70
           6
  9
$SURFTAB2
 70
           6
  9
$SURFTYPE
 70
           6
  9
$SURFU
 70
           6
  9
$SURFV
 70
           6
  9
$UCSNAME
  2

  9
$UCSORG
 10
0.0
 20
0.0
 30
0.0
  9
$UCSXDIR
 10
1.0
 20
0.0
 30
0.0
  9
$UCSYDIR
 10
0.0
 20
1.0
 30
0.0
  9
$PUCSNAME
  2

  9
$PUCSORG
 10
0.0
 20
0.0
 30
0.0
  9
$PUCSXDIR
 10
1.0
 20
0.0
 30
0.0
  9
$PUCSYDIR
 10
0.0
 20
1.0
 30
0.0
  9
$USERI1
 70
           0
  9
$USERI2
 70
           0
  9
$USERI3
 70
           0
  9
$USERI4
 70
           0
  9
$USERI5
 70
           0
  9
$USERR1
 40
0.0
  9
$USERR2
 40
0.0
  9
$USERR3
 40
0.0
  9
$USERR4
 40
0.0
  9
$USERR5
 40
0.0
  9
$WORLDVIEW
 70
           1
  9
$SHADEDGE
 70
           3
  9
$SHADEDIF
 70
          70
  9
$TILEMODE
 70
           1
  9
$MAXACTVP
 70
          16
  9
$PINSBASE
 10
0.0
 20
0.0
 30
0.0
  9
$PLIMCHECK
 70
           0
  9
$PEXTMIN
 10
1.000000000000E+20
 20
1.000000000000E+20
 30
1.000000000000E+20
  9
$PEXTMAX
 10
-1.000000000000E+20
 20
-1.000000000000E+20
 30
-1.000000000000E+20
  9
$PLIMMIN
 10
0.0
 20
0.0
  9
$PLIMMAX
 10
12.0
 20
9.0
  9
$UNITMODE
 70
           0
  9
$VISRETAIN
 70
           0
  9
$PLINEGEN
 70
           1
  9
$PSLTSCALE
 70
           0
  9
$TREEDEPTH
 70
        3020
  9
$PICKSTYLE
 70
           1
  9
$CMLSTYLE
  2
STANDARD
  9
$CMLJUST
 70
           0
  9
$CMLSCALE
 40
1.0
  9
$PROXYGRAPHICS
 70
           0
  9
$MEASUREMENT
 70
           0
  0
ENDSEC
  0
SECTION
  2
CLASSES
  0
CLASS
  1
LWPOLYLINE
  2
AcDbPolyline
  3
"AutoCAD"
 90
        0
280
           0
281
           1
  0
CLASS
  1
IMAGE
  2
AcDbRasterImage
  3
ISM
 90
      127
280
           0
281
           1
  0
CLASS
  1
OLE2FRAME
  2
AcDbOle2Frame
  3
""
 90
        0
280
           0
281
           1
  0
CLASS
  1
HATCH
  2
AcDbHatch
  3
"ACAD_SEDONA"
 90
        0
280
           0
281
           1
  0
CLASS
  1
DICTIONARYVAR
  2
AcDbDictionaryVar
  3
"AutoCAD"
 90
        0
280
           0
281
           0
  0
CLASS
  1
RASTERVARIABLES
  2
AcDbRasterVariables
  3
ISM
 90
        0
280
           0
281
           0
  0
CLASS
  1
IMAGEDEF
  2
AcDbRasterImageDef
  3
ISM
 90
        0
280
           0
281
           0
  0
CLASS
  1
IMAGEDEF_REACTOR
  2
AcDbRasterImageDefReactor
  3
ISM
 90
        1
280
           0
281
           0
  0
CLASS
  1
IDBUFFER
  2
AcDbIdBuffer
  3
"Acad"
 90
        0
280
           0
281
           0
  0
CLASS
  1
SPATIAL_FILTER
  2
AcDbSpatialFilter
  3
"Acad"
 90
        0
280
           0
281
           0
  0
CLASS
  1
XRECORD
  2
AcDbXrecord
  3
"<Built In>"
 90
        0
280
           0
281
           0
  0
CLASS
  1
SORTENTSTABLE
  2
AcDbSortentsTable
  3
"AutoCAD"
 90
        0
280
           0
281
           0
  0
CLASS
  1
LAYER_INDEX
  2
AcDbLayerIndex
  3
"Acad"
 90
        0
280
           0
281
           0
  0
CLASS
  1
SPATIAL_INDEX
  2
AcDbSpatialIndex
  3
"Acad"
 90
        0
280
           0
281
           0
  0
CLASS
  1
OBJECT_PTR
  2
CAseDLPNTableRecord
  3
"ASE-LPNTableRecord"
 90
        1
280
           0
281
           0
  0
CLASS
  1
LAYOUT
  2
AcDbLayout
  3
"AutoCAD 2000"
 90
        1
280
           0
281
           0
  0
CLASS
  1
PLOTSETTINGS
  2
AcDbPlotSettings
  3
"AutoCAD 2000"
 90
        1
280
           0
281
           0
  0
CLASS
  1
ACDBDICTIONARYWDFLT
  2
AcDbDictionaryWithDefault
  3
"AutoCAD 2000"
 90
        1
280
           0
281
           0
  0
CLASS
  1
ACDBPLACEHOLDER
  2
AcDbPlaceHolder
  3
"AutoCAD 2000"
 90
        1
280
           0
281
           0
  0
CLASS
  1
VBA_PROJECT
  2
AcDbVbaProject
  3
"acadvba"
 90
        1
280
           0
281
           0
  0
CLASS
  1
WIPEOUT
  2
AcDbWipeout
  3
WipeOut|AutoCAD Express Tool|expresstools@autodesk.com
 90
      127
280
           0
281
           1
  0
CLASS
  1
WIPEOUTVARIABLES
  2
AcDbWipeoutVariables
  3
WipeOut|AutoCAD Express Tool|expresstools@autodesk.com
 90
        0
280
           0
281
           0
  0
CLASS
  1
RTEXT
  2
RText
  3
RText|AutoCAD Express Tool|expresstools@autodesk.com
 90
        0
280
           0
281
           1
  0
CLASS
  1
ARCALIGNEDTEXT
  2
AcDbArcAlignedText
  3
ATEXT|AutoCAD Express Tool|expresstools@autodesk.com
 90
        0
280
           0
281
           1
  0
ENDSEC
  0
SECTION
  2
TABLES
  0
TABLE
  2
VPORT
  5
7
100
AcDbSymbolTable
 70
           1
  0
VPORT
  5
15
100
AcDbSymbolTableRecord
100
AcDbViewportTableRecord
  2
*ACTIVE
 70
           0
 10
0.0
 20
0.0
 11
1.0
 21
1.0
 12
6.591288
 22
4.579184
 13
0.0
 23
0.0
 14
1.0
 24
1.0
 15
0.0
 25
0.0
 16
0.0
 26
0.0
 36
1.0
 17
0.0
 27
0.0
 37
0.0
 40
9.158369
 41
0.688564
 42
50.0
 43
0.0
 44
0.0
 50
0.0
 51
0.0
 71
           0
 72
         100
 73
           1
 74
           1
 75
           0
 76
           0
 77
           0
 78
           0
  0
ENDTAB
  0
TABLE
  2
LTYPE
  5
4
100
AcDbSymbolTable
 70
          10
  0
LTYPE
  5
11
100
AcDbSymbolTableRecord
100
AcDbLinetypeTableRecord
  2
BYBLOCK
 70
          64
  3

 72
          65
 73
           0
 40
0.0
  0
LTYPE
  5
12
100
AcDbSymbolTableRecord
100
AcDbLinetypeTableRecord
  2
BYLAYER
 70
          64
  3

 72
          65
 73
           0
 40
0.0
  0
LTYPE
  5
13
100
AcDbSymbolTableRecord
100
AcDbLinetypeTableRecord
  2
CONTINUOUS
 70
          64
  3
Solid line
 72
          65
 73
           0
 40
0.0
  0
LTYPE
  5
1D
100
AcDbSymbolTableRecord
100
AcDbLinetypeTableRecord
  2
DASHED
 70
          64
  3
Dashed
 72
          65
 73
           2
 40
15.0
 49
12.0
 74
           0
 49
-3.0
 74
           0
  0
LTYPE
  5
1E
100
AcDbSymbolTableRecord
100
AcDbLinetypeTableRecord
  2
DOTTED
 70
          64
  3
Dotted
 72
          65
 73
           2
 40
3.5
 49
0.5
 74
           0
 49
-3.0
 74
           0
  0
LTYPE
  5
1F
100
AcDbSymbolTableRecord
100
AcDbLinetypeTableRecord
  2
DOT_CENTER
 70
          64
  3
Dot_Center
 72
          65
 73
           4
 40
2.0
 49
1.25
 74
           0
 49
-0.25
 74
           0
 49
0.25
 74
           0
 49
-0.25
 74
           0
  0
LTYPE
  5
20
100
AcDbSymbolTableRecord
100
AcDbLinetypeTableRecord
  2
LONG_DASHED
 70
          64
  3
Long_Dashed
 72
          65
 73
           2
 40
2.0
 49
1.5
 74
           0
 49
-0.5
 74
           0
  0
LTYPE
  5
21
100
AcDbSymbolTableRecord
100
AcDbLinetypeTableRecord
  2
DASH_CENTER
 70
          64
  3
Dash_Center
 72
          65
 73
           4
 40
36.0
 49
24.0
 74
           0
 49
-3.0
 74
           0
 49
6.0
 74
           0
 49
-3.0
 74
           0
  0
LTYPE
  5
22
100
AcDbSymbolTableRecord
100
AcDbLinetypeTableRecord
  2
PHANTOM
 70
          64
  3
Phantom
 72
          65
 73
           6
 40
2.5
 49
1.25
 74
           0
 49
-0.25
 74
           0
 49
0.25
 74
           0
 49
-0.25
 74
           0
 49
0.25
 74
           0
 49
-0.25
 74
           0
  0
LTYPE
  5
23
100
AcDbSymbolTableRecord
100
AcDbLinetypeTableRecord
  2
CENTER_DASH_DASH
 70
          64
  3
Center_Dash_Dash
 72
          65
 73
           6
 40
22.0
 49
12.0
 74
           0
 49
-3.0
 74
           0
 49
0.5
 74
           0
 49
-3.0
 74
           0
 49
0.5
 74
           0
 49
-3.0
 74
           0
  0
ENDTAB
  0
TABLE
  2
LAYER
  5
2
100
AcDbSymbolTable
 70
           3
  0
LAYER
  5
14
100
AcDbSymbolTableRecord
100
AcDbLayerTableRecord
  2
0
 70
           0
 62
           7
  6
CONTINUOUS
  0
LAYER
  5
24
100
AcDbSymbolTableRecord
100
AcDbLayerTableRecord
  2
976
 70
           0
 62
           7
  6
CONTINUOUS
  0
LAYER
  5
25
100
AcDbSymbolTableRecord
100
AcDbLayerTableRecord
  2
1
 70
           0
 62
           7
  6
CONTINUOUS
  0
ENDTAB
  0
TABLE
  2
STYLE
  5
3
100
AcDbSymbolTable
 70
           2
  0
STYLE
  5
17
100
AcDbSymbolTableRecord
100
AcDbTextStyleTableRecord
  2
STANDARD
 70
           0
 40
0.0
 41
1.0
 50
0.0
 71
           0
 42
0.0
  3
txt
  4

  0
STYLE
  5
517
100
AcDbSymbolTableRecord
100
AcDbTextStyleTableRecord
  2
CONVERTER_1
 70
           0
 40
0.0
 41
0.9
 50
0.0
 71
           0
 42
0.0
  3
txt.shx
  4

  0
ENDTAB
  0
TABLE
  2
VIEW
  5
5
100
AcDbSymbolTable
 70
           0
  0
ENDTAB
  0
TABLE
  2
UCS
  5
6
100
AcDbSymbolTable
 70
           0
  0
ENDTAB
  0
TABLE
  2
APPID
  5
8
100
AcDbSymbolTable
 70
           1
  0
APPID
  5
16
100
AcDbSymbolTableRecord
100
AcDbRegAppTableRecord
  2
ACAD
 70
           0
  0
ENDTAB
  0
TABLE
  2
DIMSTYLE
  5
9
100
AcDbSymbolTable
 70
           4
  0
DIMSTYLE
105
18
100
AcDbSymbolTableRecord
100
AcDbDimStyleTableRecord
  2
STANDARD
 70
           0
  3

  4

  5

  6

  7

 40
1.0
 41
0.18
 42
0.0625
 43
0.38
 44
0.18
 45
0.0
 46
0.0
 47
0.0
 48
0.0
 71
           0
 72
           0
 73
           1
 74
           1
 75
           0
 76
           0
 77
           0
 78
           0
140
0.18
141
0.09
142
0.0
143
25.4
144
1.0
145
0.0
146
1.0
147
0.09
170
           0
171
           2
172
           0
173
           0
174
           0
175
           0
176
           0
177
           0
178
           0
270
           2
271
           4
272
           4
273
           2
274
           2
275
           0
280
           0
281
           0
282
           0
283
           1
284
           0
285
           0
286
           0
287
           0
288
           0
340
17
  0
DIMSTYLE
105
51A
100
AcDbSymbolTableRecord
100
AcDbDimStyleTableRecord
  2
ME10_DIM_0
 70
           0
  3

  4

  5

  6

  7

 40
1.0
 41
2.8
 42
0.8
 43
0.38
 44
1.0
 45
0.0
 46
0.0
 47
0.0
 48
0.0
 71
           0
 72
           0
 73
           0
 74
           0
 75
           0
 76
           0
 77
           1
 78
           8
140
2.8
141
0.09
142
0.0
143
25.4
144
1.0
145
0.0
146
1.0
147
0.09
170
           0
171
           2
172
           0
173
           1
174
           0
175
           0
176
           2
177
           2
178
           2
270
           2
271
           0
272
           4
273
           2
274
           2
275
           0
280
           0
281
           0
282
           0
283
           1
284
           0
285
           0
286
           0
287
           3
288
           0
340
17
  0
DIMSTYLE
105
525
100
AcDbSymbolTableRecord
100
AcDbDimStyleTableRecord
  2
ME10_DIM_1
 70
           0
  3

  4

  5

  6

  7

 40
1.0
 41
2.8
 42
0.8
 43
0.38
 44
1.0
 45
0.0
 46
0.0
 47
0.0
 48
0.0
 71
           0
 72
           0
 73
           0
 74
           0
 75
           0
 76
           0
 77
           1
 78
           8
140
2.8
141
0.09
142
0.0
143
25.4
144
1.0
145
0.0
146
1.0
147
0.09
170
           0
171
           2
172
           0
173
           1
174
           0
175
           0
176
           2
177
           2
178
           2
270
           2
271
           3
272
           4
273
           2
274
           2
275
           0
280
           0
281
           0
282
           0
283
           1
284
           0
285
           0
286
           0
287
           3
288
           0
340
17
  0
DIMSTYLE
105
530
100
AcDbSymbolTableRecord
100
AcDbDimStyleTableRecord
  2
ME10_DIM_2
 70
           0
  3

  4

  5

  6

  7

 40
1.0
 41
2.8
 42
0.8
 43
0.38
 44
1.0
 45
0.0
 46
0.0
 47
0.0
 48
0.0
 71
           0
 72
           0
 73
           0
 74
           0
 75
           0
 76
           0
 77
           1
 78
           8
140
2.8
141
0.09
142
0.0
143
25.4
144
1.0
145
0.0
146
1.0
147
0.09
170
           0
171
           2
172
           0
173
           1
174
           0
175
           0
176
           2
177
           2
178
           2
270
           2
271
           0
272
           4
273
           2
274
           2
275
           0
280
           0
281
           0
282
           0
283
           1
284
           0
285
           0
286
           0
287
           3
288
           0
340
17
  0
ENDTAB
  0
TABLE
  2
BLOCK_RECORD
  5
1
100
AcDbSymbolTable
 70
           3
  0
BLOCK_RECORD
  5
A
100
AcDbSymbolTableRecord
100
AcDbBlockTableRecord
  2
*MODEL_SPACE
  0
BLOCK_RECORD
  5
B
100
AcDbSymbolTableRecord
100
AcDbBlockTableRecord
  2
*PAPER_SPACE
  0
BLOCK_RECORD
  5
510
100
AcDbSymbolTableRecord
100
AcDbBlockTableRecord
  2
*D0
  0
BLOCK_RECORD
  5
51C
100
AcDbSymbolTableRecord
100
AcDbBlockTableRecord
  2
*D1
  0
BLOCK_RECORD
  5
527
100
AcDbSymbolTableRecord
100
AcDbBlockTableRecord
  2
*D2
  0
ENDTAB
  0
ENDSEC
  0
SECTION
  2
BLOCKS
  0
BLOCK
  5
D
100
AcDbEntity
  8
0
100
AcDbBlockBegin
  2
*MODEL_SPACE
 70
           0
 10
0.0
 20
0.0
 30
0.0
  3
*MODEL_SPACE
  1

  0
ENDBLK
  5
E
100
AcDbEntity
  8
0
100
AcDbBlockEnd
  0
BLOCK
  5
F
100
AcDbEntity
 67
           1
  8
0
100
AcDbBlockBegin
  2
*PAPER_SPACE
 70
           0
 10
0.0
 20
0.0
 30
0.0
  3
*PAPER_SPACE
  1

  0
ENDBLK
  5
10
100
AcDbEntity
 67
           1
  8
0
100
AcDbBlockEnd
  0
BLOCK
  5
511
100
AcDbEntity
  8
0
100
AcDbBlockBegin
  2
*D0
 70
           1
 10
0.0
 20
0.0
 30
0.0
  3
*D0
  1

  0
LINE
  5
512
100
AcDbEntity
  8
0
  6
CONTINUOUS
 62
           2
100
AcDbLine
 10
-92.794089765757
 20
34.596824285209
 11
-92.794089765757
 21
176.5827390796
  0
LINE
  5
513
100
AcDbEntity
  8
0
  6
CONTINUOUS
 62
           2
100
AcDbLine
 10
-4.393738353786
 20
176.5827390796
 11
-93.794089765757
 21
176.5827390796
  0
LINE
  5
514
100
AcDbEntity
  8
0
  6
CONTINUOUS
 62
           2
100
AcDbLine
 10
-4.393738353786
 20
34.596824285209
 11
-93.794089765757
 21
34.596824285209
  0
SOLID
  5
515
100
AcDbEntity
  8
0
 62
           2
100
AcDbTrace
 10
-92.425462772512
 20
173.7827390796
 11
-93.162716759002
 21
173.7827390796
 12
-92.794089765757
 22
176.5827390796
 13
-92.794089765757
 23
176.5827390796
  0
SOLID
  5
516
100
AcDbEntity
  8
0
 62
           2
100
AcDbTrace
 10
-93.162716759002
 20
37.396824285209
 11
-92.425462772512
 21
37.396824285209
 12
-92.794089765757
 22
34.596824285209
 13
-92.794089765757
 23
34.596824285209
  0
MTEXT
  5
518
100
AcDbEntity
  8
0
 62
           2
100
AcDbMText
 10
-93.794089765757
 20
101.584071921683
 30
0.0
 40
2.8
 41
0.0
 71
           7
 72
           1
  1
142
  7
CONVERTER_1
 11
0.0
 21
1.0
 31
0.0
  0
ENDBLK
  5
519
100
AcDbEntity
  8
0
100
AcDbBlockEnd
  0
BLOCK
  5
51D
100
AcDbEntity
  8
0
100
AcDbBlockBegin
  2
*D1
 70
           1
 10
0.0
 20
0.0
 30
0.0
  3
*D1
  1

  0
LINE
  5
51E
100
AcDbEntity
  8
0
  6
CONTINUOUS
 62
           2
100
AcDbLine
 10
-71.593738353786
 20
196.063347059312
 11
117.406261646214
 21
196.063347059312
  0
LINE
  5
51F
100
AcDbEntity
  8
0
  6
CONTINUOUS
 62
           2
100
AcDbLine
 10
117.406261646214
 20
106.389781682405
 11
117.406261646214
 21
197.063347059312
  0
LINE
  5
520
100
AcDbEntity
  8
0
  6
CONTINUOUS
 62
           2
100
AcDbLine
 10
-71.593738353786
 20
106.389781682405
 11
-71.593738353786
 21
197.063347059312
  0
SOLID
  5
521
100
AcDbEntity
  8
0
 62
           2
100
AcDbTrace
 10
114.606261646214
 20
195.694720066067
 11
114.606261646214
 21
196.431974052557
 12
117.406261646214
 22
196.063347059312
 13
117.406261646214
 23
196.063347059312
  0
SOLID
  5
522
100
AcDbEntity
  8
0
 62
           2
100
AcDbTrace
 10
-68.793738353786
 20
196.431974052557
 11
-68.793738353786
 21
195.694720066067
 12
-71.593738353786
 22
196.063347059312
 13
-71.593738353786
 23
196.063347059312
  0
TEXT
  5
523
100
AcDbEntity
  8
0
 62
           2
100
AcDbText
 10
13.730208764886
 20
197.063347059312
 40
2.8
  1
189
 41
0.9
  7
CONVERTER_1
100
AcDbText
  0
ENDBLK
  5
524
100
AcDbEntity
  8
0
100
AcDbBlockEnd
  0
BLOCK
  5
528
100
AcDbEntity
  8
0
100
AcDbBlockBegin
  2
*D2
 70
           1
 10
0.0
 20
0.0
 30
0.0
  3
*D2
  1

  0
LINE
  5
529
100
AcDbEntity
  8
0
  6
CONTINUOUS
 62
           2
100
AcDbLine
 10
-358.70181453372
 20
-284.338846372149
 11
-358.70181453372
 21
-14.838846372149
  0
LINE
  5
52A
100
AcDbEntity
  8
0
  6
CONTINUOUS
 62
           2
100
AcDbLine
 10
-258.461892626739
 20
-14.838846372149
 11
-359.70181453372
 21
-14.838846372149
  0
LINE
  5
52B
100
AcDbEntity
  8
0
  6
CONTINUOUS
 62
           2
100
AcDbLine
 10
-228.555038377247
 20
-284.338846372149
 11
-359.70181453372
 21
-284.338846372149
  0
SOLID
  5
52C
100
AcDbEntity
  8
0
 62
           2
100
AcDbTrace
 10
-359.070441526965
 20
-281.538846372149
 11
-358.333187540475
 21
-281.538846372149
 12
-358.70181453372
 22
-284.338846372149
 13
-358.70181453372
 23
-284.338846372149
  0
SOLID
  5
52D
100
AcDbEntity
  8
0
 62
           2
100
AcDbTrace
 10
-358.333187540475
 20
-17.638846372149
 11
-359.070441526965
 21
-17.638846372149
 12
-358.70181453372
 22
-14.838846372149
 13
-358.70181453372
 23
-14.838846372149
  0
MTEXT
  5
52E
100
AcDbEntity
  8
0
 62
           2
100
AcDbMText
 10
-359.70181453372
 20
-159.723315948481
 30
0.0
 40
2.8
 41
0.0
 71
           7
 72
           1
  1
270
  7
CONVERTER_1
 11
0.0
 21
1.0
 31
0.0
  0
ENDBLK
  5
52F
100
AcDbEntity
  8
0
100
AcDbBlockEnd
  0
ENDSEC
  0
SECTION
  2
ENTITIES
  0
HATCH
  5
532
100
AcDbEntity
  8
0
  6
CONTINUOUS
 62
           7
100
AcDbHatch
 10
0.0
 20
0.0
 30
0.0
210
0.0
220
0.0
230
1.0
  2
USER
 70
           0
 71
           1
 91
        1
 92
        1
 93
        4
 72
           1
 10
73.90626164621392
 20
-37.338846372148979
 11
84.906261646213579
 21
-37.338846372148979
 72
           1
 10
84.906261646213579
 20
-37.338846372148979
 11
84.906261646213579
 21
-41.338846372149042
 72
           1
 10
84.906261646213579
 20
-41.338846372149042
 11
73.90626164621392
 21
-41.338846372149042
 72
           1
 10
73.90626164621392
 20
-41.338846372149042
 11
73.90626164621392
 21
-37.338846372148979
 97
        4
330
1BB
330
1BC
330
1BD
330
1BA
 75
           1
 76
           0
 52
90.0
 41
1.0
 77
           0
 78
           1
 53
90.0
 43
0.0
 44
0.0
 45
-1.0
 46
-0.0000000000000004
 79
           0
 98
        1
 10
0.0
 20
0.0
  0
DIMENSION
  5
531
100
AcDbEntity
  8
0
100
AcDbDimension
  2
*D2
 10
-358.70181453372
 20
-284.338846372149
 11
-361.10181453372
 21
-156.363315948481
 31
0.0
 53
90.0
  1
<>
  3
ME10_DIM_2
100
AcDbAlignedDimension
 13
-257.661892626739
 23
-14.838846372149
 14
-227.755038377247
 24
-284.338846372149
 50
90.0
100
AcDbRotatedDimension
  0
DIMENSION
  5
526
100
AcDbEntity
  8
0
100
AcDbDimension
  2
*D1
 10
117.406261646214
 20
196.063347059312
 11
16.670208764886
 21
198.463347059312
 31
0.0
  1
<>
  3
ME10_DIM_1
100
AcDbAlignedDimension
 13
-71.593738353786
 23
105.589781682405
 14
117.406261646214
 24
105.589781682405
100
AcDbRotatedDimension
  0
DIMENSION
  5
51B
100
AcDbEntity
  8
0
100
AcDbDimension
  2
*D0
 10
-92.794089765757
 20
176.5827390796
 11
-95.194089765757
 21
104.524071921683
 31
0.0
 70
           1
  1
<>
  3
ME10_DIM_0
100
AcDbAlignedDimension
 13
-3.593738353786
 23
34.596824285209
 14
-3.593738353786
 24
176.5827390796
  0
ARC
  5
50F
100
AcDbEntity
  8
1
  6
CONTINUOUS
 62
           7
100
AcDbCircle
 10
14.406261646214
 20
-244.838846372149
 40
0.5
100
AcDbArc
 50
-90.0
 51
0.0
  0
ARC
  5
50E
100
AcDbEntity
  8
1
  6
CONTINUOUS
 62
           7
100
AcDbCircle
 10
14.406261646214
 20
-244.838846372149
 40
0.5
100
AcDbArc
 50
0.0
 51
90.0
  0
ARC
  5
50D
100
AcDbEntity
  8
1
  6
CONTINUOUS
 62
           7
100
AcDbCircle
 10
-19.593738353786
 20
-244.838846372149
 40
0.5
100
AcDbArc
 50
180.0
 51
-90.0
  0
ARC
  5
50C
100
AcDbEntity
  8
1
  6
CONTINUOUS
 62
           7
100
AcDbCircle
 10
-19.593738353786
 20
-244.838846372149
 40
0.5
100
AcDbArc
 50
90.0
 51
180.0
  0
ARC
  5
50B
100
AcDbEntity
  8
1
  6
CONTINUOUS
 62
           7
100
AcDbCircle
 10
-182.815855846656
 20
-272.706355223734
 40
0.4
100
AcDbArc
 50
-31.313541721399
 51
37.320438979827
  0
ARC
  5
50A
100
AcDbEntity
  8
1
  6
CONTINUOUS
 62
           7
100
AcDbCircle
 10
-181.558876922188
 20
-270.157454112384
 40
0.4
100
AcDbArc
 50
-91.127917809974
 51
-21.186458278614
  0
ARC
  5
509
100
AcDbEntity
  8
1
  6
CONTINUOUS
 62
           7
100
AcDbCircle
 10
-181.56549719504
 20
-270.957374643814
 40
0.4
100
AcDbArc
 50
90.179561020258
 51
156.198528351994
  0
ARC
  5
508
100
AcDbEntity
  8
1
  6
CONTINUOUS
 62
           7
100
AcDbCircle
 10
-182.185266387841
 20
-272.214142242347
 40
0.4
100
AcDbArc
 50
151.301471648007
 51
-141.372082190093
  0
ARC
  5
507
100
AcDbEntity
  8
1
  6
CONTINUOUS
 62
           7
100
AcDbCircle
 10
-179.994791174254
 20
-270.957374643814
 40
0.4
100
AcDbArc
 50
90.179561020213
 51
156.198528352006
  0
ARC
  5
506
100
AcDbEntity
  8
1
  6
CONTINUOUS
 62
           7
100
AcDbCircle
 10
-179.988170901403
 20
-270.157454112384
 40
0.4
100
AcDbArc
 50
-91.127917809943
 51
-21.18645827859
  0
ARC
  5
505
100
AcDbEntity
  8
1
  6
CONTINUOUS
 62
           7
100
AcDbCircle
 10
-179.994791174254
 20
-270.957374643814
 40
0.4
100
AcDbArc
 50
90.179561020213
 51
156.198528352006
  0
ARC
  5
504
100
AcDbEntity
  8
1
  6
CONTINUOUS
 62
           7
100
AcDbCircle
 10
-180.614560367055
 20
-272.214142242347
 40
0.4
100
AcDbArc
 50
151.301471647976
 51
-141.372082190111
  0
ARC
  5
503
100
AcDbEntity
  8
1
  6
CONTINUOUS
 62
           7
100
AcDbCircle
 10
-181.245149825871
 20
-272.706355223734
 40
0.4
100
AcDbArc
 50
-31.313541721416
 51
37.320438979791
  0
ARC
  5
502
100
AcDbEntity
  8
1
  6
CONTINUOUS
 62
           7
100
AcDbCircle
 10
-186.29403496719
 20
-277.119725044918
 40
0.4
100
AcDbArc
 50
128.801471647997
 51
-163.872082190087
  0
ARC
  5
501
100
AcDbEntity
  8
1
  6
CONTINUOUS
 62
           7
100
AcDbCircle
 10
-185.240498756788
 20
-276.195798585485
 40
0.4
100
AcDbArc
 50
67.67956102021
 51
133.698528351972
  0
ARC
  5
500
100
AcDbEntity
  8
1
  6
CONTINUOUS
 62
           7
100
AcDbCircle
 10
-184.928266087615
 20
-275.4593018476
 40
0.4
100
AcDbArc
 50
-113.627917809918
 51
-43.686458278596
  0
ARC
  5
4FF
100
AcDbEntity
  8
1
  6
CONTINUOUS
 62
           7
100
AcDbCircle
 10
-187.064985414779
 20
-277.333154405545
 40
0.4
100
AcDbArc
 50
-53.813541721381
 51
14.820438979844
  0
ARC
  5
4FE
100
AcDbEntity
  8
1
  6
CONTINUOUS
 62
           7
100
AcDbCircle
 10
-183.357560066829
 20
-275.4593018476
 40
0.4
100
AcDbArc
 50
-90.0
 51
-43.686458278604
  0
ARC
  5
4FD
100
AcDbEntity
  8
1
  6
CONTINUOUS
 62
           7
100
AcDbCircle
 10
-183.669792736003
 20
-276.195798585485
 40
0.4
100
AcDbArc
 50
122.728511384279
 51
133.698528352013
  0
ARC
  5
4FC
100
AcDbEntity
  8
1
  6
CONTINUOUS
 62
           7
100
AcDbCircle
 10
-185.494279393994
 20
-277.333154405545
 40
0.4
100
AcDbArc
 50
-53.813541721354
 51
14.820438979812
  0
ARC
  5
4FB
100
AcDbEntity
  8
1
  6
CONTINUOUS
 62
           7
100
AcDbCircle
 10
-184.723328946404
 20
-277.119725044918
 40
0.4
100
AcDbArc
 50
128.801471648009
 51
-163.872082190086
  0
ARC
  5
4FA
100
AcDbEntity
  8
1
  6
CONTINUOUS
 62
           7
100
AcDbCircle
 10
-188.499399043021
 20
-279.068161043858
 40
0.4
100
AcDbArc
 50
-90.0
 51
-66.1864582786
  0
ARC
  5
4F9
100
AcDbEntity
  8
1
  6
CONTINUOUS
 62
           7
100
AcDbCircle
 10
-191.967327426115
 20
-280.079534928514
 40
0.4
100
AcDbArc
 50
106.301471648
 51
173.627917809945
  0
ARC
  5
4F8
100
AcDbEntity
  8
1
  6
CONTINUOUS
 62
           7
100
AcDbCircle
 10
-190.640415535817
 20
-279.629109036215
 40
0.4
100
AcDbArc
 50
45.179561020223
 51
111.198528351973
  0
ARC
  5
4F7
100
AcDbEntity
  8
1
  6
CONTINUOUS
 62
           7
100
AcDbCircle
 10
-190.070105063806
 20
-279.068161043858
 40
0.4
100
AcDbArc
 50
-136.12791780997
 51
-66.186458278606
  0
ARC
  5
4F6
100
AcDbEntity
  8
1
  6
CONTINUOUS
 62
           7
100
AcDbCircle
 10
-192.761268645515
 20
-279.981687982967
 40
0.4
100
AcDbArc
 50
-76.313541721418
 51
-7.679561020233
  0
ARC
  5
4F5
100
AcDbEntity
  8
1
  6
CONTINUOUS
 62
           7
100
AcDbCircle
 10
-191.190562624729
 20
-279.981687982967
 40
0.4
100
AcDbArc
 50
-76.313541721442
 51
-7.67956102018
  0
ARC
  5
4F4
100
AcDbEntity
  8
1
  6
CONTINUOUS
 62
           7
100
AcDbCircle
 10
-190.39662140533
 20
-280.079534928514
 40
0.4
100
AcDbArc
 50
106.301471648014
 51
173.627917809888
  0
ARC
  5
4F3
100
AcDbEntity
  8
1
  6
CONTINUOUS
 62
           7
100
AcDbCircle
 10
-194.630889456739
 20
-280.434615602918
 40
0.4
100
AcDbArc
 50
-90.0
 51
-88.686458278601
  0
ARC
  5
4F2
100
AcDbEntity
  8
1
  6
CONTINUOUS
 62
           7
100
AcDbCircle
 10
-199.037498053922
 20
-280.248740727854
 40
0.4
100
AcDbArc
 50
-98.813541721408
 51
-30.179561020157
  0
ARC
  5
4F1
100
AcDbEntity
  8
1
  6
CONTINUOUS
 62
           7
100
AcDbCircle
 10
-196.201595477525
 20
-280.434615602918
 40
0.4
100
AcDbArc
 50
-158.62791780997
 51
-88.686458278616
  0
ARC
  5
4F0
100
AcDbEntity
  8
1
  6
CONTINUOUS
 62
           7
100
AcDbCircle
 10
-196.943159152886
 20
-280.734615602918
 40
0.4
100
AcDbArc
 50
22.679561020246
 51
88.698528351983
  0
ARC
  5
4EF
100
AcDbEntity
  8
1
  6
CONTINUOUS
 62
           7
100
AcDbCircle
 10
-198.341436416269
 20
-280.6429676691
 40
0.4
100
AcDbArc
 50
83.801471648016
 51
151.127917809886
  0
ARC
  5
4EE
100
AcDbEntity
  8
1
  6
CONTINUOUS
 62
           7
100
AcDbCircle
 10
-197.466792033136
 20
-280.248740727854
 40
0.4
100
AcDbArc
 50
-90.457769617017
 51
-30.179561020205
  0
ARC
  5
4ED
100
AcDbEntity
  8
1
  6
CONTINUOUS
 62
           7
100
AcDbCircle
 10
-196.770730395484
 20
-280.6429676691
 40
0.4
100
AcDbArc
 50
129.078490681377
 51
151.127917809906
  0
ARC
  5
4EC
100
AcDbEntity
  8
1
  6
CONTINUOUS
 62
           7
100
AcDbCircle
 10
-202.389273495381
 20
-279.350635205105
 40
0.4
100
AcDbArc
 50
178.872082190073
 51
-111.186458278601
  0
ARC
  5
4EB
100
AcDbEntity
  8
1
  6
CONTINUOUS
 62
           7
100
AcDbCircle
 10
-203.18919402681
 20
-279.344014932254
 40
0.4
100
AcDbArc
 50
0.179561020222
 51
66.198528351962
  0
ARC
  5
4EA
100
AcDbEntity
  8
1
  6
CONTINUOUS
 62
           7
100
AcDbCircle
 10
-204.93817460673
 20
-278.093656280637
 40
0.4
100
AcDbArc
 50
-121.313541721394
 51
-52.679561020163
  0
ARC
  5
4E9
100
AcDbEntity
  8
1
  6
CONTINUOUS
 62
           7
100
AcDbCircle
 10
-208.427617968482
 20
-275.669013370505
 40
0.4
100
AcDbArc
 50
-22.320438979776
 51
43.698528352006
  0
ARC
  5
4E8
100
AcDbEntity
  8
1
  6
CONTINUOUS
 62
           7
100
AcDbCircle
 10
-207.691121230596
 20
-275.981246039679
 40
0.4
100
AcDbArc
 50
156.37208219006
 51
-133.686458278606
  0
ARC
  5
4E7
100
AcDbEntity
  8
1
  6
CONTINUOUS
 62
           7
100
AcDbCircle
 10
-204.445961625343
 20
-278.724245739453
 40
0.4
100
AcDbArc
 50
61.301471648031
 51
128.627917809892
  0
ARC
  5
4E6
100
AcDbEntity
  8
1
  6
CONTINUOUS
 62
           7
100
AcDbCircle
 10
-209.351544427914
 20
-274.615477160104
 40
0.4
100
AcDbArc
 50
38.801471648014
 51
106.127917809916
  0
ARC
  5
4E5
100
AcDbEntity
  8
1
  6
CONTINUOUS
 62
           7
100
AcDbCircle
 10
-209.564973788541
 20
-273.844526712514
 40
0.4
100
AcDbArc
 50
-143.813541721384
 51
-75.1795610202
  0
ARC
  5
4E4
100
AcDbEntity
  8
1
  6
CONTINUOUS
 62
           7
100
AcDbCircle
 10
-211.860928419212
 20
-270.269096591476
 40
0.4
100
AcDbArc
 50
-44.820438979794
 51
21.198528351951
  0
ARC
  5
4E3
100
AcDbEntity
  8
1
  6
CONTINUOUS
 62
           7
100
AcDbCircle
 10
-211.299980426854
 20
-270.839407063487
 40
0.4
100
AcDbArc
 50
133.872082190087
 51
-156.186458278626
  0
ARC
  5
4E2
100
AcDbEntity
  8
1
  6
CONTINUOUS
 62
           7
100
AcDbCircle
 10
-212.48056011085
 20
-261.872014073371
 40
0.4
100
AcDbArc
 50
171.186458278582
 51
-120.179561020182
  0
ARC
  5
4E1
100
AcDbEntity
  8
1
  6
CONTINUOUS
 62
           7
100
AcDbCircle
 10
-212.31135431151
 20
-268.942184701178
 40
0.4
100
AcDbArc
 50
16.301471648
 51
83.627917809912
  0
ARC
  5
4E0
100
AcDbEntity
  8
1
  6
CONTINUOUS
 62
           7
100
AcDbCircle
 10
-212.666434985914
 20
-264.707916649769
 40
0.4
100
AcDbArc
 50
111.372082190062
 51
-178.686458278616
  0
ARC
  5
4DF
100
AcDbEntity
  8
1
  6
CONTINUOUS
 62
           7
100
AcDbCircle
 10
-212.966434985914
 20
-263.966352974407
 40
0.4
100
AcDbArc
 50
-67.320438979788
 51
-1.301471648001
  0
ARC
  5
4DE
100
AcDbEntity
  8
1
  6
CONTINUOUS
 62
           7
100
AcDbCircle
 10
-212.874787052096
 20
-262.568075711024
 40
0.4
100
AcDbArc
 50
-6.198528352006
 51
61.127917809905
  0
ARC
  5
4DD
100
AcDbEntity
  8
1
  6
CONTINUOUS
 62
           7
100
AcDbCircle
 10
-212.213507365963
 20
-268.148243481778
 40
0.4
100
AcDbArc
 50
-166.313541721406
 51
-97.679561020188
  0
ARC
  5
4DC
100
AcDbEntity
  8
1
  6
CONTINUOUS
 62
           7
100
AcDbCircle
 10
-210.956065122449
 20
-256.46355050195
 40
0.4
100
AcDbArc
 50
-28.698528351978
 51
38.627917809908
  0
ARC
  5
4DB
100
AcDbEntity
  8
1
  6
CONTINUOUS
 62
           7
100
AcDbCircle
 10
-211.57583431525
 20
-257.720318100483
 40
0.4
100
AcDbArc
 50
-89.820438979786
 51
-23.80147164802
  0
ARC
  5
4DA
100
AcDbEntity
  8
1
  6
CONTINUOUS
 62
           7
100
AcDbCircle
 10
-211.582454588101
 20
-258.520238631913
 40
0.4
100
AcDbArc
 50
88.872082190073
 51
158.813541721387
  0
ARC
  5
4D9
100
AcDbEntity
  8
1
  6
CONTINUOUS
 62
           7
100
AcDbCircle
 10
-210.325475663633
 20
-255.971337520563
 40
0.4
100
AcDbArc
 50
148.686458278628
 51
-142.679561020193
  0
ARC
  5
4D8
100
AcDbEntity
  8
1
  6
CONTINUOUS
 62
           7
100
AcDbCircle
 10
-206.07634609551
 20
-251.344538338752
 40
0.4
100
AcDbArc
 50
126.186458278605
 51
-165.179561020167
  0
ARC
  5
4D7
100
AcDbEntity
  8
1
  6
CONTINUOUS
 62
           7
100
AcDbCircle
 10
-208.213065422675
 20
-253.218390896697
 40
0.4
100
AcDbArc
 50
66.372082190043
 51
136.31354172139
  0
ARC
  5
4D6
100
AcDbEntity
  8
1
  6
CONTINUOUS
 62
           7
100
AcDbCircle
 10
-207.900832753501
 20
-252.481894158812
 40
0.4
100
AcDbArc
 50
-112.320438979786
 51
-46.301471648005
  0
ARC
  5
4D5
100
AcDbEntity
  8
1
  6
CONTINUOUS
 62
           7
100
AcDbCircle
 10
-206.8472965431
 20
-251.557967699379
 40
0.4
100
AcDbArc
 50
-51.198528351968
 51
16.127917809889
  0
ARC
  5
4D4
100
AcDbEntity
  8
1
  6
CONTINUOUS
 62
           7
100
AcDbCircle
 10
-200.380062864774
 20
-248.69600476133
 40
0.4
100
AcDbArc
 50
103.686458278615
 51
172.320438979824
  0
ARC
  5
4D3
100
AcDbEntity
  8
1
  6
CONTINUOUS
 62
           7
100
AcDbCircle
 10
-196.198172357403
 20
-247.943077141379
 40
0.4
100
AcDbArc
 50
-157.320438979787
 51
-91.301471648029
  0
ARC
  5
4D2
100
AcDbEntity
  8
1
  6
CONTINUOUS
 62
           7
100
AcDbCircle
 10
-196.939736032765
 20
-248.243077141379
 40
0.4
100
AcDbArc
 50
21.372082190051
 51
91.313541721384
  0
ARC
  5
4D1
100
AcDbEntity
  8
1
  6
CONTINUOUS
 62
           7
100
AcDbCircle
 10
-203.071226446483
 20
-249.609531700439
 40
0.4
100
AcDbArc
 50
45.179561020382
 51
113.81354172138
  0
ARC
  5
4D0
100
AcDbEntity
  8
1
  6
CONTINUOUS
 62
           7
100
AcDbCircle
 10
-202.500915974472
 20
-249.048583708082
 40
0.4
100
AcDbArc
 50
-136.127917810128
 51
-68.801471648001
  0
ARC
  5
4CF
100
AcDbEntity
  8
1
  6
CONTINUOUS
 62
           7
100
AcDbCircle
 10
-201.174004084174
 20
-248.598157815783
 40
0.4
100
AcDbArc
 50
-73.698528351995
 51
-6.372082190087
  0
ARC
  5
4CE
100
AcDbEntity
  8
1
  6
CONTINUOUS
 62
           7
100
AcDbCircle
 10
-194.79989509402
 20
-248.034725075197
 40
0.4
100
AcDbArc
 50
-96.198528352018
 51
-28.872082190126
  0
ARC
  5
4CD
100
AcDbEntity
  8
1
  6
CONTINUOUS
 62
           7
100
AcDbCircle
 10
-194.103833456368
 20
-248.428952016443
 40
0.4
100
AcDbArc
 50
81.186458278609
 51
149.820438979826
  0
ARC
  5
4CC
100
AcDbEntity
  8
1
  6
CONTINUOUS
 62
           7
100
AcDbCircle
 10
-195.369030011979
 20
-248.243077141379
 40
0.4
100
AcDbArc
 50
21.372082190056
 51
91.31354172138
  0
ARC
  5
4CB
100
AcDbEntity
  8
1
  6
CONTINUOUS
 62
           7
100
AcDbCircle
 10
-194.627466336618
 20
-247.943077141379
 40
0.4
100
AcDbArc
 50
-157.320438979793
 51
-91.301471648005
  0
ARC
  5
4CA
100
AcDbEntity
  8
1
  6
CONTINUOUS
 62
           7
100
AcDbCircle
 10
-188.695369884946
 20
-249.953447004844
 40
0.4
100
AcDbArc
 50
-118.698528351985
 51
-51.372082190084
  0
ARC
  5
4C9
100
AcDbEntity
  8
1
  6
CONTINUOUS
 62
           7
100
AcDbCircle
 10
-189.952137483479
 20
-249.333677812044
 40
0.4
100
AcDbArc
 50
-179.82043897977
 51
-113.80147164802
  0
ARC
  5
4C8
100
AcDbEntity
  8
1
  6
CONTINUOUS
 62
           7
100
AcDbCircle
 10
-190.752058014909
 20
-249.327057539192
 40
0.4
100
AcDbArc
 50
-1.127917809956
 51
68.81354172141
  0
ARC
  5
4C7
100
AcDbEntity
  8
1
  6
CONTINUOUS
 62
           7
100
AcDbCircle
 10
-188.203156903559
 20
-250.58403646366
 40
0.4
100
AcDbArc
 50
58.686458278624
 51
127.320438979816
  0
ARC
  5
4C6
100
AcDbEntity
  8
1
  6
CONTINUOUS
 62
           7
100
AcDbCircle
 10
-189.181351994124
 20
-249.327057539192
 40
0.4
100
AcDbArc
 50
-1.127917809926
 51
68.813541721342
  0
ARC
  5
4C5
100
AcDbEntity
  8
1
  6
CONTINUOUS
 62
           7
100
AcDbCircle
 10
-188.381431462694
 20
-249.333677812044
 40
0.4
100
AcDbArc
 50
-179.820438979798
 51
-113.801471648031
  0
ARC
  5
4C4
100
AcDbEntity
  8
1
  6
CONTINUOUS
 62
           7
100
AcDbCircle
 10
-192.533127435582
 20
-248.428952016443
 40
0.4
100
AcDbArc
 50
81.186458278625
 51
90.0
  0
ARC
  5
4C3
100
AcDbEntity
  8
1
  6
CONTINUOUS
 62
           7
100
AcDbCircle
 10
-186.632450882774
 20
-250.58403646366
 40
0.4
100
AcDbArc
 50
58.68645827862
 51
90.0
  0
ARC
  5
4C2
100
AcDbEntity
  8
1
  6
CONTINUOUS
 62
           7
100
AcDbCircle
 10
-182.005651700963
 20
-254.833166031783
 40
0.4
100
AcDbArc
 50
36.186458278608
 51
90.0
  0
ARC
  5
4C1
100
AcDbEntity
  8
1
  6
CONTINUOUS
 62
           7
100
AcDbCircle
 10
-182.219081061589
 20
-254.062215584194
 40
0.4
100
AcDbArc
 50
-141.198528351968
 51
-111.97057460947
  0
ARC
  5
4C0
100
AcDbEntity
  8
1
  6
CONTINUOUS
 62
           7
100
AcDbCircle
 10
-183.576357721749
 20
-254.833166031783
 40
0.4
100
AcDbArc
 50
36.186458278625
 51
104.82043897984
  0
ARC
  5
4BF
100
AcDbEntity
  8
1
  6
CONTINUOUS
 62
           7
100
AcDbCircle
 10
-185.450210279694
 20
-252.696446704618
 40
0.4
100
AcDbArc
 50
-23.627917809913
 51
46.313541721381
  0
ARC
  5
4BE
100
AcDbEntity
  8
1
  6
CONTINUOUS
 62
           7
100
AcDbCircle
 10
-184.713713541808
 20
-253.008679373792
 40
0.4
100
AcDbArc
 50
157.679561020194
 51
-136.301471648005
  0
ARC
  5
4BD
100
AcDbEntity
  8
1
  6
CONTINUOUS
 62
           7
100
AcDbCircle
 10
-183.789787082375
 20
-254.062215584194
 40
0.4
100
AcDbArc
 50
-141.198528351986
 51
-73.87208219013
  0
ARC
  5
4BC
100
AcDbEntity
  8
1
  6
CONTINUOUS
 62
           7
100
AcDbCircle
 10
-183.143007521022
 20
-253.008679373792
 40
0.4
100
AcDbArc
 50
157.679561020231
 51
-136.301471648001
  0
ARC
  5
4BB
100
AcDbEntity
  8
1
  6
CONTINUOUS
 62
           7
100
AcDbCircle
 10
-183.879504258908
 20
-252.696446704618
 40
0.4
100
AcDbArc
 50
-23.62791780992
 51
46.313541721393
  0
ARC
  5
4BA
100
AcDbEntity
  8
1
  6
CONTINUOUS
 62
           7
100
AcDbCircle
 10
-180.927824144327
 20
-260.529449262519
 40
0.4
100
AcDbArc
 50
13.686458278618
 51
82.320438979785
  0
ARC
  5
4B9
100
AcDbEntity
  8
1
  6
CONTINUOUS
 62
           7
100
AcDbCircle
 10
-180.266544458193
 20
-266.109617033273
 40
0.4
100
AcDbArc
 50
173.801471648002
 51
-118.872082190118
  0
ARC
  5
4B8
100
AcDbEntity
  8
1
  6
CONTINUOUS
 62
           7
100
AcDbCircle
 10
-180.174896524376
 20
-264.71133976989
 40
0.4
100
AcDbArc
 50
112.679561020238
 51
178.698528351966
  0
ARC
  5
4B7
100
AcDbEntity
  8
1
  6
CONTINUOUS
 62
           7
100
AcDbCircle
 10
-180.474896524376
 20
-263.969776094529
 40
0.4
100
AcDbArc
 50
-68.627917809938
 51
1.313541721408
  0
ARC
  5
4B6
100
AcDbEntity
  8
1
  6
CONTINUOUS
 62
           7
100
AcDbCircle
 10
-181.841351083436
 20
-257.83828568081
 40
0.4
100
AcDbArc
 50
-46.127917809974
 51
23.813541721399
  0
ARC
  5
4B5
100
AcDbEntity
  8
1
  6
CONTINUOUS
 62
           7
100
AcDbCircle
 10
-181.280403091078
 20
-258.408596152821
 40
0.4
100
AcDbArc
 50
135.179561020252
 51
-158.801471648009
  0
ARC
  5
4B4
100
AcDbEntity
  8
1
  6
CONTINUOUS
 62
           7
100
AcDbCircle
 10
-180.829977198779
 20
-259.735508043119
 40
0.4
100
AcDbArc
 50
-163.698528352004
 51
-96.37208219009
  0
ARC
  5
4B3
100
AcDbEntity
  8
1
  6
CONTINUOUS
 62
           7
100
AcDbCircle
 10
-180.660771399439
 20
-266.805678670926
 40
0.4
100
AcDbArc
 50
-8.813541721374
 51
59.820438979861
  0
ARC
  5
4B2
100
AcDbEntity
  8
1
  6
CONTINUOUS
 62
           7
100
AcDbCircle
 10
-179.259271177994
 20
-259.735508043119
 40
0.4
100
AcDbArc
 50
-163.698528351984
 51
-96.372082190128
  0
ARC
  5
4B1
100
AcDbEntity
  8
1
  6
CONTINUOUS
 62
           7
100
AcDbCircle
 10
-179.357118123541
 20
-260.529449262519
 40
0.4
100
AcDbArc
 50
13.686458278617
 51
82.320438979826
  0
ARC
  5
4B0
100
AcDbEntity
  8
1
  6
CONTINUOUS
 62
           7
100
AcDbCircle
 10
-179.709697070292
 20
-258.408596152821
 40
0.4
100
AcDbArc
 50
135.179561020212
 51
-158.801471648006
  0
ARC
  5
4AF
100
AcDbEntity
  8
1
  6
CONTINUOUS
 62
           7
100
AcDbCircle
 10
-180.27064506265
 20
-257.83828568081
 40
0.4
100
AcDbArc
 50
-46.127917809945
 51
23.813541721399
  0
ARC
  5
4AE
100
AcDbEntity
  8
1
  6
CONTINUOUS
 62
           7
100
AcDbCircle
 10
-178.60419050359
 20
-264.71133976989
 40
0.4
100
AcDbArc
 50
112.679561020202
 51
178.698528351966
  0
ARC
  5
4AD
100
AcDbEntity
  8
1
  6
CONTINUOUS
 62
           7
100
AcDbCircle
 10
-178.90419050359
 20
-263.969776094529
 40
0.4
100
AcDbArc
 50
-68.627917809944
 51
1.313541721408
  0
ARC
  5
4AC
100
AcDbEntity
  8
1
  6
CONTINUOUS
 62
           7
100
AcDbCircle
 10
-179.090065378654
 20
-266.805678670925
 40
0.4
100
AcDbArc
 50
-8.813541721402
 51
59.820438979793
  0
ARC
  5
4AB
100
AcDbEntity
  8
1
  6
CONTINUOUS
 62
           7
100
AcDbCircle
 10
-178.695838437408
 20
-266.109617033273
 40
0.4
100
AcDbArc
 50
173.801471648026
 51
-118.872082190118
  0
ARC
  5
4AA
100
AcDbEntity
  8
1
  6
CONTINUOUS
 62
           7
100
AcDbCircle
 10
-178.60419050359
 20
-264.71133976989
 40
0.4
100
AcDbArc
 50
112.679561020202
 51
178.698528351966
  0
ARC
  5
4A9
100
AcDbEntity
  8
1
  6
CONTINUOUS
 62
           7
100
AcDbCircle
 10
-227.755038377247
 20
-248.338846372149
 40
4.0
100
AcDbArc
 50
90.0
 51
134.999999999999
  0
ARC
  5
4A8
100
AcDbEntity
  8
1
  6
CONTINUOUS
 62
           7
100
AcDbCircle
 10
-227.755038377247
 20
-280.338846372149
 40
4.0
100
AcDbArc
 50
-134.999999999999
 51
-90.0
  0
ARC
  5
4A7
100
AcDbEntity
  8
1
  6
CONTINUOUS
 62
           7
100
AcDbCircle
 10
-235.493746876231
 20
-244.763846372148
 40
4.0
100
AcDbArc
 50
-90.0
 51
-45.0
  0
ARC
  5
4A6
100
AcDbEntity
  8
1
  6
CONTINUOUS
 62
           7
100
AcDbCircle
 10
-235.493746876231
 20
-283.913846372149
 40
4.0
100
AcDbArc
 50
45.0
 51
90.0
  0
ARC
  5
4A5
100
AcDbEntity
  8
1
  6
CONTINUOUS
 62
           7
100
AcDbCircle
 10
-223.911892626739
 20
-283.838846372149
 40
0.5
100
AcDbArc
 50
-90.0
 51
0.0
  0
ARC
  5
4A4
100
AcDbEntity
  8
1
  6
CONTINUOUS
 62
           7
100
AcDbCircle
 10
-273.411892626739
 20
-244.838846372149
 40
0.5
100
AcDbArc
 50
90.0
 51
180.0
  0
ARC
  5
4A3
100
AcDbEntity
  8
1
  6
CONTINUOUS
 62
           7
100
AcDbCircle
 10
-273.411892626739
 20
-244.838846372149
 40
0.5
100
AcDbArc
 50
180.0
 51
-90.0
  0
ARC
  5
4A2
100
AcDbEntity
  8
1
  6
CONTINUOUS
 62
           7
100
AcDbCircle
 10
-239.411892626739
 20
-244.838846372149
 40
0.5
100
AcDbArc
 50
0.0
 51
90.0
  0
ARC
  5
4A1
100
AcDbEntity
  8
1
  6
CONTINUOUS
 62
           7
100
AcDbCircle
 10
-239.411892626739
 20
-244.838846372149
 40
0.5
100
AcDbArc
 50
-90.0
 51
0.0
  0
ARC
  5
4A0
100
AcDbEntity
  8
1
  6
CONTINUOUS
 62
           7
100
AcDbCircle
 10
-238.836892626739
 20
-246.763846372148
 40
2.0
100
AcDbArc
 50
180.0
 51
-90.0
  0
ARC
  5
49F
100
AcDbEntity
  8
1
  6
CONTINUOUS
 62
           7
100
AcDbCircle
 10
-256.486892626739
 20
-264.413846372149
 40
15.5
100
AcDbArc
 50
180.0
 51
-90.0
  0
ARC
  5
49E
100
AcDbEntity
  8
1
  6
CONTINUOUS
 62
           7
100
AcDbCircle
 10
-246.861892626739
 20
-20.338846372149
 40
0.45
100
AcDbArc
 50
-90.0
 51
0.0
  0
ARC
  5
49D
100
AcDbEntity
  8
1
  6
CONTINUOUS
 62
           7
100
AcDbCircle
 10
-246.861892626739
 20
-20.338846372149
 40
0.45
100
AcDbArc
 50
0.0
 51
90.0
  0
ARC
  5
49C
100
AcDbEntity
  8
1
  6
CONTINUOUS
 62
           7
100
AcDbCircle
 10
-243.936892626739
 20
-20.338846372149
 40
0.675
100
AcDbArc
 50
-90.0
 51
0.0
  0
ARC
  5
49B
100
AcDbEntity
  8
1
  6
CONTINUOUS
 62
           7
100
AcDbCircle
 10
-243.936892626739
 20
-20.338846372149
 40
0.675
100
AcDbArc
 50
0.0
 51
90.0
  0
ARC
  5
49A
100
AcDbEntity
  8
1
  6
CONTINUOUS
 62
           7
100
AcDbCircle
 10
1.956261646214
 20
111.589781682405
 40
0.05
100
AcDbArc
 50
0.0
 51
90.0
  0
ARC
  5
499
100
AcDbEntity
  8
1
  6
CONTINUOUS
 62
           7
100
AcDbCircle
 10
2.006261646214
 20
111.639781682404
 40
0.9
100
AcDbArc
 50
0.0
 51
90.0
  0
ARC
  5
498
100
AcDbEntity
  8
1
  6
CONTINUOUS
 62
           7
100
AcDbCircle
 10
3.806261646214
 20
111.639781682404
 40
0.9
100
AcDbArc
 50
90.0
 51
180.0
  0
ARC
  5
497
100
AcDbEntity
  8
1
  6
CONTINUOUS
 62
           7
100
AcDbCircle
 10
3.856261646214
 20
111.589781682405
 40
0.05
100
AcDbArc
 50
90.0
 51
180.0
  0
ARC
  5
496
100
AcDbEntity
  8
1
  6
CONTINUOUS
 62
           7
100
AcDbCircle
 10
2.406261646214
 20
98.593775302803
 40
0.5
100
AcDbArc
 50
-68.261539208504
 51
0.0
  0
ARC
  5
495
100
AcDbEntity
  8
1
  6
CONTINUOUS
 62
           7
100
AcDbCircle
 10
3.406261646214
 20
98.593775302803
 40
0.5
100
AcDbArc
 50
180.0
 51
-111.738460791519
  0
ARC
  5
494
100
AcDbEntity
  8
1
  6
CONTINUOUS
 62
           7
100
AcDbCircle
 10
4.306261646214
 20
99.101173177785
 40
0.5
100
AcDbArc
 50
180.0
 51
-128.478595133304
  0
ARC
  5
493
100
AcDbEntity
  8
1
  6
CONTINUOUS
 62
           7
100
AcDbCircle
 10
1.506261646214
 20
99.101173177785
 40
0.5
100
AcDbArc
 50
-51.521404866695
 51
0.0
  0
ARC
  5
492
100
AcDbEntity
  8
1
  6
CONTINUOUS
 62
           7
100
AcDbCircle
 10
46.006261646214
 20
112.739781682404
 40
0.05
100
AcDbArc
 50
0.000000000342
 51
90.0
  0
ARC
  5
491
100
AcDbEntity
  8
1
  6
CONTINUOUS
 62
           7
100
AcDbCircle
 10
46.006261646214
 20
112.739781682404
 40
1.4
100
AcDbArc
 50
0.0
 51
90.0
  0
ARC
  5
490
100
AcDbEntity
  8
1
  6
CONTINUOUS
 62
           7
100
AcDbCircle
 10
48.806261646214
 20
112.739781682405
 40
1.4
100
AcDbArc
 50
90.0
 51
-179.999999999987
  0
ARC
  5
48F
100
AcDbEntity
  8
1
  6
CONTINUOUS
 62
           7
100
AcDbCircle
 10
48.806261646214
 20
112.739781682405
 40
0.05
100
AcDbArc
 50
90.0
 51
180.0
  0
ARC
  5
48E
100
AcDbEntity
  8
1
  6
CONTINUOUS
 62
           7
100
AcDbCircle
 10
47.906261646214
 20
97.022811960387
 40
0.5
100
AcDbArc
 50
180.0
 51
-105.257523290475
  0
ARC
  5
48D
100
AcDbEntity
  8
1
  6
CONTINUOUS
 62
           7
100
AcDbCircle
 10
46.906261646214
 20
97.022811960387
 40
0.5
100
AcDbArc
 50
-74.742476709553
 51
0.0
  0
ARC
  5
48C
100
AcDbEntity
  8
1
  6
CONTINUOUS
 62
           7
100
AcDbCircle
 10
49.256261646214
 20
97.861859525582
 40
0.5
100
AcDbArc
 50
180.0
 51
-124.696602356264
  0
ARC
  5
48B
100
AcDbEntity
  8
1
  6
CONTINUOUS
 62
           7
100
AcDbCircle
 10
45.556261646214
 20
97.861859525582
 40
0.5
100
AcDbArc
 50
-55.303397643735
 51
0.0
  0
ARC
  5
48A
100
AcDbEntity
  8
1
  6
CONTINUOUS
 62
           7
100
AcDbCircle
 10
-186.911892626739
 20
-40.838846372149
 40
1.5
100
AcDbArc
 50
-90.0
 51
0.0
  0
ARC
  5
489
100
AcDbEntity
  8
1
  6
CONTINUOUS
 62
           7
100
AcDbCircle
 10
-325.911892626739
 20
-40.838846372149
 40
1.5
100
AcDbArc
 50
180.0
 51
-90.0
  0
ARC
  5
488
100
AcDbEntity
  8
1
  6
CONTINUOUS
 62
           7
100
AcDbCircle
 10
-263.261892626739
 20
-15.638846372149
 40
0.3
100
AcDbArc
 50
90.0
 51
180.0
  0
ARC
  5
487
100
AcDbEntity
  8
1
  6
CONTINUOUS
 62
           7
100
AcDbCircle
 10
-249.561892626739
 20
-15.638846372149
 40
0.3
100
AcDbArc
 50
0.0
 51
90.0
  0
ARC
  5
486
100
AcDbEntity
  8
1
  6
CONTINUOUS
 62
           7
100
AcDbCircle
 10
70.406261646214
 20
100.089781682405
 40
2.0
100
AcDbArc
 50
-90.0
 51
0.0
  0
ARC
  5
485
100
AcDbEntity
  8
1
  6
CONTINUOUS
 62
           7
100
AcDbCircle
 10
70.406261646214
 20
111.089781682405
 40
2.0
100
AcDbArc
 50
0.0
 51
90.0
  0
ARC
  5
484
100
AcDbEntity
  8
1
  6
CONTINUOUS
 62
           7
100
AcDbCircle
 10
-266.561892626739
 20
-32.338846372149
 40
3.0
100
AcDbArc
 50
-19.471220634491
 51
0.0
  0
ARC
  5
483
100
AcDbEntity
  8
1
  6
CONTINUOUS
 62
           7
100
AcDbCircle
 10
-325.911892626739
 20
-36.838846372149
 40
1.5
100
AcDbArc
 50
90.0
 51
180.0
  0
ARC
  5
482
100
AcDbEntity
  8
1
  6
CONTINUOUS
 62
           7
100
AcDbCircle
 10
-325.911892626739
 20
-40.838846372149
 40
1.5
100
AcDbArc
 50
180.0
 51
-90.0
  0
ARC
  5
481
100
AcDbEntity
  8
1
  6
CONTINUOUS
 62
           7
100
AcDbCircle
 10
-186.911892626739
 20
-40.838846372149
 40
1.5
100
AcDbArc
 50
-90.0
 51
0.0
  0
ARC
  5
480
100
AcDbEntity
  8
1
  6
CONTINUOUS
 62
           7
100
AcDbCircle
 10
-186.911892626739
 20
-36.838846372149
 40
1.5
100
AcDbArc
 50
0.0
 51
90.0
  0
ARC
  5
47F
100
AcDbEntity
  8
1
  6
CONTINUOUS
 62
           7
100
AcDbCircle
 10
-246.261892626739
 20
-32.338846372149
 40
3.0
100
AcDbArc
 50
180.0
 51
-160.528779365509
  0
ARC
  5
47E
100
AcDbEntity
  8
1
  6
CONTINUOUS
 62
           7
100
AcDbCircle
 10
-66.593738353786
 20
68.488332407042
 40
5.0
100
AcDbArc
 50
180.0
 51
-119.797390868801
  0
ARC
  5
47D
100
AcDbEntity
  8
1
  6
CONTINUOUS
 62
           7
100
AcDbCircle
 10
90.254759037353
 20
90.089781682404
 40
8.0
100
AcDbArc
 50
59.441568214065
 51
90.0
  0
ARC
  5
47C
100
AcDbEntity
  8
1
  6
CONTINUOUS
 62
           7
100
AcDbCircle
 10
82.406261646214
 20
100.089781682405
 40
2.0
100
AcDbArc
 50
-90.0
 51
0.0
  0
ARC
  5
47B
100
AcDbEntity
  8
1
  6
CONTINUOUS
 62
           7
100
AcDbCircle
 10
-66.593738353786
 20
142.691230957767
 40
5.0
100
AcDbArc
 50
119.7973908688
 51
180.0
  0
ARC
  5
47A
100
AcDbEntity
  8
1
  6
CONTINUOUS
 62
           7
100
AcDbCircle
 10
69.085464464877
 20
116.089781682405
 40
3.0
100
AcDbArc
 50
-111.487649234026
 51
-90.0
  0
ARC
  5
479
100
AcDbEntity
  8
1
  6
CONTINUOUS
 62
           7
100
AcDbCircle
 10
90.254759037353
 20
121.089781682405
 40
8.0
100
AcDbArc
 50
-90.0
 51
-59.441568214065
  0
ARC
  5
478
100
AcDbEntity
  8
1
  6
CONTINUOUS
 62
           7
100
AcDbCircle
 10
82.406261646214
 20
111.089781682405
 40
2.0
100
AcDbArc
 50
0.0
 51
90.0
  0
ARC
  5
477
100
AcDbEntity
  8
1
  6
CONTINUOUS
 62
           7
100
AcDbCircle
 10
-282.911892626739
 20
-226.079602965845
 40
8.0
100
AcDbArc
 50
0.0
 51
37.822363373473
  0
ARC
  5
476
100
AcDbEntity
  8
1
  6
CONTINUOUS
 62
           7
100
AcDbCircle
 10
-229.911892626739
 20
-226.079602965845
 40
8.0
100
AcDbArc
 50
142.177636626527
 51
180.0
  0
ARC
  5
475
100
AcDbEntity
  8
1
  6
CONTINUOUS
 62
           7
100
AcDbCircle
 10
69.085464464877
 20
95.089781682404
 40
3.0
100
AcDbArc
 50
90.0
 51
111.487649234026
  0
ARC
  5
474
100
AcDbEntity
  8
1
  6
CONTINUOUS
 62
           7
100
AcDbCircle
 10
61.106030984646
 20
88.4348640601
 40
8.280522845162
100
AcDbArc
 50
-70.466298626591
 51
-70.324765929501
  0
ARC
  5
473
100
AcDbEntity
  8
1
  6
CONTINUOUS
 62
           7
100
AcDbCircle
 10
67.322846840872
 20
94.485786490926
 40
5.0
100
AcDbArc
 50
-98.670337656234
 51
-90.0
  0
ARC
  5
472
100
AcDbEntity
  8
1
  6
CONTINUOUS
 62
           7
100
AcDbCircle
 10
67.322846840872
 20
76.985786490926
 40
5.0
100
AcDbArc
 50
90.0
 51
129.682078259273
  0
ARC
  5
471
100
AcDbEntity
  8
1
  6
CONTINUOUS
 62
           7
100
AcDbCircle
 10
-7.593738353786
 20
-40.338846372149
 40
3.0
100
AcDbArc
 50
0.0
 51
90.0
  0
ARC
  5
470
100
AcDbEntity
  8
1
  6
CONTINUOUS
 62
           7
100
AcDbCircle
 10
113.406261646214
 20
-51.338846372149
 40
1.0
100
AcDbArc
 50
0.0
 51
90.0
  0
ARC
  5
46F
100
AcDbEntity
  8
1
  6
CONTINUOUS
 62
           7
100
AcDbCircle
 10
69.406261646214
 20
-65.338846372149
 40
5.0
100
AcDbArc
 50
90.0
 51
180.0
  0
ARC
  5
46E
100
AcDbEntity
  8
1
  6
CONTINUOUS
 62
           7
100
AcDbCircle
 10
81.406261646214
 20
-68.338846372149
 40
8.0
100
AcDbArc
 50
86.714435265008
 51
90.0
  0
ARC
  5
46D
100
AcDbEntity
  8
1
  6
CONTINUOUS
 62
           7
100
AcDbCircle
 10
81.406261646214
 20
-68.338846372149
 40
8.0
100
AcDbArc
 50
0.0
 51
86.714435265008
  0
ARC
  5
46C
100
AcDbEntity
  8
1
  6
CONTINUOUS
 62
           7
100
AcDbCircle
 10
-70.593738353786
 20
-42.193340270132
 40
1.0
100
AcDbArc
 50
0.0
 51
98.972626614913
  0
ARC
  5
46B
100
AcDbEntity
  8
1
  6
CONTINUOUS
 62
           7
100
AcDbCircle
 10
86.406261646214
 20
-48.338846372149
 40
2.0
100
AcDbArc
 50
-97.180755781457
 51
-90.0
  0
ARC
  5
46A
100
AcDbEntity
  8
1
  6
CONTINUOUS
 62
           7
100
AcDbCircle
 10
62.508535409248
 20
-167.174005838146
 40
4.0
100
AcDbArc
 50
155.209638518717
 51
-64.836950119041
  0
ARC
  5
469
100
AcDbEntity
  8
1
  6
CONTINUOUS
 62
           7
100
AcDbCircle
 10
108.406261646214
 20
-149.338846372149
 40
6.0
100
AcDbArc
 50
-90.0
 51
0.0
  0
ARC
  5
468
100
AcDbEntity
  8
1
  6
CONTINUOUS
 62
           7
100
AcDbCircle
 10
-29.093738353786
 20
-227.266188934688
 40
8.0
100
AcDbArc
 50
0.0
 51
36.493742599328
  0
ARC
  5
467
100
AcDbEntity
  8
1
  6
CONTINUOUS
 62
           7
100
AcDbCircle
 10
23.906261646214
 20
-227.266188934688
 40
8.0
100
AcDbArc
 50
143.506257400671
 51
180.0
  0
ARC
  5
466
100
AcDbEntity
  8
1
  6
CONTINUOUS
 62
           7
100
AcDbCircle
 10
63.393767745789
 20
-203.251845760781
 40
25.0
100
AcDbArc
 50
107.533042802436
 51
142.888678111084
  0
ARC
  5
465
100
AcDbEntity
  8
1
  6
CONTINUOUS
 62
           7
100
AcDbCircle
 10
94.562321375596
 20
-158.338846372149
 40
3.0
100
AcDbArc
 50
90.0
 51
137.156356956409
  0
ARC
  5
464
100
AcDbEntity
  8
1
  6
CONTINUOUS
 62
           7
100
AcDbCircle
 10
81.406261646214
 20
-148.951220093616
 40
8.0
100
AcDbArc
 50
-44.49703551294
 51
0.0
  0
ARC
  5
463
100
AcDbEntity
  8
1
  6
CONTINUOUS
 62
           7
100
AcDbCircle
 10
86.406261646214
 20
-48.338846372149
 40
2.0
100
AcDbArc
 50
-179.999999999992
 51
-97.180755781457
  0
ARC
  5
462
100
AcDbEntity
  8
1
  6
CONTINUOUS
 62
           7
100
AcDbCircle
 10
45.28578276944
 20
-16.338846372149
 40
1.0
100
AcDbArc
 50
90.0
 51
154.000000000012
  0
ARC
  5
461
100
AcDbEntity
  8
1
  6
CONTINUOUS
 62
           7
100
AcDbCircle
 10
49.526740522987
 20
-16.338846372149
 40
1.0
100
AcDbArc
 50
25.999999999982
 51
90.0
  0
ARC
  5
460
100
AcDbEntity
  8
1
  6
CONTINUOUS
 62
           7
100
AcDbCircle
 10
61.156000350032
 20
-33.338846372149
 40
1.999999999999
100
AcDbArc
 50
-154.000000000003
 51
-90.0
  0
ARC
  5
45F
100
AcDbEntity
  8
1
  6
CONTINUOUS
 62
           7
100
AcDbCircle
 10
35.683775595194
 20
-22.338846372149
 40
5.0
100
AcDbArc
 50
-90.0
 51
-26.000000000003
  0
ARC
  5
45E
100
AcDbEntity
  8
1
  6
CONTINUOUS
 62
           7
100
AcDbCircle
 10
18.406261646214
 20
-33.338846372149
 40
2.0
100
AcDbArc
 50
180.0
 51
-90.0
  0
ARC
  5
45D
100
AcDbEntity
  8
976
  6
CONTINUOUS
 62
           7
100
AcDbCircle
 10
13.178208945288
 20
-272.838846372148
 40
3.0
100
AcDbArc
 50
89.999999999989
 51
152.282252310396
  0
ARC
  5
45C
100
AcDbEntity
  8
1
  6
CONTINUOUS
 62
           7
100
AcDbCircle
 10
-247.411892626739
 20
-24.838846372149
 40
2.5
100
AcDbArc
 50
-90.0
 51
0.0
  0
ARC
  5
45B
100
AcDbEntity
  8
1
  6
CONTINUOUS
 62
           7
100
AcDbCircle
 10
-265.411892626739
 20
-22.225693552607
 40
2.5
100
AcDbArc
 50
120.2811942894
 51
180.0
  0
ARC
  5
45A
100
AcDbEntity
  8
1
  6
CONTINUOUS
 62
           7
100
AcDbCircle
 10
-265.411892626739
 20
-24.838846372149
 40
2.5
100
AcDbArc
 50
180.0
 51
-90.0
  0
ARC
  5
459
100
AcDbEntity
  8
1
  6
CONTINUOUS
 62
           7
100
AcDbCircle
 10
82.110253577633
 20
139.589781682404
 40
30.0
100
AcDbArc
 50
-90.0
 51
-55.012494871291
  0
ARC
  5
458
100
AcDbEntity
  8
1
  6
CONTINUOUS
 62
           7
100
AcDbCircle
 10
82.110253577633
 20
71.589781682404
 40
30.0
100
AcDbArc
 50
55.012494871291
 51
90.0
  0
ARC
  5
457
100
AcDbEntity
  8
1
  6
CONTINUOUS
 62
           7
100
AcDbCircle
 10
-259.911892626739
 20
-17.838846372149
 40
2.5
100
AcDbArc
 50
90.0
 51
180.0
  0
ARC
  5
456
100
AcDbEntity
  8
1
  6
CONTINUOUS
 62
           7
100
AcDbCircle
 10
-259.911892626739
 20
-22.838846372149
 40
2.5
100
AcDbArc
 50
180.0
 51
-90.0
  0
ARC
  5
455
100
AcDbEntity
  8
1
  6
CONTINUOUS
 62
           7
100
AcDbCircle
 10
-252.911892626739
 20
-22.838846372149
 40
2.5
100
AcDbArc
 50
-90.0
 51
0.0
  0
ARC
  5
454
100
AcDbEntity
  8
1
  6
CONTINUOUS
 62
           7
100
AcDbCircle
 10
-252.911892626739
 20
-17.838846372149
 40
2.5
100
AcDbArc
 50
0.0
 51
90.0
  0
ARC
  5
453
100
AcDbEntity
  8
1
  6
CONTINUOUS
 62
           7
100
AcDbCircle
 10
8.006261646214
 20
105.589781682405
 40
1.4
100
AcDbArc
 50
-90.0
 51
0.0
  0
ARC
  5
452
100
AcDbEntity
  8
1
  6
CONTINUOUS
 62
           7
100
AcDbCircle
 10
8.006261646214
 20
105.589781682405
 40
1.4
100
AcDbArc
 50
0.0
 51
90.0
  0
ARC
  5
451
100
AcDbEntity
  8
1
  6
CONTINUOUS
 62
           7
100
AcDbCircle
 10
21.147196133363
 20
124.589781682405
 40
15.0
100
AcDbArc
 50
-103.240519915187
 51
-90.0
  0
ARC
  5
450
100
AcDbEntity
  8
1
  6
CONTINUOUS
 62
           7
100
AcDbCircle
 10
21.147196133363
 20
86.589781682404
 40
15.0
100
AcDbArc
 50
90.0
 51
103.240519915187
  0
ARC
  5
44F
100
AcDbEntity
  8
1
  6
CONTINUOUS
 62
           7
100
AcDbCircle
 10
9.745638654782
 20
109.589781682405
 40
10.0
100
AcDbArc
 50
-90.0
 51
-76.759480084813
  0
ARC
  5
44E
100
AcDbEntity
  8
1
  6
CONTINUOUS
 62
           7
100
AcDbCircle
 10
9.745638654782
 20
101.589781682405
 40
10.0
100
AcDbArc
 50
76.759480084813
 51
90.0
  0
ARC
  5
44D
100
AcDbEntity
  8
1
  6
CONTINUOUS
 62
           7
100
AcDbCircle
 10
-247.411892626739
 20
-22.225693552607
 40
2.5
100
AcDbArc
 50
0.0
 51
28.995365443391
  0
ARC
  5
44C
100
AcDbEntity
  8
1
  6
CONTINUOUS
 62
           7
100
AcDbCircle
 10
68.706261646214
 20
-34.838846372149
 40
3.0
100
AcDbArc
 50
0.0
 51
90.0
  0
ARC
  5
44B
100
AcDbEntity
  8
1
  6
CONTINUOUS
 62
           7
100
AcDbCircle
 10
66.106261646214
 20
-34.838846372149
 40
3.0
100
AcDbArc
 50
90.0
 51
180.0
  0
ARC
  5
44A
100
AcDbEntity
  8
1
  6
CONTINUOUS
 62
           7
100
AcDbCircle
 10
41.403246559567
 20
-4.945585071819
 40
10.0
100
AcDbArc
 50
-91.1320163359
 51
-78.457163772109
  0
ARC
  5
449
100
AcDbEntity
  8
1
  6
CONTINUOUS
 62
           7
100
AcDbCircle
 10
55.428707868397
 20
-5.431401714895
 40
10.0
100
AcDbArc
 50
-105.510494528317
 51
-92.835641964528
  0
ARC
  5
448
100
AcDbEntity
  8
1
  6
CONTINUOUS
 62
           7
100
AcDbCircle
 10
1.206261646214
 20
-15.838846372149
 40
1.0
100
AcDbArc
 50
90.0
 51
150.000000000014
  0
ARC
  5
447
100
AcDbEntity
  8
1
  6
CONTINUOUS
 62
           7
100
AcDbCircle
 10
4.606261646214
 20
-15.838846372149
 40
1.0
100
AcDbArc
 50
29.999999999976
 51
90.0
  0
ARC
  5
446
100
AcDbEntity
  8
1
  6
CONTINUOUS
 62
           7
100
AcDbCircle
 10
-172.55558315136
 20
-268.847509277363
 40
2.2
100
AcDbArc
 50
-90.0
 51
0.0
  0
ARC
  5
445
100
AcDbEntity
  8
1
  6
CONTINUOUS
 62
           7
100
AcDbCircle
 10
-172.584412604956
 20
-270.447509277363
 40
0.6
100
AcDbArc
 50
180.0
 51
-89.999999999981
  0
ARC
  5
444
100
AcDbEntity
  8
1
  6
CONTINUOUS
 62
           7
100
AcDbCircle
 10
-173.15558315136
 20
-270.447509277364
 40
0.6
100
AcDbArc
 50
-61.577119155526
 51
0.000000000038
  0
ARC
  5
443
100
AcDbEntity
  8
1
  6
CONTINUOUS
 62
           7
100
AcDbCircle
 10
-172.55558315136
 20
-259.830183466934
 40
2.2
100
AcDbArc
 50
0.000000000001
 51
89.999999999997
  0
ARC
  5
442
100
AcDbEntity
  8
1
  6
CONTINUOUS
 62
           7
100
AcDbCircle
 10
-172.584412604955
 20
-258.230183466934
 40
0.6
100
AcDbArc
 50
90.000000000019
 51
180.0
  0
ARC
  5
441
100
AcDbEntity
  8
1
  6
CONTINUOUS
 62
           7
100
AcDbCircle
 10
-173.15558315136
 20
-258.230183466934
 40
0.6
100
AcDbArc
 50
-0.000000000011
 51
61.577119155558
  0
ARC
  5
440
100
AcDbEntity
  8
1
  6
CONTINUOUS
 62
           7
100
AcDbCircle
 10
78.381841923751
 20
11.428578581293
 40
2.999999999999
100
AcDbArc
 50
-14.999239532817
 51
75.000044519477
  0
ARC
  5
43F
100
AcDbEntity
  8
976
  6
CONTINUOUS
 62
           7
100
AcDbCircle
 10
13.178208945288
 20
-255.838846372149
 40
2.999999999999
100
AcDbArc
 50
-152.282252310396
 51
-89.999999999989
  0
LWPOLYLINE
  5
43E
100
AcDbEntity
  8
1
  6
CONTINUOUS
 62
           2
 60
           1
100
AcDbPolyline
 90
        2
 70
           0
 10
19.906261646214
 20
-262.838846372149
 10
19.906261646214
 20
-261.880346372149
  0
LWPOLYLINE
  5
43D
100
AcDbEntity
  8
1
  6
CONTINUOUS
 62
           7
 60
           1
100
AcDbPolyline
 90
        2
 70
           0
 10
30.464197372339
 20
-261.338846372149
 10
29.18856946474
 20
-261.338846372149
  0
SPLINE
  5
43C
100
AcDbEntity
  8
976
  6
CONTINUOUS
 62
           7
100
AcDbSpline
210
0.0
220
0.0
230
1.0
 70
           0
 71
           4
 72
           8
 73
           4
 74
           3
 42
0.00000000001
 43
0.00000000001
 44
0.00000000001
 40
0.0
 40
0.0
 40
0.0
 40
0.0
 40
11.292433620432675
 40
11.292433620432675
 40
11.292433620432675
 40
11.292433620432675
 10
11.176371939740051
 20
-258.83884637214851
 30
0.0
 10
10.17901233721815
 20
-262.40031971477288
 30
0.0
 10
10.180743562126191
 20
-266.28969935937448
 30
0.0
 10
11.24251407741737
 20
-269.83884637214851
 30
0.0
 11
11.176371939740051
 21
-258.83884637214851
 31
0.0
 11
10.437269214398805
 21
-264.34346874584242
 31
0.0
 11
11.24251407741737
 21
-269.83884637214851
 31
0.0
  0
CIRCLE
  5
43B
100
AcDbEntity
  8
1
  6
CONTINUOUS
 62
           7
100
AcDbCircle
 10
43.506261646214
 20
-264.338846372149
 40
5.718850000002
  0
CIRCLE
  5
43A
100
AcDbEntity
  8
0
  6
CONTINUOUS
 62
           7
100
AcDbCircle
 10
43.506311646213
 20
-264.338846372149
 40
4.0
  0
CIRCLE
  5
439
100
AcDbEntity
  8
0
  6
CONTINUOUS
 62
           7
100
AcDbCircle
 10
43.506311646213
 20
-264.338846372149
 40
2.0
  0
CIRCLE
  5
438
100
AcDbEntity
  8
1
  6
CONTINUOUS
 62
           7
100
AcDbCircle
 10
-196.739230316204
 20
-264.338846372149
 40
15.7
  0
CIRCLE
  5
437
100
AcDbEntity
  8
1
  6
CONTINUOUS
 62
           7
100
AcDbCircle
 10
-198.158678735107
 20
-264.338846372149
 40
8.5
  0
CIRCLE
  5
436
100
AcDbEntity
  8
1
  6
CONTINUOUS
 62
           7
100
AcDbCircle
 10
-198.158678735107
 20
-264.338846372149
 40
6.0
  0
CIRCLE
  5
435
100
AcDbEntity
  8
1
  6
CONTINUOUS
 62
           7
100
AcDbCircle
 10
-198.158678735107
 20
-264.338846372149
 40
3.0
  0
CIRCLE
  5
434
100
AcDbEntity
  8
1
  6
CONTINUOUS
 62
           7
100
AcDbCircle
 10
-281.791189100951
 20
-234.699734387973
 40
6.0
  0
CIRCLE
  5
433
100
AcDbEntity
  8
1
  6
CONTINUOUS
 62
           7
100
AcDbCircle
 10
-264.286892626739
 20
-20.338846372149
 40
0.675
  0
CIRCLE
  5
432
100
AcDbEntity
  8
1
  6
CONTINUOUS
 62
           7
100
AcDbCircle
 10
-262.911892626739
 20
-20.338846372149
 40
0.45
  0
CIRCLE
  5
431
100
AcDbEntity
  8
1
  6
CONTINUOUS
 62
           7
100
AcDbCircle
 10
8.406261646214
 20
167.723588905204
 40
2.15
  0
CIRCLE
  5
430
100
AcDbEntity
  8
1
  6
CONTINUOUS
 62
           7
100
AcDbCircle
 10
8.406261646214
 20
43.455974459605
 40
2.15
  0
CIRCLE
  5
42F
100
AcDbEntity
  8
1
  6
CONTINUOUS
 62
           7
100
AcDbCircle
 10
47.406261646214
 20
-20.338846372149
 40
1.5
  0
CIRCLE
  5
42E
100
AcDbEntity
  8
1
  6
CONTINUOUS
 62
           7
100
AcDbCircle
 10
2.906261646214
 20
-20.338846372149
 40
1.0
  0
ARC
  5
42D
100
AcDbEntity
  8
0
  6
CONTINUOUS
 62
           7
100
AcDbCircle
 10
81.506211646214
 20
-264.338846372149
 40
2.0
100
AcDbArc
 50
0.0
 51
90.0
  0
ARC
  5
42C
100
AcDbEntity
  8
0
  6
CONTINUOUS
 62
           7
100
AcDbCircle
 10
81.506211646214
 20
-264.338846372149
 40
2.0
100
AcDbArc
 50
-90.0
 51
0.0
  0
ARC
  5
42B
100
AcDbEntity
  8
0
  6
CONTINUOUS
 62
           7
100
AcDbCircle
 10
67.462893804759
 20
-259.338836071397
 40
3.000010300801
100
AcDbArc
 50
-149.999886418834
 51
-89.999659254501
  0
ARC
  5
42A
100
AcDbEntity
  8
0
  6
CONTINUOUS
 62
           7
100
AcDbCircle
 10
67.462893804759
 20
-269.338856672896
 40
3.000010300801
100
AcDbArc
 50
89.999659254501
 51
149.999886418893
  0
ARC
  5
429
100
AcDbEntity
  8
0
  6
CONTINUOUS
 62
           7
100
AcDbCircle
 10
61.40061043486
 20
-265.838847071517
 40
3.999999300631
100
AcDbArc
 50
-89.999982648639
 51
-29.999994216293
  0
ARC
  5
428
100
AcDbEntity
  8
0
  6
CONTINUOUS
 62
           7
100
AcDbCircle
 10
61.40061043486
 20
-262.838845672776
 40
3.999999300626
100
AcDbArc
 50
29.999994216247
 51
89.999982648639
  0
ARC
  5
427
100
AcDbEntity
  8
1
  6
CONTINUOUS
 62
           7
100
AcDbCircle
 10
-56.413464071496
 20
56.687732137929
 40
4.34489867232
100
AcDbArc
 50
147.808602840687
 51
-150.615752531965
  0
ARC
  5
426
100
AcDbEntity
  8
1
  6
CONTINUOUS
 62
           7
100
AcDbCircle
 10
-2.093738353786
 20
44.044127431869
 40
15.199999999999
100
AcDbArc
 50
-95.0
 51
-34.673014802473
  0
ARC
  5
425
100
AcDbEntity
  8
1
  6
CONTINUOUS
 62
           7
100
AcDbCircle
 10
-2.093738353786
 20
44.044127431869
 40
14.2
100
AcDbArc
 50
-95.000000000001
 51
-36.505701038807
  0
ARC
  5
424
100
AcDbEntity
  8
1
  6
CONTINUOUS
 62
           7
100
AcDbCircle
 10
-74.573826674221
 20
50.887223410038
 40
16.240810621445
100
AcDbArc
 50
-5.000000000003
 51
12.587953773992
  0
ARC
  5
423
100
AcDbEntity
  8
1
  6
CONTINUOUS
 62
           7
100
AcDbCircle
 10
-45.204391900905
 20
48.317730813207
 40
16.240810621446
100
AcDbArc
 50
157.412046226001
 51
174.999999999997
  0
ARC
  5
422
100
AcDbEntity
  8
1
  6
CONTINUOUS
 62
           7
100
AcDbCircle
 10
-62.081610019442
 20
57.183630651585
 40
4.344898672319
100
AcDbArc
 50
-39.384247468046
 51
6.430912833939
  0
ARC
  5
421
100
AcDbEntity
  8
1
  6
CONTINUOUS
 62
           7
100
AcDbCircle
 10
-63.36475450363
 20
42.517222085317
 40
4.344898672319
100
AcDbArc
 50
-5.000000000005
 51
29.384247468032
  0
ARC
  5
420
100
AcDbEntity
  8
1
  6
CONTINUOUS
 62
           7
100
AcDbCircle
 10
-45.204391900905
 20
48.317730813207
 40
16.240810621445
100
AcDbArc
 50
174.999999999997
 51
-167.41204622601
  0
ARC
  5
41F
100
AcDbEntity
  8
1
  6
CONTINUOUS
 62
           7
100
AcDbCircle
 10
-74.573826674221
 20
50.887223410038
 40
16.240810621445
100
AcDbArc
 50
-22.587953773999
 51
-5.000000000003
  0
ARC
  5
41E
100
AcDbEntity
  8
1
  6
CONTINUOUS
 62
           7
100
AcDbCircle
 10
-57.696608555685
 20
42.021323571661
 40
4.344898672319
100
AcDbArc
 50
140.615752531947
 51
174.999999999994
  0
ARC
  5
41D
100
AcDbEntity
  8
1
  6
CONTINUOUS
 62
           7
100
AcDbCircle
 10
-63.36475450363
 20
42.517222085317
 40
4.344898672319
100
AcDbArc
 50
-39.38424746805
 51
-5.000000000005
  0
ARC
  5
41C
100
AcDbEntity
  8
1
  6
CONTINUOUS
 62
           7
100
AcDbCircle
 10
-57.696608555685
 20
42.021323571661
 40
4.34489867232
100
AcDbArc
 50
174.999999999994
 51
-150.615752531963
  0
ARC
  5
41B
100
AcDbEntity
  8
1
  6
CONTINUOUS
 62
           7
100
AcDbCircle
 10
-45.254030274157
 20
32.912018892695
 40
0.34655740218
100
AcDbArc
 50
90.639758474804
 51
-100.639758474808
  0
ARC
  5
41A
100
AcDbEntity
  8
1
  6
CONTINUOUS
 62
           7
100
AcDbCircle
 10
-44.381347852427
 20
36.009704906257
 40
0.945937878514
100
AcDbArc
 50
127.039288971469
 51
-137.039288971493
  0
ARC
  5
419
100
AcDbEntity
  8
1
  6
CONTINUOUS
 62
           7
100
AcDbCircle
 10
-43.282391612041
 20
40.950417481004
 40
1.610100784466
100
AcDbArc
 50
138.698498808666
 51
-148.698498808678
  0
ARC
  5
418
100
AcDbEntity
  8
1
  6
CONTINUOUS
 62
           7
100
AcDbCircle
 10
-42.405385913561
 20
47.008273173983
 40
1.955792299108
100
AcDbArc
 50
142.163168933357
 51
-152.163168933372
  0
ARC
  5
417
100
AcDbEntity
  8
1
  6
CONTINUOUS
 62
           7
100
AcDbCircle
 10
19.624160180239
 20
35.256632852157
 40
2.946790240811
100
AcDbArc
 50
127.691605825817
 51
-128.624781115724
  0
ARC
  5
416
100
AcDbEntity
  8
1
  6
CONTINUOUS
 62
           7
100
AcDbCircle
 10
17.239687994991
 20
35.465247136859
 40
2.946790240811
100
AcDbArc
 50
-61.375218884271
 51
51.375218884279
  0
ARC
  5
415
100
AcDbEntity
  8
1
  6
CONTINUOUS
 62
           7
100
AcDbCircle
 10
-193.01189262674
 20
-264.338846372149
 40
15.737428340483
100
AcDbArc
 50
-53.317052641287
 51
0.0
  0
ARC
  5
414
100
AcDbEntity
  8
1
  6
CONTINUOUS
 62
           7
100
AcDbCircle
 10
-193.01189262674
 20
-264.338846372149
 40
15.737428340483
100
AcDbArc
 50
0.0
 51
53.317052641288
  0
ARC
  5
413
100
AcDbEntity
  8
1
  6
CONTINUOUS
 62
           7
100
AcDbCircle
 10
-196.570665755145
 20
-264.338846372149
 40
16.5
100
AcDbArc
 50
-37.500000000001
 51
-31.313541721394
  0
ARC
  5
412
100
AcDbEntity
  8
1
  6
CONTINUOUS
 62
           7
100
AcDbCircle
 10
-196.570665755145
 20
-264.338846372149
 40
16.0
100
AcDbArc
 50
-26.25
 51
-23.801901714885
  0
ARC
  5
411
100
AcDbEntity
  8
1
  6
CONTINUOUS
 62
           7
100
AcDbCircle
 10
-196.570665755145
 20
-264.338846372149
 40
16.0
100
AcDbArc
 50
-28.69852835199
 51
-26.25
  0
ARC
  5
410
100
AcDbEntity
  8
1
  6
CONTINUOUS
 62
           7
100
AcDbCircle
 10
-196.570665755145
 20
-264.338846372149
 40
16.5
100
AcDbArc
 50
-21.184815245195
 51
-15.000000000001
  0
ARC
  5
40F
100
AcDbEntity
  8
1
  6
CONTINUOUS
 62
           7
100
AcDbCircle
 10
-196.570665755145
 20
-264.338846372149
 40
16.5
100
AcDbArc
 50
-15.000000000001
 51
-8.813541721393
  0
ARC
  5
40E
100
AcDbEntity
  8
1
  6
CONTINUOUS
 62
           7
100
AcDbCircle
 10
-194.999959734359
 20
-264.338846372149
 40
16.0
100
AcDbArc
 50
-26.25
 51
-23.801901714885
  0
ARC
  5
40D
100
AcDbEntity
  8
1
  6
CONTINUOUS
 62
           7
100
AcDbCircle
 10
-194.999959734359
 20
-264.338846372149
 40
16.0
100
AcDbArc
 50
-28.698528351989
 51
-26.25
  0
ARC
  5
40C
100
AcDbEntity
  8
1
  6
CONTINUOUS
 62
           7
100
AcDbCircle
 10
-194.999959734359
 20
-264.338846372149
 40
16.0
100
AcDbArc
 50
-26.25
 51
-23.801901714885
  0
ARC
  5
40B
100
AcDbEntity
  8
1
  6
CONTINUOUS
 62
           7
100
AcDbCircle
 10
-196.570665755145
 20
-264.338846372149
 40
16.5
100
AcDbArc
 50
-43.684815245195
 51
-37.500000000001
  0
ARC
  5
40A
100
AcDbEntity
  8
1
  6
CONTINUOUS
 62
           7
100
AcDbCircle
 10
-196.570665755145
 20
-264.338846372149
 40
16.0
100
AcDbArc
 50
-51.198528351989
 51
-48.75
  0
ARC
  5
409
100
AcDbEntity
  8
1
  6
CONTINUOUS
 62
           7
100
AcDbCircle
 10
-196.570665755145
 20
-264.338846372149
 40
16.0
100
AcDbArc
 50
-48.75
 51
-46.301901714885
  0
ARC
  5
408
100
AcDbEntity
  8
1
  6
CONTINUOUS
 62
           7
100
AcDbCircle
 10
-196.570665755145
 20
-264.338846372149
 40
16.5
100
AcDbArc
 50
-60.0
 51
-53.813541721394
  0
ARC
  5
407
100
AcDbEntity
  8
1
  6
CONTINUOUS
 62
           7
100
AcDbCircle
 10
-196.570665755145
 20
-264.338846372149
 40
16.5
100
AcDbArc
 50
-66.184815245196
 51
-60.0
  0
ARC
  5
406
100
AcDbEntity
  8
1
  6
CONTINUOUS
 62
           7
100
AcDbCircle
 10
-194.999959734359
 20
-264.338846372149
 40
16.0
100
AcDbArc
 50
-48.75
 51
-46.301901714886
  0
ARC
  5
405
100
AcDbEntity
  8
1
  6
CONTINUOUS
 62
           7
100
AcDbCircle
 10
-194.999959734359
 20
-264.338846372149
 40
16.0
100
AcDbArc
 50
-48.75
 51
-46.301901714886
  0
ARC
  5
404
100
AcDbEntity
  8
1
  6
CONTINUOUS
 62
           7
100
AcDbCircle
 10
-194.999959734359
 20
-264.338846372149
 40
16.0
100
AcDbArc
 50
-51.198528351989
 51
-48.75
  0
ARC
  5
403
100
AcDbEntity
  8
1
  6
CONTINUOUS
 62
           7
100
AcDbCircle
 10
-196.570665755145
 20
-264.338846372149
 40
16.0
100
AcDbArc
 50
-73.698528351989
 51
-71.25
  0
ARC
  5
402
100
AcDbEntity
  8
1
  6
CONTINUOUS
 62
           7
100
AcDbCircle
 10
-196.570665755145
 20
-264.338846372149
 40
16.0
100
AcDbArc
 50
-71.25
 51
-68.801901714885
  0
ARC
  5
401
100
AcDbEntity
  8
1
  6
CONTINUOUS
 62
           7
100
AcDbCircle
 10
-196.570665755145
 20
-264.338846372149
 40
16.5
100
AcDbArc
 50
-88.684815245196
 51
-82.5
  0
ARC
  5
400
100
AcDbEntity
  8
1
  6
CONTINUOUS
 62
           7
100
AcDbCircle
 10
-196.570665755145
 20
-264.338846372149
 40
16.5
100
AcDbArc
 50
-82.5
 51
-76.313541721394
  0
ARC
  5
3FF
100
AcDbEntity
  8
1
  6
CONTINUOUS
 62
           7
100
AcDbCircle
 10
-194.999959734359
 20
-264.338846372149
 40
16.0
100
AcDbArc
 50
-73.698528351989
 51
-71.25
  0
ARC
  5
3FE
100
AcDbEntity
  8
1
  6
CONTINUOUS
 62
           7
100
AcDbCircle
 10
-194.999959734359
 20
-264.338846372149
 40
16.0
100
AcDbArc
 50
-71.25
 51
-71.011194435964
  0
ARC
  5
3FD
100
AcDbEntity
  8
1
  6
CONTINUOUS
 62
           7
100
AcDbCircle
 10
-194.999959734359
 20
-264.338846372149
 40
16.5
100
AcDbArc
 50
-88.684815245195
 51
-82.499999999999
  0
ARC
  5
3FC
100
AcDbEntity
  8
1
  6
CONTINUOUS
 62
           7
100
AcDbCircle
 10
-196.570665755145
 20
-264.338846372149
 40
16.5
100
AcDbArc
 50
-111.184815245195
 51
-105.0
  0
ARC
  5
3FB
100
AcDbEntity
  8
1
  6
CONTINUOUS
 62
           7
100
AcDbCircle
 10
-196.570665755145
 20
-264.338846372149
 40
16.5
100
AcDbArc
 50
-105.0
 51
-98.813541721394
  0
ARC
  5
3FA
100
AcDbEntity
  8
1
  6
CONTINUOUS
 62
           7
100
AcDbCircle
 10
-196.570665755145
 20
-264.338846372149
 40
16.0
100
AcDbArc
 50
-93.749999999999
 51
-91.301901714885
  0
ARC
  5
3F9
100
AcDbEntity
  8
1
  6
CONTINUOUS
 62
           7
100
AcDbCircle
 10
-196.570665755145
 20
-264.338846372149
 40
16.0
100
AcDbArc
 50
-96.198528351989
 51
-93.749999999999
  0
ARC
  5
3F8
100
AcDbEntity
  8
1
  6
CONTINUOUS
 62
           7
100
AcDbCircle
 10
-196.570665755145
 20
-264.338846372149
 40
16.0
100
AcDbArc
 50
-116.249999999999
 51
-113.801901714885
  0
ARC
  5
3F7
100
AcDbEntity
  8
1
  6
CONTINUOUS
 62
           7
100
AcDbCircle
 10
-196.570665755145
 20
-264.338846372149
 40
16.0
100
AcDbArc
 50
-118.69852835199
 51
-116.249999999999
  0
ARC
  5
3F6
100
AcDbEntity
  8
1
  6
CONTINUOUS
 62
           7
100
AcDbCircle
 10
-196.570665755145
 20
-264.338846372149
 40
16.5
100
AcDbArc
 50
-127.5
 51
-121.313541721393
  0
ARC
  5
3F5
100
AcDbEntity
  8
1
  6
CONTINUOUS
 62
           7
100
AcDbCircle
 10
-196.570665755145
 20
-264.338846372149
 40
16.5
100
AcDbArc
 50
-133.684815245195
 51
-127.5
  0
ARC
  5
3F4
100
AcDbEntity
  8
1
  6
CONTINUOUS
 62
           7
100
AcDbCircle
 10
-196.570665755145
 20
-264.338846372149
 40
16.0
100
AcDbArc
 50
-141.198528351989
 51
-138.749999999999
  0
ARC
  5
3F3
100
AcDbEntity
  8
1
  6
CONTINUOUS
 62
           7
100
AcDbCircle
 10
-196.570665755145
 20
-264.338846372149
 40
16.0
100
AcDbArc
 50
-138.749999999999
 51
-136.301901714885
  0
ARC
  5
3F2
100
AcDbEntity
  8
1
  6
CONTINUOUS
 62
           7
100
AcDbCircle
 10
-196.570665755145
 20
-264.338846372149
 40
16.5
100
AcDbArc
 50
-150.0
 51
-143.813541721392
  0
ARC
  5
3F1
100
AcDbEntity
  8
1
  6
CONTINUOUS
 62
           7
100
AcDbCircle
 10
-196.570665755145
 20
-264.338846372149
 40
16.5
100
AcDbArc
 50
-156.184815245195
 51
-150.0
  0
ARC
  5
3F0
100
AcDbEntity
  8
1
  6
CONTINUOUS
 62
           7
100
AcDbCircle
 10
-196.570665755145
 20
-264.338846372149
 40
16.0
100
AcDbArc
 50
-161.25
 51
-158.801901714885
  0
ARC
  5
3EF
100
AcDbEntity
  8
1
  6
CONTINUOUS
 62
           7
100
AcDbCircle
 10
-196.570665755145
 20
-264.338846372149
 40
16.5
100
AcDbArc
 50
165.0
 51
171.186458278606
  0
ARC
  5
3EE
100
AcDbEntity
  8
1
  6
CONTINUOUS
 62
           7
100
AcDbCircle
 10
-196.570665755145
 20
-264.338846372149
 40
16.5
100
AcDbArc
 50
158.815184754804
 51
165.0
  0
ARC
  5
3ED
100
AcDbEntity
  8
1
  6
CONTINUOUS
 62
           7
100
AcDbCircle
 10
-196.570665755145
 20
-264.338846372149
 40
16.0
100
AcDbArc
 50
-163.698528351989
 51
-161.25
  0
ARC
  5
3EC
100
AcDbEntity
  8
1
  6
CONTINUOUS
 62
           7
100
AcDbCircle
 10
-196.570665755145
 20
-264.338846372149
 40
16.0
100
AcDbArc
 50
176.25
 51
178.698098285114
  0
ARC
  5
3EB
100
AcDbEntity
  8
1
  6
CONTINUOUS
 62
           7
100
AcDbCircle
 10
-196.570665755145
 20
-264.338846372149
 40
16.0
100
AcDbArc
 50
173.80147164801
 51
176.25
  0
ARC
  5
3EA
100
AcDbEntity
  8
1
  6
CONTINUOUS
 62
           7
100
AcDbCircle
 10
-196.570665755145
 20
-264.338846372149
 40
16.5
100
AcDbArc
 50
-178.684815245195
 51
-172.499999999999
  0
ARC
  5
3E9
100
AcDbEntity
  8
1
  6
CONTINUOUS
 62
           7
100
AcDbCircle
 10
-196.570665755145
 20
-264.338846372149
 40
16.5
100
AcDbArc
 50
-172.499999999999
 51
-166.313541721393
  0
ARC
  5
3E8
100
AcDbEntity
  8
1
  6
CONTINUOUS
 62
           7
100
AcDbCircle
 10
-196.570665755145
 20
-264.338846372149
 40
16.0
100
AcDbArc
 50
151.30147164801
 51
153.75
  0
ARC
  5
3E7
100
AcDbEntity
  8
1
  6
CONTINUOUS
 62
           7
100
AcDbCircle
 10
-196.570665755145
 20
-264.338846372149
 40
16.0
100
AcDbArc
 50
153.75
 51
156.198098285114
  0
ARC
  5
3E6
100
AcDbEntity
  8
1
  6
CONTINUOUS
 62
           7
100
AcDbCircle
 10
-196.570665755145
 20
-264.338846372149
 40
16.5
100
AcDbArc
 50
136.315184754805
 51
142.5
  0
ARC
  5
3E5
100
AcDbEntity
  8
1
  6
CONTINUOUS
 62
           7
100
AcDbCircle
 10
-196.570665755145
 20
-264.338846372149
 40
16.5
100
AcDbArc
 50
142.5
 51
148.686458278606
  0
ARC
  5
3E4
100
AcDbEntity
  8
1
  6
CONTINUOUS
 62
           7
100
AcDbCircle
 10
-196.570665755145
 20
-264.338846372149
 40
16.5
100
AcDbArc
 50
120.0
 51
126.186458278606
  0
ARC
  5
3E3
100
AcDbEntity
  8
1
  6
CONTINUOUS
 62
           7
100
AcDbCircle
 10
-196.570665755145
 20
-264.338846372149
 40
16.0
100
AcDbArc
 50
131.25
 51
133.698098285114
  0
ARC
  5
3E2
100
AcDbEntity
  8
1
  6
CONTINUOUS
 62
           7
100
AcDbCircle
 10
-196.570665755145
 20
-264.338846372149
 40
16.0
100
AcDbArc
 50
128.80147164801
 51
131.25
  0
ARC
  5
3E1
100
AcDbEntity
  8
1
  6
CONTINUOUS
 62
           7
100
AcDbCircle
 10
-196.570665755145
 20
-264.338846372149
 40
16.5
100
AcDbArc
 50
97.5
 51
103.686458278606
  0
ARC
  5
3E0
100
AcDbEntity
  8
1
  6
CONTINUOUS
 62
           7
100
AcDbCircle
 10
-196.570665755145
 20
-264.338846372149
 40
16.5
100
AcDbArc
 50
91.315184754804
 51
97.5
  0
ARC
  5
3DF
100
AcDbEntity
  8
1
  6
CONTINUOUS
 62
           7
100
AcDbCircle
 10
-196.570665755145
 20
-264.338846372149
 40
16.0
100
AcDbArc
 50
86.25
 51
88.698098285114
  0
ARC
  5
3DE
100
AcDbEntity
  8
1
  6
CONTINUOUS
 62
           7
100
AcDbCircle
 10
-196.570665755145
 20
-264.338846372149
 40
16.0
100
AcDbArc
 50
108.75
 51
111.198098285114
  0
ARC
  5
3DD
100
AcDbEntity
  8
1
  6
CONTINUOUS
 62
           7
100
AcDbCircle
 10
-196.570665755145
 20
-264.338846372149
 40
16.0
100
AcDbArc
 50
106.301471648011
 51
108.75
  0
ARC
  5
3DC
100
AcDbEntity
  8
1
  6
CONTINUOUS
 62
           7
100
AcDbCircle
 10
-196.570665755145
 20
-264.338846372149
 40
16.5
100
AcDbArc
 50
113.815184754805
 51
120.0
  0
ARC
  5
3DB
100
AcDbEntity
  8
1
  6
CONTINUOUS
 62
           7
100
AcDbCircle
 10
-196.570665755145
 20
-264.338846372149
 40
16.0
100
AcDbArc
 50
83.801471648011
 51
86.25
  0
ARC
  5
3DA
100
AcDbEntity
  8
1
  6
CONTINUOUS
 62
           7
100
AcDbCircle
 10
-196.570665755145
 20
-264.338846372149
 40
16.5
100
AcDbArc
 50
75.0
 51
81.186458278606
  0
ARC
  5
3D9
100
AcDbEntity
  8
1
  6
CONTINUOUS
 62
           7
100
AcDbCircle
 10
-194.999959734359
 20
-264.338846372149
 40
16.0
100
AcDbArc
 50
88.380396417922
 51
88.698528351989
  0
ARC
  5
3D8
100
AcDbEntity
  8
1
  6
CONTINUOUS
 62
           7
100
AcDbCircle
 10
-196.570665755145
 20
-264.338846372149
 40
16.5
100
AcDbArc
 50
68.815184754805
 51
75.0
  0
ARC
  5
3D7
100
AcDbEntity
  8
1
  6
CONTINUOUS
 62
           7
100
AcDbCircle
 10
-196.570665755145
 20
-264.338846372149
 40
16.0
100
AcDbArc
 50
61.30147164801
 51
63.750000000001
  0
ARC
  5
3D6
100
AcDbEntity
  8
1
  6
CONTINUOUS
 62
           7
100
AcDbCircle
 10
-196.570665755145
 20
-264.338846372149
 40
16.0
100
AcDbArc
 50
63.750000000001
 51
66.198098285114
  0
ARC
  5
3D5
100
AcDbEntity
  8
1
  6
CONTINUOUS
 62
           7
100
AcDbCircle
 10
-196.570665755145
 20
-264.338846372149
 40
16.5
100
AcDbArc
 50
52.5
 51
58.686458278607
  0
ARC
  5
3D4
100
AcDbEntity
  8
1
  6
CONTINUOUS
 62
           7
100
AcDbCircle
 10
-194.999959734359
 20
-264.338846372149
 40
16.5
100
AcDbArc
 50
52.5
 51
58.686458278607
  0
ARC
  5
3D3
100
AcDbEntity
  8
1
  6
CONTINUOUS
 62
           7
100
AcDbCircle
 10
-194.999959734359
 20
-264.338846372149
 40
16.0
100
AcDbArc
 50
62.211629298638
 51
63.75
  0
ARC
  5
3D2
100
AcDbEntity
  8
1
  6
CONTINUOUS
 62
           7
100
AcDbCircle
 10
-194.999959734359
 20
-264.338846372149
 40
16.0
100
AcDbArc
 50
63.75
 51
66.198098285115
  0
ARC
  5
3D1
100
AcDbEntity
  8
1
  6
CONTINUOUS
 62
           7
100
AcDbCircle
 10
-194.999959734359
 20
-264.338846372149
 40
16.5
100
AcDbArc
 50
68.815184754804
 51
75.0
  0
ARC
  5
3D0
100
AcDbEntity
  8
1
  6
CONTINUOUS
 62
           7
100
AcDbCircle
 10
-194.999959734359
 20
-264.338846372149
 40
16.5
100
AcDbArc
 50
75.0
 51
81.186458278606
  0
ARC
  5
3CF
100
AcDbEntity
  8
1
  6
CONTINUOUS
 62
           7
100
AcDbCircle
 10
-196.570665755145
 20
-264.338846372149
 40
16.5
100
AcDbArc
 50
30.0
 51
36.186458278607
  0
ARC
  5
3CE
100
AcDbEntity
  8
1
  6
CONTINUOUS
 62
           7
100
AcDbCircle
 10
-196.570665755145
 20
-264.338846372149
 40
16.0
100
AcDbArc
 50
41.25
 51
43.698098285114
  0
ARC
  5
3CD
100
AcDbEntity
  8
1
  6
CONTINUOUS
 62
           7
100
AcDbCircle
 10
-196.570665755145
 20
-264.338846372149
 40
16.0
100
AcDbArc
 50
38.801471648011
 51
41.25
  0
ARC
  5
3CC
100
AcDbEntity
  8
1
  6
CONTINUOUS
 62
           7
100
AcDbCircle
 10
-196.570665755145
 20
-264.338846372149
 40
16.5
100
AcDbArc
 50
46.315184754805
 51
52.5
  0
ARC
  5
3CB
100
AcDbEntity
  8
1
  6
CONTINUOUS
 62
           7
100
AcDbCircle
 10
-194.999959734359
 20
-264.338846372149
 40
16.0
100
AcDbArc
 50
38.80147164801
 51
41.25
  0
ARC
  5
3CA
100
AcDbEntity
  8
1
  6
CONTINUOUS
 62
           7
100
AcDbCircle
 10
-194.999959734359
 20
-264.338846372149
 40
16.0
100
AcDbArc
 50
41.25
 51
43.698098285114
  0
ARC
  5
3C9
100
AcDbEntity
  8
1
  6
CONTINUOUS
 62
           7
100
AcDbCircle
 10
-196.570665755145
 20
-264.338846372149
 40
16.5
100
AcDbArc
 50
23.815184754804
 51
30.0
  0
ARC
  5
3C8
100
AcDbEntity
  8
1
  6
CONTINUOUS
 62
           7
100
AcDbCircle
 10
-196.570665755145
 20
-264.338846372149
 40
16.5
100
AcDbArc
 50
7.5
 51
13.686458278607
  0
ARC
  5
3C7
100
AcDbEntity
  8
1
  6
CONTINUOUS
 62
           7
100
AcDbCircle
 10
-196.570665755145
 20
-264.338846372149
 40
16.0
100
AcDbArc
 50
-6.198528351989
 51
-3.75
  0
ARC
  5
3C6
100
AcDbEntity
  8
1
  6
CONTINUOUS
 62
           7
100
AcDbCircle
 10
-196.570665755145
 20
-264.338846372149
 40
16.0
100
AcDbArc
 50
-3.75
 51
-1.301901714885
  0
ARC
  5
3C5
100
AcDbEntity
  8
1
  6
CONTINUOUS
 62
           7
100
AcDbCircle
 10
-196.570665755145
 20
-264.338846372149
 40
16.0
100
AcDbArc
 50
18.75
 51
21.198098285115
  0
ARC
  5
3C4
100
AcDbEntity
  8
1
  6
CONTINUOUS
 62
           7
100
AcDbCircle
 10
-196.570665755145
 20
-264.338846372149
 40
16.0
100
AcDbArc
 50
16.301471648011
 51
18.75
  0
ARC
  5
3C3
100
AcDbEntity
  8
1
  6
CONTINUOUS
 62
           7
100
AcDbCircle
 10
-194.999959734359
 20
-264.338846372149
 40
16.5
100
AcDbArc
 50
1.315184754805
 51
7.500000000001
  0
ARC
  5
3C2
100
AcDbEntity
  8
1
  6
CONTINUOUS
 62
           7
100
AcDbCircle
 10
-194.999959734359
 20
-264.338846372149
 40
16.5
100
AcDbArc
 50
7.500000000001
 51
13.686458278606
  0
ARC
  5
3C1
100
AcDbEntity
  8
1
  6
CONTINUOUS
 62
           7
100
AcDbCircle
 10
-194.999959734359
 20
-264.338846372149
 40
16.0
100
AcDbArc
 50
16.301471648011
 51
18.75
  0
ARC
  5
3C0
100
AcDbEntity
  8
1
  6
CONTINUOUS
 62
           7
100
AcDbCircle
 10
-194.999959734359
 20
-264.338846372149
 40
16.0
100
AcDbArc
 50
18.75
 51
21.198098285115
  0
ARC
  5
3BF
100
AcDbEntity
  8
1
  6
CONTINUOUS
 62
           7
100
AcDbCircle
 10
-194.999959734359
 20
-264.338846372149
 40
16.0
100
AcDbArc
 50
-3.75
 51
-1.301901714885
  0
ARC
  5
3BE
100
AcDbEntity
  8
1
  6
CONTINUOUS
 62
           7
100
AcDbCircle
 10
-194.999959734359
 20
-264.338846372149
 40
16.0
100
AcDbArc
 50
-6.198528351989
 51
-3.75
  0
ARC
  5
3BD
100
AcDbEntity
  8
1
  6
CONTINUOUS
 62
           7
100
AcDbCircle
 10
-196.570665755145
 20
-264.338846372149
 40
16.5
100
AcDbArc
 50
1.315184754805
 51
7.5
  0
ARC
  5
3BC
100
AcDbEntity
  8
1
  6
CONTINUOUS
 62
           7
100
AcDbCircle
 10
-194.999959734359
 20
-264.338846372149
 40
17.0
100
AcDbArc
 50
-90.0
 51
117.555323117547
  0
ARC
  5
3BB
100
AcDbEntity
  8
1
  6
CONTINUOUS
 62
           7
100
AcDbCircle
 10
-194.999959734359
 20
-264.338846372149
 40
17.0
100
AcDbArc
 50
-111.090623585117
 51
-90.0
  0
ARC
  5
3BA
100
AcDbEntity
  8
1
  6
CONTINUOUS
 62
           7
100
AcDbCircle
 10
-194.999959734359
 20
-264.338846372149
 40
16.5
100
AcDbArc
 50
-98.705846918651
 51
-94.885722863974
  0
ARC
  5
3B9
100
AcDbEntity
  8
1
  6
CONTINUOUS
 62
           7
100
AcDbCircle
 10
-194.999959734359
 20
-264.338846372149
 40
16.5
100
AcDbArc
 50
-91.1952920319
 51
-90.0
  0
ARC
  5
3B8
100
AcDbEntity
  8
1
  6
CONTINUOUS
 62
           7
100
AcDbCircle
 10
-194.999959734359
 20
-264.338846372149
 40
16.5
100
AcDbArc
 50
-90.0
 51
91.475371564
  0
ARC
  5
3B7
100
AcDbEntity
  8
1
  6
CONTINUOUS
 62
           7
100
AcDbCircle
 10
-194.999959734359
 20
-264.338846372149
 40
16.5
100
AcDbArc
 50
-91.296806500984
 51
-91.1952920319
  0
ARC
  5
3B6
100
AcDbEntity
  8
1
  6
CONTINUOUS
 62
           7
100
AcDbCircle
 10
-194.999959734359
 20
-264.338846372149
 40
17.0
100
AcDbArc
 50
-123.629533878215
 51
-117.216413358703
  0
ARC
  5
3B5
100
AcDbEntity
  8
1
  6
CONTINUOUS
 62
           7
100
AcDbCircle
 10
-222.911892626739
 20
-283.338846372149
 40
0.5
100
AcDbArc
 50
90.0
 51
180.0
  0
ARC
  5
3B4
100
AcDbEntity
  8
1
  6
CONTINUOUS
 62
           7
100
AcDbCircle
 10
-281.791189100951
 20
-234.699734387973
 40
6.688124941443
100
AcDbArc
 50
-60.506050313273
 51
-43.151631884379
  0
ARC
  5
3B3
100
AcDbEntity
  8
1
  6
CONTINUOUS
 62
           7
100
AcDbCircle
 10
-281.791189100951
 20
-234.699734387973
 40
6.688124941443
100
AcDbArc
 50
43.151631884378
 51
-60.506050313273
  0
ARC
  5
3B2
100
AcDbEntity
  8
1
  6
CONTINUOUS
 62
           7
100
AcDbCircle
 10
-277.036892626739
 20
-234.699734387973
 40
6.625
100
AcDbArc
 50
-31.890791801846
 51
31.890791801846
  0
ARC
  5
3B1
100
AcDbEntity
  8
1
  6
CONTINUOUS
 62
           7
100
AcDbCircle
 10
-280.036892626739
 20
-234.699734387973
 40
6.625
100
AcDbArc
 50
-31.890791801846
 51
31.890791801846
  0
ARC
  5
3B0
100
AcDbEntity
  8
1
  6
CONTINUOUS
 62
           7
100
AcDbCircle
 10
-274.036892626739
 20
-234.699734387973
 40
6.625
100
AcDbArc
 50
-31.890791801846
 51
31.890791801846
  0
ARC
  5
3AF
100
AcDbEntity
  8
1
  6
CONTINUOUS
 62
           7
100
AcDbCircle
 10
-271.036892626739
 20
-234.699734387973
 40
6.625
100
AcDbArc
 50
-31.890791801846
 51
31.890791801846
  0
ARC
  5
3AE
100
AcDbEntity
  8
1
  6
CONTINUOUS
 62
           7
100
AcDbCircle
 10
-268.036892626739
 20
-234.699734387973
 40
6.625
100
AcDbArc
 50
-31.890791801846
 51
31.890791801846
  0
ARC
  5
3AD
100
AcDbEntity
  8
1
  6
CONTINUOUS
 62
           7
100
AcDbCircle
 10
-265.036892626739
 20
-234.699734387973
 40
6.625
100
AcDbArc
 50
-31.890791801846
 51
31.890791801846
  0
ARC
  5
3AC
100
AcDbEntity
  8
1
  6
CONTINUOUS
 62
           7
100
AcDbCircle
 10
-244.036892626739
 20
-234.699734387973
 40
6.625
100
AcDbArc
 50
-31.890791801846
 51
31.890791801846
  0
ARC
  5
3AB
100
AcDbEntity
  8
1
  6
CONTINUOUS
 62
           7
100
AcDbCircle
 10
-247.036892626739
 20
-234.699734387973
 40
6.625
100
AcDbArc
 50
-31.890791801846
 51
31.890791801846
  0
ARC
  5
3AA
100
AcDbEntity
  8
1
  6
CONTINUOUS
 62
           7
100
AcDbCircle
 10
-250.036892626739
 20
-234.699734387973
 40
6.625
100
AcDbArc
 50
-31.890791801846
 51
31.890791801846
  0
ARC
  5
3A9
100
AcDbEntity
  8
1
  6
CONTINUOUS
 62
           7
100
AcDbCircle
 10
-253.036892626739
 20
-234.699734387973
 40
6.625
100
AcDbArc
 50
-31.890791801846
 51
31.890791801846
  0
ARC
  5
3A8
100
AcDbEntity
  8
1
  6
CONTINUOUS
 62
           7
100
AcDbCircle
 10
-256.036892626739
 20
-234.699734387973
 40
6.625
100
AcDbArc
 50
-31.890791801846
 51
31.890791801846
  0
ARC
  5
3A7
100
AcDbEntity
  8
1
  6
CONTINUOUS
 62
           7
100
AcDbCircle
 10
-259.036892626739
 20
-234.699734387973
 40
6.625
100
AcDbArc
 50
-31.890791801846
 51
31.890791801846
  0
ARC
  5
3A6
100
AcDbEntity
  8
1
  6
CONTINUOUS
 62
           7
100
AcDbCircle
 10
-262.036892626739
 20
-234.699734387973
 40
6.625
100
AcDbArc
 50
-31.890791801846
 51
31.890791801846
  0
ARC
  5
3A5
100
AcDbEntity
  8
1
  6
CONTINUOUS
 62
           7
100
AcDbCircle
 10
-194.27808540394
 20
-36.129679705482
 40
2.290833333333
100
AcDbArc
 50
20.195008768148
 51
144.679193816696
  0
ARC
  5
3A4
100
AcDbEntity
  8
1
  6
CONTINUOUS
 62
           7
100
AcDbCircle
 10
-318.545699849538
 20
-36.129679705482
 40
2.290833333334
100
AcDbArc
 50
35.320806183299
 51
159.804991231849
  0
ARC
  5
3A3
100
AcDbEntity
  8
1
  6
CONTINUOUS
 62
           7
100
AcDbCircle
 10
2.906261646214
 20
97.339781682404
 40
0.85
100
AcDbArc
 50
111.738460791536
 51
68.261539208478
  0
ARC
  5
3A2
100
AcDbEntity
  8
1
  6
CONTINUOUS
 62
           7
100
AcDbCircle
 10
2.906261646214
 20
97.339781682404
 40
1.75
100
AcDbArc
 50
128.478595133299
 51
51.521404866706
  0
ARC
  5
3A1
100
AcDbEntity
  8
1
  6
CONTINUOUS
 62
           7
100
AcDbCircle
 10
47.406261646214
 20
95.189781682404
 40
1.4
100
AcDbArc
 50
105.25752329046
 51
74.74247670955
  0
ARC
  5
3A0
100
AcDbEntity
  8
1
  6
CONTINUOUS
 62
           7
100
AcDbCircle
 10
47.406261646214
 20
95.189781682404
 40
2.75
100
AcDbArc
 50
0.0
 51
55.303397643736
  0
ARC
  5
39F
100
AcDbEntity
  8
1
  6
CONTINUOUS
 62
           7
100
AcDbCircle
 10
47.406261646214
 20
95.189781682404
 40
2.75
100
AcDbArc
 50
124.696602356268
 51
0.0
  0
ARC
  5
39E
100
AcDbEntity
  8
1
  6
CONTINUOUS
 62
           7
100
AcDbCircle
 10
79.406261646214
 20
105.589781682405
 40
4.898979485566
100
AcDbArc
 50
-125.264389682755
 51
-54.740807953689
  0
ARC
  5
39D
100
AcDbEntity
  8
1
  6
CONTINUOUS
 62
           7
100
AcDbCircle
 10
79.406261646214
 20
105.589781682405
 40
5.5
100
AcDbArc
 50
-133.341758227223
 51
-46.938645317009
  0
ARC
  5
39C
100
AcDbEntity
  8
1
  6
CONTINUOUS
 62
           7
100
AcDbCircle
 10
79.406261646214
 20
105.589781682405
 40
5.5
100
AcDbArc
 50
46.938645317009
 51
133.341758227223
  0
ARC
  5
39B
100
AcDbEntity
  8
1
  6
CONTINUOUS
 62
           7
100
AcDbCircle
 10
79.406261646214
 20
105.589781682405
 40
4.898979485566
100
AcDbArc
 50
54.740807953691
 51
125.264389682752
  0
ARC
  5
39A
100
AcDbEntity
  8
1
  6
CONTINUOUS
 62
           7
100
AcDbCircle
 10
-122.593738353786
 20
105.589781682405
 40
135.0
100
AcDbArc
 50
-28.178406721157
 51
-2.409313568691
  0
ARC
  5
399
100
AcDbEntity
  8
1
  6
CONTINUOUS
 62
           7
100
AcDbCircle
 10
-122.593738353786
 20
105.589781682405
 40
139.0
100
AcDbArc
 50
-27.876919239093
 51
-1.947929704099
  0
ARC
  5
398
100
AcDbEntity
  8
1
  6
CONTINUOUS
 62
           7
100
AcDbCircle
 10
-122.593738353786
 20
105.589781682405
 40
135.0
100
AcDbArc
 50
2.409313568691
 51
28.178406721157
  0
ARC
  5
397
100
AcDbEntity
  8
1
  6
CONTINUOUS
 62
           7
100
AcDbCircle
 10
-2.593738353786
 20
105.589781682405
 40
71.0
100
AcDbArc
 50
-90.807009493071
 51
-6.063683870529
  0
ARC
  5
396
100
AcDbEntity
  8
1
  6
CONTINUOUS
 62
           7
100
AcDbCircle
 10
-2.593738353786
 20
105.589781682405
 40
71.0
100
AcDbArc
 50
6.063683870529
 51
90.807009493071
  0
ARC
  5
395
100
AcDbEntity
  8
1
  6
CONTINUOUS
 62
           7
100
AcDbCircle
 10
-122.593738353786
 20
105.589781682405
 40
139.0
100
AcDbArc
 50
1.947929704099
 51
27.876919239093
  0
ARC
  5
394
100
AcDbEntity
  8
1
  6
CONTINUOUS
 62
           7
100
AcDbCircle
 10
99.406261646214
 20
105.589781682405
 40
10.0
100
AcDbArc
 50
-120.558431785934
 51
-85.588274214229
  0
ARC
  5
393
100
AcDbEntity
  8
1
  6
CONTINUOUS
 62
           7
100
AcDbCircle
 10
-2.593738353786
 20
105.589781682405
 40
15.7
100
AcDbArc
 50
180.0
 51
-21.436544129307
  0
ARC
  5
392
100
AcDbEntity
  8
1
  6
CONTINUOUS
 62
           7
100
AcDbCircle
 10
99.406261646214
 20
105.589781682405
 40
10.0
100
AcDbArc
 50
85.58827421423
 51
120.558431785934
  0
ARC
  5
391
100
AcDbEntity
  8
1
  6
CONTINUOUS
 62
           7
100
AcDbCircle
 10
-2.593738353786
 20
105.589781682405
 40
15.7
100
AcDbArc
 50
21.436544129307
 51
180.0
  0
ARC
  5
390
100
AcDbEntity
  8
1
  6
CONTINUOUS
 62
           7
100
AcDbCircle
 10
-2.593738353786
 20
105.589781682405
 40
69.0
100
AcDbArc
 50
90.830402687479
 51
119.7973908688
  0
ARC
  5
38F
100
AcDbEntity
  8
1
  6
CONTINUOUS
 62
           7
100
AcDbCircle
 10
-263.411892626739
 20
-140.338846372149
 40
60.0
100
AcDbArc
 50
180.0
 51
-140.732288989743
  0
ARC
  5
38E
100
AcDbEntity
  8
1
  6
CONTINUOUS
 62
           7
100
AcDbCircle
 10
-256.411892626739
 20
-110.338846372149
 40
25.0
100
AcDbArc
 50
-168.16635600849
 51
-90.0
  0
ARC
  5
38D
100
AcDbEntity
  8
1
  6
CONTINUOUS
 62
           7
100
AcDbCircle
 10
-256.411892626739
 20
-110.338846372149
 40
25.0
100
AcDbArc
 50
-90.0
 51
-11.83364399151
  0
ARC
  5
38C
100
AcDbEntity
  8
1
  6
CONTINUOUS
 62
           7
100
AcDbCircle
 10
-249.411892626739
 20
-140.338846372149
 40
60.0
100
AcDbArc
 50
-39.267711010257
 51
0.0
  0
ARC
  5
38B
100
AcDbEntity
  8
1
  6
CONTINUOUS
 62
           7
100
AcDbCircle
 10
-2.593738353786
 20
105.589781682405
 40
69.0
100
AcDbArc
 50
-119.7973908688
 51
-90.830402687479
  0
ARC
  5
38A
100
AcDbEntity
  8
1
  6
CONTINUOUS
 62
           7
100
AcDbCircle
 10
-2.593738353786
 20
105.589781682405
 40
65.0
100
AcDbArc
 50
90.881508306806
 51
-90.881508306806
  0
ARC
  5
389
100
AcDbEntity
  8
1
  6
CONTINUOUS
 62
           7
100
AcDbCircle
 10
-2.593738353786
 20
105.589781682405
 40
15.270304137247
100
AcDbArc
 50
180.0
 51
-22.494198386904
  0
ARC
  5
388
100
AcDbEntity
  8
1
  6
CONTINUOUS
 62
           7
100
AcDbCircle
 10
-2.593738353786
 20
105.589781682405
 40
15.270304137247
100
AcDbArc
 50
22.494198386904
 51
180.0
  0
ARC
  5
387
100
AcDbEntity
  8
1
  6
CONTINUOUS
 62
           7
100
AcDbCircle
 10
81.374449094544
 20
85.735786490926
 40
3.750328947368
100
AcDbArc
 50
-90.758873402837
 51
90.758873402837
  0
ARC
  5
386
100
AcDbEntity
  8
1
  6
CONTINUOUS
 62
           7
100
AcDbCircle
 10
67.406261646214
 20
105.589781682405
 40
4.3
100
AcDbArc
 50
68.471095594425
 51
111.528904405576
  0
ARC
  5
385
100
AcDbEntity
  8
1
  6
CONTINUOUS
 62
           7
100
AcDbCircle
 10
67.406261646214
 20
105.589781682405
 40
4.3
100
AcDbArc
 50
-111.528904405578
 51
-68.471095594422
  0
ARC
  5
384
100
AcDbEntity
  8
1
  6
CONTINUOUS
 62
           7
100
AcDbCircle
 10
79.406261646214
 20
-42.338846372149
 40
7.0
100
AcDbArc
 50
45.58469140281
 51
134.415308597194
  0
ARC
  5
383
100
AcDbEntity
  8
1
  6
CONTINUOUS
 62
           7
100
AcDbCircle
 10
102.406261646213
 20
-34.266563510051
 40
8.0
100
AcDbArc
 50
37.462651072543
 51
81.010700654834
  0
ARC
  5
382
100
AcDbEntity
  8
1
  6
CONTINUOUS
 62
           7
100
AcDbCircle
 10
102.406261646213
 20
-34.266563510051
 40
8.0
100
AcDbArc
 50
98.989299345163
 51
142.537348927453
  0
ARC
  5
381
100
AcDbEntity
  8
1
  6
CONTINUOUS
 62
           7
100
AcDbCircle
 10
4.406261646214
 20
-140.338846372149
 40
60.0
100
AcDbArc
 50
-4.371846339193
 51
0.0
  0
ARC
  5
380
100
AcDbEntity
  8
1
  6
CONTINUOUS
 62
           7
100
AcDbCircle
 10
-9.593738353786
 20
-140.338846372149
 40
60.0
100
AcDbArc
 50
-149.098920312287
 51
-142.915687017696
  0
ARC
  5
37F
100
AcDbEntity
  8
1
  6
CONTINUOUS
 62
           7
100
AcDbCircle
 10
4.406261646214
 20
-140.338846372149
 40
60.0
100
AcDbArc
 50
-24.790361481285
 51
-4.371846339193
  0
ARC
  5
37E
100
AcDbEntity
  8
1
  6
CONTINUOUS
 62
           7
100
AcDbCircle
 10
30.406261646214
 20
-98.838846372149
 40
84.5
100
AcDbArc
 50
-61.045909519874
 51
-42.843643043596
  0
ARC
  5
37D
100
AcDbEntity
  8
1
  6
CONTINUOUS
 62
           7
100
AcDbCircle
 10
30.406261646214
 20
-98.838846372149
 40
79.5
100
AcDbArc
 50
-60.110512033419
 51
-44.497035512942
  0
ARC
  5
37C
100
AcDbEntity
  8
1
  6
CONTINUOUS
 62
           7
100
AcDbCircle
 10
30.406261646214
 20
-98.838846372149
 40
79.5
100
AcDbArc
 50
-64.836950119035
 51
-60.110512033419
  0
ARC
  5
37B
100
AcDbEntity
  8
1
  6
CONTINUOUS
 62
           7
100
AcDbCircle
 10
30.406261646214
 20
-98.838846372149
 40
84.5
100
AcDbArc
 50
-72.466957197563
 51
-61.045909519874
  0
ARC
  5
37A
100
AcDbEntity
  8
1
  6
CONTINUOUS
 62
           7
100
AcDbCircle
 10
-9.593738353786
 20
-140.338846372149
 40
60.0
100
AcDbArc
 50
180.0
 51
-149.098920312287
  0
ARC
  5
379
100
AcDbEntity
  8
1
  6
CONTINUOUS
 62
           7
100
AcDbCircle
 10
22.906261646214
 20
-29.338846372149
 40
6.0
100
AcDbArc
 50
-90.0
 51
-36.869897645842
  0
ARC
  5
378
100
AcDbEntity
  8
1
  6
CONTINUOUS
 62
           7
100
AcDbCircle
 10
33.406261646214
 20
-30.338846372149
 40
3.0
100
AcDbArc
 50
90.0
 51
143.130102354163
  0
ARC
  5
377
100
AcDbEntity
  8
1
  6
CONTINUOUS
 62
           7
100
AcDbCircle
 10
-2.048084103251
 20
-264.838846372149
 40
14.2
100
AcDbArc
 50
-90.000000000001
 51
-27.71774768961
  0
ARC
  5
376
100
AcDbEntity
  8
1
  6
CONTINUOUS
 62
           7
100
AcDbCircle
 10
-57.263069624196
 20
-256.97763043998
 40
4.344898672319
100
AcDbArc
 50
145.615752531955
 51
-179.999999999994
  0
ARC
  5
375
100
AcDbEntity
  8
1
  6
CONTINUOUS
 62
           7
100
AcDbCircle
 10
-62.952866968836
 20
-256.97763043998
 40
4.344898672319
100
AcDbArc
 50
-0.000000000001
 51
34.384247468035
  0
ARC
  5
374
100
AcDbEntity
  8
1
  6
CONTINUOUS
 62
           7
100
AcDbCircle
 10
-57.263069624196
 20
-256.97763043998
 40
4.344898672319
100
AcDbArc
 50
-179.999999999994
 51
-145.615752531964
  0
ARC
  5
373
100
AcDbEntity
  8
1
  6
CONTINUOUS
 62
           7
100
AcDbCircle
 10
-74.848778917961
 20
-264.338846372147
 40
16.240810621445
100
AcDbArc
 50
-0.000000000004
 51
17.587953773992
  0
ARC
  5
372
100
AcDbEntity
  8
1
  6
CONTINUOUS
 62
           7
100
AcDbCircle
 10
-45.367157675071
 20
-264.338846372149
 40
16.240810621446
100
AcDbArc
 50
162.412046226001
 51
179.999999999997
  0
ARC
  5
371
100
AcDbEntity
  8
1
  6
CONTINUOUS
 62
           7
100
AcDbCircle
 10
-62.952866968836
 20
-256.97763043998
 40
4.344898672319
100
AcDbArc
 50
-34.384247468046
 51
-0.000000000001
  0
ARC
  5
370
100
AcDbEntity
  8
1
  6
CONTINUOUS
 62
           7
100
AcDbCircle
 10
-62.952866968836
 20
-271.700062304315
 40
4.344898672319
100
AcDbArc
 50
-0.000000000004
 51
34.384247468032
  0
ARC
  5
36F
100
AcDbEntity
  8
1
  6
CONTINUOUS
 62
           7
100
AcDbCircle
 10
-45.367157675071
 20
-264.338846372149
 40
16.240810621445
100
AcDbArc
 50
179.999999999997
 51
-162.41204622601
  0
ARC
  5
36E
100
AcDbEntity
  8
1
  6
CONTINUOUS
 62
           7
100
AcDbCircle
 10
-74.848778917961
 20
-264.338846372147
 40
16.240810621445
100
AcDbArc
 50
-17.587953773999
 51
-0.000000000004
  0
ARC
  5
36D
100
AcDbEntity
  8
1
  6
CONTINUOUS
 62
           7
100
AcDbCircle
 10
-57.263069624198
 20
-271.700062304316
 40
4.344898672319
100
AcDbArc
 50
145.615752531947
 51
179.999999999994
  0
ARC
  5
36C
100
AcDbEntity
  8
1
  6
CONTINUOUS
 62
           7
100
AcDbCircle
 10
-62.952866968836
 20
-271.700062304315
 40
4.344898672319
100
AcDbArc
 50
-34.38424746805
 51
-0.000000000004
  0
ARC
  5
36B
100
AcDbEntity
  8
1
  6
CONTINUOUS
 62
           7
100
AcDbCircle
 10
-57.263069624198
 20
-271.700062304316
 40
4.34489867232
100
AcDbArc
 50
179.999999999994
 51
-145.615752531962
  0
ARC
  5
36A
100
AcDbEntity
  8
1
  6
CONTINUOUS
 62
           7
100
AcDbCircle
 10
39.138223694989
 20
-264.338846372148
 40
16.240810621445
100
AcDbArc
 50
162.412046226007
 51
-179.999999999999
  0
ARC
  5
369
100
AcDbEntity
  8
1
  6
CONTINUOUS
 62
           7
100
AcDbCircle
 10
27.280824229171
 20
-256.965714636177
 40
4.383427351474
100
AcDbArc
 50
155.979322918974
 51
-145.771504196937
  0
ARC
  5
368
100
AcDbEntity
  8
1
  6
CONTINUOUS
 62
           7
100
AcDbCircle
 10
39.138223694989
 20
-264.338846372148
 40
16.240810621445
100
AcDbArc
 50
-179.999999999999
 51
-162.412046226006
  0
ARC
  5
367
100
AcDbEntity
  8
1
  6
CONTINUOUS
 62
           7
100
AcDbCircle
 10
27.280824229171
 20
-271.71197810812
 40
4.383427351474
100
AcDbArc
 50
145.771504196937
 51
-155.979322918972
  0
ARC
  5
366
100
AcDbEntity
  8
1
  6
CONTINUOUS
 62
           7
100
AcDbCircle
 10
105.906261646214
 20
105.589781682405
 40
11.5
100
AcDbArc
 50
0.0
 51
124.987505128709
  0
ARC
  5
365
100
AcDbEntity
  8
1
  6
CONTINUOUS
 62
           7
100
AcDbCircle
 10
105.906261646214
 20
105.589781682405
 40
11.5
100
AcDbArc
 50
-124.987505128708
 51
0.0
  0
ARC
  5
364
100
AcDbEntity
  8
1
  6
CONTINUOUS
 62
           7
100
AcDbCircle
 10
-1.366016096477
 20
105.589781676975
 40
8.070883511612
100
AcDbArc
 50
55.859741850321
 51
179.999999960671
  0
ARC
  5
363
100
AcDbEntity
  8
1
  6
CONTINUOUS
 62
           7
100
AcDbCircle
 10
-1.366016096477
 20
105.589781676975
 40
8.070883511612
100
AcDbArc
 50
-50.144287616762
 51
-48.022971018314
  0
ARC
  5
362
100
AcDbEntity
  8
1
  6
CONTINUOUS
 62
           7
100
AcDbCircle
 10
-1.366016096477
 20
105.589781676975
 40
13.182728381812
100
AcDbArc
 50
180.0
 51
-26.974962565123
  0
ARC
  5
361
100
AcDbEntity
  8
1
  6
CONTINUOUS
 62
           7
100
AcDbCircle
 10
-1.366016096477
 20
105.589781676975
 40
13.182728381812
100
AcDbArc
 50
26.974962619854
 51
180.0
  0
ARC
  5
360
100
AcDbEntity
  8
1
  6
CONTINUOUS
 62
           7
100
AcDbCircle
 10
-1.366016096477
 20
105.589781676975
 40
3.507695406932
100
AcDbArc
 50
90.527024936322
 51
-77.281175386866
  0
ARC
  5
35F
100
AcDbEntity
  8
1
  6
CONTINUOUS
 62
           7
100
AcDbCircle
 10
-1.366016096477
 20
105.589781676975
 40
3.507695406932
100
AcDbArc
 50
77.281175386866
 51
90.527024936322
  0
ARC
  5
35E
100
AcDbEntity
  8
1
  6
CONTINUOUS
 62
           7
100
AcDbCircle
 10
-1.366016096477
 20
105.589781676975
 40
2.000000065726
100
AcDbArc
 50
90.014069263397
 51
-90.015283617209
  0
ARC
  5
35D
100
AcDbEntity
  8
1
  6
CONTINUOUS
 62
           7
100
AcDbCircle
 10
-1.366016096477
 20
105.589781676975
 40
8.070883511612
100
AcDbArc
 50
48.022971133565
 51
48.556445465251
  0
ARC
  5
35C
100
AcDbEntity
  8
1
  6
CONTINUOUS
 62
           7
100
AcDbCircle
 10
-1.366016096477
 20
105.589781676975
 40
8.070883511612
100
AcDbArc
 50
179.999999960671
 51
-70.93328483803
  0
ARC
  5
35B
100
AcDbEntity
  8
1
  6
CONTINUOUS
 62
           7
100
AcDbCircle
 10
-1.366016096477
 20
105.589781676975
 40
8.070883511612
100
AcDbArc
 50
-9.989228969277
 51
9.989229047547
  0
ARC
  5
35A
100
AcDbEntity
  8
1
  6
CONTINUOUS
 62
           7
100
AcDbCircle
 10
66.500488787445
 20
-520.971180355595
 40
495.999999999999
100
AcDbArc
 50
84.399459744538
 51
91.338357106515
  0
ARC
  5
359
100
AcDbEntity
  8
1
  6
CONTINUOUS
 62
           7
100
AcDbCircle
 10
47.406261646214
 20
-34.338846372149
 40
20.0
100
AcDbArc
 50
74.48950547168
 51
101.54283622789
  0
ARC
  5
358
100
AcDbEntity
  8
1
  6
CONTINUOUS
 62
           7
100
AcDbCircle
 10
32.078354676452
 20
-476.853464208592
 40
462.0
100
AcDbArc
 50
88.8679836641
 51
92.626615962575
  0
ARC
  5
357
100
AcDbEntity
  8
1
  6
CONTINUOUS
 62
           7
100
AcDbCircle
 10
32.078354676452
 20
-476.853464208592
 40
461.999999999999
100
AcDbArc
 50
79.672106389602
 51
87.164358035469
  0
ARC
  5
356
100
AcDbEntity
  8
1
  6
CONTINUOUS
 62
           7
100
AcDbCircle
 10
114.906261646214
 20
-24.838846372149
 40
2.5
100
AcDbArc
 50
-90.0
 51
90.0
  0
ARC
  5
355
100
AcDbEntity
  8
1
  6
CONTINUOUS
 62
           7
100
AcDbCircle
 10
-44.073910894338
 20
-279.690261176981
 40
0.34655740218
100
AcDbArc
 50
95.639758474804
 51
-95.639758474804
  0
ARC
  5
354
100
AcDbEntity
  8
1
  6
CONTINUOUS
 62
           7
100
AcDbCircle
 10
-43.474530418003
 20
-276.528303509268
 40
0.945937878514
100
AcDbArc
 50
132.039288971469
 51
-132.039288971494
  0
ARC
  5
353
100
AcDbEntity
  8
1
  6
CONTINUOUS
 62
           7
100
AcDbCircle
 10
-42.810367512051
 20
-271.510611490133
 40
1.610100784466
100
AcDbArc
 50
143.698498808667
 51
-143.698498808677
  0
ARC
  5
352
100
AcDbEntity
  8
1
  6
CONTINUOUS
 62
           7
100
AcDbCircle
 10
-42.464675997408
 20
-265.399371683937
 40
1.955792299108
100
AcDbArc
 50
147.163168933355
 51
-147.163168933374
  0
ARC
  5
351
100
AcDbEntity
  8
1
  6
CONTINUOUS
 62
           7
100
AcDbCircle
 10
-43.917512274149
 20
-249.800432471524
 40
0.502956022366
100
AcDbArc
 50
112.251528684888
 51
-112.251528684862
  0
ARC
  5
350
100
AcDbEntity
  8
1
  6
CONTINUOUS
 62
           7
100
AcDbCircle
 10
-43.253349368198
 20
-253.65161902565
 40
1.167118928319
100
AcDbArc
 50
137.075071000265
 51
-137.075071000276
  0
ARC
  5
34F
100
AcDbEntity
  8
1
  6
CONTINUOUS
 62
           7
100
AcDbCircle
 10
-42.653968891864
 20
-259.129839063324
 40
1.766499404653
100
AcDbArc
 50
145.39597330064
 51
-145.39597330065
  0
ARC
  5
34E
100
AcDbEntity
  8
1
  6
CONTINUOUS
 62
           7
100
AcDbCircle
 10
20.353051887025
 20
-256.977630439981
 40
2.946790240811
100
AcDbArc
 50
123.624781115711
 51
-123.624781115728
  0
ARC
  5
34D
100
AcDbEntity
  8
1
  6
CONTINUOUS
 62
           7
100
AcDbCircle
 10
17.959471405402
 20
-256.97763043998
 40
2.946790240811
100
AcDbArc
 50
-56.375218884277
 51
56.375218884272
  0
ARC
  5
34C
100
AcDbEntity
  8
1
  6
CONTINUOUS
 62
           7
100
AcDbCircle
 10
27.220922609458
 20
-264.338846372149
 40
9.814660963244
100
AcDbArc
 50
149.9990103899
 51
179.999999999998
  0
ARC
  5
34B
100
AcDbEntity
  8
1
  6
CONTINUOUS
 62
           7
100
AcDbCircle
 10
11.091600682969
 20
-264.338846372149
 40
9.814660963245
100
AcDbArc
 50
0.000000000001
 51
30.0009896101
  0
ARC
  5
34A
100
AcDbEntity
  8
1
  6
CONTINUOUS
 62
           7
100
AcDbCircle
 10
20.353051887025
 20
-271.700062304316
 40
2.946790240811
100
AcDbArc
 50
123.624781115719
 51
-123.624781115725
  0
ARC
  5
349
100
AcDbEntity
  8
1
  6
CONTINUOUS
 62
           7
100
AcDbCircle
 10
17.959471405403
 20
-271.700062304316
 40
2.946790240811
100
AcDbArc
 50
-56.375218884272
 51
56.375218884278
  0
ARC
  5
348
100
AcDbEntity
  8
1
  6
CONTINUOUS
 62
           7
100
AcDbCircle
 10
27.220922609458
 20
-264.338846372149
 40
9.814660963244
100
AcDbArc
 50
179.999999999998
 51
-149.999010389902
  0
ARC
  5
347
100
AcDbEntity
  8
1
  6
CONTINUOUS
 62
           7
100
AcDbCircle
 10
11.091600682969
 20
-264.338846372149
 40
9.814660963244
100
AcDbArc
 50
-30.000989610097
 51
0.000000000001
  0
ARC
  5
346
100
AcDbEntity
  8
1
  6
CONTINUOUS
 62
           7
100
AcDbCircle
 10
38.97942098016
 20
40.952601533727
 40
16.240810621436
100
AcDbArc
 50
-174.142740548973
 51
-167.412046226001
  0
ARC
  5
345
100
AcDbEntity
  8
1
  6
CONTINUOUS
 62
           7
100
AcDbCircle
 10
26.524531726353
 20
34.640967247518
 40
4.383427351485
100
AcDbArc
 50
140.771504197031
 51
-160.979322919049
  0
ARC
  5
344
100
AcDbEntity
  8
1
  6
CONTINUOUS
 62
           7
100
AcDbCircle
 10
44.897713657658
 20
19.919532883642
 40
2.062789341862
100
AcDbArc
 50
-129.228495803082
 51
-70.979322918774
  0
ARC
  5
343
100
AcDbEntity
  8
1
  6
CONTINUOUS
 62
           7
100
AcDbCircle
 10
41.927532817094
 20
25.780657238396
 40
7.642734410096
100
AcDbArc
 50
-112.587953773988
 51
-77.412046226012
  0
ARC
  5
342
100
AcDbEntity
  8
1
  6
CONTINUOUS
 62
           7
100
AcDbCircle
 10
37.984702134175
 20
20.524343022771
 40
2.062789341863
100
AcDbArc
 50
-119.020677081202
 51
-60.771504196897
  0
ARC
  5
341
100
AcDbEntity
  8
1
  6
CONTINUOUS
 62
           7
100
AcDbCircle
 10
42.201440168864
 20
28.91143259524
 40
7.642734410099
100
AcDbArc
 50
-112.58795377398
 51
-77.41204622602
  0
ARC
  5
340
100
AcDbEntity
  8
1
  6
CONTINUOUS
 62
           7
100
AcDbCircle
 10
38.258609485945
 20
23.655118379612
 40
2.06278934186
100
AcDbArc
 50
-119.020677081244
 51
-60.771504196897
  0
ARC
  5
33F
100
AcDbEntity
  8
1
  6
CONTINUOUS
 62
           7
100
AcDbCircle
 10
45.171621009428
 20
23.050308240483
 40
2.062789341862
100
AcDbArc
 50
-129.228495803082
 51
-70.979322918733
  0
ARC
  5
33E
100
AcDbEntity
  8
0
  6
CONTINUOUS
 62
           7
100
AcDbCircle
 10
59.89660118924
 20
23.808380725179
 40
5.822282406355
100
AcDbArc
 50
-92.167772869262
 51
-60.794289915328
  0
ARC
  5
33D
100
AcDbEntity
  8
0
  6
CONTINUOUS
 62
           7
100
AcDbCircle
 10
58.569085689238
 20
28.125294825326
 40
8.999956844794
100
AcDbArc
 50
-140.000663272735
 51
-95.000663269543
  0
ARC
  5
33C
100
AcDbEntity
  8
0
  6
CONTINUOUS
 62
           7
100
AcDbCircle
 10
57.160278261406
 20
28.248544690943
 40
9.99995204977
100
AcDbArc
 50
-140.00066327272
 51
-95.000663269535
  0
ARC
  5
33B
100
AcDbEntity
  8
0
  6
CONTINUOUS
 62
           7
100
AcDbCircle
 10
67.001350204315
 20
32.077695119068
 40
20.00000745808
100
AcDbArc
 50
-145.705866888642
 51
-105.000413531838
  0
ARC
  5
33A
100
AcDbEntity
  8
0
  6
CONTINUOUS
 62
           7
100
AcDbCircle
 10
51.457608810035
 20
25.710463367428
 40
1.999955055238
100
AcDbArc
 50
175.003108354646
 51
-139.994865772708
  0
ARC
  5
339
100
AcDbEntity
  8
0
  6
CONTINUOUS
 62
           7
100
AcDbCircle
 10
46.962011419554
 20
20.177833054062
 40
2.999985614931
100
AcDbArc
 50
39.999336727232
 51
84.999336730433
  0
ARC
  5
338
100
AcDbEntity
  8
0
  6
CONTINUOUS
 62
           7
100
AcDbCircle
 10
39.256364828822
 20
35.407362980047
 40
0.5
100
AcDbArc
 50
-5.0
 51
84.999999999997
  0
ARC
  5
337
100
AcDbEntity
  8
0
  6
CONTINUOUS
 62
           7
100
AcDbCircle
 10
38.26017013073
 20
35.494518722795
 40
0.5
100
AcDbArc
 50
85.000000000003
 51
175.0
  0
ARC
  5
336
100
AcDbEntity
  8
0
  6
CONTINUOUS
 62
           7
100
AcDbCircle
 10
35.875579892182
 20
31.185954066877
 40
1.0
100
AcDbArc
 50
84.999999999999
 51
174.999999999999
  0
ARC
  5
335
100
AcDbEntity
  8
0
  6
CONTINUOUS
 62
           7
100
AcDbCircle
 10
36.373677241228
 20
31.142376195504
 40
1.0
100
AcDbArc
 50
-5.0
 51
84.999999999998
  0
ARC
  5
334
100
AcDbEntity
  8
0
  6
CONTINUOUS
 62
           7
100
AcDbCircle
 10
42.951701678767
 20
26.013546845726
 40
6.82988257586
100
AcDbArc
 50
45.633445142552
 51
120.849743221985
  0
ARC
  5
333
100
AcDbEntity
  8
0
  6
CONTINUOUS
 62
           7
100
AcDbCircle
 10
48.328013618329
 20
30.096507282532
 40
1.0
100
AcDbArc
 50
85.0
 51
175.0
  0
ARC
  5
332
100
AcDbEntity
  8
1
  6
CONTINUOUS
 62
           7
100
AcDbCircle
 10
-8.218738353786
 20
-234.699734387973
 40
6.625
100
AcDbArc
 50
-31.890791801846
 51
31.890791801846
  0
ARC
  5
331
100
AcDbEntity
  8
1
  6
CONTINUOUS
 62
           7
100
AcDbCircle
 10
-5.218738353786
 20
-234.699734387973
 40
6.625
100
AcDbArc
 50
-31.890791801846
 51
31.890791801846
  0
ARC
  5
330
100
AcDbEntity
  8
1
  6
CONTINUOUS
 62
           7
100
AcDbCircle
 10
-2.218738353786
 20
-234.699734387973
 40
6.625
100
AcDbArc
 50
-31.890791801846
 51
31.890791801846
  0
ARC
  5
32F
100
AcDbEntity
  8
1
  6
CONTINUOUS
 62
           7
100
AcDbCircle
 10
0.781261646214
 20
-234.699734387973
 40
6.625
100
AcDbArc
 50
-31.890791801846
 51
31.890791801846
  0
ARC
  5
32E
100
AcDbEntity
  8
1
  6
CONTINUOUS
 62
           7
100
AcDbCircle
 10
3.781261646214
 20
-234.699734387973
 40
6.625
100
AcDbArc
 50
-31.890791801846
 51
31.890791801846
  0
ARC
  5
32D
100
AcDbEntity
  8
1
  6
CONTINUOUS
 62
           7
100
AcDbCircle
 10
6.781261646214
 20
-234.699734387973
 40
6.625
100
AcDbArc
 50
-31.890791801846
 51
31.890791801846
  0
ARC
  5
32C
100
AcDbEntity
  8
1
  6
CONTINUOUS
 62
           7
100
AcDbCircle
 10
9.781261646214
 20
-234.699734387973
 40
6.625
100
AcDbArc
 50
-31.890791801846
 51
31.890791801846
  0
ARC
  5
32B
100
AcDbEntity
  8
1
  6
CONTINUOUS
 62
           7
100
AcDbCircle
 10
-11.218738353786
 20
-234.699734387973
 40
6.625
100
AcDbArc
 50
-31.890791801846
 51
31.890791801846
  0
ARC
  5
32A
100
AcDbEntity
  8
1
  6
CONTINUOUS
 62
           7
100
AcDbCircle
 10
-14.218738353786
 20
-234.699734387973
 40
6.625
100
AcDbArc
 50
-31.890791801846
 51
31.890791801846
  0
ARC
  5
329
100
AcDbEntity
  8
1
  6
CONTINUOUS
 62
           7
100
AcDbCircle
 10
-17.218738353786
 20
-234.699734387973
 40
6.625
100
AcDbArc
 50
-31.890791801846
 51
31.890791801846
  0
ARC
  5
328
100
AcDbEntity
  8
1
  6
CONTINUOUS
 62
           7
100
AcDbCircle
 10
-20.218738353786
 20
-234.699734387973
 40
6.625
100
AcDbArc
 50
-31.890791801846
 51
31.890791801846
  0
ARC
  5
327
100
AcDbEntity
  8
1
  6
CONTINUOUS
 62
           7
100
AcDbCircle
 10
-26.218738353786
 20
-234.699734387973
 40
6.625
100
AcDbArc
 50
-31.890791801846
 51
31.890791801846
  0
ARC
  5
326
100
AcDbEntity
  8
1
  6
CONTINUOUS
 62
           7
100
AcDbCircle
 10
-23.218738353786
 20
-234.699734387973
 40
6.625
100
AcDbArc
 50
-31.890791801846
 51
31.890791801846
  0
ARC
  5
325
100
AcDbEntity
  8
1
  6
CONTINUOUS
 62
           7
100
AcDbCircle
 10
-2.048084103251
 20
-263.838846372148
 40
14.2
100
AcDbArc
 50
27.71774768961
 51
90.000000000001
  0
LINE
  5
324
100
AcDbEntity
  8
1
  6
CONTINUOUS
 62
           7
100
AcDbLine
 10
49.906261646215
 20
-269.838846372149
 11
49.906261646215
 21
-274.338846372149
  0
LINE
  5
323
100
AcDbEntity
  8
1
  6
CONTINUOUS
 62
           7
100
AcDbLine
 10
51.906261646214
 20
-269.838846372149
 11
51.906261646214
 21
-274.338846372149
  0
LINE
  5
322
100
AcDbEntity
  8
1
  6
CONTINUOUS
 62
           7
100
AcDbLine
 10
61.949041292825
 20
-269.801070941903
 11
61.949041292825
 21
-270.061346372149
  0
LINE
  5
321
100
AcDbEntity
  8
1
  6
CONTINUOUS
 62
           7
100
AcDbLine
 10
61.093041292826
 20
-258.838846372149
 11
61.093041292826
 21
-257.760346372148
  0
LINE
  5
320
100
AcDbEntity
  8
1
  6
CONTINUOUS
 62
           7
100
AcDbLine
 10
61.949041292825
 20
-258.616346372149
 11
61.949041292825
 21
-258.87662180239
  0
LINE
  5
31F
100
AcDbEntity
  8
1
  6
CONTINUOUS
 62
           7
100
AcDbLine
 10
61.093041292825
 20
-270.917346372148
 11
61.093041292825
 21
-269.838846372149
  0
LINE
  5
31E
100
AcDbEntity
  8
0
  6
CONTINUOUS
 62
           7
100
AcDbLine
 10
61.400611646213
 20
-258.838846372149
 11
45.073183891421
 21
-258.838846372149
  0
LINE
  5
31D
100
AcDbEntity
  8
0
  6
CONTINUOUS
 62
           7
100
AcDbLine
 10
61.400611646213
 20
-269.838846372149
 11
45.073183891421
 21
-269.838846372149
  0
LINE
  5
31C
100
AcDbEntity
  8
0
  6
CONTINUOUS
 62
           7
100
AcDbLine
 10
48.125111646213
 20
-264.338846372149
 11
45.815611646214
 21
-260.338846372149
  0
LINE
  5
31B
100
AcDbEntity
  8
0
  6
CONTINUOUS
 62
           7
100
AcDbLine
 10
45.815611646214
 20
-260.338846372149
 11
41.196811646214
 21
-260.338846372149
  0
LINE
  5
31A
100
AcDbEntity
  8
0
  6
CONTINUOUS
 62
           7
100
AcDbLine
 10
41.196811646214
 20
-260.338846372149
 11
38.887411646215
 21
-264.338846372149
  0
LINE
  5
319
100
AcDbEntity
  8
0
  6
CONTINUOUS
 62
           7
100
AcDbLine
 10
38.887411646215
 20
-264.338846372149
 11
41.196811646214
 21
-268.338846372149
  0
LINE
  5
318
100
AcDbEntity
  8
0
  6
CONTINUOUS
 62
           7
100
AcDbLine
 10
41.196811646214
 20
-268.338846372149
 11
45.815611646214
 21
-268.338846372149
  0
LINE
  5
317
100
AcDbEntity
  8
0
  6
CONTINUOUS
 62
           7
100
AcDbLine
 10
45.815611646214
 20
-268.338846372149
 11
48.125111646213
 21
-264.338846372149
  0
LINE
  5
316
100
AcDbEntity
  8
0
  6
CONTINUOUS
 62
           7
100
AcDbLine
 10
56.561211646213
 20
-266.338846372149
 11
81.506211646214
 21
-266.338846372149
  0
LINE
  5
315
100
AcDbEntity
  8
0
  6
CONTINUOUS
 62
           7
100
AcDbLine
 10
56.520411646214
 20
-262.338846372149
 11
81.506211646214
 21
-262.338846372149
  0
LINE
  5
314
100
AcDbEntity
  8
1
  6
CONTINUOUS
 62
           2
100
AcDbLine
 10
57.657990878045
 20
-270.061346372148
 11
61.949041292825
 21
-270.061346372149
  0
LINE
  5
313
100
AcDbEntity
  8
1
  6
CONTINUOUS
 62
           7
100
AcDbLine
 10
61.093041292825
 20
-270.917346372148
 11
57.657990878045
 21
-270.917346372148
  0
LINE
  5
312
100
AcDbEntity
  8
1
  6
CONTINUOUS
 62
           7
100
AcDbLine
 10
61.949041292825
 20
-270.061346372149
 11
61.093041292825
 21
-270.917346372148
  0
LINE
  5
311
100
AcDbEntity
  8
1
  6
CONTINUOUS
 62
           7
100
AcDbLine
 10
54.906261646214
 20
-270.917346372148
 11
57.746364157624
 21
-270.917346372149
  0
LINE
  5
310
100
AcDbEntity
  8
1
  6
CONTINUOUS
 62
           7
100
AcDbLine
 10
54.906261646214
 20
-270.061346372148
 11
51.906261646214
 21
-270.061346372148
  0
LINE
  5
30F
100
AcDbEntity
  8
1
  6
CONTINUOUS
 62
           7
100
AcDbLine
 10
54.906261646214
 20
-269.838846372149
 11
54.906261646214
 21
-270.917346372148
  0
LINE
  5
30E
100
AcDbEntity
  8
1
  6
CONTINUOUS
 62
           2
100
AcDbLine
 10
57.657990878045
 20
-270.061346372148
 11
54.906261646214
 21
-270.061346372148
  0
LINE
  5
30D
100
AcDbEntity
  8
1
  6
CONTINUOUS
 62
           7
100
AcDbLine
 10
51.906261646214
 20
-274.338846372149
 11
49.906261646214
 21
-274.338846372149
  0
LINE
  5
30C
100
AcDbEntity
  8
1
  6
CONTINUOUS
 62
           7
100
AcDbLine
 10
49.906261646215
 20
-273.338846372149
 11
35.906261646214
 21
-273.338846372149
  0
LINE
  5
30B
100
AcDbEntity
  8
1
  6
CONTINUOUS
 62
           7
100
AcDbLine
 10
-18.168738353786
 20
-245.338846372149
 11
-18.168738353786
 21
-249.638846372148
  0
LINE
  5
30A
100
AcDbEntity
  8
1
  6
CONTINUOUS
 62
           7
100
AcDbLine
 10
-20.593738353786
 20
-244.338846372149
 11
15.406261646214
 21
-244.338846372149
  0
LINE
  5
309
100
AcDbEntity
  8
1
  6
CONTINUOUS
 62
           7
100
AcDbLine
 10
15.906261646214
 20
-243.838846372149
 11
15.406261646214
 21
-244.338846372149
  0
LINE
  5
308
100
AcDbEntity
  8
1
  6
CONTINUOUS
 62
           7
100
AcDbLine
 10
-20.593738353786
 20
-244.338846372149
 11
-21.093738353786
 21
-243.838846372149
  0
LINE
  5
307
100
AcDbEntity
  8
1
  6
CONTINUOUS
 62
           7
100
AcDbLine
 10
12.981261646214
 20
-256.519514392051
 11
12.981261646214
 21
-245.338846372149
  0
LINE
  5
306
100
AcDbEntity
  8
1
  6
CONTINUOUS
 62
           7
100
AcDbLine
 10
14.406261646214
 20
-245.338846372149
 11
-19.593738353786
 21
-245.338846372149
  0
LINE
  5
305
100
AcDbEntity
  8
1
  6
CONTINUOUS
 62
           7
100
AcDbLine
 10
-60.083904356122
 20
58.998733626858
 11
-60.642577521345
 21
58.200865659524
  0
LINE
  5
304
100
AcDbEntity
  8
1
  6
CONTINUOUS
 62
           7
100
AcDbLine
 10
-27.456559307782
 20
30.201969339686
 11
-24.467975213507
 21
29.940502111444
  0
LINE
  5
303
100
AcDbEntity
  8
1
  6
CONTINUOUS
 62
           7
100
AcDbLine
 10
-27.421697010683
 20
30.600447218923
 11
-24.433112916407
 21
30.33897999068
  0
LINE
  5
302
100
AcDbEntity
  8
1
  6
CONTINUOUS
 62
           7
100
AcDbLine
 10
-27.378119139309
 20
31.098544567969
 11
-24.389535045033
 21
30.837077339726
  0
LINE
  5
301
100
AcDbEntity
  8
1
  6
CONTINUOUS
 62
           7
100
AcDbLine
 10
-27.334541267935
 20
31.596641917014
 11
-24.34595717366
 21
31.335174688772
  0
LINE
  5
300
100
AcDbEntity
  8
1
  6
CONTINUOUS
 62
           7
100
AcDbLine
 10
-27.290963396561
 20
32.09473926606
 11
-24.302379302286
 21
31.833272037817
  0
LINE
  5
2FF
100
AcDbEntity
  8
1
  6
CONTINUOUS
 62
           7
100
AcDbLine
 10
-27.221238802363
 20
32.891695024534
 11
-24.232654708088
 21
32.630227796291
  0
LINE
  5
2FE
100
AcDbEntity
  8
1
  6
CONTINUOUS
 62
           7
100
AcDbLine
 10
-27.151514208165
 20
33.688650783007
 11
-24.16293011389
 21
33.427183554764
  0
LINE
  5
2FD
100
AcDbEntity
  8
1
  6
CONTINUOUS
 62
           7
100
AcDbLine
 10
-27.064358465417
 20
34.684845481099
 11
-24.075774371142
 21
34.423378252856
  0
LINE
  5
2FC
100
AcDbEntity
  8
1
  6
CONTINUOUS
 62
           7
100
AcDbLine
 10
-26.97720272267
 20
35.681040179191
 11
-23.988618628394
 21
35.419572950948
  0
LINE
  5
2FB
100
AcDbEntity
  8
1
  6
CONTINUOUS
 62
           7
100
AcDbLine
 10
-26.890046979922
 20
36.677234877283
 11
-23.901462885647
 21
36.415767649039
  0
LINE
  5
2FA
100
AcDbEntity
  8
1
  6
CONTINUOUS
 62
           7
100
AcDbLine
 10
-26.802891237174
 20
37.673429575374
 11
-23.814307142899
 21
37.411962347131
  0
LINE
  5
2F9
100
AcDbEntity
  8
1
  6
CONTINUOUS
 62
           7
100
AcDbLine
 10
-26.715735494426
 20
38.669624273466
 11
-23.727151400151
 21
38.408157045223
  0
LINE
  5
2F8
100
AcDbEntity
  8
1
  6
CONTINUOUS
 62
           7
100
AcDbLine
 10
-26.628579751679
 20
39.665818971558
 11
-23.639995657403
 21
39.404351743315
  0
LINE
  5
2F7
100
AcDbEntity
  8
1
  6
CONTINUOUS
 62
           7
100
AcDbLine
 10
-24.511553084881
 20
29.442404762397
 11
-23.599696030566
 21
39.864978585847
  0
LINE
  5
2F6
100
AcDbEntity
  8
1
  6
CONTINUOUS
 62
           7
100
AcDbLine
 10
-27.500137179156
 20
29.703871990641
 11
-26.523050395087
 21
40.872025036875
  0
LINE
  5
2F5
100
AcDbEntity
  8
1
  6
CONTINUOUS
 62
           7
100
AcDbLine
 10
-24.511553084881
 20
29.442404762397
 11
-23.969877864461
 21
29.896924240069
  0
LINE
  5
2F4
100
AcDbEntity
  8
1
  6
CONTINUOUS
 62
           7
100
AcDbLine
 10
-27.954656656828
 20
30.24554721106
 11
-27.500137179156
 21
29.703871990641
  0
LINE
  5
2F3
100
AcDbEntity
  8
1
  6
CONTINUOUS
 62
           7
100
AcDbLine
 10
-24.511553084881
 20
29.442404762397
 11
-27.500137179156
 21
29.703871990641
  0
LINE
  5
2F2
100
AcDbEntity
  8
1
  6
CONTINUOUS
 62
           7
100
AcDbLine
 10
-27.954656656828
 20
30.24554721106
 11
-27.009056593203
 21
41.053805395778
  0
LINE
  5
2F1
100
AcDbEntity
  8
1
  6
CONTINUOUS
 62
           7
100
AcDbLine
 10
-23.111268825428
 20
39.710870463827
 11
-23.969877864461
 21
29.896924240069
  0
LINE
  5
2F0
100
AcDbEntity
  8
1
  6
CONTINUOUS
 62
           7
100
AcDbLine
 10
-17.011146109229
 20
31.094989806548
 11
-21.806432337828
 21
31.514522989913
  0
LINE
  5
2EF
100
AcDbEntity
  8
1
  6
CONTINUOUS
 62
           7
100
AcDbLine
 10
-13.380452624468
 20
29.773525448351
 11
-17.011146109229
 21
31.094989806548
  0
LINE
  5
2EE
100
AcDbEntity
  8
1
  6
CONTINUOUS
 62
           7
100
AcDbLine
 10
-3.41850564355
 20
28.901968020875
 11
-13.380452624468
 21
29.773525448351
  0
LINE
  5
2ED
100
AcDbEntity
  8
1
  6
CONTINUOUS
 62
           7
100
AcDbLine
 10
-21.867441357751
 20
30.817186701249
 11
-21.806432337828
 21
31.514522989913
  0
LINE
  5
2EC
100
AcDbEntity
  8
1
  6
CONTINUOUS
 62
           7
100
AcDbLine
 10
-21.867441357751
 20
30.817186701249
 11
-23.874006547438
 21
30.992738407972
  0
LINE
  5
2EB
100
AcDbEntity
  8
1
  6
CONTINUOUS
 62
           7
100
AcDbLine
 10
-21.806432337828
 20
31.514522989913
 11
-21.140246351911
 21
39.129063652312
  0
LINE
  5
2EA
100
AcDbEntity
  8
1
  6
CONTINUOUS
 62
           7
100
AcDbLine
 10
-3.331349900803
 20
29.898162718966
 11
-17.554723980603
 21
31.142546708037
  0
LINE
  5
2E9
100
AcDbEntity
  8
1
  6
CONTINUOUS
 62
           7
100
AcDbLine
 10
-58.723402846127
 20
54.426714067098
 11
-60.199386072875
 21
54.555845866993
  0
LINE
  5
2E8
100
AcDbEntity
  8
1
  6
CONTINUOUS
 62
           7
100
AcDbLine
 10
-57.681665621573
 20
57.623103800788
 11
-58.394817240426
 21
49.471743497501
  0
LINE
  5
2E7
100
AcDbEntity
  8
1
  6
CONTINUOUS
 62
           7
100
AcDbLine
 10
-60.642577521345
 20
58.200865659524
 11
-61.383401334701
 21
49.733210725744
  0
LINE
  5
2E6
100
AcDbEntity
  8
1
  6
CONTINUOUS
 62
           7
100
AcDbLine
 10
-61.383401334701
 20
49.733210725744
 11
-62.124225148057
 21
41.265555791964
  0
LINE
  5
2E5
100
AcDbEntity
  8
1
  6
CONTINUOUS
 62
           7
100
AcDbLine
 10
-58.394817240426
 20
49.471743497501
 11
-59.001290476336
 21
42.53972269083
  0
LINE
  5
2E4
100
AcDbEntity
  8
1
  6
CONTINUOUS
 62
           7
100
AcDbLine
 10
-62.124225148057
 20
41.265555791964
 11
-61.482530557063
 21
39.889437300725
  0
LINE
  5
2E3
100
AcDbEntity
  8
1
  6
CONTINUOUS
 62
           7
100
AcDbLine
 10
-61.054815729
 20
44.778240156148
 11
-59.578832502253
 21
44.649108356252
  0
LINE
  5
2E2
100
AcDbEntity
  8
1
  6
CONTINUOUS
 62
           7
100
AcDbLine
 10
-61.482530557063
 20
39.889437300725
 11
-60.006547330316
 21
39.76030550083
  0
LINE
  5
2E1
100
AcDbEntity
  8
1
  6
CONTINUOUS
 62
           7
100
AcDbLine
 10
-59.135641053782
 20
41.004088563721
 11
-60.006547330316
 21
39.76030550083
  0
LINE
  5
2E0
100
AcDbEntity
  8
1
  6
CONTINUOUS
 62
           7
100
AcDbLine
 10
-59.135641053782
 20
41.004088563721
 11
-59.001290476336
 21
42.53972269083
  0
LINE
  5
2DF
100
AcDbEntity
  8
1
  6
CONTINUOUS
 62
           7
100
AcDbLine
 10
22.12495454008
 20
34.64757253605
 11
20.141380045075
 21
34.821112817622
  0
LINE
  5
2DE
100
AcDbEntity
  8
1
  6
CONTINUOUS
 62
           7
100
AcDbLine
 10
20.457639353918
 20
38.43597325893
 11
20.076017196958
 21
34.074012044979
  0
LINE
  5
2DD
100
AcDbEntity
  8
1
  6
CONTINUOUS
 62
           7
100
AcDbLine
 10
-40.751547235761
 20
47.928157384565
 11
-43.949994118095
 21
48.207985227659
  0
LINE
  5
2DC
100
AcDbEntity
  8
1
  6
CONTINUOUS
 62
           7
100
AcDbLine
 10
-45.318016339074
 20
32.571419690549
 11
-45.387695137598
 21
31.774987379022
  0
LINE
  5
2DB
100
AcDbEntity
  8
1
  6
CONTINUOUS
 62
           7
100
AcDbLine
 10
-45.073605237156
 20
35.365051368848
 11
-45.257899816205
 21
33.258554691206
  0
LINE
  5
2DA
100
AcDbEntity
  8
1
  6
CONTINUOUS
 62
           7
100
AcDbLine
 10
-27.824492599599
 20
31.733329193121
 11
-45.257899816205
 21
33.258554691206
  0
LINE
  5
2D9
100
AcDbEntity
  8
1
  6
CONTINUOUS
 62
           7
100
AcDbLine
 10
-44.658134527921
 20
40.113903305664
 11
-44.95114537999
 21
36.76477394124
  0
LINE
  5
2D8
100
AcDbEntity
  8
1
  6
CONTINUOUS
 62
           7
100
AcDbLine
 10
-44.1348558606
 20
46.095005842068
 11
-44.491974739611
 21
42.013118376664
  0
LINE
  5
2D7
100
AcDbEntity
  8
1
  6
CONTINUOUS
 62
           7
100
AcDbLine
 10
-29.448579968131
 20
30.380495495058
 11
-45.435371413578
 21
31.779158512689
  0
LINE
  5
2D6
100
AcDbEntity
  8
1
  6
CONTINUOUS
 62
           7
100
AcDbLine
 10
-27.884609122469
 20
31.046194192464
 11
-45.318016339074
 21
32.571419690549
  0
LINE
  5
2D5
100
AcDbEntity
  8
1
  6
CONTINUOUS
 62
           7
100
AcDbLine
 10
-27.640198020551
 20
33.839825870762
 11
-45.073605237156
 21
35.365051368848
  0
LINE
  5
2D4
100
AcDbEntity
  8
1
  6
CONTINUOUS
 62
           7
100
AcDbLine
 10
-27.517738163385
 20
35.239548443156
 11
-44.95114537999
 21
36.76477394124
  0
LINE
  5
2D3
100
AcDbEntity
  8
1
  6
CONTINUOUS
 62
           7
100
AcDbLine
 10
-27.224727311316
 20
38.588677807579
 11
-44.658134527921
 21
40.113903305664
  0
LINE
  5
2D2
100
AcDbEntity
  8
1
  6
CONTINUOUS
 62
           7
100
AcDbLine
 10
-27.058567523006
 20
40.487892878579
 11
-44.491974739611
 21
42.013118376664
  0
LINE
  5
2D1
100
AcDbEntity
  8
1
  6
CONTINUOUS
 62
           7
100
AcDbLine
 10
-36.362955661615
 20
45.415052680602
 11
-44.1348558606
 21
46.095005842068
  0
LINE
  5
2D0
100
AcDbEntity
  8
1
  6
CONTINUOUS
 62
           7
100
AcDbLine
 10
-45.816436628281
 20
32.611306338993
 11
-45.435371413578
 21
31.779158512689
  0
LINE
  5
2CF
100
AcDbEntity
  8
1
  6
CONTINUOUS
 62
           7
100
AcDbLine
 10
-45.816436628281
 20
32.611306338993
 11
-44.448091467141
 21
48.251563099033
  0
LINE
  5
2CE
100
AcDbEntity
  8
1
  6
CONTINUOUS
 62
           7
100
AcDbLine
 10
-59.179218925155
 20
40.505991214675
 11
-47.210245188195
 21
32.73324878711
  0
LINE
  5
2CD
100
AcDbEntity
  8
1
  6
CONTINUOUS
 62
           7
100
AcDbLine
 10
-47.210245188195
 20
32.73324878711
 11
-45.816436628281
 21
32.611306338993
  0
LINE
  5
2CC
100
AcDbEntity
  8
1
  6
CONTINUOUS
 62
           7
100
AcDbLine
 10
-27.823554306872
 20
31.744053928074
 11
-27.954287920993
 21
30.249761880937
  0
LINE
  5
2CB
100
AcDbEntity
  8
1
  6
CONTINUOUS
 62
           7
100
AcDbLine
 10
-27.954287920993
 20
30.249761880937
 11
-29.448579968131
 21
30.380495495058
  0
LINE
  5
2CA
100
AcDbEntity
  8
1
  6
CONTINUOUS
 62
           7
100
AcDbLine
 10
-58.394817240426
 20
49.471743497501
 11
-59.179218925155
 21
40.505991214675
  0
LINE
  5
2C9
100
AcDbEntity
  8
1
  6
CONTINUOUS
 62
           7
100
AcDbLine
 10
-44.448091467141
 20
48.251563099033
 11
-44.298674918958
 21
49.959402059671
  0
LINE
  5
2C8
100
AcDbEntity
  8
1
  6
CONTINUOUS
 62
           7
100
AcDbLine
 10
-43.820710965293
 20
49.685698426059
 11
-43.949994118095
 21
48.207985227659
  0
LINE
  5
2C7
100
AcDbEntity
  8
1
  6
CONTINUOUS
 62
           7
100
AcDbLine
 10
18.651411367254
 20
32.878625818702
 11
17.784721979914
 21
32.954451314892
  0
LINE
  5
2C6
100
AcDbEntity
  8
1
  6
CONTINUOUS
 62
           7
100
AcDbLine
 10
16.845117938034
 20
37.30266089037
 11
16.589335753637
 21
34.379057144596
  0
LINE
  5
2C5
100
AcDbEntity
  8
1
  6
CONTINUOUS
 62
           7
100
AcDbLine
 10
16.589335753637
 20
34.379057144596
 11
17.784721979914
 21
32.954451314892
  0
LINE
  5
2C4
100
AcDbEntity
  8
1
  6
CONTINUOUS
 62
           7
100
AcDbLine
 10
18.651411367254
 20
32.878625818702
 11
20.076017196958
 21
34.074012044979
  0
LINE
  5
2C3
100
AcDbEntity
  8
1
  6
CONTINUOUS
 62
           7
100
AcDbLine
 10
18.556425403514
 20
37.813159067823
 11
19.079126195316
 21
37.767428674124
  0
LINE
  5
2C2
100
AcDbEntity
  8
1
  6
DOT_CENTER
 62
           2
100
AcDbLine
 10
67.63676155302
 20
38.445409106799
 11
-66.801837210675
 21
50.207262438935
  0
LINE
  5
2C1
100
AcDbEntity
  8
1
  6
CONTINUOUS
 62
           7
100
AcDbLine
 10
-184.928266087615
 20
-275.8593018476
 11
-183.357560066829
 21
-275.8593018476
  0
LINE
  5
2C0
100
AcDbEntity
  8
1
  6
CONTINUOUS
 62
           7
100
AcDbLine
 10
-190.070105063806
 20
-279.468161043858
 11
-188.499399043021
 21
-279.468161043858
  0
LINE
  5
2BF
100
AcDbEntity
  8
1
  6
CONTINUOUS
 62
           7
100
AcDbLine
 10
-196.201595477525
 20
-280.834615602918
 11
-194.630889456739
 21
-280.834615602918
  0
LINE
  5
2BE
100
AcDbEntity
  8
1
  6
CONTINUOUS
 62
           7
100
AcDbLine
 10
-199.037498053922
 20
-280.648740727854
 11
-197.466792033136
 21
-280.648740727854
  0
LINE
  5
2BD
100
AcDbEntity
  8
1
  6
CONTINUOUS
 62
           7
100
AcDbLine
 10
-204.93817460673
 20
-278.493656280637
 11
-204.029979158842
 21
-278.493656280637
  0
LINE
  5
2BC
100
AcDbEntity
  8
1
  6
CONTINUOUS
 62
           7
100
AcDbLine
 10
-209.564973788541
 20
-274.244526712514
 11
-209.201892279806
 21
-274.244526712514
  0
LINE
  5
2BB
100
AcDbEntity
  8
1
  6
CONTINUOUS
 62
           7
100
AcDbLine
 10
-208.213065422675
 20
-252.818390896697
 11
-207.684569151866
 21
-252.818390896697
  0
LINE
  5
2BA
100
AcDbEntity
  8
1
  6
CONTINUOUS
 62
           7
100
AcDbLine
 10
-196.939736032765
 20
-247.843077141379
 11
-195.369030011979
 21
-247.843077141379
  0
LINE
  5
2B9
100
AcDbEntity
  8
1
  6
CONTINUOUS
 62
           7
100
AcDbLine
 10
-203.025889714547
 20
-249.21210927941
 11
-202.085667056964
 21
-249.319366998984
  0
LINE
  5
2B8
100
AcDbEntity
  8
1
  6
CONTINUOUS
 62
           7
100
AcDbLine
 10
-194.103833456368
 20
-248.028952016443
 11
-192.533127435582
 21
-248.028952016443
  0
LINE
  5
2B7
100
AcDbEntity
  8
1
  6
CONTINUOUS
 62
           7
100
AcDbLine
 10
-188.203156903559
 20
-250.184036463661
 11
-186.632450882774
 21
-250.18403646366
  0
LINE
  5
2B6
100
AcDbEntity
  8
1
  6
CONTINUOUS
 62
           7
100
AcDbLine
 10
-183.576357721749
 20
-254.433166031783
 11
-182.005651700963
 21
-254.433166031783
  0
LINE
  5
2B5
100
AcDbEntity
  8
1
  6
DOT_CENTER
 62
           2
100
AcDbLine
 10
-198.158678735107
 20
-291.017750440869
 11
-198.158678735107
 21
-236.743366135942
  0
LINE
  5
2B4
100
AcDbEntity
  8
1
  6
CONTINUOUS
 62
           7
100
AcDbLine
 10
-207.973633311331
 20
-264.338846372149
 11
-203.066156023219
 21
-272.838846372149
  0
LINE
  5
2B3
100
AcDbEntity
  8
1
  6
CONTINUOUS
 62
           7
100
AcDbLine
 10
-203.066156023219
 20
-272.838846372149
 11
-193.251201446996
 21
-272.838846372149
  0
LINE
  5
2B2
100
AcDbEntity
  8
1
  6
CONTINUOUS
 62
           7
100
AcDbLine
 10
-203.066156023219
 20
-255.838846372149
 11
-207.973633311331
 21
-264.338846372149
  0
LINE
  5
2B1
100
AcDbEntity
  8
1
  6
CONTINUOUS
 62
           7
100
AcDbLine
 10
-193.251201446996
 20
-255.838846372149
 11
-203.066156023219
 21
-255.838846372149
  0
LINE
  5
2B0
100
AcDbEntity
  8
1
  6
CONTINUOUS
 62
           7
100
AcDbLine
 10
-188.343724158883
 20
-264.338846372149
 11
-193.251201446996
 21
-255.838846372149
  0
LINE
  5
2AF
100
AcDbEntity
  8
1
  6
CONTINUOUS
 62
           7
100
AcDbLine
 10
-193.251201446996
 20
-272.838846372149
 11
-188.343724158883
 21
-264.338846372149
  0
LINE
  5
2AE
100
AcDbEntity
  8
1
  6
CONTINUOUS
 62
           7
100
AcDbLine
 10
-188.185773510164
 20
-264.338846372149
 11
-193.093250798276
 21
-255.838846372149
  0
LINE
  5
2AD
100
AcDbEntity
  8
1
  6
CONTINUOUS
 62
           7
100
AcDbLine
 10
-193.093250798276
 20
-272.838846372149
 11
-188.185773510164
 21
-264.338846372149
  0
LINE
  5
2AC
100
AcDbEntity
  8
1
  6
CONTINUOUS
 62
           7
100
AcDbLine
 10
-202.9082053745
 20
-272.838846372149
 11
-193.093250798276
 21
-272.838846372149
  0
LINE
  5
2AB
100
AcDbEntity
  8
1
  6
CONTINUOUS
 62
           7
100
AcDbLine
 10
-193.093250798276
 20
-255.838846372149
 11
-202.9082053745
 21
-255.838846372149
  0
LINE
  5
2AA
100
AcDbEntity
  8
1
  6
CONTINUOUS
 62
           7
100
AcDbLine
 10
-188.343724158883
 20
-264.338846372149
 11
-188.185773510164
 21
-264.338846372149
  0
LINE
  5
2A9
100
AcDbEntity
  8
976
  6
CONTINUOUS
 62
           7
100
AcDbLine
 10
-209.811892626739
 20
-281.838846372149
 11
-204.025086579989
 21
-278.497832343309
  0
LINE
  5
2A8
100
AcDbEntity
  8
976
  6
CONTINUOUS
 62
           7
100
AcDbLine
 10
-204.532518082214
 20
-249.886894686583
 11
-209.811892626739
 21
-246.838846372149
  0
LINE
  5
2A7
100
AcDbEntity
  8
1
  6
CONTINUOUS
 62
           7
100
AcDbLine
 10
-209.811892626739
 20
-281.838846372149
 11
-210.411892626739
 21
-281.838846372149
  0
LINE
  5
2A6
100
AcDbEntity
  8
1
  6
CONTINUOUS
 62
           7
100
AcDbLine
 10
-210.411892626739
 20
-246.838846372148
 11
-209.811892626739
 21
-246.838846372149
  0
LINE
  5
2A5
100
AcDbEntity
  8
1
  6
DOT_CENTER
 62
           2
100
AcDbLine
 10
-216.911892626739
 20
-248.638846372148
 11
-216.911892626739
 21
-236.038846372149
  0
LINE
  5
2A4
100
AcDbEntity
  8
1
  6
DOT_CENTER
 62
           2
100
AcDbLine
 10
-223.211892626739
 20
-242.338846372149
 11
-210.611892626739
 21
-242.338846372149
  0
LINE
  5
2A3
100
AcDbEntity
  8
1
  6
CONTINUOUS
 62
           7
100
AcDbLine
 10
-233.836892626739
 20
-277.913846372149
 11
-233.836892626739
 21
-250.763846372148
  0
LINE
  5
2A2
100
AcDbEntity
  8
1
  6
CONTINUOUS
 62
           7
100
AcDbLine
 10
-229.411892626739
 20
-246.338846372149
 11
-229.411892626739
 21
-282.338846372149
  0
LINE
  5
2A1
100
AcDbEntity
  8
1
  6
CONTINUOUS
 62
           7
100
AcDbLine
 10
-256.486892626739
 20
-279.913846372149
 11
-235.493746876231
 21
-279.913846372149
  0
LINE
  5
2A0
100
AcDbEntity
  8
1
  6
CONTINUOUS
 62
           7
100
AcDbLine
 10
-232.665319751485
 20
-281.085419247402
 11
-230.583465501993
 21
-283.167273496895
  0
LINE
  5
29F
100
AcDbEntity
  8
1
  6
CONTINUOUS
 62
           7
100
AcDbLine
 10
-210.411892626739
 20
-255.357173995077
 11
-210.411892626739
 21
-235.338846372149
  0
LINE
  5
29E
100
AcDbEntity
  8
1
  6
DOT_CENTER
 62
           2
100
AcDbLine
 10
-256.411892626739
 20
-110.338846372149
 11
-256.411892626739
 21
-287.704079955806
  0
LINE
  5
29D
100
AcDbEntity
  8
1
  6
CONTINUOUS
 62
           7
100
AcDbLine
 10
-223.411892626739
 20
-235.338846372149
 11
-210.411892626739
 21
-235.338846372149
  0
LINE
  5
29C
100
AcDbEntity
  8
1
  6
CONTINUOUS
 62
           7
100
AcDbLine
 10
-222.911892626739
 20
-282.838846372149
 11
-210.411892626739
 21
-282.838846372149
  0
LINE
  5
29B
100
AcDbEntity
  8
1
  6
CONTINUOUS
 62
           7
100
AcDbLine
 10
-223.411892626739
 20
-235.338846372149
 11
-223.411892626739
 21
-283.838846372149
  0
LINE
  5
29A
100
AcDbEntity
  8
1
  6
CONTINUOUS
 62
           7
100
AcDbLine
 10
-223.911892626739
 20
-284.338846372149
 11
-227.755038377247
 21
-284.338846372149
  0
LINE
  5
299
100
AcDbEntity
  8
1
  6
CONTINUOUS
 62
           7
100
AcDbLine
 10
-230.583465501993
 20
-245.510419247402
 11
-232.665319751485
 21
-247.592273496895
  0
LINE
  5
298
100
AcDbEntity
  8
1
  6
CONTINUOUS
 62
           7
100
AcDbLine
 10
-227.755038377247
 20
-244.338846372149
 11
-223.411892626739
 21
-244.338846372149
  0
LINE
  5
297
100
AcDbEntity
  8
1
  6
DOT_CENTER
 62
           2
100
AcDbLine
 10
-173.87885316737
 20
-264.338846372149
 11
-277.054179806888
 21
-264.338846372149
  0
LINE
  5
296
100
AcDbEntity
  8
1
  6
CONTINUOUS
 62
           7
100
AcDbLine
 10
-271.986892626739
 20
-245.338846372149
 11
-271.986892626739
 21
-264.413846372149
  0
LINE
  5
295
100
AcDbEntity
  8
1
  6
CONTINUOUS
 62
           7
100
AcDbLine
 10
-239.411892626739
 20
-245.338846372149
 11
-273.411892626739
 21
-245.338846372149
  0
LINE
  5
294
100
AcDbEntity
  8
1
  6
CONTINUOUS
 62
           7
100
AcDbLine
 10
-235.493746876231
 20
-248.763846372148
 11
-238.836892626739
 21
-248.763846372148
  0
LINE
  5
293
100
AcDbEntity
  8
1
  6
CONTINUOUS
 62
           7
100
AcDbLine
 10
-210.411892626739
 20
-282.838846372149
 11
-210.411892626739
 21
-273.859754727493
  0
LINE
  5
292
100
AcDbEntity
  8
1
  6
CONTINUOUS
 62
           7
100
AcDbLine
 10
-240.836892626739
 20
-246.763846372148
 11
-240.836892626739
 21
-245.338846372149
  0
LINE
  5
291
100
AcDbEntity
  8
1
  6
CONTINUOUS
 62
           7
100
AcDbLine
 10
-275.199834052451
 20
-242.199734387973
 11
-275.199834052451
 21
-241.199734387973
  0
LINE
  5
290
100
AcDbEntity
  8
1
  6
CONTINUOUS
 62
           7
100
AcDbLine
 10
-280.18143139679
 20
-242.199734387973
 11
-275.199834052451
 21
-242.199734387973
  0
LINE
  5
28F
100
AcDbEntity
  8
1
  6
CONTINUOUS
 62
           7
100
AcDbLine
 10
-276.911892626739
 20
-240.479758620958
 11
-278.426321332605
 21
-240.479758620958
  0
LINE
  5
28E
100
AcDbEntity
  8
1
  6
CONTINUOUS
 62
           7
100
AcDbLine
 10
-280.18143139679
 20
-242.199734387973
 11
-275.199834052451
 21
-242.199734387973
  0
LINE
  5
28D
100
AcDbEntity
  8
1
  6
CONTINUOUS
 62
           7
100
AcDbLine
 10
-280.18143139679
 20
-241.191243870847
 11
-280.18143139679
 21
-242.199734387973
  0
LINE
  5
28C
100
AcDbEntity
  8
1
  6
CONTINUOUS
 62
           7
100
AcDbLine
 10
-278.426321332605
 20
-228.919710154989
 11
-276.911892626739
 21
-228.919710154989
  0
LINE
  5
28B
100
AcDbEntity
  8
1
  6
CONTINUOUS
 62
           7
100
AcDbLine
 10
-280.18143139679
 20
-227.199734387973
 11
-280.18143139679
 21
-228.2082249051
  0
LINE
  5
28A
100
AcDbEntity
  8
1
  6
CONTINUOUS
 62
           7
100
AcDbLine
 10
-275.199834052451
 20
-227.199734387973
 11
-280.18143139679
 21
-227.199734387973
  0
LINE
  5
289
100
AcDbEntity
  8
1
  6
CONTINUOUS
 62
           7
100
AcDbLine
 10
-275.199834052451
 20
-228.199734387973
 11
-275.199834052451
 21
-227.199734387973
  0
LINE
  5
288
100
AcDbEntity
  8
1
  6
CONTINUOUS
 62
           7
100
AcDbLine
 10
-276.911892626739
 20
-231.207963216098
 11
-276.911892626739
 21
-228.199734387973
  0
LINE
  5
287
100
AcDbEntity
  8
1
  6
CONTINUOUS
 62
           7
100
AcDbLine
 10
-280.791189100951
 20
-228.783654604874
 11
-280.791189100951
 21
-240.615814171073
  0
LINE
  5
286
100
AcDbEntity
  8
1
  6
CONTINUOUS
 62
           7
100
AcDbLine
 10
-282.791189100951
 20
-228.783654604874
 11
-282.791189100951
 21
-240.615814171073
  0
LINE
  5
285
100
AcDbEntity
  8
1
  6
CONTINUOUS
 62
           7
100
AcDbLine
 10
-271.411892626739
 20
-231.199734387973
 11
-271.411892626739
 21
-238.199734387973
  0
LINE
  5
284
100
AcDbEntity
  8
1
  6
CONTINUOUS
 62
           7
100
AcDbLine
 10
-274.411892626739
 20
-231.199734387973
 11
-274.411892626739
 21
-238.199734387973
  0
LINE
  5
283
100
AcDbEntity
  8
1
  6
CONTINUOUS
 62
           7
100
AcDbLine
 10
-268.411892626739
 20
-231.199734387973
 11
-268.411892626739
 21
-238.199734387973
  0
LINE
  5
282
100
AcDbEntity
  8
1
  6
CONTINUOUS
 62
           7
100
AcDbLine
 10
-265.411892626739
 20
-231.199734387973
 11
-265.411892626739
 21
-238.199734387973
  0
LINE
  5
281
100
AcDbEntity
  8
1
  6
CONTINUOUS
 62
           7
100
AcDbLine
 10
-262.411892626739
 20
-231.199734387973
 11
-262.411892626739
 21
-238.199734387973
  0
LINE
  5
280
100
AcDbEntity
  8
1
  6
CONTINUOUS
 62
           7
100
AcDbLine
 10
-259.411892626739
 20
-231.199734387973
 11
-259.411892626739
 21
-238.199734387973
  0
LINE
  5
27F
100
AcDbEntity
  8
1
  6
CONTINUOUS
 62
           7
100
AcDbLine
 10
-238.411892626739
 20
-231.199734387973
 11
-238.411892626739
 21
-238.199734387973
  0
LINE
  5
27E
100
AcDbEntity
  8
1
  6
CONTINUOUS
 62
           7
100
AcDbLine
 10
-241.411892626739
 20
-231.199734387973
 11
-241.411892626739
 21
-238.199734387973
  0
LINE
  5
27D
100
AcDbEntity
  8
1
  6
CONTINUOUS
 62
           7
100
AcDbLine
 10
-244.411892626739
 20
-231.199734387973
 11
-244.411892626739
 21
-238.199734387973
  0
LINE
  5
27C
100
AcDbEntity
  8
1
  6
CONTINUOUS
 62
           7
100
AcDbLine
 10
-247.411892626739
 20
-231.199734387973
 11
-247.411892626739
 21
-238.199734387973
  0
LINE
  5
27B
100
AcDbEntity
  8
1
  6
CONTINUOUS
 62
           7
100
AcDbLine
 10
-250.411892626739
 20
-231.199734387973
 11
-250.411892626739
 21
-238.199734387973
  0
LINE
  5
27A
100
AcDbEntity
  8
1
  6
CONTINUOUS
 62
           7
100
AcDbLine
 10
-253.411892626739
 20
-231.199734387973
 11
-253.411892626739
 21
-238.199734387973
  0
LINE
  5
279
100
AcDbEntity
  8
1
  6
CONTINUOUS
 62
           7
100
AcDbLine
 10
-256.411892626739
 20
-231.199734387973
 11
-256.411892626739
 21
-238.199734387973
  0
LINE
  5
278
100
AcDbEntity
  8
1
  6
CONTINUOUS
 62
           7
100
AcDbLine
 10
-276.911892626739
 20
-241.199734387973
 11
-276.911892626739
 21
-238.191505559849
  0
LINE
  5
277
100
AcDbEntity
  8
1
  6
CONTINUOUS
 62
           7
100
AcDbLine
 10
-235.911892626739
 20
-241.199734387973
 11
-276.911892626739
 21
-241.199734387973
  0
LINE
  5
276
100
AcDbEntity
  8
1
  6
CONTINUOUS
 62
           7
100
AcDbLine
 10
-235.911892626739
 20
-228.199734387973
 11
-235.911892626739
 21
-241.199734387973
  0
LINE
  5
275
100
AcDbEntity
  8
1
  6
CONTINUOUS
 62
           7
100
AcDbLine
 10
-276.911892626739
 20
-228.199734387973
 11
-235.911892626739
 21
-228.199734387973
  0
LINE
  5
274
100
AcDbEntity
  8
1
  6
DOT_CENTER
 62
           2
100
AcDbLine
 10
8.406261646214
 20
164.182419689517
 11
8.406261646214
 21
171.144923736728
  0
LINE
  5
273
100
AcDbEntity
  8
1
  6
DOT_CENTER
 62
           2
100
AcDbLine
 10
4.961971423378
 20
167.723588905204
 11
11.964489861666
 21
167.723588905204
  0
LINE
  5
272
100
AcDbEntity
  8
1
  6
DOT_CENTER
 62
           2
100
AcDbLine
 10
8.406261646214
 20
39.914805243918
 11
8.406261646214
 21
46.87730929113
  0
LINE
  5
271
100
AcDbEntity
  8
1
  6
DOT_CENTER
 62
           2
100
AcDbLine
 10
4.961971423378
 20
43.455974459605
 11
11.964489861666
 21
43.455974459605
  0
LINE
  5
270
100
AcDbEntity
  8
1
  6
CONTINUOUS
 62
           7
100
AcDbLine
 10
-255.161892626739
 20
-20.788846372149
 11
-255.011892626739
 21
-20.788846372149
  0
LINE
  5
26F
100
AcDbEntity
  8
1
  6
CONTINUOUS
 62
           7
100
AcDbLine
 10
-255.161892626739
 20
-19.888846372149
 11
-255.011892626739
 21
-19.888846372149
  0
LINE
  5
26E
100
AcDbEntity
  8
1
  6
CONTINUOUS
 62
           7
100
AcDbLine
 10
-257.811892626739
 20
-20.788846372149
 11
-257.661892626739
 21
-20.788846372149
  0
LINE
  5
26D
100
AcDbEntity
  8
1
  6
CONTINUOUS
 62
           7
100
AcDbLine
 10
-257.811892626739
 20
-19.888846372149
 11
-257.661892626739
 21
-19.888846372149
  0
LINE
  5
26C
100
AcDbEntity
  8
1
  6
CONTINUOUS
 62
           7
100
AcDbLine
 10
-249.261892626739
 20
-19.663846372149
 11
-243.936892626739
 21
-19.663846372149
  0
LINE
  5
26B
100
AcDbEntity
  8
1
  6
CONTINUOUS
 62
           7
100
AcDbLine
 10
-243.936892626739
 20
-21.013846372149
 11
-249.261892626739
 21
-21.013846372149
  0
LINE
  5
26A
100
AcDbEntity
  8
1
  6
CONTINUOUS
 62
           7
100
AcDbLine
 10
-264.286892626739
 20
-21.013846372149
 11
-263.561892626739
 21
-21.013846372149
  0
LINE
  5
269
100
AcDbEntity
  8
1
  6
CONTINUOUS
 62
           7
100
AcDbLine
 10
-264.286892626739
 20
-19.663846372149
 11
-263.561892626739
 21
-19.663846372149
  0
LINE
  5
268
100
AcDbEntity
  8
1
  6
CONTINUOUS
 62
           7
100
AcDbLine
 10
-262.911892626739
 20
-20.788846372149
 11
-262.411892626739
 21
-20.788846372149
  0
LINE
  5
267
100
AcDbEntity
  8
1
  6
CONTINUOUS
 62
           7
100
AcDbLine
 10
-262.911892626739
 20
-19.888846372149
 11
-262.411892626739
 21
-19.888846372149
  0
LINE
  5
266
100
AcDbEntity
  8
1
  6
CONTINUOUS
 62
           7
100
AcDbLine
 10
-246.861892626739
 20
-20.788846372149
 11
-250.411892626739
 21
-20.788846372149
  0
LINE
  5
265
100
AcDbEntity
  8
1
  6
CONTINUOUS
 62
           7
100
AcDbLine
 10
-250.411892626739
 20
-19.888846372149
 11
-246.861892626739
 21
-19.888846372149
  0
LINE
  5
264
100
AcDbEntity
  8
1
  6
CONTINUOUS
 62
           7
100
AcDbLine
 10
3.806261646214
 20
99.589781682404
 11
3.806261646214
 21
99.553940664953
  0
LINE
  5
263
100
AcDbEntity
  8
1
  6
CONTINUOUS
 62
           7
100
AcDbLine
 10
2.006261646214
 20
104.189781682404
 11
2.006261646214
 21
104.339781682405
  0
LINE
  5
262
100
AcDbEntity
  8
1
  6
CONTINUOUS
 62
           7
100
AcDbLine
 10
3.806261646214
 20
104.339781682405
 11
3.806261646214
 21
104.189781682404
  0
LINE
  5
261
100
AcDbEntity
  8
1
  6
CONTINUOUS
 62
           7
100
AcDbLine
 10
2.006261646214
 20
106.839781682405
 11
2.006261646214
 21
106.989781682405
  0
LINE
  5
260
100
AcDbEntity
  8
1
  6
CONTINUOUS
 62
           7
100
AcDbLine
 10
3.806261646214
 20
106.989781682405
 11
3.806261646214
 21
106.839781682405
  0
LINE
  5
25F
100
AcDbEntity
  8
1
  6
CONTINUOUS
 62
           7
100
AcDbLine
 10
2.906261646214
 20
111.639781682404
 11
2.906261646214
 21
99.089781682404
  0
LINE
  5
25E
100
AcDbEntity
  8
1
  6
CONTINUOUS
 62
           7
100
AcDbLine
 10
3.806261646214
 20
112.539781682405
 11
8.806261646214
 21
112.539781682405
  0
LINE
  5
25D
100
AcDbEntity
  8
1
  6
CONTINUOUS
 62
           7
100
AcDbLine
 10
1.956261646214
 20
111.639781682404
 11
-0.493738353786
 21
111.639781682404
  0
LINE
  5
25C
100
AcDbEntity
  8
1
  6
CONTINUOUS
 62
           7
100
AcDbLine
 10
3.806261646214
 20
99.553940664953
 11
3.806261646214
 21
99.101173177785
  0
LINE
  5
25B
100
AcDbEntity
  8
1
  6
CONTINUOUS
 62
           7
100
AcDbLine
 10
8.806261646214
 20
111.639781682404
 11
9.256261646214
 21
112.089781682405
  0
LINE
  5
25A
100
AcDbEntity
  8
1
  6
CONTINUOUS
 62
           7
100
AcDbLine
 10
9.256261646214
 20
112.089781682405
 11
8.806261646214
 21
112.539781682405
  0
LINE
  5
259
100
AcDbEntity
  8
1
  6
CONTINUOUS
 62
           7
100
AcDbLine
 10
-0.493738353786
 20
112.539781682405
 11
-0.943738353786
 21
112.089781682405
  0
LINE
  5
258
100
AcDbEntity
  8
1
  6
CONTINUOUS
 62
           7
100
AcDbLine
 10
-0.943738353786
 20
112.089781682405
 11
-0.493738353786
 21
111.639781682404
  0
LINE
  5
257
100
AcDbEntity
  8
1
  6
CONTINUOUS
 62
           7
100
AcDbLine
 10
8.806261646214
 20
111.639781682404
 11
3.856261646214
 21
111.639781682404
  0
LINE
  5
256
100
AcDbEntity
  8
1
  6
CONTINUOUS
 62
           7
100
AcDbLine
 10
2.906261646214
 20
98.593775302803
 11
2.906261646214
 21
111.639781682404
  0
LINE
  5
255
100
AcDbEntity
  8
1
  6
CONTINUOUS
 62
           7
100
AcDbLine
 10
-0.493738353786
 20
112.539781682405
 11
2.006261646214
 21
112.539781682405
  0
LINE
  5
254
100
AcDbEntity
  8
1
  6
CONTINUOUS
 62
           7
100
AcDbLine
 10
2.006261646214
 20
99.101173177785
 11
2.006261646214
 21
99.589781682404
  0
LINE
  5
253
100
AcDbEntity
  8
1
  6
CONTINUOUS
 62
           7
100
AcDbLine
 10
48.756261646214
 20
98.439781682404
 11
48.756261646214
 21
97.861859525582
  0
LINE
  5
252
100
AcDbEntity
  8
1
  6
CONTINUOUS
 62
           7
100
AcDbLine
 10
46.056261646214
 20
101.439781682404
 11
46.056261646214
 21
101.589781682405
  0
LINE
  5
251
100
AcDbEntity
  8
1
  6
CONTINUOUS
 62
           7
100
AcDbLine
 10
48.756261646214
 20
101.589781682405
 11
48.756261646214
 21
101.439781682404
  0
LINE
  5
250
100
AcDbEntity
  8
1
  6
CONTINUOUS
 62
           7
100
AcDbLine
 10
48.756261646214
 20
109.739781682405
 11
48.756261646214
 21
109.589781682405
  0
LINE
  5
24F
100
AcDbEntity
  8
1
  6
CONTINUOUS
 62
           7
100
AcDbLine
 10
46.056261646214
 20
97.861859525582
 11
46.056261646214
 21
98.439781682404
  0
LINE
  5
24E
100
AcDbEntity
  8
1
  6
CONTINUOUS
 62
           7
100
AcDbLine
 10
46.056261646214
 20
109.589781682405
 11
46.056261646214
 21
109.739781682405
  0
LINE
  5
24D
100
AcDbEntity
  8
1
  6
CONTINUOUS
 62
           7
100
AcDbLine
 10
47.406261646214
 20
112.739781682404
 11
47.406261646214
 21
97.939781682404
  0
LINE
  5
24C
100
AcDbEntity
  8
1
  6
CONTINUOUS
 62
           7
100
AcDbLine
 10
46.006261646214
 20
112.789781682405
 11
41.081261646214
 21
112.789781682405
  0
LINE
  5
24B
100
AcDbEntity
  8
1
  6
CONTINUOUS
 62
           7
100
AcDbLine
 10
48.806261646214
 20
114.139781682404
 11
56.931261646214
 21
114.139781682404
  0
LINE
  5
24A
100
AcDbEntity
  8
1
  6
CONTINUOUS
 62
           7
100
AcDbLine
 10
56.931261646214
 20
112.789781682405
 11
57.606261646214
 21
113.464781682405
  0
LINE
  5
249
100
AcDbEntity
  8
1
  6
CONTINUOUS
 62
           7
100
AcDbLine
 10
57.606261646214
 20
113.464781682405
 11
56.931261646214
 21
114.139781682404
  0
LINE
  5
248
100
AcDbEntity
  8
1
  6
CONTINUOUS
 62
           7
100
AcDbLine
 10
41.081261646214
 20
114.139781682404
 11
40.406261646214
 21
113.464781682405
  0
LINE
  5
247
100
AcDbEntity
  8
1
  6
CONTINUOUS
 62
           7
100
AcDbLine
 10
40.406261646214
 20
113.464781682405
 11
41.081261646214
 21
112.789781682405
  0
LINE
  5
246
100
AcDbEntity
  8
1
  6
CONTINUOUS
 62
           7
100
AcDbLine
 10
56.931261646214
 20
112.789781682405
 11
48.806261646214
 21
112.789781682405
  0
LINE
  5
245
100
AcDbEntity
  8
1
  6
CONTINUOUS
 62
           7
100
AcDbLine
 10
47.406261646214
 20
97.022811960387
 11
47.406261646214
 21
112.789781682405
  0
LINE
  5
244
100
AcDbEntity
  8
1
  6
CONTINUOUS
 62
           7
100
AcDbLine
 10
41.081261646214
 20
114.139781682404
 11
46.006261646214
 21
114.139781682404
  0
LINE
  5
243
100
AcDbEntity
  8
1
  6
CONTINUOUS
 62
           7
100
AcDbLine
 10
-185.411892626739
 20
-40.838846372149
 11
-185.411892626739
 21
-37.338846372149
  0
LINE
  5
242
100
AcDbEntity
  8
1
  6
CONTINUOUS
 62
           7
100
AcDbLine
 10
-187.411892626739
 20
-40.338846372149
 11
-189.411892626739
 21
-40.453132086434
  0
LINE
  5
241
100
AcDbEntity
  8
1
  6
CONTINUOUS
 62
           7
100
AcDbLine
 10
-187.411892626739
 20
-37.338846372149
 11
-187.411892626739
 21
-40.338846372149
  0
LINE
  5
240
100
AcDbEntity
  8
1
  6
CONTINUOUS
 62
           7
100
AcDbLine
 10
-189.411892626739
 20
-42.338846372149
 11
-186.911892626739
 21
-42.338846372149
  0
LINE
  5
23F
100
AcDbEntity
  8
1
  6
CONTINUOUS
 62
           7
100
AcDbLine
 10
-325.911892626739
 20
-42.338846372149
 11
-323.411892626739
 21
-42.338846372149
  0
LINE
  5
23E
100
AcDbEntity
  8
1
  6
CONTINUOUS
 62
           7
100
AcDbLine
 10
-325.411892626739
 20
-40.338846372149
 11
-325.411892626739
 21
-37.338846372149
  0
LINE
  5
23D
100
AcDbEntity
  8
1
  6
CONTINUOUS
 62
           7
100
AcDbLine
 10
-323.411892626739
 20
-40.453132086434
 11
-325.411892626739
 21
-40.338846372149
  0
LINE
  5
23C
100
AcDbEntity
  8
1
  6
CONTINUOUS
 62
           7
100
AcDbLine
 10
-327.411892626739
 20
-37.338846372149
 11
-327.411892626739
 21
-40.838846372149
  0
LINE
  5
23B
100
AcDbEntity
  8
1
  6
CONTINUOUS
 62
           7
100
AcDbLine
 10
-260.561892626739
 20
-25.252867913063
 11
-260.561892626739
 21
-27.338846372149
  0
LINE
  5
23A
100
AcDbEntity
  8
1
  6
CONTINUOUS
 62
           7
100
AcDbLine
 10
-252.261892626739
 20
-25.252867913063
 11
-252.261892626739
 21
-27.338846372149
  0
LINE
  5
239
100
AcDbEntity
  8
1
  6
CONTINUOUS
 62
           7
100
AcDbLine
 10
59.906261646214
 20
101.439781682404
 11
59.906261646214
 21
101.589781682405
  0
LINE
  5
238
100
AcDbEntity
  8
1
  6
CONTINUOUS
 62
           7
100
AcDbLine
 10
72.406261646214
 20
101.589781682405
 11
72.406261646214
 21
100.089781682405
  0
LINE
  5
237
100
AcDbEntity
  8
1
  6
CONTINUOUS
 62
           7
100
AcDbLine
 10
59.906261646214
 20
109.589781682405
 11
59.906261646214
 21
112.739781682405
  0
LINE
  5
236
100
AcDbEntity
  8
1
  6
CONTINUOUS
 62
           7
100
AcDbLine
 10
33.406261646214
 20
109.589781682405
 11
33.406261646214
 21
109.739781682405
  0
LINE
  5
235
100
AcDbEntity
  8
1
  6
CONTINUOUS
 62
           7
100
AcDbLine
 10
22.906261646214
 20
101.589781682405
 11
22.906261646214
 21
98.439781682404
  0
LINE
  5
234
100
AcDbEntity
  8
1
  6
CONTINUOUS
 62
           7
100
AcDbLine
 10
-3.593738353786
 20
170.582534925046
 11
-3.593738353786
 21
169.339291484441
  0
LINE
  5
233
100
AcDbEntity
  8
1
  6
CONTINUOUS
 62
           7
100
AcDbLine
 10
-3.593738353786
 20
40.597028439763
 11
-3.593738353786
 21
41.840271880367
  0
LINE
  5
232
100
AcDbEntity
  8
1
  6
CONTINUOUS
 62
           7
100
AcDbLine
 10
-3.593738353786
 20
176.5827390796
 11
-3.593738353786
 21
174.582534925046
  0
LINE
  5
231
100
AcDbEntity
  8
1
  6
CONTINUOUS
 62
           7
100
AcDbLine
 10
-3.593738353786
 20
34.596824285209
 11
-3.593738353786
 21
36.597028439763
  0
LINE
  5
230
100
AcDbEntity
  8
1
  6
CONTINUOUS
 62
           7
100
AcDbLine
 10
70.406261646214
 20
98.089781682404
 11
68.009023631848
 21
98.089781682404
  0
LINE
  5
22F
100
AcDbEntity
  8
1
  6
CONTINUOUS
 62
           7
100
AcDbLine
 10
72.406261646214
 20
111.089781682405
 11
72.406261646214
 21
109.589781682405
  0
LINE
  5
22E
100
AcDbEntity
  8
1
  6
CONTINUOUS
 62
           7
100
AcDbLine
 10
68.009023631848
 20
113.089781682405
 11
70.406261646214
 21
113.089781682405
  0
LINE
  5
22D
100
AcDbEntity
  8
1
  6
CONTINUOUS
 62
           7
100
AcDbLine
 10
-249.090319751485
 20
-33.338846372149
 11
-258.411892626739
 21
-33.338846372149
  0
LINE
  5
22C
100
AcDbEntity
  8
1
  6
CONTINUOUS
 62
           7
100
AcDbLine
 10
-254.411892626739
 20
-35.338846372149
 11
-252.411892626739
 21
-35.338846372149
  0
LINE
  5
22B
100
AcDbEntity
  8
1
  6
CONTINUOUS
 62
           7
100
AcDbLine
 10
-256.261892626739
 20
-35.338846372148
 11
-254.411892626739
 21
-35.338846372149
  0
LINE
  5
22A
100
AcDbEntity
  8
1
  6
CONTINUOUS
 62
           7
100
AcDbLine
 10
-260.411892626739
 20
-35.338846372149
 11
-258.411892626739
 21
-35.338846372149
  0
LINE
  5
229
100
AcDbEntity
  8
1
  6
CONTINUOUS
 62
           7
100
AcDbLine
 10
-258.411892626739
 20
-35.338846372149
 11
-256.561892626739
 21
-35.338846372149
  0
LINE
  5
228
100
AcDbEntity
  8
1
  6
CONTINUOUS
 62
           7
100
AcDbLine
 10
-258.411892626739
 20
-27.338846372149
 11
-258.411892626739
 21
-33.338846372149
  0
LINE
  5
227
100
AcDbEntity
  8
1
  6
CONTINUOUS
 62
           7
100
AcDbLine
 10
-260.561892626739
 20
-27.338846372149
 11
-258.411892626739
 21
-27.338846372149
  0
LINE
  5
226
100
AcDbEntity
  8
1
  6
CONTINUOUS
 62
           7
100
AcDbLine
 10
-254.411892626739
 20
-27.338846372149
 11
-254.411892626739
 21
-33.338846372149
  0
LINE
  5
225
100
AcDbEntity
  8
1
  6
CONTINUOUS
 62
           7
100
AcDbLine
 10
-252.261892626739
 20
-27.338846372149
 11
-254.411892626739
 21
-27.338846372149
  0
LINE
  5
224
100
AcDbEntity
  8
1
  6
CONTINUOUS
 62
           7
100
AcDbLine
 10
-306.411892626739
 20
-33.338846372149
 11
-320.411892626739
 21
-35.338846372149
  0
LINE
  5
223
100
AcDbEntity
  8
1
  6
CONTINUOUS
 62
           7
100
AcDbLine
 10
-258.411892626739
 20
-33.338846372149
 11
-306.411892626739
 21
-33.338846372149
  0
LINE
  5
222
100
AcDbEntity
  8
1
  6
CONTINUOUS
 62
           7
100
AcDbLine
 10
-206.411892626739
 20
-33.338846372149
 11
-249.090319751485
 21
-33.338846372149
  0
LINE
  5
221
100
AcDbEntity
  8
1
  6
CONTINUOUS
 62
           7
100
AcDbLine
 10
-192.411892626739
 20
-35.338846372149
 11
-206.411892626739
 21
-33.338846372149
  0
LINE
  5
220
100
AcDbEntity
  8
1
  6
CONTINUOUS
 62
           7
100
AcDbLine
 10
-260.561892626739
 20
-35.338846372149
 11
-260.411892626739
 21
-35.338846372149
  0
LINE
  5
21F
100
AcDbEntity
  8
1
  6
CONTINUOUS
 62
           7
100
AcDbLine
 10
-263.561892626739
 20
-35.338846372149
 11
-260.561892626739
 21
-35.338846372149
  0
LINE
  5
21E
100
AcDbEntity
  8
1
  6
CONTINUOUS
 62
           7
100
AcDbLine
 10
-252.411892626739
 20
-35.338846372149
 11
-252.261892626739
 21
-35.338846372149
  0
LINE
  5
21D
100
AcDbEntity
  8
1
  6
CONTINUOUS
 62
           7
100
AcDbLine
 10
-252.261892626739
 20
-35.338846372149
 11
-249.261892626739
 21
-35.338846372149
  0
LINE
  5
21C
100
AcDbEntity
  8
1
  6
CONTINUOUS
 62
           7
100
AcDbLine
 10
-266.561892626739
 20
-35.338846372149
 11
-263.561892626739
 21
-35.338846372149
  0
LINE
  5
21B
100
AcDbEntity
  8
1
  6
CONTINUOUS
 62
           7
100
AcDbLine
 10
-256.561892626739
 20
-35.338846372149
 11
-256.261892626739
 21
-35.338846372148
  0
LINE
  5
21A
100
AcDbEntity
  8
1
  6
CONTINUOUS
 62
           7
100
AcDbLine
 10
-249.261892626739
 20
-35.338846372149
 11
-246.261892626739
 21
-35.338846372149
  0
LINE
  5
219
100
AcDbEntity
  8
1
  6
CONTINUOUS
 62
           7
100
AcDbLine
 10
-325.911892626739
 20
-35.338846372149
 11
-266.561892626739
 21
-35.338846372149
  0
LINE
  5
218
100
AcDbEntity
  8
1
  6
CONTINUOUS
 62
           7
100
AcDbLine
 10
-260.561892626739
 20
-15.338846372149
 11
-260.561892626739
 21
-15.424824831234
  0
LINE
  5
217
100
AcDbEntity
  8
1
  6
CONTINUOUS
 62
           7
100
AcDbLine
 10
-263.261892626739
 20
-15.338846372149
 11
-260.561892626739
 21
-15.338846372149
  0
LINE
  5
216
100
AcDbEntity
  8
1
  6
CONTINUOUS
 62
           7
100
AcDbLine
 10
-252.261892626739
 20
-15.338846372149
 11
-252.261892626739
 21
-15.424824831234
  0
LINE
  5
215
100
AcDbEntity
  8
1
  6
CONTINUOUS
 62
           7
100
AcDbLine
 10
-249.561892626739
 20
-15.338846372149
 11
-252.261892626739
 21
-15.338846372149
  0
LINE
  5
214
100
AcDbEntity
  8
1
  6
CONTINUOUS
 62
           7
100
AcDbLine
 10
-263.561892626739
 20
-32.338846372149
 11
-263.561892626739
 21
-15.638846372149
  0
LINE
  5
213
100
AcDbEntity
  8
1
  6
CONTINUOUS
 62
           7
100
AcDbLine
 10
-249.261892626739
 20
-32.338846372149
 11
-249.261892626739
 21
-20.788846372149
  0
LINE
  5
212
100
AcDbEntity
  8
1
  6
CONTINUOUS
 62
           7
100
AcDbLine
 10
-246.261892626739
 20
-35.338846372149
 11
-186.911892626739
 21
-35.338846372149
  0
LINE
  5
211
100
AcDbEntity
  8
1
  6
CONTINUOUS
 62
           7
100
AcDbLine
 10
-327.411892626739
 20
-40.838846372149
 11
-327.411892626739
 21
-36.838846372149
  0
LINE
  5
210
100
AcDbEntity
  8
1
  6
CONTINUOUS
 62
           7
100
AcDbLine
 10
-186.911892626739
 20
-42.338846372149
 11
-189.411892626739
 21
-42.338846372149
  0
LINE
  5
20F
100
AcDbEntity
  8
1
  6
CONTINUOUS
 62
           7
100
AcDbLine
 10
-185.411892626739
 20
-36.838846372149
 11
-185.411892626739
 21
-40.838846372149
  0
LINE
  5
20E
100
AcDbEntity
  8
1
  6
CONTINUOUS
 62
           7
100
AcDbLine
 10
59.906261646214
 20
112.739781682405
 11
22.906261646214
 21
112.739781682405
  0
LINE
  5
20D
100
AcDbEntity
  8
1
  6
CONTINUOUS
 62
           7
100
AcDbLine
 10
22.906261646214
 20
112.739781682405
 11
22.906261646214
 21
109.589781682405
  0
LINE
  5
20C
100
AcDbEntity
  8
1
  6
CONTINUOUS
 62
           7
100
AcDbLine
 10
22.906261646214
 20
98.439781682404
 11
59.906261646214
 21
98.439781682404
  0
LINE
  5
20B
100
AcDbEntity
  8
1
  6
CONTINUOUS
 62
           7
100
AcDbLine
 10
59.906261646214
 20
98.439781682404
 11
59.906261646214
 21
101.439781682404
  0
LINE
  5
20A
100
AcDbEntity
  8
1
  6
CONTINUOUS
 62
           7
100
AcDbLine
 10
33.406261646214
 20
109.739781682405
 11
59.906261646214
 21
109.739781682405
  0
LINE
  5
209
100
AcDbEntity
  8
1
  6
CONTINUOUS
 62
           7
100
AcDbLine
 10
59.906261646214
 20
101.439781682404
 11
33.406261646214
 21
101.439781682404
  0
LINE
  5
208
100
AcDbEntity
  8
1
  6
CONTINUOUS
 62
           7
100
AcDbLine
 10
33.406261646214
 20
101.439781682404
 11
33.406261646214
 21
101.589781682405
  0
LINE
  5
207
100
AcDbEntity
  8
1
  6
CONTINUOUS
 62
           7
100
AcDbLine
 10
-3.593738353786
 20
36.597028439763
 11
0.906261646214
 21
37.597028439763
  0
LINE
  5
206
100
AcDbEntity
  8
1
  6
CONTINUOUS
 62
           7
100
AcDbLine
 10
0.906261646214
 20
37.597028439763
 11
0.906261646214
 21
40.597028439763
  0
LINE
  5
205
100
AcDbEntity
  8
1
  6
CONTINUOUS
 62
           7
100
AcDbLine
 10
0.906261646214
 20
40.597028439763
 11
-3.593738353786
 21
40.597028439763
  0
LINE
  5
204
100
AcDbEntity
  8
1
  6
CONTINUOUS
 62
           7
100
AcDbLine
 10
-3.593738353786
 20
174.582534925046
 11
0.906261646214
 21
173.582534925046
  0
LINE
  5
203
100
AcDbEntity
  8
1
  6
CONTINUOUS
 62
           7
100
AcDbLine
 10
0.906261646214
 20
173.582534925046
 11
0.906261646214
 21
170.582534925046
  0
LINE
  5
202
100
AcDbEntity
  8
1
  6
CONTINUOUS
 62
           7
100
AcDbLine
 10
0.906261646214
 20
170.582534925046
 11
-3.593738353786
 21
170.582534925046
  0
LINE
  5
201
100
AcDbEntity
  8
1
  6
CONTINUOUS
 62
           7
100
AcDbLine
 10
-323.411892626739
 20
-42.338846372149
 11
-325.911892626739
 21
-42.338846372149
  0
LINE
  5
200
100
AcDbEntity
  8
1
  6
CONTINUOUS
 62
           7
100
AcDbLine
 10
-249.261892626739
 20
-19.888846372149
 11
-249.261892626739
 21
-15.638846372149
  0
LINE
  5
1FF
100
AcDbEntity
  8
1
  6
CONTINUOUS
 62
           7
100
AcDbLine
 10
91.47775057523
 20
100.089781682405
 11
86.156261646214
 21
100.089781682405
  0
LINE
  5
1FE
100
AcDbEntity
  8
1
  6
CONTINUOUS
 62
           7
100
AcDbLine
 10
86.156261646214
 20
109.863870111706
 11
86.156261646214
 21
111.089781682405
  0
LINE
  5
1FD
100
AcDbEntity
  8
1
  6
CONTINUOUS
 62
           7
100
AcDbLine
 10
84.406261646214
 20
101.501791761117
 11
84.406261646214
 21
100.089781682405
  0
LINE
  5
1FC
100
AcDbEntity
  8
1
  6
CONTINUOUS
 62
           7
100
AcDbLine
 10
86.156261646214
 20
100.089781682405
 11
86.156261646214
 21
101.315693253103
  0
LINE
  5
1FB
100
AcDbEntity
  8
1
  6
CONTINUOUS
 62
           7
100
AcDbLine
 10
86.156261646214
 20
111.089781682405
 11
91.47775057523
 21
111.089781682405
  0
LINE
  5
1FA
100
AcDbEntity
  8
1
  6
CONTINUOUS
 62
           7
100
AcDbLine
 10
-3.593738353786
 20
36.684080854203
 11
0.906261646214
 21
37.684080854203
  0
LINE
  5
1F9
100
AcDbEntity
  8
1
  6
CONTINUOUS
 62
           7
100
AcDbLine
 10
90.254759037353
 20
98.089781682404
 11
82.406261646214
 21
98.089781682404
  0
LINE
  5
1F8
100
AcDbEntity
  8
1
  6
CONTINUOUS
 62
           7
100
AcDbLine
 10
82.406261646214
 20
98.089781682404
 11
70.406261646214
 21
98.089781682404
  0
LINE
  5
1F7
100
AcDbEntity
  8
1
  6
DOT_CENTER
 62
           2
100
AcDbLine
 10
-2.593738353786
 20
31.756339107382
 11
-2.593738353786
 21
38.589781682404
  0
LINE
  5
1F6
100
AcDbEntity
  8
1
  6
CONTINUOUS
 62
           7
100
AcDbLine
 10
-36.8822150084
 20
45.712403911614
 11
-69.078410575135
 21
64.149391988869
  0
LINE
  5
1F5
100
AcDbEntity
  8
1
  6
CONTINUOUS
 62
           7
100
AcDbLine
 10
-34.480314469503
 20
48.948398722447
 11
-67.593738353786
 21
67.589781682404
  0
LINE
  5
1F4
100
AcDbEntity
  8
1
  6
CONTINUOUS
 62
           7
100
AcDbLine
 10
-67.593738353786
 20
67.589781682404
 11
-67.593738353786
 21
105.589781682405
  0
LINE
  5
1F3
100
AcDbEntity
  8
1
  6
CONTINUOUS
 62
           7
100
AcDbLine
 10
-71.593738353786
 20
105.589781682405
 11
-71.593738353786
 21
68.488332407042
  0
LINE
  5
1F2
100
AcDbEntity
  8
1
  6
CONTINUOUS
 62
           7
100
AcDbLine
 10
0.906261646214
 20
173.495482510606
 11
0.906261646214
 21
170.582534925046
  0
LINE
  5
1F1
100
AcDbEntity
  8
1
  6
CONTINUOUS
 62
           7
100
AcDbLine
 10
0.906261646214
 20
173.495482510606
 11
-3.593738353786
 21
174.495482510606
  0
LINE
  5
1F0
100
AcDbEntity
  8
1
  6
CONTINUOUS
 62
           7
100
AcDbLine
 10
70.406261646214
 20
113.089781682405
 11
68.009023631848
 21
113.089781682405
  0
LINE
  5
1EF
100
AcDbEntity
  8
1
  6
CONTINUOUS
 62
           7
100
AcDbLine
 10
99.406261646214
 20
115.589781682405
 11
67.698508729374
 21
115.589781682405
  0
LINE
  5
1EE
100
AcDbEntity
  8
1
  6
CONTINUOUS
 62
           7
100
AcDbLine
 10
82.406261646214
 20
113.089781682405
 11
90.254759037353
 21
113.089781682405
  0
LINE
  5
1ED
100
AcDbEntity
  8
1
  6
CONTINUOUS
 62
           7
100
AcDbLine
 10
70.406261646214
 20
113.089781682405
 11
82.406261646214
 21
113.089781682405
  0
LINE
  5
1EC
100
AcDbEntity
  8
1
  6
CONTINUOUS
 62
           7
100
AcDbLine
 10
84.406261646214
 20
111.089781682405
 11
84.406261646214
 21
109.677771603692
  0
LINE
  5
1EB
100
AcDbEntity
  8
1
  6
DOT_CENTER
 62
           2
100
AcDbLine
 10
-2.593738353786
 20
105.589781682405
 11
-2.593738353786
 21
176.531510662471
  0
LINE
  5
1EA
100
AcDbEntity
  8
1
  6
CONTINUOUS
 62
           7
100
AcDbLine
 10
-69.078410575135
 20
147.03017137594
 11
-36.8822150084
 21
165.467159453195
  0
LINE
  5
1E9
100
AcDbEntity
  8
1
  6
CONTINUOUS
 62
           7
100
AcDbLine
 10
-67.593738353786
 20
143.589781682404
 11
-34.480314469503
 21
162.231164642362
  0
LINE
  5
1E8
100
AcDbEntity
  8
1
  6
CONTINUOUS
 62
           7
100
AcDbLine
 10
-67.593738353786
 20
105.589781682405
 11
-67.593738353786
 21
143.589781682404
  0
LINE
  5
1E7
100
AcDbEntity
  8
1
  6
CONTINUOUS
 62
           7
100
AcDbLine
 10
-71.593738353786
 20
142.691230957767
 11
-71.593738353786
 21
105.589781682405
  0
LINE
  5
1E6
100
AcDbEntity
  8
1
  6
CONTINUOUS
 62
           7
100
AcDbLine
 10
-323.411892626739
 20
-35.338846372149
 11
-325.411892626739
 21
-35.338846372149
  0
LINE
  5
1E5
100
AcDbEntity
  8
1
  6
CONTINUOUS
 62
           7
100
AcDbLine
 10
-274.411892626739
 20
-244.338846372149
 11
-274.911892626739
 21
-243.838846372149
  0
LINE
  5
1E4
100
AcDbEntity
  8
1
  6
CONTINUOUS
 62
           7
100
AcDbLine
 10
-323.411892626739
 20
-108.479993521458
 11
-323.411892626739
 21
-37.338846372149
  0
LINE
  5
1E3
100
AcDbEntity
  8
1
  6
CONTINUOUS
 62
           7
100
AcDbLine
 10
-256.411892626739
 20
-35.338846372149
 11
-323.411892626739
 21
-35.338846372149
  0
LINE
  5
1E2
100
AcDbEntity
  8
1
  6
CONTINUOUS
 62
           7
100
AcDbLine
 10
-276.592566821267
 20
-221.173879638516
 11
-309.863714312736
 21
-178.315526875483
  0
LINE
  5
1E1
100
AcDbEntity
  8
1
  6
CONTINUOUS
 62
           7
100
AcDbLine
 10
-274.911892626739
 20
-226.079602965845
 11
-274.911892626739
 21
-228.199734387973
  0
LINE
  5
1E0
100
AcDbEntity
  8
1
  6
CONTINUOUS
 62
           7
100
AcDbLine
 10
-323.411892626739
 20
-140.338846372149
 11
-323.411892626739
 21
-108.479993521458
  0
LINE
  5
1DF
100
AcDbEntity
  8
1
  6
CONTINUOUS
 62
           7
100
AcDbLine
 10
-296.411892626739
 20
-35.338846372149
 11
-298.411892626739
 21
-35.338846372149
  0
LINE
  5
1DE
100
AcDbEntity
  8
1
  6
CONTINUOUS
 62
           7
100
AcDbLine
 10
-296.411892626739
 20
-41.338846372149
 11
-315.411892626739
 21
-37.338846372149
  0
LINE
  5
1DD
100
AcDbEntity
  8
1
  6
CONTINUOUS
 62
           7
100
AcDbLine
 10
-315.411892626739
 20
-37.338846372149
 11
-325.411892626739
 21
-37.338846372149
  0
LINE
  5
1DC
100
AcDbEntity
  8
1
  6
CONTINUOUS
 62
           7
100
AcDbLine
 10
-325.411892626739
 20
-37.338846372149
 11
-325.411892626739
 21
-35.338846372149
  0
LINE
  5
1DB
100
AcDbEntity
  8
1
  6
CONTINUOUS
 62
           7
100
AcDbLine
 10
-296.411892626739
 20
-41.338846372149
 11
-256.411892626739
 21
-41.338846372149
  0
LINE
  5
1DA
100
AcDbEntity
  8
1
  6
CONTINUOUS
 62
           7
100
AcDbLine
 10
-296.411892626739
 20
-41.338846372149
 11
-280.88057113302
 21
-115.465616520718
  0
LINE
  5
1D9
100
AcDbEntity
  8
1
  6
DOT_CENTER
 62
           2
100
AcDbLine
 10
-2.593738353786
 20
38.589781682404
 11
-2.593738353786
 21
105.589781682405
  0
LINE
  5
1D8
100
AcDbEntity
  8
1
  6
DOT_CENTER
 62
           2
100
AcDbLine
 10
46.062183526747
 20
105.589781682405
 11
-75.517283303167
 21
105.589781682405
  0
LINE
  5
1D7
100
AcDbEntity
  8
1
  6
DOT_CENTER
 62
           2
100
AcDbLine
 10
119.907628980556
 20
105.589781682405
 11
46.062183526747
 21
105.589781682405
  0
LINE
  5
1D6
100
AcDbEntity
  8
1
  6
CONTINUOUS
 62
           7
100
AcDbLine
 10
-231.943214120458
 20
-115.465616520718
 11
-216.411892626739
 21
-41.338846372149
  0
LINE
  5
1D5
100
AcDbEntity
  8
1
  6
CONTINUOUS
 62
           7
100
AcDbLine
 10
-256.411892626739
 20
-41.338846372149
 11
-216.411892626739
 21
-41.338846372149
  0
LINE
  5
1D4
100
AcDbEntity
  8
1
  6
CONTINUOUS
 62
           7
100
AcDbLine
 10
-187.411892626739
 20
-35.338846372149
 11
-187.411892626739
 21
-37.338846372149
  0
LINE
  5
1D3
100
AcDbEntity
  8
1
  6
CONTINUOUS
 62
           7
100
AcDbLine
 10
-187.411892626739
 20
-37.338846372149
 11
-197.411892626739
 21
-37.338846372149
  0
LINE
  5
1D2
100
AcDbEntity
  8
1
  6
CONTINUOUS
 62
           7
100
AcDbLine
 10
-197.411892626739
 20
-37.338846372149
 11
-216.411892626739
 21
-41.338846372149
  0
LINE
  5
1D1
100
AcDbEntity
  8
1
  6
CONTINUOUS
 62
           7
100
AcDbLine
 10
-214.411892626739
 20
-35.338846372149
 11
-216.411892626739
 21
-35.338846372149
  0
LINE
  5
1D0
100
AcDbEntity
  8
1
  6
CONTINUOUS
 62
           7
100
AcDbLine
 10
-189.411892626739
 20
-108.479993521458
 11
-189.411892626739
 21
-140.338846372149
  0
LINE
  5
1CF
100
AcDbEntity
  8
1
  6
CONTINUOUS
 62
           7
100
AcDbLine
 10
-237.911892626739
 20
-243.838846372149
 11
-237.911892626739
 21
-241.199734387973
  0
LINE
  5
1CE
100
AcDbEntity
  8
1
  6
CONTINUOUS
 62
           7
100
AcDbLine
 10
-202.960070940741
 20
-178.315526875483
 11
-236.231218432211
 21
-221.173879638516
  0
LINE
  5
1CD
100
AcDbEntity
  8
1
  6
CONTINUOUS
 62
           7
100
AcDbLine
 10
-189.411892626739
 20
-35.338846372149
 11
-256.411892626739
 21
-35.338846372149
  0
LINE
  5
1CC
100
AcDbEntity
  8
1
  6
CONTINUOUS
 62
           7
100
AcDbLine
 10
-189.411892626739
 20
-37.338846372149
 11
-189.411892626739
 21
-108.479993521458
  0
LINE
  5
1CB
100
AcDbEntity
  8
1
  6
CONTINUOUS
 62
           7
100
AcDbLine
 10
-237.911892626739
 20
-243.838846372149
 11
-238.411892626739
 21
-244.338846372149
  0
LINE
  5
1CA
100
AcDbEntity
  8
1
  6
CONTINUOUS
 62
           7
100
AcDbLine
 10
-187.411892626739
 20
-35.338846372149
 11
-189.411892626739
 21
-35.338846372149
  0
LINE
  5
1C9
100
AcDbEntity
  8
1
  6
DOT_CENTER
 62
           2
100
AcDbLine
 10
-256.411892626739
 20
-244.338846372149
 11
-256.411892626739
 21
-251.252735962433
  0
LINE
  5
1C8
100
AcDbEntity
  8
1
  6
DOT_CENTER
 62
           2
100
AcDbLine
 10
-256.411892626739
 20
-9.259646072671
 11
-256.411892626739
 21
-110.338846372149
  0
LINE
  5
1C7
100
AcDbEntity
  8
1
  6
CONTINUOUS
 62
           7
100
AcDbLine
 10
-274.411892626739
 20
-244.338846372149
 11
-238.411892626739
 21
-244.338846372149
  0
LINE
  5
1C6
100
AcDbEntity
  8
1
  6
CONTINUOUS
 62
           7
100
AcDbLine
 10
-271.911892626739
 20
-223.338846372149
 11
-240.911892626739
 21
-223.338846372149
  0
LINE
  5
1C5
100
AcDbEntity
  8
1
  6
CONTINUOUS
 62
           7
100
AcDbLine
 10
0.906261646214
 20
40.597028439763
 11
0.906261646214
 21
37.684080854203
  0
LINE
  5
1C4
100
AcDbEntity
  8
1
  6
CONTINUOUS
 62
           7
100
AcDbLine
 10
67.698508729374
 20
95.589781682404
 11
99.406261646214
 21
95.589781682404
  0
LINE
  5
1C3
100
AcDbEntity
  8
1
  6
CONTINUOUS
 62
           7
100
AcDbLine
 10
68.009023631848
 20
98.089781682404
 11
70.406261646214
 21
98.089781682404
  0
LINE
  5
1C2
100
AcDbEntity
  8
1
  6
CONTINUOUS
 62
           7
100
AcDbLine
 10
-237.911892626739
 20
-228.199734387973
 11
-237.911892626739
 21
-226.079602965845
  0
LINE
  5
1C1
100
AcDbEntity
  8
1
  6
CONTINUOUS
 62
           7
100
AcDbLine
 10
-274.911892626739
 20
-241.199734387973
 11
-274.911892626739
 21
-243.838846372149
  0
LINE
  5
1C0
100
AcDbEntity
  8
1
  6
CONTINUOUS
 62
           7
100
AcDbLine
 10
63.893985971554
 20
80.637789892168
 11
64.130211224966
 21
80.833783089684
  0
LINE
  5
1BF
100
AcDbEntity
  8
1
  6
CONTINUOUS
 62
           7
100
AcDbLine
 10
81.324778041912
 20
81.985786490926
 11
67.322846840872
 21
81.985786490926
  0
LINE
  5
1BE
100
AcDbEntity
  8
1
  6
CONTINUOUS
 62
           7
100
AcDbLine
 10
81.424120147175
 20
89.485786490926
 11
67.322846840872
 21
89.485786490926
  0
LINE
  5
1BD
100
AcDbEntity
  8
1
  6
CONTINUOUS
 62
           7
100
AcDbLine
 10
84.906261646214
 20
-41.338846372149
 11
73.906261646214
 21
-41.338846372149
  0
LINE
  5
1BC
100
AcDbEntity
  8
1
  6
CONTINUOUS
 62
           7
100
AcDbLine
 10
84.906261646214
 20
-37.338846372149
 11
84.906261646214
 21
-41.338846372149
  0
LINE
  5
1BB
100
AcDbEntity
  8
1
  6
CONTINUOUS
 62
           7
100
AcDbLine
 10
73.906261646214
 20
-37.338846372149
 11
84.906261646214
 21
-37.338846372149
  0
LINE
  5
1BA
100
AcDbEntity
  8
1
  6
CONTINUOUS
 62
           7
100
AcDbLine
 10
73.906261646214
 20
-41.338846372149
 11
73.906261646214
 21
-37.338846372149
  0
LINE
  5
1B9
100
AcDbEntity
  8
1
  6
CONTINUOUS
 62
           7
100
AcDbLine
 10
96.056261646214
 20
-50.338846372149
 11
96.056261646214
 21
-29.400610366011
  0
LINE
  5
1B8
100
AcDbEntity
  8
1
  6
CONTINUOUS
 62
           7
100
AcDbLine
 10
103.656261646214
 20
-26.364823195412
 11
101.156261646213
 21
-26.364823195412
  0
LINE
  5
1B7
100
AcDbEntity
  8
1
  6
CONTINUOUS
 62
           7
100
AcDbLine
 10
108.756261646214
 20
-29.400610366011
 11
108.756261646214
 21
-50.338846372149
  0
LINE
  5
1B6
100
AcDbEntity
  8
1
  6
CONTINUOUS
 62
           7
100
AcDbLine
 10
96.056261646214
 20
-29.400610366011
 11
108.756261646214
 21
-29.400610366011
  0
LINE
  5
1B5
100
AcDbEntity
  8
1
  6
CONTINUOUS
 62
           7
100
AcDbLine
 10
-26.107968296518
 20
-280.83884637215
 11
-23.107968296518
 21
-280.83884637215
  0
LINE
  5
1B4
100
AcDbEntity
  8
1
  6
CONTINUOUS
 62
           7
100
AcDbLine
 10
-26.107968296518
 20
-280.438846372149
 11
-23.107968296517
 21
-280.43884637215
  0
LINE
  5
1B3
100
AcDbEntity
  8
1
  6
CONTINUOUS
 62
           7
100
AcDbLine
 10
-26.107968296518
 20
-279.93884637215
 11
-23.107968296517
 21
-279.93884637215
  0
LINE
  5
1B2
100
AcDbEntity
  8
1
  6
CONTINUOUS
 62
           7
100
AcDbLine
 10
-26.107968296517
 20
-279.43884637215
 11
-23.107968296517
 21
-279.43884637215
  0
LINE
  5
1B1
100
AcDbEntity
  8
1
  6
CONTINUOUS
 62
           7
100
AcDbLine
 10
-26.107968296517
 20
-278.93884637215
 11
-23.107968296517
 21
-278.93884637215
  0
LINE
  5
1B0
100
AcDbEntity
  8
1
  6
CONTINUOUS
 62
           7
100
AcDbLine
 10
-26.107968296517
 20
-278.13884637215
 11
-23.107968296518
 21
-278.13884637215
  0
LINE
  5
1AF
100
AcDbEntity
  8
1
  6
CONTINUOUS
 62
           7
100
AcDbLine
 10
-26.107968296518
 20
-277.33884637215
 11
-23.107968296517
 21
-277.33884637215
  0
LINE
  5
1AE
100
AcDbEntity
  8
1
  6
CONTINUOUS
 62
           7
100
AcDbLine
 10
-26.107968296517
 20
-276.33884637215
 11
-23.107968296518
 21
-276.33884637215
  0
LINE
  5
1AD
100
AcDbEntity
  8
1
  6
CONTINUOUS
 62
           7
100
AcDbLine
 10
-26.107968296517
 20
-275.33884637215
 11
-23.107968296517
 21
-275.33884637215
  0
LINE
  5
1AC
100
AcDbEntity
  8
1
  6
CONTINUOUS
 62
           7
100
AcDbLine
 10
-26.107968296517
 20
-274.33884637215
 11
-23.107968296517
 21
-274.33884637215
  0
LINE
  5
1AB
100
AcDbEntity
  8
1
  6
CONTINUOUS
 62
           7
100
AcDbLine
 10
-26.107968296517
 20
-273.33884637215
 11
-23.107968296517
 21
-273.33884637215
  0
LINE
  5
1AA
100
AcDbEntity
  8
1
  6
CONTINUOUS
 62
           7
100
AcDbLine
 10
-26.107968296517
 20
-272.33884637215
 11
-23.107968296517
 21
-272.33884637215
  0
LINE
  5
1A9
100
AcDbEntity
  8
1
  6
CONTINUOUS
 62
           7
100
AcDbLine
 10
-26.107968296517
 20
-271.33884637215
 11
-23.107968296517
 21
-271.33884637215
  0
LINE
  5
1A8
100
AcDbEntity
  8
1
  6
CONTINUOUS
 62
           7
100
AcDbLine
 10
-26.107968296517
 20
-270.338846372149
 11
-23.107968296517
 21
-270.33884637215
  0
LINE
  5
1A7
100
AcDbEntity
  8
1
  6
CONTINUOUS
 62
           7
100
AcDbLine
 10
-26.107968296517
 20
-269.33884637215
 11
-23.107968296517
 21
-269.338846372149
  0
LINE
  5
1A6
100
AcDbEntity
  8
1
  6
CONTINUOUS
 62
           7
100
AcDbLine
 10
-26.107968296516
 20
-268.33884637215
 11
-23.107968296517
 21
-268.33884637215
  0
LINE
  5
1A5
100
AcDbEntity
  8
1
  6
CONTINUOUS
 62
           7
100
AcDbLine
 10
-26.107968296517
 20
-267.33884637215
 11
-23.107968296517
 21
-267.33884637215
  0
LINE
  5
1A4
100
AcDbEntity
  8
1
  6
CONTINUOUS
 62
           7
100
AcDbLine
 10
-26.107968296517
 20
-266.33884637215
 11
-23.107968296517
 21
-266.33884637215
  0
LINE
  5
1A3
100
AcDbEntity
  8
1
  6
CONTINUOUS
 62
           7
100
AcDbLine
 10
-26.107968296517
 20
-265.33884637215
 11
-23.107968296517
 21
-265.33884637215
  0
LINE
  5
1A2
100
AcDbEntity
  8
1
  6
CONTINUOUS
 62
           7
100
AcDbLine
 10
-23.107968296518
 20
-281.33884637215
 11
-23.107968296517
 21
-264.33884637215
  0
LINE
  5
1A1
100
AcDbEntity
  8
1
  6
CONTINUOUS
 62
           7
100
AcDbLine
 10
-26.107968296518
 20
-281.338846372149
 11
-26.107968296517
 21
-264.33884637215
  0
LINE
  5
1A0
100
AcDbEntity
  8
1
  6
CONTINUOUS
 62
           7
100
AcDbLine
 10
-23.107968296518
 20
-281.33884637215
 11
-22.607968296518
 21
-280.83884637215
  0
LINE
  5
19F
100
AcDbEntity
  8
1
  6
CONTINUOUS
 62
           7
100
AcDbLine
 10
-26.607968296518
 20
-280.83884637215
 11
-26.107968296518
 21
-281.338846372149
  0
LINE
  5
19E
100
AcDbEntity
  8
1
  6
CONTINUOUS
 62
           7
100
AcDbLine
 10
-23.107968296518
 20
-281.33884637215
 11
-26.107968296518
 21
-281.338846372149
  0
LINE
  5
19D
100
AcDbEntity
  8
1
  6
CONTINUOUS
 62
           7
100
AcDbLine
 10
-26.607968296518
 20
-280.83884637215
 11
-26.607968296517
 21
-264.33884637215
  0
LINE
  5
19C
100
AcDbEntity
  8
1
  6
CONTINUOUS
 62
           7
100
AcDbLine
 10
-22.607968296517
 20
-264.33884637215
 11
-22.607968296518
 21
-280.83884637215
  0
LINE
  5
19B
100
AcDbEntity
  8
1
  6
CONTINUOUS
 62
           7
100
AcDbLine
 10
-22.607968296516
 20
-247.83884637215
 11
-22.607968296517
 21
-264.33884637215
  0
LINE
  5
19A
100
AcDbEntity
  8
1
  6
CONTINUOUS
 62
           7
100
AcDbLine
 10
-26.607968296517
 20
-264.33884637215
 11
-26.607968296516
 21
-247.83884637215
  0
LINE
  5
199
100
AcDbEntity
  8
1
  6
CONTINUOUS
 62
           7
100
AcDbLine
 10
-26.107968296516
 20
-247.33884637215
 11
-23.107968296515
 21
-247.33884637215
  0
LINE
  5
198
100
AcDbEntity
  8
1
  6
CONTINUOUS
 62
           7
100
AcDbLine
 10
-26.107968296516
 20
-247.33884637215
 11
-26.607968296516
 21
-247.83884637215
  0
LINE
  5
197
100
AcDbEntity
  8
1
  6
CONTINUOUS
 62
           7
100
AcDbLine
 10
-22.607968296516
 20
-247.83884637215
 11
-23.107968296515
 21
-247.33884637215
  0
LINE
  5
196
100
AcDbEntity
  8
1
  6
CONTINUOUS
 62
           7
100
AcDbLine
 10
-26.107968296517
 20
-264.33884637215
 11
-26.107968296516
 21
-247.33884637215
  0
LINE
  5
195
100
AcDbEntity
  8
1
  6
CONTINUOUS
 62
           7
100
AcDbLine
 10
-23.107968296517
 20
-264.33884637215
 11
-23.107968296515
 21
-247.33884637215
  0
LINE
  5
194
100
AcDbEntity
  8
1
  6
CONTINUOUS
 62
           7
100
AcDbLine
 10
-23.107968296517
 20
-263.33884637215
 11
-26.107968296517
 21
-263.33884637215
  0
LINE
  5
193
100
AcDbEntity
  8
1
  6
CONTINUOUS
 62
           7
100
AcDbLine
 10
-23.107968296516
 20
-262.33884637215
 11
-26.107968296516
 21
-262.33884637215
  0
LINE
  5
192
100
AcDbEntity
  8
1
  6
CONTINUOUS
 62
           7
100
AcDbLine
 10
-23.107968296516
 20
-261.33884637215
 11
-26.107968296517
 21
-261.33884637215
  0
LINE
  5
191
100
AcDbEntity
  8
1
  6
CONTINUOUS
 62
           7
100
AcDbLine
 10
-23.107968296517
 20
-260.33884637215
 11
-26.107968296517
 21
-260.33884637215
  0
LINE
  5
190
100
AcDbEntity
  8
1
  6
CONTINUOUS
 62
           7
100
AcDbLine
 10
-23.107968296516
 20
-259.33884637215
 11
-26.107968296516
 21
-259.33884637215
  0
LINE
  5
18F
100
AcDbEntity
  8
1
  6
CONTINUOUS
 62
           7
100
AcDbLine
 10
-23.107968296516
 20
-258.33884637215
 11
-26.107968296516
 21
-258.33884637215
  0
LINE
  5
18E
100
AcDbEntity
  8
1
  6
CONTINUOUS
 62
           7
100
AcDbLine
 10
-23.107968296516
 20
-257.33884637215
 11
-26.107968296516
 21
-257.33884637215
  0
LINE
  5
18D
100
AcDbEntity
  8
1
  6
CONTINUOUS
 62
           7
100
AcDbLine
 10
-23.107968296516
 20
-256.33884637215
 11
-26.107968296517
 21
-256.33884637215
  0
LINE
  5
18C
100
AcDbEntity
  8
1
  6
CONTINUOUS
 62
           7
100
AcDbLine
 10
-23.107968296516
 20
-255.33884637215
 11
-26.107968296516
 21
-255.33884637215
  0
LINE
  5
18B
100
AcDbEntity
  8
1
  6
CONTINUOUS
 62
           7
100
AcDbLine
 10
-23.107968296516
 20
-254.33884637215
 11
-26.107968296516
 21
-254.33884637215
  0
LINE
  5
18A
100
AcDbEntity
  8
1
  6
CONTINUOUS
 62
           7
100
AcDbLine
 10
-23.107968296516
 20
-253.33884637215
 11
-26.107968296516
 21
-253.33884637215
  0
LINE
  5
189
100
AcDbEntity
  8
1
  6
CONTINUOUS
 62
           7
100
AcDbLine
 10
-23.107968296516
 20
-252.33884637215
 11
-26.107968296516
 21
-252.33884637215
  0
LINE
  5
188
100
AcDbEntity
  8
1
  6
CONTINUOUS
 62
           7
100
AcDbLine
 10
-23.107968296516
 20
-251.33884637215
 11
-26.107968296516
 21
-251.33884637215
  0
LINE
  5
187
100
AcDbEntity
  8
1
  6
CONTINUOUS
 62
           7
100
AcDbLine
 10
-23.107968296515
 20
-250.53884637215
 11
-26.107968296516
 21
-250.53884637215
  0
LINE
  5
186
100
AcDbEntity
  8
1
  6
CONTINUOUS
 62
           7
100
AcDbLine
 10
-23.107968296516
 20
-249.73884637215
 11
-26.107968296516
 21
-249.73884637215
  0
LINE
  5
185
100
AcDbEntity
  8
1
  6
CONTINUOUS
 62
           7
100
AcDbLine
 10
-23.107968296516
 20
-249.23884637215
 11
-26.107968296516
 21
-249.23884637215
  0
LINE
  5
184
100
AcDbEntity
  8
1
  6
CONTINUOUS
 62
           7
100
AcDbLine
 10
-23.107968296516
 20
-248.73884637215
 11
-26.107968296516
 21
-248.73884637215
  0
LINE
  5
183
100
AcDbEntity
  8
1
  6
CONTINUOUS
 62
           7
100
AcDbLine
 10
-23.107968296516
 20
-248.23884637215
 11
-26.107968296515
 21
-248.23884637215
  0
LINE
  5
182
100
AcDbEntity
  8
1
  6
CONTINUOUS
 62
           7
100
AcDbLine
 10
-23.107968296515
 20
-247.83884637215
 11
-26.107968296515
 21
-247.83884637215
  0
LINE
  5
181
100
AcDbEntity
  8
1
  6
CONTINUOUS
 62
           7
100
AcDbLine
 10
-26.107968296517
 20
-264.33884637215
 11
-23.107968296517
 21
-264.33884637215
  0
LINE
  5
180
100
AcDbEntity
  8
1
  6
CONTINUOUS
 62
           2
100
AcDbLine
 10
-59.593738353786
 20
-109.831565275768
 11
-59.593738353786
 21
-89.83187019053
  0
LINE
  5
17F
100
AcDbEntity
  8
1
  6
CONTINUOUS
 62
           2
100
AcDbLine
 10
54.406261646214
 20
-109.831565275768
 11
-59.593738353786
 21
-109.831565275768
  0
LINE
  5
17E
100
AcDbEntity
  8
1
  6
CONTINUOUS
 62
           2
100
AcDbLine
 10
54.406261646214
 20
-89.83187019053
 11
54.406261646214
 21
-109.831565275768
  0
LINE
  5
17D
100
AcDbEntity
  8
1
  6
CONTINUOUS
 62
           2
100
AcDbLine
 10
-59.593738353786
 20
-89.83187019053
 11
54.406261646214
 21
-89.83187019053
  0
LINE
  5
17C
100
AcDbEntity
  8
1
  6
CONTINUOUS
 62
           7
100
AcDbLine
 10
-69.593738353786
 20
-140.338846372149
 11
-69.593738353786
 21
-108.479993521458
  0
LINE
  5
17B
100
AcDbEntity
  8
1
  6
CONTINUOUS
 62
           7
100
AcDbLine
 10
-3.593738353786
 20
-37.338846372149
 11
-3.593738353786
 21
-35.338846372149
  0
LINE
  5
17A
100
AcDbEntity
  8
1
  6
CONTINUOUS
 62
           7
100
AcDbLine
 10
-7.593738353786
 20
-37.338846372149
 11
-52.593738353786
 21
-37.338846372149
  0
LINE
  5
179
100
AcDbEntity
  8
1
  6
CONTINUOUS
 62
           7
100
AcDbLine
 10
-71.593738353786
 20
-41.338846372149
 11
-71.593738353786
 21
-35.338846372149
  0
LINE
  5
178
100
AcDbEntity
  8
1
  6
CONTINUOUS
 62
           7
100
AcDbLine
 10
84.406261646214
 20
-48.338846372149
 11
84.406261646214
 21
-41.338846372149
  0
LINE
  5
177
100
AcDbEntity
  8
1
  6
CONTINUOUS
 62
           7
100
AcDbLine
 10
84.406261646214
 20
-41.338846372149
 11
81.864761646214
 21
-41.338846372149
  0
LINE
  5
176
100
AcDbEntity
  8
1
  6
CONTINUOUS
 62
           7
100
AcDbLine
 10
86.406261646214
 20
-50.338846372149
 11
92.656261646214
 21
-50.338846372149
  0
LINE
  5
175
100
AcDbEntity
  8
1
  6
CONTINUOUS
 62
           7
100
AcDbLine
 10
114.406261646214
 20
-51.338846372149
 11
114.406261646214
 21
-149.338846372149
  0
LINE
  5
174
100
AcDbEntity
  8
1
  6
CONTINUOUS
 62
           7
100
AcDbLine
 10
108.406261646214
 20
-155.338846372149
 11
104.406261646214
 21
-155.338846372149
  0
LINE
  5
173
100
AcDbEntity
  8
1
  6
CONTINUOUS
 62
           7
100
AcDbLine
 10
81.406261646214
 20
-60.338846372149
 11
76.947761646214
 21
-60.338846372149
  0
LINE
  5
172
100
AcDbEntity
  8
1
  6
CONTINUOUS
 62
           7
100
AcDbLine
 10
89.406261646214
 20
-68.338846372149
 11
89.406261646214
 21
-98.635491535848
  0
LINE
  5
171
100
AcDbEntity
  8
1
  6
CONTINUOUS
 62
           7
100
AcDbLine
 10
64.406261646214
 20
-65.338846372149
 11
64.406261646214
 21
-98.635491535848
  0
LINE
  5
170
100
AcDbEntity
  8
1
  6
CONTINUOUS
 62
           7
100
AcDbLine
 10
0.906261646214
 20
-37.338846372149
 11
35.766657319129
 21
-37.338846372149
  0
LINE
  5
16F
100
AcDbEntity
  8
1
  6
CONTINUOUS
 62
           7
100
AcDbLine
 10
72.406261646214
 20
-41.338846372149
 11
72.406261646214
 21
-37.338846372149
  0
LINE
  5
16E
100
AcDbEntity
  8
1
  6
CONTINUOUS
 62
           7
100
AcDbLine
 10
-2.593738353786
 20
-40.338846372149
 11
-4.593738353786
 21
-40.338846372149
  0
LINE
  5
16D
100
AcDbEntity
  8
1
  6
CONTINUOUS
 62
           7
100
AcDbLine
 10
-3.593738353786
 20
-35.338846372149
 11
-69.593738353786
 21
-35.338846372149
  0
LINE
  5
16C
100
AcDbEntity
  8
1
  6
CONTINUOUS
 62
           7
100
AcDbLine
 10
-3.593738353786
 20
-37.338846372149
 11
-2.593738353786
 21
-37.338846372149
  0
LINE
  5
16B
100
AcDbEntity
  8
1
  6
CONTINUOUS
 62
           7
100
AcDbLine
 10
-2.593738353786
 20
-37.338846372149
 11
0.906261646214
 21
-37.338846372149
  0
LINE
  5
16A
100
AcDbEntity
  8
1
  6
CONTINUOUS
 62
           7
100
AcDbLine
 10
35.766657319129
 20
-37.338846372149
 11
62.406261646214
 21
-37.338846372149
  0
LINE
  5
169
100
AcDbEntity
  8
1
  6
CONTINUOUS
 62
           7
100
AcDbLine
 10
72.406261646214
 20
-40.338846372149
 11
-2.593738353786
 21
-40.338846372149
  0
LINE
  5
168
100
AcDbEntity
  8
1
  6
CONTINUOUS
 62
           7
100
AcDbLine
 10
-69.593738353786
 20
-108.479993521458
 11
-69.593738353786
 21
-42.193340270132
  0
LINE
  5
167
100
AcDbEntity
  8
1
  6
CONTINUOUS
 62
           7
100
AcDbLine
 10
69.473261646214
 20
-37.338846372149
 11
72.406261646214
 21
-37.338846372149
  0
LINE
  5
166
100
AcDbEntity
  8
1
  6
CONTINUOUS
 62
           7
100
AcDbLine
 10
65.339261646214
 20
-37.338846372149
 11
69.473261646214
 21
-37.338846372149
  0
LINE
  5
165
100
AcDbEntity
  8
1
  6
CONTINUOUS
 62
           7
100
AcDbLine
 10
62.406261646214
 20
-37.338846372149
 11
65.339261646214
 21
-37.338846372149
  0
LINE
  5
164
100
AcDbEntity
  8
1
  6
CONTINUOUS
 62
           7
100
AcDbLine
 10
81.864761646214
 20
-41.338846372149
 11
76.947761646214
 21
-41.338846372149
  0
LINE
  5
163
100
AcDbEntity
  8
1
  6
CONTINUOUS
 62
           7
100
AcDbLine
 10
76.947761646214
 20
-41.338846372149
 11
72.406261646214
 21
-41.338846372149
  0
LINE
  5
162
100
AcDbEntity
  8
1
  6
CONTINUOUS
 62
           7
100
AcDbLine
 10
76.947761646214
 20
-60.338846372149
 11
69.406261646214
 21
-60.338846372149
  0
LINE
  5
161
100
AcDbEntity
  8
1
  6
CONTINUOUS
 62
           7
100
AcDbLine
 10
104.406261646214
 20
-155.338846372149
 11
100.406261646214
 21
-155.338846372149
  0
LINE
  5
160
100
AcDbEntity
  8
1
  6
CONTINUOUS
 62
           7
100
AcDbLine
 10
100.406261646214
 20
-155.338846372149
 11
94.562321375596
 21
-155.338846372149
  0
LINE
  5
15F
100
AcDbEntity
  8
1
  6
CONTINUOUS
 62
           7
100
AcDbLine
 10
92.656261646214
 20
-50.338846372149
 11
95.156261646214
 21
-50.338846372149
  0
LINE
  5
15E
100
AcDbEntity
  8
1
  6
CONTINUOUS
 62
           7
100
AcDbLine
 10
-52.593738353786
 20
-37.338846372149
 11
-71.593738353786
 21
-41.338846372149
  0
LINE
  5
15D
100
AcDbEntity
  8
1
  6
CONTINUOUS
 62
           7
100
AcDbLine
 10
-69.593738353786
 20
-35.338846372149
 11
-71.593738353786
 21
-35.338846372149
  0
LINE
  5
15C
100
AcDbEntity
  8
1
  6
CONTINUOUS
 62
           7
100
AcDbLine
 10
-21.093738353786
 20
-243.838846372149
 11
-21.093738353786
 21
-241.199734387973
  0
LINE
  5
15B
100
AcDbEntity
  8
1
  6
CONTINUOUS
 62
           7
100
AcDbLine
 10
-57.458681432374
 20
-176.518222045086
 11
-43.398820629911
 21
-195.101056811944
  0
LINE
  5
15A
100
AcDbEntity
  8
1
  6
CONTINUOUS
 62
           7
100
AcDbLine
 10
-18.293738353786
 20
-223.338846372149
 11
-2.593738353786
 21
-223.338846372149
  0
LINE
  5
159
100
AcDbEntity
  8
1
  6
CONTINUOUS
 62
           7
100
AcDbLine
 10
-2.593738353786
 20
-223.338846372149
 11
13.106261646214
 21
-223.338846372149
  0
LINE
  5
158
100
AcDbEntity
  8
1
  6
CONTINUOUS
 62
           7
100
AcDbLine
 10
15.906261646214
 20
-227.266188934688
 11
15.906261646214
 21
-228.199734387973
  0
LINE
  5
157
100
AcDbEntity
  8
1
  6
CONTINUOUS
 62
           7
100
AcDbLine
 10
17.474887104177
 20
-222.50830899715
 11
34.850023470203
 21
-199.543694149402
  0
LINE
  5
156
100
AcDbEntity
  8
1
  6
CONTINUOUS
 62
           7
100
AcDbLine
 10
34.850023470203
 20
-199.543694149402
 11
43.45714982582
 21
-188.167706212461
  0
LINE
  5
155
100
AcDbEntity
  8
1
  6
CONTINUOUS
 62
           7
100
AcDbLine
 10
109.656261646214
 20
-50.338846372149
 11
113.406261646214
 21
-50.338846372149
  0
LINE
  5
154
100
AcDbEntity
  8
1
  6
CONTINUOUS
 62
           7
100
AcDbLine
 10
95.156261646214
 20
-50.338846372149
 11
109.656261646214
 21
-50.338846372149
  0
LINE
  5
153
100
AcDbEntity
  8
1
  6
CONTINUOUS
 62
           7
100
AcDbLine
 10
89.406261646214
 20
-98.635491535848
 11
89.406261646214
 21
-148.951220093616
  0
LINE
  5
152
100
AcDbEntity
  8
1
  6
CONTINUOUS
 62
           7
100
AcDbLine
 10
64.406261646214
 20
-98.635491535848
 11
64.406261646214
 21
-140.338846372149
  0
LINE
  5
151
100
AcDbEntity
  8
1
  6
CONTINUOUS
 62
           7
100
AcDbLine
 10
-43.398820629911
 20
-195.101056811944
 11
-22.662363811749
 21
-222.50830899715
  0
LINE
  5
150
100
AcDbEntity
  8
1
  6
CONTINUOUS
 62
           7
100
AcDbLine
 10
-3.593738353786
 20
-35.338846372149
 11
-3.593738353786
 21
-37.338846372149
  0
LINE
  5
14F
100
AcDbEntity
  8
1
  6
CONTINUOUS
 62
           7
100
AcDbLine
 10
7.102059573518
 20
-33.338846372149
 11
-3.593738353786
 21
-35.338846372149
  0
LINE
  5
14E
100
AcDbEntity
  8
1
  6
CONTINUOUS
 62
           7
100
AcDbLine
 10
12.406261646214
 20
-33.338846372149
 11
7.102059573518
 21
-33.338846372149
  0
LINE
  5
14D
100
AcDbEntity
  8
1
  6
CONTINUOUS
 62
           7
100
AcDbLine
 10
-3.593738353786
 20
-35.338846372149
 11
59.906261646214
 21
-35.338846372149
  0
LINE
  5
14C
100
AcDbEntity
  8
1
  6
CONTINUOUS
 62
           7
100
AcDbLine
 10
72.406261646214
 20
-37.338846372149
 11
12.406261646214
 21
-37.338846372149
  0
LINE
  5
14B
100
AcDbEntity
  8
1
  6
CONTINUOUS
 62
           7
100
AcDbLine
 10
12.406261646214
 20
-33.338846372149
 11
16.406261646214
 21
-33.338846372149
  0
LINE
  5
14A
100
AcDbEntity
  8
1
  6
CONTINUOUS
 62
           7
100
AcDbLine
 10
12.406261646214
 20
-37.338846372149
 11
-3.593738353786
 21
-37.338846372149
  0
LINE
  5
149
100
AcDbEntity
  8
1
  6
CONTINUOUS
 62
           7
100
AcDbLine
 10
59.906261646214
 20
-35.338846372149
 11
61.156000350032
 21
-35.338846372149
  0
LINE
  5
148
100
AcDbEntity
  8
1
  6
CONTINUOUS
 62
           7
100
AcDbLine
 10
27.706261646214
 20
-32.938846372149
 11
31.006261646214
 21
-28.538846372149
  0
LINE
  5
147
100
AcDbEntity
  8
1
  6
CONTINUOUS
 62
           7
100
AcDbLine
 10
35.683775595194
 20
-27.338846372149
 11
33.406261646214
 21
-27.338846372149
  0
LINE
  5
146
100
AcDbEntity
  8
1
  6
CONTINUOUS
 62
           7
100
AcDbLine
 10
44.386988723141
 20
-15.90047522536
 11
40.17774582669
 21
-24.530702106095
  0
LINE
  5
145
100
AcDbEntity
  8
1
  6
CONTINUOUS
 62
           7
100
AcDbLine
 10
49.526740522987
 20
-15.338846372149
 11
45.28578276944
 21
-15.338846372149
  0
LINE
  5
144
100
AcDbEntity
  8
1
  6
CONTINUOUS
 62
           7
100
AcDbLine
 10
59.358412257434
 20
-34.215588665727
 11
50.425534569286
 21
-15.90047522536
  0
LINE
  5
143
100
AcDbEntity
  8
1
  6
CONTINUOUS
 62
           7
100
AcDbLine
 10
61.156000350032
 20
-35.338846372149
 11
72.406261646214
 21
-35.338846372149
  0
LINE
  5
142
100
AcDbEntity
  8
1
  6
CONTINUOUS
 62
           7
100
AcDbLine
 10
72.406261646214
 20
-35.338846372149
 11
72.406261646214
 21
-37.338846372149
  0
LINE
  5
141
100
AcDbEntity
  8
1
  6
CONTINUOUS
 62
           7
100
AcDbLine
 10
17.406261646214
 20
-258.388846372148
 11
16.956261646214
 21
-258.838846372149
  0
LINE
  5
140
100
AcDbEntity
  8
1
  6
CONTINUOUS
 62
           7
100
AcDbLine
 10
16.956261646214
 20
-269.838846372149
 11
17.406261646214
 21
-270.288846372149
  0
LINE
  5
13F
100
AcDbEntity
  8
1
  6
CONTINUOUS
 62
           7
100
AcDbLine
 10
16.956261646214
 20
-269.838846372149
 11
15.5029842403
 21
-269.838846372149
  0
LINE
  5
13E
100
AcDbEntity
  8
1
  6
CONTINUOUS
 62
           7
100
AcDbLine
 10
16.956261646214
 20
-258.838846372149
 11
15.791509330418
 21
-258.838846372148
  0
LINE
  5
13D
100
AcDbEntity
  8
1
  6
CONTINUOUS
 62
           7
100
AcDbLine
 10
-15.78013491082
 20
-279.038846372148
 11
-20.593738353786
 21
-279.038846372149
  0
LINE
  5
13C
100
AcDbEntity
  8
1
  6
CONTINUOUS
 62
           7
100
AcDbLine
 10
-20.593738353786
 20
-279.738846372148
 11
-20.593738353786
 21
-279.038846372149
  0
LINE
  5
13B
100
AcDbEntity
  8
1
  6
CONTINUOUS
 62
           7
100
AcDbLine
 10
-20.593738353786
 20
-279.738846372148
 11
-22.607968296518
 21
-279.738846372148
  0
LINE
  5
13A
100
AcDbEntity
  8
1
  6
CONTINUOUS
 62
           7
100
AcDbLine
 10
-21.507910929094
 20
-248.938846372149
 11
-22.607968296516
 21
-248.938846372149
  0
LINE
  5
139
100
AcDbEntity
  8
1
  6
CONTINUOUS
 62
           7
100
AcDbLine
 10
-20.593738353786
 20
-279.038846372149
 11
-20.593738353786
 21
-248.938846372149
  0
LINE
  5
138
100
AcDbEntity
  8
1
  6
CONTINUOUS
 62
           7
100
AcDbLine
 10
16.956261646214
 20
-269.838846372149
 11
16.956261646214
 21
-258.838846372149
  0
LINE
  5
137
100
AcDbEntity
  8
1
  6
CONTINUOUS
 62
           7
100
AcDbLine
 10
-2.048084103252
 20
-279.038846372149
 11
-16.325789161355
 21
-279.038846372148
  0
LINE
  5
136
100
AcDbEntity
  8
1
  6
CONTINUOUS
 62
           7
100
AcDbLine
 10
16.956261646214
 20
-258.838846372149
 11
13.925365461792
 21
-258.838846372148
  0
LINE
  5
135
100
AcDbEntity
  8
976
  6
CONTINUOUS
 62
           7
100
AcDbLine
 10
15.5029842403
 20
-269.838846372149
 11
13.178208945288
 21
-269.838846372149
  0
LINE
  5
134
100
AcDbEntity
  8
1
  6
CONTINUOUS
 62
           7
100
AcDbLine
 10
-58.607968296516
 20
-257.380346372148
 11
-58.607968296515
 21
-255.838846372147
  0
LINE
  5
133
100
AcDbEntity
  8
1
  6
CONTINUOUS
 62
           7
100
AcDbLine
 10
-59.36715767507
 20
-254.523891795924
 11
-58.607968296515
 21
-255.838846372147
  0
LINE
  5
132
100
AcDbEntity
  8
1
  6
CONTINUOUS
 62
           7
100
AcDbLine
 10
-59.36715767507
 20
-254.523891795924
 11
-60.848778917961
 21
-254.523891795924
  0
LINE
  5
131
100
AcDbEntity
  8
1
  6
CONTINUOUS
 62
           7
100
AcDbLine
 10
-58.607968296516
 20
-259.431369084036
 11
-59.367157675071
 21
-259.431369084036
  0
LINE
  5
130
100
AcDbEntity
  8
1
  6
CONTINUOUS
 62
           7
100
AcDbLine
 10
-59.367157675071
 20
-259.431369084036
 11
-60.848778917962
 21
-259.431369084035
  0
LINE
  5
12F
100
AcDbEntity
  8
1
  6
CONTINUOUS
 62
           7
100
AcDbLine
 10
-60.848778917961
 20
-254.523891795924
 11
-61.607968296516
 21
-255.838846372147
  0
LINE
  5
12E
100
AcDbEntity
  8
1
  6
CONTINUOUS
 62
           7
100
AcDbLine
 10
-60.848778917962
 20
-259.431369084035
 11
-61.607968296516
 21
-259.431369084036
  0
LINE
  5
12D
100
AcDbEntity
  8
1
  6
CONTINUOUS
 62
           7
100
AcDbLine
 10
-58.607968296516
 20
-257.380346372148
 11
-58.607968296517
 21
-264.338846372148
  0
LINE
  5
12C
100
AcDbEntity
  8
1
  6
CONTINUOUS
 62
           7
100
AcDbLine
 10
-61.607968296516
 20
-255.838846372147
 11
-61.607968296516
 21
-264.338846372148
  0
LINE
  5
12B
100
AcDbEntity
  8
1
  6
CONTINUOUS
 62
           7
100
AcDbLine
 10
-61.607968296516
 20
-264.338846372148
 11
-61.607968296517
 21
-272.838846372147
  0
LINE
  5
12A
100
AcDbEntity
  8
1
  6
CONTINUOUS
 62
           7
100
AcDbLine
 10
-58.607968296517
 20
-264.338846372148
 11
-58.607968296517
 21
-271.297346372148
  0
LINE
  5
129
100
AcDbEntity
  8
1
  6
CONTINUOUS
 62
           7
100
AcDbLine
 10
-61.607968296517
 20
-269.24632366026
 11
-60.848778917962
 21
-269.246323660259
  0
LINE
  5
128
100
AcDbEntity
  8
1
  6
CONTINUOUS
 62
           7
100
AcDbLine
 10
-61.607968296517
 20
-272.838846372147
 11
-60.848778917963
 21
-274.153800948371
  0
LINE
  5
127
100
AcDbEntity
  8
1
  6
CONTINUOUS
 62
           7
100
AcDbLine
 10
-60.848778917962
 20
-269.246323660259
 11
-59.367157675071
 21
-269.24632366026
  0
LINE
  5
126
100
AcDbEntity
  8
1
  6
CONTINUOUS
 62
           7
100
AcDbLine
 10
-59.367157675071
 20
-269.24632366026
 11
-58.607968296517
 21
-269.24632366026
  0
LINE
  5
125
100
AcDbEntity
  8
1
  6
CONTINUOUS
 62
           7
100
AcDbLine
 10
-60.848778917963
 20
-274.153800948371
 11
-59.367157675072
 21
-274.153800948371
  0
LINE
  5
124
100
AcDbEntity
  8
1
  6
CONTINUOUS
 62
           7
100
AcDbLine
 10
-58.607968296517
 20
-272.838846372148
 11
-59.367157675072
 21
-274.153800948371
  0
LINE
  5
123
100
AcDbEntity
  8
1
  6
CONTINUOUS
 62
           7
100
AcDbLine
 10
-58.607968296517
 20
-272.838846372148
 11
-58.607968296517
 21
-271.297346372148
  0
LINE
  5
122
100
AcDbEntity
  8
1
  6
CONTINUOUS
 62
           7
100
AcDbLine
 10
22.897413073544
 20
-264.338846372149
 11
22.897413073545
 21
-256.588846372148
  0
LINE
  5
121
100
AcDbEntity
  8
1
  6
CONTINUOUS
 62
           7
100
AcDbLine
 10
23.656602452099
 20
-259.431369084037
 11
32.906261646214
 21
-259.431369084037
  0
LINE
  5
120
100
AcDbEntity
  8
1
  6
CONTINUOUS
 62
           7
100
AcDbLine
 10
32.906261646214
 20
-254.338846372148
 11
32.906261646214
 21
-264.338846372148
  0
LINE
  5
11F
100
AcDbEntity
  8
1
  6
CONTINUOUS
 62
           7
100
AcDbLine
 10
32.906261646214
 20
-264.338846372148
 11
32.906261646214
 21
-274.338846372149
  0
LINE
  5
11E
100
AcDbEntity
  8
1
  6
CONTINUOUS
 62
           7
100
AcDbLine
 10
35.906261646214
 20
-255.338846372148
 11
49.906261646214
 21
-255.338846372148
  0
LINE
  5
11D
100
AcDbEntity
  8
1
  6
CONTINUOUS
 62
           7
100
AcDbLine
 10
49.906261646214
 20
-254.338846372148
 11
49.906261646214
 21
-258.838846372149
  0
LINE
  5
11C
100
AcDbEntity
  8
1
  6
CONTINUOUS
 62
           7
100
AcDbLine
 10
51.906261646214
 20
-254.338846372148
 11
51.906261646214
 21
-258.838846372149
  0
LINE
  5
11B
100
AcDbEntity
  8
1
  6
CONTINUOUS
 62
           2
100
AcDbLine
 10
54.906261646214
 20
-258.616346372148
 11
57.657990878045
 21
-258.616346372149
  0
LINE
  5
11A
100
AcDbEntity
  8
1
  6
CONTINUOUS
 62
           7
100
AcDbLine
 10
54.906261646214
 20
-257.760346372148
 11
54.906261646214
 21
-258.838846372149
  0
LINE
  5
119
100
AcDbEntity
  8
1
  6
CONTINUOUS
 62
           7
100
AcDbLine
 10
32.906261646214
 20
-274.153800948372
 11
23.656602452099
 21
-274.153800948372
  0
LINE
  5
118
100
AcDbEntity
  8
1
  6
CONTINUOUS
 62
           7
100
AcDbLine
 10
23.656602452099
 20
-254.523891795925
 11
32.906261646214
 21
-254.523891795925
  0
LINE
  5
117
100
AcDbEntity
  8
1
  6
CONTINUOUS
 62
           7
100
AcDbLine
 10
23.656602452099
 20
-274.153800948372
 11
22.897413073545
 21
-272.838846372148
  0
LINE
  5
116
100
AcDbEntity
  8
1
  6
CONTINUOUS
 62
           7
100
AcDbLine
 10
22.897413073545
 20
-255.838846372149
 11
23.656602452099
 21
-254.523891795925
  0
LINE
  5
115
100
AcDbEntity
  8
1
  6
CONTINUOUS
 62
           7
100
AcDbLine
 10
22.897413073545
 20
-272.088846372149
 11
20.906261646214
 21
-272.088846372149
  0
LINE
  5
114
100
AcDbEntity
  8
1
  6
CONTINUOUS
 62
           7
100
AcDbLine
 10
22.906261646214
 20
-256.588846372149
 11
20.906261646214
 21
-256.588846372149
  0
LINE
  5
113
100
AcDbEntity
  8
1
  6
CONTINUOUS
 62
           7
100
AcDbLine
 10
20.906261646214
 20
-256.588846372149
 11
20.906261646214
 21
-272.088846372149
  0
LINE
  5
112
100
AcDbEntity
  8
1
  6
CONTINUOUS
 62
           7
100
AcDbLine
 10
32.906261646214
 20
-274.338846372149
 11
35.906261646214
 21
-274.338846372149
  0
LINE
  5
111
100
AcDbEntity
  8
1
  6
CONTINUOUS
 62
           7
100
AcDbLine
 10
35.906261646214
 20
-274.338846372149
 11
35.906261646214
 21
-254.338846372149
  0
LINE
  5
110
100
AcDbEntity
  8
1
  6
CONTINUOUS
 62
           7
100
AcDbLine
 10
35.906261646214
 20
-254.338846372149
 11
32.906261646214
 21
-254.338846372148
  0
LINE
  5
10F
100
AcDbEntity
  8
1
  6
CONTINUOUS
 62
           7
100
AcDbLine
 10
49.906261646214
 20
-254.338846372148
 11
51.906261646214
 21
-254.338846372148
  0
LINE
  5
10E
100
AcDbEntity
  8
1
  6
CONTINUOUS
 62
           7
100
AcDbLine
 10
51.906261646214
 20
-258.616346372148
 11
54.906261646214
 21
-258.616346372148
  0
LINE
  5
10D
100
AcDbEntity
  8
1
  6
CONTINUOUS
 62
           7
100
AcDbLine
 10
57.746364157624
 20
-257.760346372148
 11
54.906261646214
 21
-257.760346372148
  0
LINE
  5
10C
100
AcDbEntity
  8
1
  6
CONTINUOUS
 62
           7
100
AcDbLine
 10
61.093041292826
 20
-257.760346372148
 11
61.949041292825
 21
-258.616346372149
  0
LINE
  5
10B
100
AcDbEntity
  8
1
  6
CONTINUOUS
 62
           7
100
AcDbLine
 10
57.657990878045
 20
-257.760346372149
 11
61.093041292826
 21
-257.760346372148
  0
LINE
  5
10A
100
AcDbEntity
  8
1
  6
CONTINUOUS
 62
           2
100
AcDbLine
 10
61.949041292825
 20
-258.616346372149
 11
57.657990878045
 21
-258.616346372149
  0
LINE
  5
109
100
AcDbEntity
  8
1
  6
CONTINUOUS
 62
           7
100
AcDbLine
 10
32.906261646214
 20
-254.338846372148
 11
32.906261646214
 21
-254.523891795925
  0
LINE
  5
108
100
AcDbEntity
  8
1
  6
CONTINUOUS
 62
           7
100
AcDbLine
 10
32.906261646214
 20
-274.153800948372
 11
32.906261646214
 21
-274.338846372149
  0
LINE
  5
107
100
AcDbEntity
  8
1
  6
CONTINUOUS
 62
           7
100
AcDbLine
 10
22.897413073545
 20
-272.838846372148
 11
22.897413073545
 21
-272.088846372149
  0
LINE
  5
106
100
AcDbEntity
  8
1
  6
CONTINUOUS
 62
           7
100
AcDbLine
 10
32.906261646214
 20
-269.246323660261
 11
23.656602452099
 21
-269.24632366026
  0
LINE
  5
105
100
AcDbEntity
  8
1
  6
CONTINUOUS
 62
           7
100
AcDbLine
 10
22.897413073545
 20
-272.088846372149
 11
22.897413073544
 21
-264.338846372149
  0
LINE
  5
104
100
AcDbEntity
  8
1
  6
CONTINUOUS
 62
           7
100
AcDbLine
 10
22.897413073545
 20
-255.838846372149
 11
22.897413073545
 21
-256.588846372148
  0
LINE
  5
103
100
AcDbEntity
  8
1
  6
CONTINUOUS
 62
           7
100
AcDbLine
 10
-265.411892626739
 20
-27.338846372149
 11
-263.561892626739
 21
-27.338846372149
  0
LINE
  5
102
100
AcDbEntity
  8
1
  6
CONTINUOUS
 62
           7
100
AcDbLine
 10
-267.911892626739
 20
-22.225693552607
 11
-267.911892626739
 21
-24.838846372149
  0
LINE
  5
101
100
AcDbEntity
  8
1
  6
CONTINUOUS
 62
           7
100
AcDbLine
 10
-263.561892626739
 20
-18.250466104651
 11
-266.672503155745
 21
-20.066790800244
  0
LINE
  5
100
100
AcDbEntity
  8
1
  6
CONTINUOUS
 62
           7
100
AcDbLine
 10
-244.911892626739
 20
-24.838846372149
 11
-244.911892626739
 21
-22.225693552607
  0
LINE
  5
FF
100
AcDbEntity
  8
1
  6
CONTINUOUS
 62
           7
100
AcDbLine
 10
-249.261892626739
 20
-27.338846372149
 11
-247.411892626739
 21
-27.338846372149
  0
LINE
  5
FE
100
AcDbEntity
  8
1
  6
CONTINUOUS
 62
           7
100
AcDbLine
 10
-255.011892626739
 20
-25.338846372149
 11
-255.011892626739
 21
-15.338846372149
  0
LINE
  5
FD
100
AcDbEntity
  8
1
  6
CONTINUOUS
 62
           7
100
AcDbLine
 10
-252.911892626739
 20
-25.338846372149
 11
-255.011892626739
 21
-25.338846372149
  0
LINE
  5
FC
100
AcDbEntity
  8
1
  6
CONTINUOUS
 62
           7
100
AcDbLine
 10
-250.411892626739
 20
-17.838846372149
 11
-250.411892626739
 21
-22.838846372149
  0
LINE
  5
FB
100
AcDbEntity
  8
1
  6
CONTINUOUS
 62
           7
100
AcDbLine
 10
-255.011892626739
 20
-15.338846372149
 11
-252.911892626739
 21
-15.338846372149
  0
LINE
  5
FA
100
AcDbEntity
  8
1
  6
CONTINUOUS
 62
           7
100
AcDbLine
 10
-262.411892626739
 20
-22.838846372149
 11
-262.411892626739
 21
-17.838846372149
  0
LINE
  5
F9
100
AcDbEntity
  8
1
  6
CONTINUOUS
 62
           7
100
AcDbLine
 10
-257.811892626739
 20
-25.338846372149
 11
-259.911892626739
 21
-25.338846372149
  0
LINE
  5
F8
100
AcDbEntity
  8
1
  6
CONTINUOUS
 62
           7
100
AcDbLine
 10
-257.811892626739
 20
-15.338846372149
 11
-257.811892626739
 21
-25.338846372149
  0
LINE
  5
F7
100
AcDbEntity
  8
1
  6
CONTINUOUS
 62
           7
100
AcDbLine
 10
-259.911892626739
 20
-15.338846372149
 11
-257.811892626739
 21
-15.338846372149
  0
LINE
  5
F6
100
AcDbEntity
  8
1
  6
CONTINUOUS
 62
           7
100
AcDbLine
 10
9.745638654782
 20
111.589781682405
 11
-0.593738353786
 21
111.589781682405
  0
LINE
  5
F5
100
AcDbEntity
  8
1
  6
CONTINUOUS
 62
           7
100
AcDbLine
 10
-0.593738353786
 20
111.589781682405
 11
-0.593738353786
 21
106.989781682405
  0
LINE
  5
F4
100
AcDbEntity
  8
1
  6
CONTINUOUS
 62
           7
100
AcDbLine
 10
-0.593738353786
 20
99.589781682404
 11
9.745638654782
 21
99.589781682404
  0
LINE
  5
F3
100
AcDbEntity
  8
1
  6
CONTINUOUS
 62
           7
100
AcDbLine
 10
21.147196133363
 20
101.589781682405
 11
82.110253577633
 21
101.589781682405
  0
LINE
  5
F2
100
AcDbEntity
  8
1
  6
CONTINUOUS
 62
           7
100
AcDbLine
 10
21.147196133363
 20
109.589781682405
 11
82.110253577633
 21
109.589781682405
  0
LINE
  5
F1
100
AcDbEntity
  8
1
  6
CONTINUOUS
 62
           7
100
AcDbLine
 10
12.036031992037
 20
99.855609999069
 11
17.71160612748
 21
101.191039207408
  0
LINE
  5
F0
100
AcDbEntity
  8
1
  6
CONTINUOUS
 62
           7
100
AcDbLine
 10
17.71160612748
 20
109.988524157401
 11
12.036031992037
 21
111.32395336574
  0
LINE
  5
EF
100
AcDbEntity
  8
1
  6
CONTINUOUS
 62
           7
100
AcDbLine
 10
-0.593738353786
 20
106.989781682405
 11
8.006261646214
 21
106.989781682405
  0
LINE
  5
EE
100
AcDbEntity
  8
1
  6
CONTINUOUS
 62
           7
100
AcDbLine
 10
8.006261646214
 20
104.189781682404
 11
-0.593738353786
 21
104.189781682404
  0
LINE
  5
ED
100
AcDbEntity
  8
1
  6
DOT_CENTER
 62
           2
100
AcDbLine
 10
2.906261646214
 20
116.589781682405
 11
2.906261646214
 21
94.589781682404
  0
LINE
  5
EC
100
AcDbEntity
  8
1
  6
DOT_CENTER
 62
           2
100
AcDbLine
 10
47.406261646214
 20
116.811486434562
 11
47.406261646214
 21
96.589781682404
  0
LINE
  5
EB
100
AcDbEntity
  8
1
  6
CONTINUOUS
 62
           7
100
AcDbLine
 10
-0.593738353786
 20
104.189781682404
 11
-0.593738353786
 21
99.589781682404
  0
LINE
  5
EA
100
AcDbEntity
  8
1
  6
CONTINUOUS
 62
           7
100
AcDbLine
 10
-246.841358703353
 20
-19.663846372149
 11
-249.261892626739
 21
-18.250466104651
  0
LINE
  5
E9
100
AcDbEntity
  8
1
  6
CONTINUOUS
 62
           7
100
AcDbLine
 10
-257.811892626739
 20
-15.338846372149
 11
-257.661892626739
 21
-15.338846372149
  0
LINE
  5
E8
100
AcDbEntity
  8
1
  6
CONTINUOUS
 62
           7
100
AcDbLine
 10
-255.161892626739
 20
-15.338846372149
 11
-255.011892626739
 21
-15.338846372149
  0
LINE
  5
E7
100
AcDbEntity
  8
1
  6
CONTINUOUS
 62
           7
100
AcDbLine
 10
-255.011892626739
 20
-25.338846372149
 11
-255.161892626739
 21
-25.338846372149
  0
LINE
  5
E6
100
AcDbEntity
  8
1
  6
CONTINUOUS
 62
           7
100
AcDbLine
 10
-257.811892626739
 20
-25.338846372149
 11
-257.661892626739
 21
-25.338846372149
  0
LINE
  5
E5
100
AcDbEntity
  8
1
  6
DOT_CENTER
 62
           2
100
AcDbLine
 10
47.406261646214
 20
96.589781682404
 11
47.406261646214
 21
90.407934372991
  0
LINE
  5
E4
100
AcDbEntity
  8
1
  6
CONTINUOUS
 62
           7
100
AcDbLine
 10
-0.593738353786
 20
109.097184567731
 11
-3.404239275559
 21
109.097184567731
  0
LINE
  5
E3
100
AcDbEntity
  8
1
  6
CONTINUOUS
 62
           7
100
AcDbLine
 10
0.085025567822
 20
106.839781682405
 11
0.550927459454
 21
106.989781682405
  0
LINE
  5
E2
100
AcDbEntity
  8
1
  6
CONTINUOUS
 62
           7
100
AcDbLine
 10
0.085025567822
 20
104.339781682405
 11
0.550927459453
 21
104.189781682404
  0
LINE
  5
E1
100
AcDbEntity
  8
1
  6
CONTINUOUS
 62
           7
100
AcDbLine
 10
5.483642515816
 20
106.839781682405
 11
4.990772763407
 21
106.989781682405
  0
LINE
  5
E0
100
AcDbEntity
  8
1
  6
CONTINUOUS
 62
           7
100
AcDbLine
 10
5.483642515816
 20
104.339781682405
 11
4.990772763407
 21
104.189781682404
  0
LINE
  5
DF
100
AcDbEntity
  8
1
  6
CONTINUOUS
 62
           7
100
AcDbLine
 10
-1.366549595372
 20
103.589781682405
 11
-0.593738353786
 21
103.589781682405
  0
LINE
  5
DE
100
AcDbEntity
  8
1
  6
CONTINUOUS
 62
           7
100
AcDbLine
 10
-1.366507206427
 20
107.589781682405
 11
-0.593738353786
 21
107.589781682405
  0
LINE
  5
DD
100
AcDbEntity
  8
1
  6
CONTINUOUS
 62
           7
100
AcDbLine
 10
0.085025567822
 20
104.339781682405
 11
0.085025567822
 21
106.839781682405
  0
LINE
  5
DC
100
AcDbEntity
  8
1
  6
CONTINUOUS
 62
           7
100
AcDbLine
 10
5.70766710549
 20
104.339781682405
 11
0.085025567822
 21
104.339781682405
  0
LINE
  5
DB
100
AcDbEntity
  8
1
  6
CONTINUOUS
 62
           7
100
AcDbLine
 10
5.70766710549
 20
106.839781682405
 11
5.70766710549
 21
104.339781682405
  0
LINE
  5
DA
100
AcDbEntity
  8
1
  6
CONTINUOUS
 62
           7
100
AcDbLine
 10
0.085025567822
 20
106.839781682405
 11
5.70766710549
 21
106.839781682405
  0
LINE
  5
D9
100
AcDbEntity
  8
1
  6
CONTINUOUS
 62
           7
100
AcDbLine
 10
-3.404239275559
 20
102.082378797077
 11
-0.593738353786
 21
102.082378797077
  0
LINE
  5
D8
100
AcDbEntity
  8
1
  6
CONTINUOUS
 62
           7
100
AcDbLine
 10
-5.593738353786
 20
105.589781682405
 11
-3.404239275559
 21
102.082378797077
  0
LINE
  5
D7
100
AcDbEntity
  8
1
  6
CONTINUOUS
 62
           7
100
AcDbLine
 10
-3.404239275559
 20
109.097184567731
 11
-5.593738353786
 21
105.589781682405
  0
LINE
  5
D6
100
AcDbEntity
  8
1
  6
CONTINUOUS
 62
           7
100
AcDbLine
 10
-258.411892626739
 20
-28.338846372149
 11
-258.411892626739
 21
-33.338846372149
  0
LINE
  5
D5
100
AcDbEntity
  8
1
  6
CONTINUOUS
 62
           7
100
AcDbLine
 10
-254.411892626739
 20
-28.338846372149
 11
-254.411892626739
 21
-33.338846372149
  0
LINE
  5
D4
100
AcDbEntity
  8
1
  6
CONTINUOUS
 62
           7
100
AcDbLine
 10
-257.661892626739
 20
-25.72641080685
 11
-257.661892626739
 21
-14.838846372149
  0
LINE
  5
D3
100
AcDbEntity
  8
1
  6
CONTINUOUS
 62
           7
100
AcDbLine
 10
-257.661892626739
 20
-14.838846372149
 11
-255.161892626739
 21
-14.838846372149
  0
LINE
  5
D2
100
AcDbEntity
  8
1
  6
CONTINUOUS
 62
           7
100
AcDbLine
 10
-255.161892626739
 20
-14.838846372149
 11
-255.161892626739
 21
-25.72641080685
  0
LINE
  5
D1
100
AcDbEntity
  8
1
  6
DOT_CENTER
 62
           2
100
AcDbLine
 10
-271.081440199709
 20
-20.338846372149
 11
-239.996876849187
 21
-20.338846372149
  0
LINE
  5
D0
100
AcDbEntity
  8
1
  6
CONTINUOUS
 62
           7
100
AcDbLine
 10
-258.411892626739
 20
-28.338846372149
 11
-257.661892626739
 21
-25.72641080685
  0
LINE
  5
CF
100
AcDbEntity
  8
1
  6
CONTINUOUS
 62
           7
100
AcDbLine
 10
-254.411892626739
 20
-28.338846372149
 11
-255.161892626739
 21
-25.72641080685
  0
LINE
  5
CE
100
AcDbEntity
  8
1
  6
CONTINUOUS
 62
           7
100
AcDbLine
 10
68.156261646214
 20
-31.838846372149
 11
68.706261646214
 21
-31.838846372149
  0
LINE
  5
CD
100
AcDbEntity
  8
1
  6
CONTINUOUS
 62
           7
100
AcDbLine
 10
68.156261646214
 20
-33.338846372149
 11
68.156261646214
 21
-31.838846372149
  0
LINE
  5
CC
100
AcDbEntity
  8
1
  6
CONTINUOUS
 62
           7
100
AcDbLine
 10
66.656261646214
 20
-33.338846372149
 11
68.156261646214
 21
-33.338846372149
  0
LINE
  5
CB
100
AcDbEntity
  8
1
  6
CONTINUOUS
 62
           7
100
AcDbLine
 10
66.656261646214
 20
-31.838846372149
 11
66.656261646214
 21
-33.338846372149
  0
LINE
  5
CA
100
AcDbEntity
  8
1
  6
CONTINUOUS
 62
           7
100
AcDbLine
 10
71.706261646214
 20
-35.338846372149
 11
63.106261646214
 21
-35.338846372149
  0
LINE
  5
C9
100
AcDbEntity
  8
1
  6
CONTINUOUS
 62
           7
100
AcDbLine
 10
71.706261646214
 20
-34.838846372149
 11
71.706261646214
 21
-35.338846372149
  0
LINE
  5
C8
100
AcDbEntity
  8
1
  6
CONTINUOUS
 62
           7
100
AcDbLine
 10
66.106261646214
 20
-31.838846372149
 11
66.656261646214
 21
-31.838846372149
  0
LINE
  5
C7
100
AcDbEntity
  8
1
  6
CONTINUOUS
 62
           7
100
AcDbLine
 10
63.106261646214
 20
-35.338846372149
 11
63.106261646214
 21
-34.838846372149
  0
LINE
  5
C6
100
AcDbEntity
  8
1
  6
CONTINUOUS
 62
           7
100
AcDbLine
 10
-0.593738353786
 20
-15.338846372149
 11
-0.593738353786
 21
-25.338846372149
  0
LINE
  5
C5
100
AcDbEntity
  8
1
  6
CONTINUOUS
 62
           7
100
AcDbLine
 10
-0.593738353786
 20
-25.338846372149
 11
39.683775595194
 21
-25.338846372149
  0
LINE
  5
C4
100
AcDbEntity
  8
1
  6
CONTINUOUS
 62
           7
100
AcDbLine
 10
-0.593738353786
 20
-15.338846372149
 11
10.906261646214
 21
-15.338846372149
  0
LINE
  5
C3
100
AcDbEntity
  8
1
  6
CONTINUOUS
 62
           7
100
AcDbLine
 10
10.906261646214
 20
-15.338846372149
 11
10.906261646214
 21
-25.338846372149
  0
LINE
  5
C2
100
AcDbEntity
  8
1
  6
CONTINUOUS
 62
           7
100
AcDbLine
 10
19.406261646214
 20
-16.027286888345
 11
19.406261646214
 21
-24.338846372149
  0
LINE
  5
C1
100
AcDbEntity
  8
1
  6
CONTINUOUS
 62
           7
100
AcDbLine
 10
5.606261646214
 20
-25.338846372149
 11
5.606261646214
 21
-25.726410806852
  0
LINE
  5
C0
100
AcDbEntity
  8
1
  6
CONTINUOUS
 62
           7
100
AcDbLine
 10
4.906261646214
 20
-33.749437137275
 11
4.906261646214
 21
-28.338846372149
  0
LINE
  5
BF
100
AcDbEntity
  8
1
  6
CONTINUOUS
 62
           7
100
AcDbLine
 10
0.206261646214
 20
-25.72641080685
 11
0.206261646214
 21
-25.338846372149
  0
LINE
  5
BE
100
AcDbEntity
  8
1
  6
CONTINUOUS
 62
           7
100
AcDbLine
 10
1.206261646214
 20
-14.838846372149
 11
4.606261646214
 21
-14.838846372149
  0
LINE
  5
BD
100
AcDbEntity
  8
1
  6
CONTINUOUS
 62
           7
100
AcDbLine
 10
0.906261646214
 20
-28.338846372149
 11
0.906261646214
 21
-34.497394424275
  0
LINE
  5
BC
100
AcDbEntity
  8
1
  6
CONTINUOUS
 62
           7
100
AcDbLine
 10
0.906261646214
 20
-28.338846372149
 11
0.206261646214
 21
-25.72641080685
  0
LINE
  5
BB
100
AcDbEntity
  8
1
  6
CONTINUOUS
 62
           7
100
AcDbLine
 10
4.906261646214
 20
-28.338846372149
 11
5.606261646214
 21
-25.726410806852
  0
LINE
  5
BA
100
AcDbEntity
  8
1
  6
CONTINUOUS
 62
           7
100
AcDbLine
 10
-26.607968296517
 20
-264.33884637215
 11
-44.107968296516
 21
-264.338846372149
  0
LINE
  5
B9
100
AcDbEntity
  8
1
  6
CONTINUOUS
 62
           7
100
AcDbLine
 10
-44.107968296518
 20
-280.035141049346
 11
-44.107968296517
 21
-280.834615602918
  0
LINE
  5
B8
100
AcDbEntity
  8
1
  6
CONTINUOUS
 62
           7
100
AcDbLine
 10
-44.107968296518
 20
-277.230838151881
 11
-44.107968296518
 21
-279.345381304616
  0
LINE
  5
B7
100
AcDbEntity
  8
1
  6
CONTINUOUS
 62
           7
100
AcDbLine
 10
-26.607968296518
 20
-279.345381304617
 11
-44.107968296518
 21
-279.345381304616
  0
LINE
  5
B6
100
AcDbEntity
  8
1
  6
CONTINUOUS
 62
           7
100
AcDbLine
 10
-44.107968296517
 20
-272.463846372149
 11
-44.107968296518
 21
-275.825768866656
  0
LINE
  5
B5
100
AcDbEntity
  8
1
  6
CONTINUOUS
 62
           7
100
AcDbLine
 10
-44.107968296517
 20
-266.459896995725
 11
-44.107968296517
 21
-270.557376608117
  0
LINE
  5
B4
100
AcDbEntity
  8
1
  6
CONTINUOUS
 62
           7
100
AcDbLine
 10
-28.107968296518
 20
-280.834615602919
 11
-44.155826688126
 21
-280.834615602918
  0
LINE
  5
B3
100
AcDbEntity
  8
1
  6
CONTINUOUS
 62
           7
100
AcDbLine
 10
-26.607968296518
 20
-280.035141049347
 11
-44.107968296518
 21
-280.035141049346
  0
LINE
  5
B2
100
AcDbEntity
  8
1
  6
CONTINUOUS
 62
           7
100
AcDbLine
 10
-26.607968296518
 20
-277.230838151882
 11
-44.107968296518
 21
-277.230838151881
  0
LINE
  5
B1
100
AcDbEntity
  8
1
  6
CONTINUOUS
 62
           7
100
AcDbLine
 10
-26.607968296518
 20
-275.825768866656
 11
-44.107968296518
 21
-275.825768866656
  0
LINE
  5
B0
100
AcDbEntity
  8
1
  6
CONTINUOUS
 62
           7
100
AcDbLine
 10
-26.607968296517
 20
-272.46384637215
 11
-44.107968296517
 21
-272.463846372149
  0
LINE
  5
AF
100
AcDbEntity
  8
1
  6
CONTINUOUS
 62
           7
100
AcDbLine
 10
-26.607968296517
 20
-270.557376608118
 11
-44.107968296517
 21
-270.557376608117
  0
LINE
  5
AE
100
AcDbEntity
  8
1
  6
CONTINUOUS
 62
           7
100
AcDbLine
 10
-26.607968296517
 20
-266.459896995726
 11
-44.107968296517
 21
-266.459896995725
  0
LINE
  5
AD
100
AcDbEntity
  8
1
  6
CONTINUOUS
 62
           7
100
AcDbLine
 10
-44.607968296518
 20
-280.038846372149
 11
-44.155826688126
 21
-280.834615602918
  0
LINE
  5
AC
100
AcDbEntity
  8
1
  6
CONTINUOUS
 62
           7
100
AcDbLine
 10
-44.607968296518
 20
-280.038846372149
 11
-44.607968296516
 21
-264.338846372149
  0
LINE
  5
AB
100
AcDbEntity
  8
1
  6
CONTINUOUS
 62
           7
100
AcDbLine
 10
-58.607968296517
 20
-273.338846372148
 11
-46.007100978697
 21
-280.038846372149
  0
LINE
  5
AA
100
AcDbEntity
  8
1
  6
CONTINUOUS
 62
           7
100
AcDbLine
 10
-46.007100978697
 20
-280.038846372149
 11
-44.607968296518
 21
-280.038846372149
  0
LINE
  5
A9
100
AcDbEntity
  8
1
  6
CONTINUOUS
 62
           7
100
AcDbLine
 10
-26.607968296518
 20
-279.334615602919
 11
-26.607968296518
 21
-280.834615602919
  0
LINE
  5
A8
100
AcDbEntity
  8
1
  6
CONTINUOUS
 62
           7
100
AcDbLine
 10
-26.607968296518
 20
-280.834615602919
 11
-28.107968296518
 21
-280.834615602919
  0
LINE
  5
A7
100
AcDbEntity
  8
1
  6
CONTINUOUS
 62
           7
100
AcDbLine
 10
-58.607968296517
 20
-264.338846372148
 11
-58.607968296517
 21
-273.338846372148
  0
LINE
  5
A6
100
AcDbEntity
  8
1
  6
CONTINUOUS
 62
           7
100
AcDbLine
 10
-26.607968296517
 20
-264.33884637215
 11
-26.607968296518
 21
-279.334615602919
  0
LINE
  5
A5
100
AcDbEntity
  8
1
  6
CONTINUOUS
 62
           7
100
AcDbLine
 10
-58.607968296516
 20
-255.338846372148
 11
-58.607968296517
 21
-264.338846372148
  0
LINE
  5
A4
100
AcDbEntity
  8
1
  6
CONTINUOUS
 62
           7
100
AcDbLine
 10
-28.107968296516
 20
-247.84307714138
 11
-26.607968296516
 21
-247.843077141381
  0
LINE
  5
A3
100
AcDbEntity
  8
1
  6
CONTINUOUS
 62
           7
100
AcDbLine
 10
-44.607968296515
 20
-248.638846372149
 11
-46.007100978695
 21
-248.638846372149
  0
LINE
  5
A2
100
AcDbEntity
  8
1
  6
CONTINUOUS
 62
           7
100
AcDbLine
 10
-46.007100978695
 20
-248.638846372149
 11
-58.607968296516
 21
-255.338846372148
  0
LINE
  5
A1
100
AcDbEntity
  8
1
  6
CONTINUOUS
 62
           7
100
AcDbLine
 10
-44.607968296516
 20
-264.338846372149
 11
-44.607968296515
 21
-248.638846372149
  0
LINE
  5
A0
100
AcDbEntity
  8
1
  6
CONTINUOUS
 62
           7
100
AcDbLine
 10
-44.155826688124
 20
-247.84307714138
 11
-44.607968296515
 21
-248.638846372149
  0
LINE
  5
9F
100
AcDbEntity
  8
1
  6
CONTINUOUS
 62
           7
100
AcDbLine
 10
-44.155826688124
 20
-247.84307714138
 11
-28.107968296516
 21
-247.84307714138
  0
LINE
  5
9E
100
AcDbEntity
  8
1
  6
CONTINUOUS
 62
           7
100
AcDbLine
 10
-44.107968296515
 20
-247.84307714138
 11
-44.107968296516
 21
-249.334931382397
  0
LINE
  5
9D
100
AcDbEntity
  8
1
  6
CONTINUOUS
 62
           7
100
AcDbLine
 10
-26.607968296516
 20
-260.133036889234
 11
-44.107968296516
 21
-260.133036889233
  0
LINE
  5
9C
100
AcDbEntity
  8
1
  6
CONTINUOUS
 62
           7
100
AcDbLine
 10
-26.607968296516
 20
-258.126641237416
 11
-44.107968296516
 21
-258.126641237415
  0
LINE
  5
9B
100
AcDbEntity
  8
1
  6
CONTINUOUS
 62
           7
100
AcDbLine
 10
-26.607968296516
 20
-254.446473150758
 11
-44.107968296516
 21
-254.446473150757
  0
LINE
  5
9A
100
AcDbEntity
  8
1
  6
CONTINUOUS
 62
           7
100
AcDbLine
 10
-26.607968296516
 20
-252.856764900545
 11
-44.107968296516
 21
-252.856764900544
  0
LINE
  5
99
100
AcDbEntity
  8
1
  6
CONTINUOUS
 62
           7
100
AcDbLine
 10
-44.107968296516
 20
-260.133036889233
 11
-44.107968296516
 21
-264.338846372149
  0
LINE
  5
98
100
AcDbEntity
  8
1
  6
CONTINUOUS
 62
           7
100
AcDbLine
 10
-44.107968296516
 20
-254.446473150757
 11
-44.107968296516
 21
-258.126641237415
  0
LINE
  5
97
100
AcDbEntity
  8
1
  6
CONTINUOUS
 62
           7
100
AcDbLine
 10
-26.607968296517
 20
-264.33884637215
 11
-26.607968296516
 21
-247.83884637215
  0
LINE
  5
96
100
AcDbEntity
  8
1
  6
CONTINUOUS
 62
           7
100
AcDbLine
 10
-26.607968296516
 20
-249.334931382397
 11
-44.107968296516
 21
-249.334931382397
  0
LINE
  5
95
100
AcDbEntity
  8
1
  6
CONTINUOUS
 62
           7
100
AcDbLine
 10
-26.607968296516
 20
-250.265933560653
 11
-44.107968296516
 21
-250.265933560652
  0
LINE
  5
94
100
AcDbEntity
  8
1
  6
CONTINUOUS
 62
           7
100
AcDbLine
 10
-44.107968296516
 20
-250.265933560652
 11
-44.107968296516
 21
-252.856764900544
  0
LINE
  5
93
100
AcDbEntity
  8
1
  6
CONTINUOUS
 62
           6
100
AcDbLine
 10
20.906261646214
 20
-257.782175600363
 11
20.906261646214
 21
-264.360675600363
  0
LINE
  5
92
100
AcDbEntity
  8
1
  6
CONTINUOUS
 62
           7
100
AcDbLine
 10
19.591261646214
 20
-259.431369084036
 11
18.721261646214
 21
-259.431369084036
  0
LINE
  5
91
100
AcDbEntity
  8
1
  6
CONTINUOUS
 62
           7
100
AcDbLine
 10
20.906261646214
 20
-255.838891795925
 11
20.906261646214
 21
-272.838800948372
  0
LINE
  5
90
100
AcDbEntity
  8
1
  6
CONTINUOUS
 62
           7
100
AcDbLine
 10
19.591261646214
 20
-274.153800948372
 11
18.721261646214
 21
-274.153800948372
  0
LINE
  5
8F
100
AcDbEntity
  8
1
  6
CONTINUOUS
 62
           7
100
AcDbLine
 10
19.591261646214
 20
-254.523891795924
 11
18.721261646214
 21
-254.523891795925
  0
LINE
  5
8E
100
AcDbEntity
  8
1
  6
CONTINUOUS
 62
           7
100
AcDbLine
 10
17.406261646214
 20
-255.838891795925
 11
17.406261646214
 21
-272.838800948372
  0
LINE
  5
8D
100
AcDbEntity
  8
1
  6
CONTINUOUS
 62
           7
100
AcDbLine
 10
17.406261646214
 20
-255.838891795925
 11
18.721261646214
 21
-254.523891795925
  0
LINE
  5
8C
100
AcDbEntity
  8
1
  6
CONTINUOUS
 62
           7
100
AcDbLine
 10
19.591261646214
 20
-254.523891795924
 11
20.906261646214
 21
-255.838891795925
  0
LINE
  5
8B
100
AcDbEntity
  8
1
  6
CONTINUOUS
 62
           7
100
AcDbLine
 10
17.406261646214
 20
-272.838800948372
 11
18.721261646214
 21
-274.153800948372
  0
LINE
  5
8A
100
AcDbEntity
  8
1
  6
CONTINUOUS
 62
           7
100
AcDbLine
 10
19.591261646214
 20
-274.153800948372
 11
20.906261646214
 21
-272.838800948372
  0
LINE
  5
89
100
AcDbEntity
  8
1
  6
CONTINUOUS
 62
           7
100
AcDbLine
 10
18.721261646214
 20
-269.24632366026
 11
19.591261646214
 21
-269.24632366026
  0
LINE
  5
88
100
AcDbEntity
  8
1
  6
DOT_CENTER
 62
           2
100
AcDbLine
 10
-2.593738353786
 20
-9.872856919153
 11
-2.593738353786
 21
-301.196650813276
  0
LINE
  5
87
100
AcDbEntity
  8
1
  6
DOT_CENTER
 62
           2
100
AcDbLine
 10
102.856261646214
 20
-12.195486412191
 11
102.856261646214
 21
-176.00226062864
  0
LINE
  5
86
100
AcDbEntity
  8
1
  6
CONTINUOUS
 62
           7
100
AcDbLine
 10
-172.584412604955
 20
-271.047509277363
 11
-172.55558315136
 21
-271.047509277363
  0
LINE
  5
85
100
AcDbEntity
  8
1
  6
CONTINUOUS
 62
           7
100
AcDbLine
 10
-178.508414137691
 20
-270.447509277364
 11
-172.55558315136
 21
-270.447509277363
  0
LINE
  5
84
100
AcDbEntity
  8
1
  6
CONTINUOUS
 62
           7
100
AcDbLine
 10
-172.555583151359
 20
-258.230183466934
 11
-172.584412604956
 21
-270.447509277363
  0
LINE
  5
83
100
AcDbEntity
  8
1
  6
CONTINUOUS
 62
           7
100
AcDbLine
 10
-170.35558315136
 20
-268.847509277363
 11
-170.35558315136
 21
-259.830183466934
  0
LINE
  5
82
100
AcDbEntity
  8
1
  6
CONTINUOUS
 62
           7
100
AcDbLine
 10
-172.584412604955
 20
-257.630183466934
 11
-172.555583151359
 21
-257.630183466934
  0
LINE
  5
81
100
AcDbEntity
  8
1
  6
CONTINUOUS
 62
           7
100
AcDbLine
 10
-172.555583151359
 20
-258.230183466934
 11
-178.508414137692
 21
-258.230183466933
  0
LINE
  5
80
100
AcDbEntity
  8
0
  6
CONTINUOUS
 62
           7
100
AcDbLine
 10
41.300507636949
 20
49.783911302087
 11
51.478264777672
 21
48.893472932153
  0
LINE
  5
7F
100
AcDbEntity
  8
1
  6
CONTINUOUS
 62
           7
100
AcDbLine
 10
33.330838397321
 20
36.520565420617
 11
23.128997152075
 21
37.413110876667
  0
LINE
  5
7E
100
AcDbEntity
  8
1
  6
CONTINUOUS
 62
           7
100
AcDbLine
 10
32.903123569259
 20
31.631762565195
 11
22.701282324012
 21
32.524308021246
  0
LINE
  5
7D
100
AcDbEntity
  8
1
  6
CONTINUOUS
 62
           7
100
AcDbLine
 10
22.701282324012
 20
32.524308021246
 11
22.059587733019
 21
33.900426512482
  0
LINE
  5
7C
100
AcDbEntity
  8
0
  6
CONTINUOUS
 62
           7
100
AcDbLine
 10
43.253764209405
 20
17.992698612424
 11
43.210186338031
 21
17.494601263378
  0
LINE
  5
7B
100
AcDbEntity
  8
0
  6
CONTINUOUS
 62
           7
100
AcDbLine
 10
36.043740823299
 20
24.144503028953
 11
35.956585080551
 21
23.148308330862
  0
LINE
  5
7A
100
AcDbEntity
  8
0
  6
CONTINUOUS
 62
           7
100
AcDbLine
 10
47.437869257256
 20
23.147645960224
 11
36.043740823299
 21
24.144503028953
  0
LINE
  5
79
100
AcDbEntity
  8
0
  6
CONTINUOUS
 62
           7
100
AcDbLine
 10
39.268985417038
 20
18.341321583414
 11
39.225407545664
 21
17.843224234369
  0
LINE
  5
78
100
AcDbEntity
  8
0
  6
CONTINUOUS
 62
           7
100
AcDbLine
 10
35.956585080551
 20
23.148308330862
 11
47.350713514507
 21
22.151451262132
  0
LINE
  5
77
100
AcDbEntity
  8
0
  6
CONTINUOUS
 62
           7
100
AcDbLine
 10
39.225407545664
 20
17.843224234369
 11
43.210186338031
 21
17.494601263378
  0
LINE
  5
76
100
AcDbEntity
  8
1
  6
CONTINUOUS
 62
           7
100
AcDbLine
 10
45.893788587675
 20
18.120356694318
 11
45.246203415326
 21
17.818382769141
  0
LINE
  5
75
100
AcDbEntity
  8
1
  6
CONTINUOUS
 62
           7
100
AcDbLine
 10
37.276645830592
 20
18.515628711122
 11
36.691336153937
 21
18.925466958907
  0
LINE
  5
74
100
AcDbEntity
  8
1
  6
CONTINUOUS
 62
           7
100
AcDbLine
 10
45.246203415326
 20
17.818382769141
 11
37.276645830592
 21
18.515628711122
  0
LINE
  5
73
100
AcDbEntity
  8
1
  6
CONTINUOUS
 62
           7
100
AcDbLine
 10
36.691336153937
 20
18.925466958907
 11
36.965243505707
 21
22.056242315747
  0
LINE
  5
72
100
AcDbEntity
  8
0
  6
CONTINUOUS
 62
           7
100
AcDbLine
 10
47.350713514507
 20
22.151451262132
 11
47.437869257256
 21
23.147645960224
  0
LINE
  5
71
100
AcDbEntity
  8
1
  6
CONTINUOUS
 62
           7
100
AcDbLine
 10
36.965243505707
 20
22.056242315747
 11
35.956585080551
 21
23.148308330862
  0
LINE
  5
70
100
AcDbEntity
  8
1
  6
CONTINUOUS
 62
           7
100
AcDbLine
 10
46.167695939445
 20
21.251132051159
 11
47.350713514507
 21
22.151451262132
  0
LINE
  5
6F
100
AcDbEntity
  8
1
  6
CONTINUOUS
 62
           7
100
AcDbLine
 10
46.167695939445
 20
21.251132051159
 11
45.893788587675
 21
18.120356694318
  0
LINE
  5
6E
100
AcDbEntity
  8
1
  6
CONTINUOUS
 62
           7
100
AcDbLine
 10
37.257898344034
 20
21.851323191862
 11
36.965243505707
 21
22.056242315747
  0
LINE
  5
6D
100
AcDbEntity
  8
1
  6
CONTINUOUS
 62
           7
100
AcDbLine
 10
45.843903353271
 20
21.100145088577
 11
46.167695939445
 21
21.251132051159
  0
LINE
  5
6C
100
AcDbEntity
  8
1
  6
CONTINUOUS
 62
           7
100
AcDbLine
 10
39.265856614141
 20
21.8549647496
 11
38.991949262371
 21
18.724189392759
  0
LINE
  5
6B
100
AcDbEntity
  8
1
  6
CONTINUOUS
 62
           7
100
AcDbLine
 10
43.86708283101
 20
21.452409617306
 11
43.59317547924
 21
18.321634260465
  0
LINE
  5
6A
100
AcDbEntity
  8
0
  6
CONTINUOUS
 62
           7
100
AcDbLine
 10
49.909561027683
 20
30.961959650928
 11
48.415268980545
 21
31.092693265049
  0
LINE
  5
69
100
AcDbEntity
  8
0
  6
CONTINUOUS
 62
           7
100
AcDbLine
 10
56.154193168514
 20
44.971012775094
 11
53.165509454768
 21
45.232488718911
  0
LINE
  5
68
100
AcDbEntity
  8
0
  6
CONTINUOUS
 62
           7
100
AcDbLine
 10
55.19547999829
 20
34.012871096085
 11
52.206796284544
 21
34.274347039902
  0
LINE
  5
67
100
AcDbEntity
  8
1
  6
DOT_CENTER
 62
           2
100
AcDbLine
 10
40.819565368414
 20
13.116256861807
 11
44.381070582127
 21
53.824447731101
  0
LINE
  5
66
100
AcDbEntity
  8
0
  6
CONTINUOUS
 62
           7
100
AcDbLine
 10
59.676369001616
 20
17.990265033403
 11
56.288609691817
 21
18.286655567765
  0
LINE
  5
65
100
AcDbEntity
  8
0
  6
CONTINUOUS
 62
           7
100
AcDbLine
 10
62.737564396049
 20
18.726264977096
 11
57.784583976607
 21
19.159594614463
  0
LINE
  5
64
100
AcDbEntity
  8
0
  6
CONTINUOUS
 62
           7
100
AcDbLine
 10
80.503201405353
 20
7.754336186602
 11
81.27962970801
 21
10.652159907258
  0
LINE
  5
63
100
AcDbEntity
  8
0
  6
CONTINUOUS
 62
           7
100
AcDbLine
 10
62.737564396049
 20
18.726264977096
 11
79.158296807453
 21
14.326356663481
  0
LINE
  5
62
100
AcDbEntity
  8
0
  6
CONTINUOUS
 62
           7
100
AcDbLine
 10
61.824927560283
 20
12.759200034764
 11
80.503201405353
 21
7.754336186602
  0
LINE
  5
61
100
AcDbEntity
  8
0
  6
CONTINUOUS
 62
           7
100
AcDbLine
 10
49.260164767917
 20
22.106259652181
 11
49.499796152118
 21
21.820788095445
  0
LINE
  5
60
100
AcDbEntity
  8
0
  6
CONTINUOUS
 62
           7
100
AcDbLine
 10
49.925669556369
 20
24.42477975702
 11
51.674552171408
 21
22.340322604952
  0
LINE
  5
5F
100
AcDbEntity
  8
0
  6
CONTINUOUS
 62
           7
100
AcDbLine
 10
48.11012426146
 20
27.606020537302
 11
47.892234904591
 21
25.115533792073
  0
LINE
  5
5E
100
AcDbEntity
  8
0
  6
CONTINUOUS
 62
           7
100
AcDbLine
 10
49.604316689127
 20
27.475295638755
 11
48.11012426146
 21
27.606020537302
  0
LINE
  5
5D
100
AcDbEntity
  8
0
  6
CONTINUOUS
 62
           7
100
AcDbLine
 10
49.604416308598
 20
27.475286923181
 11
49.465254734153
 21
25.884662848739
  0
LINE
  5
5C
100
AcDbEntity
  8
0
  6
CONTINUOUS
 62
           7
100
AcDbLine
 10
36.435995876536
 20
26.117824833671
 11
36.26168439104
 21
24.125435437487
  0
LINE
  5
5B
100
AcDbEntity
  8
0
  6
CONTINUOUS
 62
           7
100
AcDbLine
 10
36.435995876536
 20
26.117824833671
 11
47.892234904591
 21
25.115533792073
  0
LINE
  5
5A
100
AcDbEntity
  8
0
  6
CONTINUOUS
 62
           7
100
AcDbLine
 10
36.26168439104
 20
24.125435437487
 11
47.223511990432
 21
23.166399791015
  0
LINE
  5
59
100
AcDbEntity
  8
0
  6
CONTINUOUS
 62
           7
100
AcDbLine
 10
39.299942700196
 20
35.905460329093
 11
38.303748002104
 21
35.992616071841
  0
LINE
  5
58
100
AcDbEntity
  8
0
  6
CONTINUOUS
 62
           7
100
AcDbLine
 10
37.762072781684
 20
35.538096594169
 11
37.36987193932
 21
31.055220452756
  0
LINE
  5
57
100
AcDbEntity
  8
0
  6
CONTINUOUS
 62
           7
100
AcDbLine
 10
34.879385194091
 20
31.273109809625
 11
36.177483165852
 21
46.110437520963
  0
LINE
  5
56
100
AcDbEntity
  8
0
  6
CONTINUOUS
 62
           7
100
AcDbLine
 10
38.926482621765
 20
25.899935476802
 11
39.754462177868
 21
35.363785108673
  0
LINE
  5
55
100
AcDbEntity
  8
0
  6
CONTINUOUS
 62
           7
100
AcDbLine
 10
37.021149348858
 20
27.070450375963
 11
37.36987193932
 21
31.055220452756
  0
LINE
  5
54
100
AcDbEntity
  8
0
  6
CONTINUOUS
 62
           7
100
AcDbLine
 10
36.460832983976
 20
32.138570893595
 11
35.96273563493
 21
32.182148764969
  0
LINE
  5
53
100
AcDbEntity
  8
0
  6
CONTINUOUS
 62
           7
100
AcDbLine
 10
44.990706933592
 20
26.373204433982
 11
44.903551190845
 21
25.37700973589
  0
LINE
  5
52
100
AcDbEntity
  8
0
  6
CONTINUOUS
 62
           7
100
AcDbLine
 10
37.021149348858
 20
27.070450375963
 11
46.983195949247
 21
26.198884232912
  0
LINE
  5
51
100
AcDbEntity
  8
0
  6
CONTINUOUS
 62
           7
100
AcDbLine
 10
47.331818920237
 20
30.183663025279
 11
46.983195949247
 21
26.198884232912
  0
LINE
  5
50
100
AcDbEntity
  8
0
  6
CONTINUOUS
 62
           2
100
AcDbLine
 10
61.085492444093
 20
32.493741941507
 11
62.218517099812
 21
45.4442730167
  0
LINE
  5
4F
100
AcDbEntity
  8
0
  6
CONTINUOUS
 62
           7
100
AcDbLine
 10
63.127556055156
 20
44.36092257586
 11
62.218517099812
 21
45.4442730167
  0
LINE
  5
4E
100
AcDbEntity
  8
0
  6
CONTINUOUS
 62
           7
100
AcDbLine
 10
61.085492444093
 20
32.493741941507
 11
62.168842884932
 21
33.402780896851
  0
LINE
  5
4D
100
AcDbEntity
  8
0
  6
CONTINUOUS
 62
           7
100
AcDbLine
 10
56.241348911262
 20
45.967207473186
 11
55.108324255542
 21
33.016676397993
  0
LINE
  5
4C
100
AcDbEntity
  8
0
  6
CONTINUOUS
 62
           7
100
AcDbLine
 10
56.241348911262
 20
45.967207473186
 11
62.218517099812
 21
45.4442730167
  0
LINE
  5
4B
100
AcDbEntity
  8
0
  6
CONTINUOUS
 62
           7
100
AcDbLine
 10
55.108324255542
 20
33.016676397993
 11
61.085492444093
 21
32.493741941507
  0
LINE
  5
4A
100
AcDbEntity
  8
0
  6
CONTINUOUS
 62
           2
100
AcDbLine
 10
63.127556055156
 20
44.36092257586
 11
56.154193168514
 21
44.971012775094
  0
LINE
  5
49
100
AcDbEntity
  8
0
  6
CONTINUOUS
 62
           2
100
AcDbLine
 10
62.168842884932
 20
33.402780896851
 11
55.19547999829
 21
34.012871096085
  0
LINE
  5
48
100
AcDbEntity
  8
0
  6
CONTINUOUS
 62
           7
100
AcDbLine
 10
51.56542052042
 20
49.889667630245
 11
53.557710297132
 21
49.715364860324
  0
LINE
  5
47
100
AcDbEntity
  8
0
  6
CONTINUOUS
 62
           7
100
AcDbLine
 10
49.822305665467
 20
29.96577366841
 11
51.814595442179
 21
29.791470898489
  0
LINE
  5
46
100
AcDbEntity
  8
0
  6
CONTINUOUS
 62
           7
100
AcDbLine
 10
32.886995797907
 20
31.44742129512
 11
34.879385194091
 21
31.273109809625
  0
LINE
  5
45
100
AcDbEntity
  8
0
  6
CONTINUOUS
 62
           7
100
AcDbLine
 10
51.56542052042
 20
49.889667630245
 11
49.822305665467
 21
29.96577366841
  0
LINE
  5
44
100
AcDbEntity
  8
0
  6
CONTINUOUS
 62
           7
100
AcDbLine
 10
51.814595442179
 20
29.791470898489
 11
53.557809916603
 21
49.71535614475
  0
LINE
  5
43
100
AcDbEntity
  8
0
  6
CONTINUOUS
 62
           7
100
AcDbLine
 10
32.886995797907
 20
31.44742129512
 11
34.053328052811
 21
44.778659971072
  0
LINE
  5
42
100
AcDbEntity
  8
0
  6
CONTINUOUS
 62
           7
100
AcDbLine
 10
63.127556055156
 20
44.36092257586
 11
62.168842884932
 21
33.402780896851
  0
LINE
  5
41
100
AcDbEntity
  8
1
  6
CONTINUOUS
 62
           7
100
AcDbLine
 10
-23.093738353786
 20
-228.199734387973
 11
17.906261646214
 21
-228.199734387973
  0
LINE
  5
40
100
AcDbEntity
  8
1
  6
CONTINUOUS
 62
           7
100
AcDbLine
 10
17.906261646214
 20
-228.199734387973
 11
17.906261646214
 21
-241.199734387973
  0
LINE
  5
3F
100
AcDbEntity
  8
1
  6
CONTINUOUS
 62
           7
100
AcDbLine
 10
17.906261646214
 20
-241.199734387973
 11
-23.093738353786
 21
-241.199734387973
  0
LINE
  5
3E
100
AcDbEntity
  8
1
  6
CONTINUOUS
 62
           7
100
AcDbLine
 10
-23.093738353786
 20
-241.199734387973
 11
-23.093738353786
 21
-228.199734387973
  0
LINE
  5
3D
100
AcDbEntity
  8
1
  6
CONTINUOUS
 62
           7
100
AcDbLine
 10
-2.593738353786
 20
-231.199734387973
 11
-2.593738353786
 21
-238.199734387973
  0
LINE
  5
3C
100
AcDbEntity
  8
1
  6
CONTINUOUS
 62
           7
100
AcDbLine
 10
0.406261646214
 20
-231.199734387973
 11
0.406261646214
 21
-238.199734387973
  0
LINE
  5
3B
100
AcDbEntity
  8
1
  6
CONTINUOUS
 62
           7
100
AcDbLine
 10
3.406261646214
 20
-231.199734387973
 11
3.406261646214
 21
-238.199734387973
  0
LINE
  5
3A
100
AcDbEntity
  8
1
  6
CONTINUOUS
 62
           7
100
AcDbLine
 10
6.406261646214
 20
-231.199734387973
 11
6.406261646214
 21
-238.199734387973
  0
LINE
  5
39
100
AcDbEntity
  8
1
  6
CONTINUOUS
 62
           7
100
AcDbLine
 10
9.406261646214
 20
-231.199734387973
 11
9.406261646214
 21
-238.199734387973
  0
LINE
  5
38
100
AcDbEntity
  8
1
  6
CONTINUOUS
 62
           7
100
AcDbLine
 10
12.406261646214
 20
-231.199734387973
 11
12.406261646214
 21
-238.199734387973
  0
LINE
  5
37
100
AcDbEntity
  8
1
  6
CONTINUOUS
 62
           7
100
AcDbLine
 10
15.406261646214
 20
-231.199734387973
 11
15.406261646214
 21
-238.199734387973
  0
LINE
  5
36
100
AcDbEntity
  8
1
  6
CONTINUOUS
 62
           7
100
AcDbLine
 10
-5.593738353786
 20
-231.199734387973
 11
-5.593738353786
 21
-238.199734387973
  0
LINE
  5
35
100
AcDbEntity
  8
1
  6
CONTINUOUS
 62
           7
100
AcDbLine
 10
-8.593738353786
 20
-231.199734387973
 11
-8.593738353786
 21
-238.199734387973
  0
LINE
  5
34
100
AcDbEntity
  8
1
  6
CONTINUOUS
 62
           7
100
AcDbLine
 10
-11.593738353786
 20
-231.199734387973
 11
-11.593738353786
 21
-238.199734387973
  0
LINE
  5
33
100
AcDbEntity
  8
1
  6
CONTINUOUS
 62
           7
100
AcDbLine
 10
-14.593738353786
 20
-231.199734387973
 11
-14.593738353786
 21
-238.199734387973
  0
LINE
  5
32
100
AcDbEntity
  8
1
  6
CONTINUOUS
 62
           7
100
AcDbLine
 10
-20.593738353786
 20
-231.199734387973
 11
-20.593738353786
 21
-238.199734387973
  0
LINE
  5
31
100
AcDbEntity
  8
1
  6
CONTINUOUS
 62
           7
100
AcDbLine
 10
-17.593738353786
 20
-231.199734387973
 11
-17.593738353786
 21
-238.199734387973
  0
LINE
  5
30
100
AcDbEntity
  8
1
  6
CONTINUOUS
 62
           7
100
AcDbLine
 10
15.906261646214
 20
-241.199734387973
 11
15.906261646214
 21
-243.838846372149
  0
LINE
  5
2F
100
AcDbEntity
  8
1
  6
CONTINUOUS
 62
           7
100
AcDbLine
 10
-21.093738353786
 20
-228.199734387973
 11
-21.093738353786
 21
-227.266188934688
  0
LINE
  5
2E
100
AcDbEntity
  8
1
  6
DOT_CENTER
 62
           2
100
AcDbLine
 10
-70.224587117432
 20
-264.338846372149
 11
73.544467576663
 21
-264.338846372149
  0
LINE
  5
2D
100
AcDbEntity
  8
1
  6
CONTINUOUS
 62
           7
100
AcDbLine
 10
-22.607968296518
 20
-248.938846372149
 11
-20.593738353786
 21
-248.938846372149
  0
LINE
  5
2C
100
AcDbEntity
  8
1
  6
CONTINUOUS
 62
           7
100
AcDbLine
 10
-20.593738353786
 20
-249.638846372148
 11
-2.048084103252
 21
-249.638846372148
  0
LINE
  5
2B
100
AcDbEntity
  8
976
  6
CONTINUOUS
 62
           7
100
AcDbLine
 10
13.178208945288
 20
-258.838846372149
 11
15.5029842403
 21
-258.838846372149
  0
POINT
  5
2A
100
AcDbEntity
  8
1
 62
           6
100
AcDbPoint
 10
72.406261646214
 20
98.089781682404
  0
POINT
  5
29
100
AcDbEntity
  8
1
 62
           6
100
AcDbPoint
 10
114.406261646214
 20
-50.338846372149
  0
ENDSEC
  0
SECTION
  2
OBJECTS
  0
DICTIONARY
  5
19
100
AcDbDictionary
  3
ACAD_GROUP
350
1A
  3
ACAD_MLINESTYLE
350
1B
  0
DICTIONARY
  5
1A
102
{ACAD_REACTORS
330
19
102
}
100
AcDbDictionary
  0
DICTIONARY
  5
1B
102
{ACAD_REACTORS
330
19
102
}
100
AcDbDictionary
  3
STANDARD
350
1C
  0
MLINESTYLE
  5
1C
102
{ACAD_REACTORS
330
1B
102
}
100
AcDbMlineStyle
  2
STANDARD
 70
           0
  3

 62
           0
 51
90.0
 52
90.0
 71
           2
 49
0.5
 62
         256
  6
BYLAYER
 49
-0.5
 62
         256
  6
BYLAYER
  0
ENDSEC
  0
EOF
