  0
SECTION
  2
HEADER
  9
$ACADVER
  1
AC1014
  9
$ACADMAINTVER
 70
           0
  9
$DWGCODEPAGE
  3
DOS932
  9
$INSBASE
 10
0.0
 20
0.0
 30
0.0
  9
$EXTMIN
 10
1.000000000000E+20
 20
1.000000000000E+20
 30
1.000000000000E+20
  9
$EXTMAX
 10
-1.000000000000E+20
 20
-1.000000000000E+20
 30
-1.000000000000E+20
  9
$LIMMIN
 10
0.0
 20
0.0
  9
$LIMMAX
 10
0.0
 20
0.0
  9
$ORTHOMODE
 70
           0
  9
$REGENMODE
 70
           1
  9
$FILLMODE
 70
           1
  9
$QTEXTMODE
 70
           0
  9
$MIRRTEXT
 70
           1
  9
$DRAGMODE
 70
           2
  9
$LTSCALE
 40
1.0
  9
$OSMODE
 70
           0
  9
$ATTMODE
 70
           1
  9
$TEXTSIZE
 40
0.2
  9
$TRACEWID
 40
0.05
  9
$TEXTSTYLE
  7
STANDARD
  9
$CLAYER
  8
0
  9
$CELTYPE
  6
CONTINUOUS
  9
$CECOLOR
 62
         256
  9
$CELTSCALE
 40
1.0
  9
$DELOBJ
 70
           1
  9
$DISPSILH
 70
           0
  9
$DIMSCALE
 40
1.0
  9
$DIMASZ
 40
0.18
  9
$DIMEXO
 40
0.0625
  9
$DIMDLI
 40
0.38
  9
$DIMRND
 40
0.0
  9
$DIMDLE
 40
0.0
  9
$DIMEXE
 40
0.18
  9
$DIMTP
 40
0.0
  9
$DIMTM
 40
0.0
  9
$DIMTXT
 40
0.18
  9
$DIMCEN
 40
0.09
  9
$DIMTSZ
 40
0.0
  9
$DIMTOL
 70
           0
  9
$DIMLIM
 70
           0
  9
$DIMTIH
 70
           1
  9
$DIMTOH
 70
           1
  9
$DIMSE1
 70
           0
  9
$DIMSE2
 70
           0
  9
$DIMTAD
 70
           0
  9
$DIMZIN
 70
           0
  9
$DIMBLK
  1

  9
$DIMASO
 70
           1
  9
$DIMSHO
 70
           1
  9
$DIMPOST
  1

  9
$DIMAPOST
  1

  9
$DIMALT
 70
           0
  9
$DIMALTD
 70
           2
  9
$DIMALTF
 40
25.4
  9
$DIMLFAC
 40
1.0
  9
$DIMTOFL
 70
           0
  9
$DIMTVP
 40
0.0
  9
$DIMTIX
 70
           0
  9
$DIMSOXD
 70
           0
  9
$DIMSAH
 70
           0
  9
$DIMBLK1
  1

  9
$DIMBLK2
  1

  9
$DIMSTYLE
  2
STANDARD
  9
$DIMCLRD
 70
           0
  9
$DIMCLRE
 70
           0
  9
$DIMCLRT
 70
           0
  9
$DIMTFAC
 40
1.0
  9
$DIMGAP
 40
0.09
  9
$DIMJUST
 70
           0
  9
$DIMSD1
 70
           0
  9
$DIMSD2
 70
           0
  9
$DIMTOLJ
 70
           1
  9
$DIMTZIN
 70
           0
  9
$DIMALTZ
 70
           0
  9
$DIMALTTZ
 70
           0
  9
$DIMFIT
 70
           3
  9
$DIMUPT
 70
           0
  9
$DIMUNIT
 70
           2
  9
$DIMDEC
 70
           4
  9
$DIMTDEC
 70
           4
  9
$DIMALTU
 70
           2
  9
$DIMALTTD
 70
           2
  9
$DIMTXSTY
  7
STANDARD
  9
$DIMAUNIT
 70
           0
  9
$LUNITS
 70
           2
  9
$LUPREC
 70
           4
  9
$SKETCHINC
 40
0.1
  9
$FILLETRAD
 40
0.0
  9
$AUNITS
 70
           0
  9
$AUPREC
 70
           0
  9
$MENU
  1
acad
  9
$ELEVATION
 40
0.0
  9
$PELEVATION
 40
0.0
  9
$THICKNESS
 40
0.0
  9
$LIMCHECK
 70
           0
  9
$BLIPMODE
 70
           1
  9
$CHAMFERA
 40
0.0
  9
$CHAMFERB
 40
0.0
  9
$CHAMFERC
 40
0.0
  9
$CHAMFERD
 40
0.0
  9
$SKPOLY
 70
           0
  9
$TDCREATE
 40
0.000000000
  9
$TDUPDATE
 40
0.000000000
  9
$TDINDWG
 40
0.0000000000
  9
$TDUSRTIMER
 40
0.0000000000
  9
$USRTIMER
 70
           1
  9
$ANGBASE
 50
0.0
  9
$ANGDIR
 70
           0
  9
$PDMODE
 70
           0
  9
$PDSIZE
 40
0.0
  9
$PLINEWID
 40
0.0
  9
$COORDS
 70
           0
  9
$SPLFRAME
 70
           0
  9
$SPLINETYPE
 70
           6
  9
$SPLINESEGS
 70
           8
  9
$ATTDIA
 70
           0
  9
$ATTREQ
 70
           1
  9
$HANDLING
 70
           1
  9
$HANDSEED
  5
241
  9
$SURFTAB1
 70
           6
  9
$SURFTAB2
 70
           6
  9
$SURFTYPE
 70
           6
  9
$SURFU
 70
           6
  9
$SURFV
 70
           6
  9
$UCSNAME
  2

  9
$UCSORG
 10
0.0
 20
0.0
 30
0.0
  9
$UCSXDIR
 10
1.0
 20
0.0
 30
0.0
  9
$UCSYDIR
 10
0.0
 20
1.0
 30
0.0
  9
$PUCSNAME
  2

  9
$PUCSORG
 10
0.0
 20
0.0
 30
0.0
  9
$PUCSXDIR
 10
1.0
 20
0.0
 30
0.0
  9
$PUCSYDIR
 10
0.0
 20
1.0
 30
0.0
  9
$USERI1
 70
           0
  9
$USERI2
 70
           0
  9
$USERI3
 70
           0
  9
$USERI4
 70
           0
  9
$USERI5
 70
           0
  9
$USERR1
 40
0.0
  9
$USERR2
 40
0.0
  9
$USERR3
 40
0.0
  9
$USERR4
 40
0.0
  9
$USERR5
 40
0.0
  9
$WORLDVIEW
 70
           1
  9
$SHADEDGE
 70
           3
  9
$SHADEDIF
 70
          70
  9
$TILEMODE
 70
           1
  9
$MAXACTVP
 70
          16
  9
$PINSBASE
 10
0.0
 20
0.0
 30
0.0
  9
$PLIMCHECK
 70
           0
  9
$PEXTMIN
 10
1.000000000000E+20
 20
1.000000000000E+20
 30
1.000000000000E+20
  9
$PEXTMAX
 10
-1.000000000000E+20
 20
-1.000000000000E+20
 30
-1.000000000000E+20
  9
$PLIMMIN
 10
0.0
 20
0.0
  9
$PLIMMAX
 10
12.0
 20
9.0
  9
$UNITMODE
 70
           0
  9
$VISRETAIN
 70
           0
  9
$PLINEGEN
 70
           1
  9
$PSLTSCALE
 70
           0
  9
$TREEDEPTH
 70
        3020
  9
$PICKSTYLE
 70
           1
  9
$CMLSTYLE
  2
STANDARD
  9
$CMLJUST
 70
           0
  9
$CMLSCALE
 40
1.0
  9
$PROXYGRAPHICS
 70
           0
  9
$MEASUREMENT
 70
           0
  0
ENDSEC
  0
SECTION
  2
CLASSES
  0
CLASS
  1
LWPOLYLINE
  2
AcDbPolyline
  3
"AutoCAD"
 90
        0
280
           0
281
           1
  0
CLASS
  1
IMAGE
  2
AcDbRasterImage
  3
ISM
 90
      127
280
           0
281
           1
  0
CLASS
  1
OLE2FRAME
  2
AcDbOle2Frame
  3
""
 90
        0
280
           0
281
           1
  0
CLASS
  1
HATCH
  2
AcDbHatch
  3
"ACAD_SEDONA"
 90
        0
280
           0
281
           1
  0
CLASS
  1
DICTIONARYVAR
  2
AcDbDictionaryVar
  3
"AutoCAD"
 90
        0
280
           0
281
           0
  0
CLASS
  1
RASTERVARIABLES
  2
AcDbRasterVariables
  3
ISM
 90
        0
280
           0
281
           0
  0
CLASS
  1
IMAGEDEF
  2
AcDbRasterImageDef
  3
ISM
 90
        0
280
           0
281
           0
  0
CLASS
  1
IMAGEDEF_REACTOR
  2
AcDbRasterImageDefReactor
  3
ISM
 90
        1
280
           0
281
           0
  0
CLASS
  1
IDBUFFER
  2
AcDbIdBuffer
  3
"Acad"
 90
        0
280
           0
281
           0
  0
CLASS
  1
SPATIAL_FILTER
  2
AcDbSpatialFilter
  3
"Acad"
 90
        0
280
           0
281
           0
  0
CLASS
  1
XRECORD
  2
AcDbXrecord
  3
"<Built In>"
 90
        0
280
           0
281
           0
  0
CLASS
  1
SORTENTSTABLE
  2
AcDbSortentsTable
  3
"AutoCAD"
 90
        0
280
           0
281
           0
  0
CLASS
  1
LAYER_INDEX
  2
AcDbLayerIndex
  3
"Acad"
 90
        0
280
           0
281
           0
  0
CLASS
  1
SPATIAL_INDEX
  2
AcDbSpatialIndex
  3
"Acad"
 90
        0
280
           0
281
           0
  0
CLASS
  1
OBJECT_PTR
  2
CAseDLPNTableRecord
  3
"ASE-LPNTableRecord"
 90
        1
280
           0
281
           0
  0
CLASS
  1
LAYOUT
  2
AcDbLayout
  3
"AutoCAD 2000"
 90
        1
280
           0
281
           0
  0
CLASS
  1
PLOTSETTINGS
  2
AcDbPlotSettings
  3
"AutoCAD 2000"
 90
        1
280
           0
281
           0
  0
CLASS
  1
ACDBDICTIONARYWDFLT
  2
AcDbDictionaryWithDefault
  3
"AutoCAD 2000"
 90
        1
280
           0
281
           0
  0
CLASS
  1
ACDBPLACEHOLDER
  2
AcDbPlaceHolder
  3
"AutoCAD 2000"
 90
        1
280
           0
281
           0
  0
CLASS
  1
VBA_PROJECT
  2
AcDbVbaProject
  3
"acadvba"
 90
        1
280
           0
281
           0
  0
CLASS
  1
WIPEOUT
  2
AcDbWipeout
  3
WipeOut|AutoCAD Express Tool|expresstools@autodesk.com
 90
      127
280
           0
281
           1
  0
CLASS
  1
WIPEOUTVARIABLES
  2
AcDbWipeoutVariables
  3
WipeOut|AutoCAD Express Tool|expresstools@autodesk.com
 90
        0
280
           0
281
           0
  0
CLASS
  1
RTEXT
  2
RText
  3
RText|AutoCAD Express Tool|expresstools@autodesk.com
 90
        0
280
           0
281
           1
  0
CLASS
  1
ARCALIGNEDTEXT
  2
AcDbArcAlignedText
  3
ATEXT|AutoCAD Express Tool|expresstools@autodesk.com
 90
        0
280
           0
281
           1
  0
ENDSEC
  0
SECTION
  2
TABLES
  0
TABLE
  2
VPORT
  5
7
100
AcDbSymbolTable
 70
           1
  0
VPORT
  5
15
100
AcDbSymbolTableRecord
100
AcDbViewportTableRecord
  2
*ACTIVE
 70
           0
 10
0.0
 20
0.0
 11
1.0
 21
1.0
 12
6.591288
 22
4.579184
 13
0.0
 23
0.0
 14
1.0
 24
1.0
 15
0.0
 25
0.0
 16
0.0
 26
0.0
 36
1.0
 17
0.0
 27
0.0
 37
0.0
 40
9.158369
 41
0.688564
 42
50.0
 43
0.0
 44
0.0
 50
0.0
 51
0.0
 71
           0
 72
         100
 73
           1
 74
           1
 75
           0
 76
           0
 77
           0
 78
           0
  0
ENDTAB
  0
TABLE
  2
LTYPE
  5
4
100
AcDbSymbolTable
 70
          10
  0
LTYPE
  5
11
100
AcDbSymbolTableRecord
100
AcDbLinetypeTableRecord
  2
BYBLOCK
 70
          64
  3

 72
          65
 73
           0
 40
0.0
  0
LTYPE
  5
12
100
AcDbSymbolTableRecord
100
AcDbLinetypeTableRecord
  2
BYLAYER
 70
          64
  3

 72
          65
 73
           0
 40
0.0
  0
LTYPE
  5
13
100
AcDbSymbolTableRecord
100
AcDbLinetypeTableRecord
  2
CONTINUOUS
 70
          64
  3
Solid line
 72
          65
 73
           0
 40
0.0
  0
LTYPE
  5
1D
100
AcDbSymbolTableRecord
100
AcDbLinetypeTableRecord
  2
DASHED
 70
          64
  3
Dashed
 72
          65
 73
           2
 40
15.0
 49
12.0
 74
           0
 49
-3.0
 74
           0
  0
LTYPE
  5
1E
100
AcDbSymbolTableRecord
100
AcDbLinetypeTableRecord
  2
DOTTED
 70
          64
  3
Dotted
 72
          65
 73
           2
 40
3.5
 49
0.5
 74
           0
 49
-3.0
 74
           0
  0
LTYPE
  5
1F
100
AcDbSymbolTableRecord
100
AcDbLinetypeTableRecord
  2
DOT_CENTER
 70
          64
  3
Dot_Center
 72
          65
 73
           4
 40
2.0
 49
1.25
 74
           0
 49
-0.25
 74
           0
 49
0.25
 74
           0
 49
-0.25
 74
           0
  0
LTYPE
  5
20
100
AcDbSymbolTableRecord
100
AcDbLinetypeTableRecord
  2
LONG_DASHED
 70
          64
  3
Long_Dashed
 72
          65
 73
           2
 40
2.0
 49
1.5
 74
           0
 49
-0.5
 74
           0
  0
LTYPE
  5
21
100
AcDbSymbolTableRecord
100
AcDbLinetypeTableRecord
  2
DASH_CENTER
 70
          64
  3
Dash_Center
 72
          65
 73
           4
 40
36.0
 49
24.0
 74
           0
 49
-3.0
 74
           0
 49
6.0
 74
           0
 49
-3.0
 74
           0
  0
LTYPE
  5
22
100
AcDbSymbolTableRecord
100
AcDbLinetypeTableRecord
  2
PHANTOM
 70
          64
  3
Phantom
 72
          65
 73
           6
 40
2.5
 49
1.25
 74
           0
 49
-0.25
 74
           0
 49
0.25
 74
           0
 49
-0.25
 74
           0
 49
0.25
 74
           0
 49
-0.25
 74
           0
  0
LTYPE
  5
23
100
AcDbSymbolTableRecord
100
AcDbLinetypeTableRecord
  2
CENTER_DASH_DASH
 70
          64
  3
Center_Dash_Dash
 72
          65
 73
           6
 40
22.0
 49
12.0
 74
           0
 49
-3.0
 74
           0
 49
0.5
 74
           0
 49
-3.0
 74
           0
 49
0.5
 74
           0
 49
-3.0
 74
           0
  0
ENDTAB
  0
TABLE
  2
LAYER
  5
2
100
AcDbSymbolTable
 70
           3
  0
LAYER
  5
14
100
AcDbSymbolTableRecord
100
AcDbLayerTableRecord
  2
0
 70
           0
 62
           7
  6
CONTINUOUS
  0
LAYER
  5
24
100
AcDbSymbolTableRecord
100
AcDbLayerTableRecord
  2
976
 70
           0
 62
           7
  6
CONTINUOUS
  0
LAYER
  5
25
100
AcDbSymbolTableRecord
100
AcDbLayerTableRecord
  2
1
 70
           0
 62
           7
  6
CONTINUOUS
  0
ENDTAB
  0
TABLE
  2
STYLE
  5
3
100
AcDbSymbolTable
 70
           3
  0
STYLE
  5
17
100
AcDbSymbolTableRecord
100
AcDbTextStyleTableRecord
  2
STANDARD
 70
           0
 40
0.0
 41
1.0
 50
0.0
 71
           0
 42
0.0
  3
txt
  4

  0
STYLE
  5
219
100
AcDbSymbolTableRecord
100
AcDbTextStyleTableRecord
  2
CONVERTER_1
 70
           0
 40
0.0
 41
0.89
 50
0.0
 71
           0
 42
0.0
  3
MS Mincho.ttf
  4

1001
ACAD
1000
MS Mincho
1071
    32785
  0
STYLE
  5
225
100
AcDbSymbolTableRecord
100
AcDbTextStyleTableRecord
  2
CONVERTER_2
 70
           0
 40
0.0
 41
0.9
 50
0.0
 71
           0
 42
0.0
  3
txt.shx
  4

  0
ENDTAB
  0
TABLE
  2
VIEW
  5
5
100
AcDbSymbolTable
 70
           0
  0
ENDTAB
  0
TABLE
  2
UCS
  5
6
100
AcDbSymbolTable
 70
           0
  0
ENDTAB
  0
TABLE
  2
APPID
  5
8
100
AcDbSymbolTable
 70
           1
  0
APPID
  5
16
100
AcDbSymbolTableRecord
100
AcDbRegAppTableRecord
  2
ACAD
 70
           0
  0
ENDTAB
  0
TABLE
  2
DIMSTYLE
  5
9
100
AcDbSymbolTable
 70
           5
  0
DIMSTYLE
105
18
100
AcDbSymbolTableRecord
100
AcDbDimStyleTableRecord
  2
STANDARD
 70
           0
  3

  4

  5

  6

  7

 40
1.0
 41
0.18
 42
0.0625
 43
0.38
 44
0.18
 45
0.0
 46
0.0
 47
0.0
 48
0.0
 71
           0
 72
           0
 73
           1
 74
           1
 75
           0
 76
           0
 77
           0
 78
           0
140
0.18
141
0.09
142
0.0
143
25.4
144
1.0
145
0.0
146
1.0
147
0.09
170
           0
171
           2
172
           0
173
           0
174
           0
175
           0
176
           0
177
           0
178
           0
270
           2
271
           4
272
           4
273
           2
274
           2
275
           0
280
           0
281
           0
282
           0
283
           1
284
           0
285
           0
286
           0
287
           0
288
           0
340
17
  0
DIMSTYLE
105
21C
100
AcDbSymbolTableRecord
100
AcDbDimStyleTableRecord
  2
ME10_DIM_0
 70
           0
  3
ó<>
  4

  5

  6

  7

 40
1.0
 41
2.8
 42
0.8
 43
0.38
 44
1.0
 45
0.0
 46
0.0
 47
0.0
 48
0.0
 71
           0
 72
           0
 73
           0
 74
           0
 75
           0
 76
           0
 77
           1
 78
           8
140
2.8
141
0.09
142
0.0
143
25.4
144
1.0
145
0.0
146
1.0
147
0.09
170
           0
171
           2
172
           0
173
           1
174
           0
175
           0
176
           2
177
           2
178
           2
270
           2
271
           3
272
           4
273
           2
274
           2
275
           0
280
           0
281
           0
282
           0
283
           1
284
           0
285
           0
286
           0
287
           3
288
           0
340
17
  0
DIMSTYLE
105
228
100
AcDbSymbolTableRecord
100
AcDbDimStyleTableRecord
  2
ME10_DIM_1
 70
           0
  3

  4

  5

  6

  7

 40
1.0
 41
2.8
 42
0.8
 43
0.38
 44
1.0
 45
0.0
 46
0.0
 47
0.0
 48
0.0
 71
           0
 72
           0
 73
           0
 74
           0
 75
           0
 76
           0
 77
           1
 78
           8
140
2.8
141
0.09
142
0.0
143
25.4
144
1.0
145
0.0
146
1.0
147
0.09
170
           0
171
           2
172
           0
173
           1
174
           0
175
           0
176
           2
177
           2
178
           2
270
           2
271
           0
272
           4
273
           2
274
           2
275
           0
280
           0
281
           0
282
           0
283
           1
284
           0
285
           0
286
           0
287
           3
288
           0
340
17
  0
DIMSTYLE
105
233
100
AcDbSymbolTableRecord
100
AcDbDimStyleTableRecord
  2
ME10_DIM_2
 70
           0
  3

  4

  5

  6

  7

 40
1.0
 41
2.8
 42
0.8
 43
0.38
 44
1.0
 45
0.0
 46
0.0
 47
0.0
 48
0.0
 71
           0
 72
           0
 73
           0
 74
           0
 75
           0
 76
           0
 77
           1
 78
           8
140
2.8
141
0.09
142
0.0
143
25.4
144
1.0
145
0.0
146
1.0
147
0.09
170
           0
171
           2
172
           0
173
           1
174
           0
175
           0
176
           2
177
           2
178
           2
270
           2
271
           3
272
           4
273
           2
274
           2
275
           0
280
           0
281
           0
282
           0
283
           1
284
           0
285
           0
286
           0
287
           3
288
           0
340
17
  0
DIMSTYLE
105
23E
100
AcDbSymbolTableRecord
100
AcDbDimStyleTableRecord
  2
ME10_DIM_3
 70
           0
  3

  4

  5

  6

  7

 40
1.0
 41
2.8
 42
0.8
 43
0.38
 44
1.0
 45
0.0
 46
0.0
 47
0.0
 48
0.0
 71
           0
 72
           0
 73
           0
 74
           0
 75
           0
 76
           0
 77
           1
 78
           8
140
2.8
141
0.09
142
0.0
143
25.4
144
1.0
145
0.0
146
1.0
147
0.09
170
           0
171
           2
172
           0
173
           1
174
           0
175
           0
176
           2
177
           2
178
           2
270
           2
271
           0
272
           4
273
           2
274
           2
275
           0
280
           0
281
           0
282
           0
283
           1
284
           0
285
           0
286
           0
287
           3
288
           0
340
17
  0
ENDTAB
  0
TABLE
  2
BLOCK_RECORD
  5
1
100
AcDbSymbolTable
 70
           5
  0
BLOCK_RECORD
  5
A
100
AcDbSymbolTableRecord
100
AcDbBlockTableRecord
  2
*MODEL_SPACE
  0
BLOCK_RECORD
  5
B
100
AcDbSymbolTableRecord
100
AcDbBlockTableRecord
  2
*PAPER_SPACE
  0
BLOCK_RECORD
  5
26
100
AcDbSymbolTableRecord
100
AcDbBlockTableRecord
  2
_1
  0
BLOCK_RECORD
  5
212
100
AcDbSymbolTableRecord
100
AcDbBlockTableRecord
  2
*D1
  0
BLOCK_RECORD
  5
21E
100
AcDbSymbolTableRecord
100
AcDbBlockTableRecord
  2
*D2
  0
BLOCK_RECORD
  5
22A
100
AcDbSymbolTableRecord
100
AcDbBlockTableRecord
  2
*D3
  0
BLOCK_RECORD
  5
235
100
AcDbSymbolTableRecord
100
AcDbBlockTableRecord
  2
*D4
  0
ENDTAB
  0
ENDSEC
  0
SECTION
  2
BLOCKS
  0
BLOCK
  5
D
100
AcDbEntity
  8
0
100
AcDbBlockBegin
  2
*MODEL_SPACE
 70
           0
 10
0.0
 20
0.0
 30
0.0
  3
*MODEL_SPACE
  1

  0
ENDBLK
  5
E
100
AcDbEntity
  8
0
100
AcDbBlockEnd
  0
BLOCK
  5
F
100
AcDbEntity
 67
           1
  8
0
100
AcDbBlockBegin
  2
*PAPER_SPACE
 70
           0
 10
0.0
 20
0.0
 30
0.0
  3
*PAPER_SPACE
  1

  0
ENDBLK
  5
10
100
AcDbEntity
 67
           1
  8
0
100
AcDbBlockEnd
  0
BLOCK
  5
27
100
AcDbEntity
  8
0
100
AcDbBlockBegin
  2
_1
 70
           0
 10
0.0
 20
0.0
 30
0.0
  3
_1
  1

  0
LWPOLYLINE
  5
2C
100
AcDbEntity
  8
1
  6
CONTINUOUS
 62
           7
 60
           1
100
AcDbPolyline
 90
        2
 70
           0
 10
-127.637045933511
 20
-925.736096938239
 10
-151.992710961345
 20
-969.674879759846
  0
LWPOLYLINE
  5
2B
100
AcDbEntity
  8
1
  6
CONTINUOUS
 62
           7
 60
           1
100
AcDbPolyline
 90
        2
 70
           0
 10
-216.658990394383
 20
-938.700544259686
 10
-188.91794178425
 20
-946.655161944752
  0
ENDBLK
  5
2D
100
AcDbEntity
  8
0
100
AcDbBlockEnd
  0
BLOCK
  5
213
100
AcDbEntity
  8
0
100
AcDbBlockBegin
  2
*D1
 70
           1
 10
0.0
 20
0.0
 30
0.0
  3
*D1
  1

  0
LINE
  5
214
100
AcDbEntity
  8
0
  6
CONTINUOUS
 62
           2
100
AcDbLine
 10
-457.463821148539
 20
-710.911472876912
 11
-307.463821148539
 21
-710.911472876912
  0
LINE
  5
215
100
AcDbEntity
  8
0
  6
CONTINUOUS
 62
           2
100
AcDbLine
 10
-307.463821148539
 20
-743.129598123107
 11
-307.463821148539
 21
-709.911472876912
  0
LINE
  5
216
100
AcDbEntity
  8
0
  6
CONTINUOUS
 62
           2
100
AcDbLine
 10
-457.463821148539
 20
-743.129598123107
 11
-457.463821148539
 21
-709.911472876912
  0
SOLID
  5
217
100
AcDbEntity
  8
0
 62
           2
100
AcDbTrace
 10
-454.663821148539
 20
-710.542845883667
 11
-454.663821148539
 21
-711.280099870157
 12
-457.463821148539
 22
-710.911472876912
 13
-457.463821148539
 23
-710.911472876912
  0
SOLID
  5
218
100
AcDbEntity
  8
0
 62
           2
100
AcDbTrace
 10
-310.263821148539
 20
-711.280099870157
 11
-310.263821148539
 21
-710.542845883667
 12
-307.463821148539
 22
-710.911472876912
 13
-307.463821148539
 23
-710.911472876912
  0
MTEXT
  5
21A
100
AcDbEntity
  8
0
 62
           2
100
AcDbMText
 10
-385.464478245297
 20
-709.911472876912
 30
0.0
 40
2.8
 41
0.0
 71
           7
 72
           1
  1
\C2;ó\C2;150\C2;
  7
CONVERTER_1
  0
ENDBLK
  5
21B
100
AcDbEntity
  8
0
100
AcDbBlockEnd
  0
BLOCK
  5
21F
100
AcDbEntity
  8
0
100
AcDbBlockBegin
  2
*D2
 70
           1
 10
0.0
 20
0.0
 30
0.0
  3
*D2
  1

  0
LINE
  5
220
100
AcDbEntity
  8
0
  6
CONTINUOUS
 62
           2
100
AcDbLine
 10
-249.170239186884
 20
-710.616323785437
 11
-161.41374286799
 21
-710.616323785437
  0
LINE
  5
221
100
AcDbEntity
  8
0
  6
CONTINUOUS
 62
           2
100
AcDbLine
 10
-161.41374286799
 20
-728.033170053145
 11
-161.41374286799
 21
-709.616323785437
  0
LINE
  5
222
100
AcDbEntity
  8
0
  6
CONTINUOUS
 62
           2
100
AcDbLine
 10
-249.170239186884
 20
-980.202974180952
 11
-249.170239186884
 21
-709.616323785437
  0
SOLID
  5
223
100
AcDbEntity
  8
0
 62
           2
100
AcDbTrace
 10
-246.370239186884
 20
-710.247696792192
 11
-246.370239186884
 21
-710.984950778682
 12
-249.170239186884
 22
-710.616323785437
 13
-249.170239186884
 23
-710.616323785437
  0
SOLID
  5
224
100
AcDbEntity
  8
0
 62
           2
100
AcDbTrace
 10
-164.21374286799
 20
-710.984950778682
 11
-164.21374286799
 21
-710.247696792192
 12
-161.41374286799
 22
-710.616323785437
 13
-161.41374286799
 23
-710.616323785437
  0
TEXT
  5
226
100
AcDbEntity
  8
0
 62
           2
100
AcDbText
 10
-209.828967004393
 20
-709.616323785437
 40
2.8
  1
88
 41
0.9
  7
CONVERTER_2
100
AcDbText
  0
ENDBLK
  5
227
100
AcDbEntity
  8
0
100
AcDbBlockEnd
  0
BLOCK
  5
22B
100
AcDbEntity
  8
0
100
AcDbBlockBegin
  2
*D3
 70
           1
 10
0.0
 20
0.0
 30
0.0
  3
*D3
  1

  0
LINE
  5
22C
100
AcDbEntity
  8
0
  6
CONTINUOUS
 62
           2
100
AcDbLine
 10
-161.41374286799
 20
-710.616323785437
 11
-34.41374286799
 21
-710.616323785437
  0
LINE
  5
22D
100
AcDbEntity
  8
0
  6
CONTINUOUS
 62
           2
100
AcDbLine
 10
-34.41374286799
 20
-766.879598123107
 11
-34.41374286799
 21
-709.616323785437
  0
LINE
  5
22E
100
AcDbEntity
  8
0
  6
CONTINUOUS
 62
           2
100
AcDbLine
 10
-161.41374286799
 20
-728.033170053145
 11
-161.41374286799
 21
-709.616323785437
  0
SOLID
  5
22F
100
AcDbEntity
  8
0
 62
           2
100
AcDbTrace
 10
-158.61374286799
 20
-710.247696792192
 11
-158.61374286799
 21
-710.984950778682
 12
-161.41374286799
 22
-710.616323785437
 13
-161.41374286799
 23
-710.616323785437
  0
SOLID
  5
230
100
AcDbEntity
  8
0
 62
           2
100
AcDbTrace
 10
-37.21374286799
 20
-710.984950778682
 11
-37.21374286799
 21
-710.247696792192
 12
-34.41374286799
 22
-710.616323785437
 13
-34.41374286799
 23
-710.616323785437
  0
TEXT
  5
231
100
AcDbEntity
  8
0
 62
           2
100
AcDbText
 10
-100.632413668645
 20
-709.616323785437
 40
2.8
  1
127
 41
0.9
  7
CONVERTER_2
100
AcDbText
  0
ENDBLK
  5
232
100
AcDbEntity
  8
0
100
AcDbBlockEnd
  0
BLOCK
  5
236
100
AcDbEntity
  8
0
100
AcDbBlockBegin
  2
*D4
 70
           1
 10
0.0
 20
0.0
 30
0.0
  3
*D4
  1

  0
LINE
  5
237
100
AcDbEntity
  8
0
  6
CONTINUOUS
 62
           2
100
AcDbLine
 10
-497.06832240973
 20
-1029.911123124275
 11
-497.06832240973
 21
-741.679598123107
  0
LINE
  5
238
100
AcDbEntity
  8
0
  6
CONTINUOUS
 62
           2
100
AcDbLine
 10
-456.013821148539
 20
-741.679598123107
 11
-498.06832240973
 21
-741.679598123107
  0
LINE
  5
239
100
AcDbEntity
  8
0
  6
CONTINUOUS
 62
           2
100
AcDbLine
 10
-349.763821148539
 20
-1029.911123124275
 11
-498.06832240973
 21
-1029.911123124275
  0
SOLID
  5
23A
100
AcDbEntity
  8
0
 62
           2
100
AcDbTrace
 10
-496.699695416485
 20
-744.479598123107
 11
-497.436949402975
 21
-744.479598123107
 12
-497.06832240973
 22
-741.679598123107
 13
-497.06832240973
 23
-741.679598123107
  0
SOLID
  5
23B
100
AcDbEntity
  8
0
 62
           2
100
AcDbTrace
 10
-497.436949402975
 20
-1027.111123124275
 11
-496.699695416485
 21
-1027.111123124275
 12
-497.06832240973
 22
-1029.911123124275
 13
-497.06832240973
 23
-1029.911123124275
  0
MTEXT
  5
23C
100
AcDbEntity
  8
0
 62
           2
100
AcDbMText
 10
-498.06832240973
 20
-877.809706510646
 30
0.0
 40
2.8
 41
0.0
 71
           7
 72
           1
  1
288
  7
CONVERTER_2
 11
0.0
 21
1.0
 31
0.0
  0
ENDBLK
  5
23D
100
AcDbEntity
  8
0
100
AcDbBlockEnd
  0
ENDSEC
  0
SECTION
  2
ENTITIES
  0
DIMENSION
  5
23F
100
AcDbEntity
  8
0
100
AcDbDimension
  2
*D4
 10
-497.06832240973
 20
-741.679598123107
 11
-499.46832240973
 21
-874.449706510646
 31
0.0
 53
90.0
  1
<>
  3
ME10_DIM_3
100
AcDbAlignedDimension
 13
-348.963821148539
 23
-1029.911123124275
 14
-455.213821148539
 24
-741.679598123107
 50
90.0
100
AcDbRotatedDimension
  0
DIMENSION
  5
234
100
AcDbEntity
  8
0
100
AcDbDimension
  2
*D3
 10
-161.41374286799
 20
-710.616323785437
 11
-97.692413668645
 21
-708.216323785437
 31
0.0
  1
<>
  3
ME10_DIM_2
100
AcDbAlignedDimension
 13
-34.41374286799
 23
-767.679598123107
 14
-161.41374286799
 24
-728.833170053145
100
AcDbRotatedDimension
  0
DIMENSION
  5
229
100
AcDbEntity
  8
0
100
AcDbDimension
  2
*D2
 10
-249.170239186884
 20
-710.616323785437
 11
-207.728967004393
 21
-708.216323785437
 31
0.0
  1
<>
  3
ME10_DIM_1
100
AcDbAlignedDimension
 13
-161.41374286799
 23
-728.833170053145
 14
-249.170239186884
 24
-981.002974180952
100
AcDbRotatedDimension
  0
DIMENSION
  5
21D
100
AcDbEntity
  8
0
100
AcDbDimension
  2
*D1
 10
-457.463821148539
 20
-710.911472876912
 11
-381.908478245297
 21
-708.511472876912
 31
0.0
  1
<>
  3
ME10_DIM_0
100
AcDbAlignedDimension
 13
-307.463821148539
 23
-743.929598123107
 14
-457.463821148539
 24
-743.929598123107
100
AcDbRotatedDimension
  0
ARC
  5
211
100
AcDbEntity
  8
1
  6
CONTINUOUS
 62
           7
100
AcDbCircle
 10
-368.963821148538
 20
-1029.411123124274
 40
0.5
100
AcDbArc
 50
0.0
 51
90.000000000045
  0
ARC
  5
210
100
AcDbEntity
  8
1
  6
CONTINUOUS
 62
           7
100
AcDbCircle
 10
-368.963821148538
 20
-1014.411123124274
 40
0.5
100
AcDbArc
 50
-90.000000000091
 51
-0.000000000117
  0
ARC
  5
20F
100
AcDbEntity
  8
1
  6
CONTINUOUS
 62
           7
100
AcDbCircle
 10
-428.963821148539
 20
-877.492843638562
 40
25.0
100
AcDbArc
 50
180.0
 51
-150.05121999259
  0
ARC
  5
20E
100
AcDbEntity
  8
1
  6
CONTINUOUS
 62
           7
100
AcDbCircle
 10
-335.963821148539
 20
-877.492843638562
 40
25.0
100
AcDbArc
 50
-29.948780007409
 51
0.0
  0
ARC
  5
20D
100
AcDbEntity
  8
1
  6
CONTINUOUS
 62
           7
100
AcDbCircle
 10
-66.91374286799
 20
-775.679598123107
 40
5.0
100
AcDbArc
 50
0.0
 51
90.0
  0
ARC
  5
20C
100
AcDbEntity
  8
1
  6
CONTINUOUS
 62
           7
100
AcDbCircle
 10
-66.91374286799
 20
-857.679598123107
 40
5.0
100
AcDbArc
 50
-90.0
 51
0.0
  0
ARC
  5
20B
100
AcDbEntity
  8
1
  6
CONTINUOUS
 62
           7
100
AcDbCircle
 10
-34.41374286799
 20
-860.179598123107
 40
2.5
100
AcDbArc
 50
180.0
 51
-89.999999999993
  0
ARC
  5
20A
100
AcDbEntity
  8
1
  6
CONTINUOUS
 62
           7
100
AcDbCircle
 10
-34.41374286799
 20
-773.179598123107
 40
2.5
100
AcDbArc
 50
89.999999999993
 51
180.0
  0
ARC
  5
209
100
AcDbEntity
  8
1
  6
CONTINUOUS
 62
           7
100
AcDbCircle
 10
-36.41374286799
 20
-764.679598123107
 40
2.0
100
AcDbArc
 50
0.0
 51
14.47751218593
  0
ARC
  5
208
100
AcDbEntity
  8
1
  6
CONTINUOUS
 62
           7
100
AcDbCircle
 10
-36.41374286799
 20
-868.679598123107
 40
2.0
100
AcDbArc
 50
-14.47751218593
 51
0.0
  0
ARC
  5
207
100
AcDbEntity
  8
1
  6
CONTINUOUS
 62
           7
100
AcDbCircle
 10
-87.622580202641
 20
-771.679598123107
 40
1.0
100
AcDbArc
 50
-90.0
 51
-30.000000000004
  0
ARC
  5
206
100
AcDbEntity
  8
1
  6
CONTINUOUS
 62
           7
100
AcDbCircle
 10
-84.735828856693
 20
-772.679598123107
 40
2.0
100
AcDbArc
 50
90.0
 51
149.999999999999
  0
ARC
  5
205
100
AcDbEntity
  8
1
  6
CONTINUOUS
 62
           7
100
AcDbCircle
 10
-84.735828856693
 20
-760.679598123107
 40
2.0
100
AcDbArc
 50
-149.999999999999
 51
-90.0
  0
ARC
  5
204
100
AcDbEntity
  8
1
  6
CONTINUOUS
 62
           7
100
AcDbCircle
 10
-87.622580202641
 20
-761.679598123107
 40
1.0
100
AcDbArc
 50
30.000000000004
 51
90.0
  0
ARC
  5
203
100
AcDbEntity
  8
1
  6
CONTINUOUS
 62
           7
100
AcDbCircle
 10
-87.622580202641
 20
-871.679598123107
 40
1.0
100
AcDbArc
 50
-90.0
 51
-30.000000000004
  0
ARC
  5
202
100
AcDbEntity
  8
1
  6
CONTINUOUS
 62
           7
100
AcDbCircle
 10
-84.735828856693
 20
-872.679598123107
 40
2.0
100
AcDbArc
 50
90.0
 51
149.999999999999
  0
ARC
  5
201
100
AcDbEntity
  8
1
  6
CONTINUOUS
 62
           7
100
AcDbCircle
 10
-84.735828856693
 20
-860.679598123107
 40
2.0
100
AcDbArc
 50
-149.999999999999
 51
-90.0
  0
ARC
  5
200
100
AcDbEntity
  8
1
  6
CONTINUOUS
 62
           7
100
AcDbCircle
 10
-87.622580202641
 20
-861.679598123107
 40
1.0
100
AcDbArc
 50
30.000000000004
 51
90.0
  0
ARC
  5
1FF
100
AcDbEntity
  8
1
  6
CONTINUOUS
 62
           7
100
AcDbCircle
 10
-79.41374286799
 20
-759.679598123107
 40
3.0
100
AcDbArc
 50
-90.0
 51
0.0
  0
ARC
  5
1FE
100
AcDbEntity
  8
1
  6
CONTINUOUS
 62
           7
100
AcDbCircle
 10
-74.91374286799
 20
-751.179598123107
 40
1.5
100
AcDbArc
 50
180.0
 51
-90.0
  0
ARC
  5
1FD
100
AcDbEntity
  8
1
  6
CONTINUOUS
 62
           7
100
AcDbCircle
 10
-65.91374286799
 20
-751.179598123107
 40
1.5
100
AcDbArc
 50
-90.0
 51
0.0
  0
ARC
  5
1FC
100
AcDbEntity
  8
1
  6
CONTINUOUS
 62
           7
100
AcDbCircle
 10
-75.41374286799
 20
-748.679598123107
 40
1.0
100
AcDbArc
 50
90.0
 51
180.0
  0
ARC
  5
1FB
100
AcDbEntity
  8
1
  6
CONTINUOUS
 62
           7
100
AcDbCircle
 10
-65.41374286799
 20
-748.679598123107
 40
1.0
100
AcDbArc
 50
0.0
 51
90.0
  0
ARC
  5
1FA
100
AcDbEntity
  8
1
  6
CONTINUOUS
 62
           7
100
AcDbCircle
 10
-40.41374286799
 20
-875.179598123107
 40
1.0
100
AcDbArc
 50
90.0
 51
180.0
  0
ARC
  5
1F9
100
AcDbEntity
  8
1
  6
CONTINUOUS
 62
           7
100
AcDbCircle
 10
-58.41374286799
 20
-875.179598123107
 40
1.0
100
AcDbArc
 50
0.0
 51
90.0
  0
ARC
  5
1F8
100
AcDbEntity
  8
1
  6
CONTINUOUS
 62
           7
100
AcDbCircle
 10
-55.41374286799
 20
-904.879598123107
 40
2.0
100
AcDbArc
 50
180.0
 51
-149.999999999998
  0
ARC
  5
1F7
100
AcDbEntity
  8
1
  6
CONTINUOUS
 62
           7
100
AcDbCircle
 10
-77.41374286799
 20
-873.179598123107
 40
1.0
100
AcDbArc
 50
180.0
 51
-90.0
  0
ARC
  5
1F6
100
AcDbEntity
  8
1
  6
CONTINUOUS
 62
           7
100
AcDbCircle
 10
-35.41374286799
 20
-873.179598123107
 40
1.0
100
AcDbArc
 50
-90.0
 51
0.0
  0
ARC
  5
1F5
100
AcDbEntity
  8
1
  6
CONTINUOUS
 62
           7
100
AcDbCircle
 10
-43.41374286799
 20
-904.879598123107
 40
2.0
100
AcDbArc
 50
-30.000000000001
 51
0.0
  0
ARC
  5
1F4
100
AcDbEntity
  8
1
  6
CONTINUOUS
 62
           7
100
AcDbCircle
 10
-39.41374286799
 20
-749.679598123108
 40
2.0
100
AcDbArc
 50
0.0
 51
90.0
  0
ARC
  5
1F3
100
AcDbEntity
  8
1
  6
CONTINUOUS
 62
           7
100
AcDbCircle
 10
-48.680491779137
 20
-748.679598123108
 40
1.0
100
AcDbArc
 50
0.0
 51
90.0
  0
ARC
  5
1F2
100
AcDbEntity
  8
1
  6
CONTINUOUS
 62
           7
100
AcDbCircle
 10
-52.41374286799
 20
-748.679598123108
 40
1.0
100
AcDbArc
 50
0.0
 51
90.0
  0
ARC
  5
1F1
100
AcDbEntity
  8
976
  6
CONTINUOUS
 62
           7
100
AcDbCircle
 10
-44.727315027335
 20
-748.679598123108
 40
1.0
100
AcDbArc
 50
0.0
 51
90.0
  0
ARC
  5
1F0
100
AcDbEntity
  8
1
  6
CONTINUOUS
 62
           7
100
AcDbCircle
 10
-87.41374286799
 20
-742.679598123107
 40
2.0
100
AcDbArc
 50
0.0
 51
89.999999999997
  0
ARC
  5
1EF
100
AcDbEntity
  8
1
  6
CONTINUOUS
 62
           7
100
AcDbCircle
 10
-207.91374286799
 20
-877.492843638562
 40
25.0
100
AcDbArc
 50
-164.486216921549
 51
-150.051219992591
  0
ARC
  5
1EE
100
AcDbEntity
  8
1
  6
CONTINUOUS
 62
           7
100
AcDbCircle
 10
-114.91374286799
 20
-877.492843638562
 40
25.0
100
AcDbArc
 50
-29.948780007409
 51
0.0
  0
ARC
  5
1ED
100
AcDbEntity
  8
1
  6
CONTINUOUS
 62
           7
100
AcDbCircle
 10
-207.91374286799
 20
-877.492843638562
 40
25.0
100
AcDbArc
 50
180.0
 51
-164.486216921549
  0
ARC
  5
1EC
100
AcDbEntity
  8
1
  6
CONTINUOUS
 62
           7
100
AcDbCircle
 10
-192.311506568497
 20
-970.199240221949
 40
2.0
100
AcDbArc
 50
-106.0
 51
16.9800084867
  0
ARC
  5
1EB
100
AcDbEntity
  8
1
  6
CONTINUOUS
 62
           7
100
AcDbCircle
 10
-135.169654118339
 20
-992.306049642983
 40
5.0
100
AcDbArc
 50
157.957413373406
 51
-105.999999999952
  0
ARC
  5
1EA
100
AcDbEntity
  8
1
  6
CONTINUOUS
 62
           7
100
AcDbCircle
 10
-148.07246030635
 20
-1020.855512016938
 40
4.999999999999
100
AcDbArc
 50
73.999999999999
 51
123.771815271933
  0
LWPOLYLINE
  5
1E9
100
AcDbEntity
  8
976
  6
CONTINUOUS
 62
           7
 60
           1
100
AcDbPolyline
 90
        2
 70
           0
 10
-411.912535192462
 20
-957.165163403194
 10
-413.463821148539
 20
-957.743711775128
  0
LWPOLYLINE
  5
1E8
100
AcDbEntity
  8
1
  6
CONTINUOUS
 62
           7
 60
           1
100
AcDbPolyline
 90
        2
 70
           0
 10
-67.34674286799
 20
-858.540228568562
 10
-67.34674286799
 20
-869.179598123107
  0
LWPOLYLINE
  5
1E7
100
AcDbEntity
  8
1
  6
CONTINUOUS
 62
           7
 60
           1
100
AcDbPolyline
 90
        4
 70
           0
 10
-57.11374286799
 20
-863.879598123107
 10
-55.87224286799
 20
-863.879598123107
 10
-55.87224286799
 20
-872.879598123107
 10
-56.230600325347
 20
-871.556024873403
  0
CIRCLE
  5
1E6
100
AcDbEntity
  8
1
  6
CONTINUOUS
 62
           2
100
AcDbCircle
 10
-87.976402302228
 20
-1021.911123124264
 40
7.0
  0
CIRCLE
  5
1E5
100
AcDbEntity
  8
1
  6
CONTINUOUS
 62
           7
100
AcDbCircle
 10
-87.976402302228
 20
-1021.911123124264
 40
8.0
  0
CIRCLE
  5
1E4
100
AcDbEntity
  8
1
  6
CONTINUOUS
 62
           7
100
AcDbCircle
 10
-87.976402302228
 20
-1021.911123124264
 40
8.0
  0
ARC
  5
1E3
100
AcDbEntity
  8
1
  6
CONTINUOUS
 62
           7
100
AcDbCircle
 10
-87.976402302228
 20
-1021.911123124264
 40
8.0
100
AcDbArc
 50
-90.0
 51
-16.0
  0
ARC
  5
1E2
100
AcDbEntity
  8
1
  6
CONTINUOUS
 62
           7
100
AcDbCircle
 10
-87.976402302228
 20
-1021.911123124264
 40
8.0
100
AcDbArc
 50
-16.0
 51
-90.0
  0
ARC
  5
1E1
100
AcDbEntity
  8
1
  6
CONTINUOUS
 62
           7
100
AcDbCircle
 10
-412.324576261768
 20
-961.911123124274
 40
55.35
100
AcDbArc
 50
117.125469316345
 51
-90.0
  0
ARC
  5
1E0
100
AcDbEntity
  8
1
  6
DOT_CENTER
 62
           2
100
AcDbCircle
 10
-412.324576261768
 20
-961.911123124274
 40
60.0
100
AcDbArc
 50
117.344433063276
 51
-90.0
  0
ARC
  5
1DF
100
AcDbEntity
  8
1
  6
CONTINUOUS
 62
           7
100
AcDbCircle
 10
-412.324576261768
 20
-961.911123124274
 40
64.65
100
AcDbArc
 50
117.531868184242
 51
-90.0
  0
ARC
  5
1DE
100
AcDbEntity
  8
1
  6
CONTINUOUS
 62
           2
100
AcDbCircle
 10
-363.184096601633
 20
-1027.586123124275
 40
2.279922029996
100
AcDbArc
 50
141.31624372818
 51
-141.316243728189
  0
ARC
  5
1DD
100
AcDbEntity
  8
1
  6
CONTINUOUS
 62
           2
100
AcDbCircle
 10
-363.183403173438
 20
-1016.236123124274
 40
2.280463366524
100
AcDbArc
 50
141.32713292633
 51
-141.327132926304
  0
ARC
  5
1DC
100
AcDbEntity
  8
1
  6
CONTINUOUS
 62
           2
100
AcDbCircle
 10
-354.242999074872
 20
-1027.586123124274
 40
2.279495359406
100
AcDbArc
 50
-38.692343732566
 51
38.69234373254
  0
ARC
  5
1DB
100
AcDbEntity
  8
1
  6
CONTINUOUS
 62
           7
100
AcDbCircle
 10
-354.244239123639
 20
-1016.236123124274
 40
2.280463366525
100
AcDbArc
 50
-38.672867073711
 51
38.672867073695
  0
ARC
  5
1DA
100
AcDbEntity
  8
1
  6
CONTINUOUS
 62
           2
100
AcDbCircle
 10
-354.651321148539
 20
-1021.911123124275
 40
10.8125
100
AcDbArc
 50
162.507675474883
 51
-162.507675474895
  0
ARC
  5
1D9
100
AcDbEntity
  8
1
  6
CONTINUOUS
 62
           2
100
AcDbCircle
 10
-362.767432680452
 20
-1021.911123124275
 40
10.804022889672
100
AcDbArc
 50
-17.506492941093
 51
17.506492941097
  0
ARC
  5
1D8
100
AcDbEntity
  8
1
  6
CONTINUOUS
 62
           7
100
AcDbCircle
 10
-314.713821148539
 20
-847.179598123107
 40
6.25
100
AcDbArc
 50
-53.130102354156
 51
53.130102354156
  0
ARC
  5
1D7
100
AcDbEntity
  8
1
  6
CONTINUOUS
 62
           7
100
AcDbCircle
 10
-450.213821148539
 20
-847.179598123107
 40
6.25
100
AcDbArc
 50
126.869897645844
 51
-126.869897645844
  0
ARC
  5
1D6
100
AcDbEntity
  8
1
  6
CONTINUOUS
 62
           7
100
AcDbCircle
 10
-450.213821148539
 20
-786.179598123107
 40
6.25
100
AcDbArc
 50
126.869897645844
 51
180.0
  0
ARC
  5
1D5
100
AcDbEntity
  8
1
  6
CONTINUOUS
 62
           7
100
AcDbCircle
 10
-450.213821148539
 20
-786.179598123107
 40
6.25
100
AcDbArc
 50
180.0
 51
-126.869897645844
  0
ARC
  5
1D4
100
AcDbEntity
  8
1
  6
CONTINUOUS
 62
           7
100
AcDbCircle
 10
-314.713821148539
 20
-786.179598123107
 40
6.25
100
AcDbArc
 50
-53.130102354156
 51
0.0
  0
ARC
  5
1D3
100
AcDbEntity
  8
1
  6
CONTINUOUS
 62
           7
100
AcDbCircle
 10
-314.713821148539
 20
-786.179598123107
 40
6.25
100
AcDbArc
 50
0.0
 51
53.130102354156
  0
ARC
  5
1D2
100
AcDbEntity
  8
1
  6
CONTINUOUS
 62
           7
100
AcDbCircle
 10
-455.213821148539
 20
-743.929598123107
 40
2.25
100
AcDbArc
 50
180.0
 51
-90.0
  0
ARC
  5
1D1
100
AcDbEntity
  8
1
  6
CONTINUOUS
 62
           7
100
AcDbCircle
 10
-309.713821148539
 20
-743.929598123107
 40
2.25
100
AcDbArc
 50
0.0
 51
90.0
  0
ARC
  5
1D0
100
AcDbEntity
  8
1
  6
CONTINUOUS
 62
           7
100
AcDbCircle
 10
-592.58054872597
 20
-896.568357633531
 40
250.0
100
AcDbArc
 50
-21.927545107734
 51
-15.319640081281
  0
ARC
  5
1CF
100
AcDbEntity
  8
1
  6
CONTINUOUS
 62
           7
100
AcDbCircle
 10
-382.463821148539
 20
-1001.142763395669
 40
19.0
100
AcDbArc
 50
-90.0
 51
6.681207477784
  0
ARC
  5
1CE
100
AcDbEntity
  8
1
  6
CONTINUOUS
 62
           7
100
AcDbCircle
 10
-382.463821148539
 20
-1001.142763395669
 40
19.0
100
AcDbArc
 50
173.318792522216
 51
-90.0
  0
ARC
  5
1CD
100
AcDbEntity
  8
1
  6
CONTINUOUS
 62
           7
100
AcDbCircle
 10
-172.347093571108
 20
-896.568357633531
 40
250.0
100
AcDbArc
 50
-164.680359918718
 51
-158.136934364199
  0
ARC
  5
1CC
100
AcDbEntity
  8
1
  6
CONTINUOUS
 62
           7
100
AcDbCircle
 10
-455.213821148539
 20
-743.929598123107
 40
2.25
100
AcDbArc
 50
90.0
 51
180.0
  0
ARC
  5
1CB
100
AcDbEntity
  8
1
  6
CONTINUOUS
 62
           7
100
AcDbCircle
 10
-309.713821148539
 20
-743.929598123107
 40
2.25
100
AcDbArc
 50
-90.0
 51
0.0
  0
ARC
  5
1CA
100
AcDbEntity
  8
1
  6
CONTINUOUS
 62
           7
100
AcDbCircle
 10
-52.536914773679
 20
-901.863207949696
 40
6.58939017341
100
AcDbArc
 50
-103.15808999565
 51
-76.84191000435
  0
ARC
  5
1C9
100
AcDbEntity
  8
1
  6
CONTINUOUS
 62
           7
100
AcDbCircle
 10
-52.536914773679
 20
-914.695988296517
 40
6.58939017341
100
AcDbArc
 50
76.84191000435
 51
103.15808999565
  0
ARC
  5
1C8
100
AcDbEntity
  8
1
  6
CONTINUOUS
 62
           7
100
AcDbCircle
 10
-55.120664449591
 20
-908.067075402163
 40
2.188206353876
100
AcDbArc
 50
46.507930497927
 51
129.54100424982
  0
ARC
  5
1C7
100
AcDbEntity
  8
1
  6
CONTINUOUS
 62
           7
100
AcDbCircle
 10
-49.426900168281
 20
-912.917101106338
 40
7.037502983232
100
AcDbArc
 50
90.0
 51
113.830816731567
  0
ARC
  5
1C6
100
AcDbEntity
  8
1
  6
CONTINUOUS
 62
           7
100
AcDbCircle
 10
-49.426900168281
 20
-903.642095139875
 40
7.037502983232
100
AcDbArc
 50
-113.830816731567
 51
-90.0
  0
ARC
  5
1C5
100
AcDbEntity
  8
1
  6
CONTINUOUS
 62
           7
100
AcDbCircle
 10
-55.236873861489
 20
-908.228004234633
 40
2.461727043005
100
AcDbArc
 50
-119.367592739124
 51
-48.777170454898
  0
ARC
  5
1C4
100
AcDbEntity
  8
1
  6
CONTINUOUS
 62
           7
100
AcDbCircle
 10
-43.590611874492
 20
-908.228004234633
 40
2.461727043005
100
AcDbArc
 50
-131.222829545101
 51
-60.632407260876
  0
ARC
  5
1C3
100
AcDbEntity
  8
1
  6
CONTINUOUS
 62
           7
100
AcDbCircle
 10
-49.400585567699
 20
-903.642095139875
 40
7.037502983232
100
AcDbArc
 50
-90.0
 51
-66.169183268432
  0
ARC
  5
1C2
100
AcDbEntity
  8
1
  6
CONTINUOUS
 62
           7
100
AcDbCircle
 10
-49.400585567699
 20
-912.917101106338
 40
7.037502983232
100
AcDbArc
 50
66.169183268432
 51
90.0
  0
ARC
  5
1C1
100
AcDbEntity
  8
1
  6
CONTINUOUS
 62
           7
100
AcDbCircle
 10
-43.706821286389
 20
-908.067075402163
 40
2.188206353876
100
AcDbArc
 50
50.45899575018
 51
133.492069502072
  0
ARC
  5
1C0
100
AcDbEntity
  8
1
  6
CONTINUOUS
 62
           7
100
AcDbCircle
 10
-46.290570962302
 20
-914.695988296517
 40
6.58939017341
100
AcDbArc
 50
76.84191000435
 51
103.15808999565
  0
ARC
  5
1BF
100
AcDbEntity
  8
1
  6
CONTINUOUS
 62
           7
100
AcDbCircle
 10
-46.290570962302
 20
-901.863207949696
 40
6.58939017341
100
AcDbArc
 50
-103.15808999565
 51
-76.84191000435
  0
ARC
  5
1BE
100
AcDbEntity
  8
1
  6
CONTINUOUS
 62
           7
100
AcDbCircle
 10
-135.796268719649
 20
-1000.580747267795
 40
4.383427351474
100
AcDbArc
 50
-50.228495803062
 51
8.020677081018
  0
ARC
  5
1BD
100
AcDbEntity
  8
1
  6
CONTINUOUS
 62
           7
100
AcDbCircle
 10
-149.226643175373
 20
-1004.399914149067
 40
16.240810621445
100
AcDbArc
 50
-33.587953774
 51
1.587953773992
  0
ARC
  5
1BC
100
AcDbEntity
  8
1
  6
CONTINUOUS
 62
           7
100
AcDbCircle
 10
-139.860889791237
 20
-1014.755765501589
 40
4.383427351473
100
AcDbArc
 50
-40.020677081027
 51
18.228495803062
  0
ARC
  5
1BB
100
AcDbEntity
  8
1
  6
CONTINUOUS
 62
           7
100
AcDbCircle
 10
-93.66374286799
 20
-847.179598123107
 40
6.25
100
AcDbArc
 50
-53.130102354156
 51
53.130102354156
  0
ARC
  5
1BA
100
AcDbEntity
  8
1
  6
CONTINUOUS
 62
           7
100
AcDbCircle
 10
-93.66374286799
 20
-786.179598123107
 40
6.25
100
AcDbArc
 50
-53.130102354156
 51
0.0
  0
ARC
  5
1B9
100
AcDbEntity
  8
1
  6
CONTINUOUS
 62
           7
100
AcDbCircle
 10
-229.16374286799
 20
-847.179598123107
 40
6.25
100
AcDbArc
 50
126.869897645844
 51
-126.869897645844
  0
ARC
  5
1B8
100
AcDbEntity
  8
1
  6
CONTINUOUS
 62
           7
100
AcDbCircle
 10
-229.16374286799
 20
-786.179598123107
 40
6.25
100
AcDbArc
 50
126.869897645844
 51
180.0
  0
ARC
  5
1B7
100
AcDbEntity
  8
1
  6
CONTINUOUS
 62
           7
100
AcDbCircle
 10
-234.15124286799
 20
-743.929598123107
 40
2.2625
100
AcDbArc
 50
83.974424991633
 51
180.0
  0
ARC
  5
1B6
100
AcDbEntity
  8
1
  6
CONTINUOUS
 62
           7
100
AcDbCircle
 10
-93.66374286799
 20
-786.179598123107
 40
6.25
100
AcDbArc
 50
0.0
 51
53.130102354156
  0
ARC
  5
1B5
100
AcDbEntity
  8
1
  6
CONTINUOUS
 62
           7
100
AcDbCircle
 10
-229.16374286799
 20
-786.179598123107
 40
6.25
100
AcDbArc
 50
180.0
 51
-126.869897645844
  0
ARC
  5
1B4
100
AcDbEntity
  8
1
  6
CONTINUOUS
 62
           7
100
AcDbCircle
 10
-234.15124286799
 20
-743.929598123107
 40
2.2625
100
AcDbArc
 50
180.0
 51
-83.974424991633
  0
ARC
  5
1B3
100
AcDbEntity
  8
1
  6
CONTINUOUS
 62
           7
100
AcDbCircle
 10
-233.680103035099
 20
-969.4172152584
 40
2.179107363391
100
AcDbArc
 50
110.64465602416
 51
-142.504656024172
  0
ARC
  5
1B2
100
AcDbEntity
  8
1
  6
CONTINUOUS
 62
           7
100
AcDbCircle
 10
-232.509234280765
 20
-980.558739757802
 40
6.37323604249
100
AcDbArc
 50
133.409832181088
 51
164.069999999999
  0
ARC
  5
1B1
100
AcDbEntity
  8
1
  6
CONTINUOUS
 62
           7
100
AcDbCircle
 10
-232.509234280765
 20
-980.558739757802
 40
6.37323604249
100
AcDbArc
 50
164.069999999999
 51
-165.269832181099
  0
ARC
  5
1B0
100
AcDbEntity
  8
1
  6
CONTINUOUS
 62
           7
100
AcDbCircle
 10
-239.384704120462
 20
-989.403648818615
 40
2.179107363391
100
AcDbArc
 50
110.644656024161
 51
-142.504656024147
  0
ARC
  5
1AF
100
AcDbEntity
  8
1
  6
CONTINUOUS
 62
           7
100
AcDbCircle
 10
-211.274924128697
 20
-1008.454144044531
 40
1.999999999999
100
AcDbArc
 50
74.000000000003
 51
102.528218374442
  0
ARC
  5
1AE
100
AcDbEntity
  8
1
  6
CONTINUOUS
 62
           7
100
AcDbCircle
 10
-161.41374286799
 20
-1000.905319546426
 40
19.000000000002
100
AcDbArc
 50
-105.999999999997
 51
-90.0
  0
ARC
  5
1AD
100
AcDbEntity
  8
1
  6
CONTINUOUS
 62
           7
100
AcDbCircle
 10
-161.41374286799
 20
-1000.905319546426
 40
19.0
100
AcDbArc
 50
-90.0
 51
-56.22818472807
  0
ARC
  5
1AC
100
AcDbEntity
  8
1
  6
CONTINUOUS
 62
           7
100
AcDbCircle
 10
-199.695736526509
 20
-968.081846354107
 40
1.999999999999
100
AcDbArc
 50
-136.049241307068
 51
-106.000000000012
  0
ARC
  5
1AB
100
AcDbEntity
  8
1
  6
CONTINUOUS
 62
           7
100
AcDbCircle
 10
48.702984709441
 20
-896.605660379431
 40
249.999999999999
100
AcDbArc
 50
-164.680359918718
 51
-163.019991513302
  0
ARC
  5
1AA
100
AcDbEntity
  8
1
  6
CONTINUOUS
 62
           7
100
AcDbCircle
 10
-371.530470445421
 20
-896.605660379431
 40
250.0
100
AcDbArc
 50
-17.514137041769
 51
-15.319640081281
  0
ARC
  5
1A9
100
AcDbEntity
  8
1
  6
CONTINUOUS
 62
           7
100
AcDbCircle
 10
-371.530470445421
 20
-896.605660379431
 40
250.0
100
AcDbArc
 50
-22.042586626589
 51
-17.514137041769
  0
LINE
  5
1A8
100
AcDbEntity
  8
1
  6
DOT_CENTER
 62
           2
100
AcDbLine
 10
-382.463821148539
 20
-736.274211432302
 11
-382.463821148539
 21
-1079.03144600904
  0
LINE
  5
1A7
100
AcDbEntity
  8
1
  6
CONTINUOUS
 62
           7
100
AcDbLine
 10
-393.463821148539
 20
-1027.911123124274
 11
-393.463821148539
 21
-1016.634696780499
  0
LINE
  5
1A6
100
AcDbEntity
  8
1
  6
CONTINUOUS
 62
           7
100
AcDbLine
 10
-392.463821148539
 20
-1028.911123124274
 11
-393.463821148539
 21
-1027.911123124274
  0
LINE
  5
1A5
100
AcDbEntity
  8
1
  6
CONTINUOUS
 62
           2
100
AcDbLine
 10
-392.463821148539
 20
-1028.911123124274
 11
-392.463821148539
 21
-1017.298257817073
  0
LINE
  5
1A4
100
AcDbEntity
  8
1
  6
CONTINUOUS
 62
           7
100
AcDbLine
 10
-395.218950232901
 20
-1028.661123124274
 11
-395.218950232901
 21
-1015.161123124274
  0
LINE
  5
1A3
100
AcDbEntity
  8
1
  6
CONTINUOUS
 62
           7
100
AcDbLine
 10
-401.451652947254
 20
-1028.661123124274
 11
-401.451652947254
 21
-1015.161123124274
  0
LINE
  5
1A2
100
AcDbEntity
  8
1
  6
CONTINUOUS
 62
           7
100
AcDbLine
 10
-401.451652947254
 20
-1015.161123124274
 11
-395.218950232901
 21
-1015.161123124274
  0
LINE
  5
1A1
100
AcDbEntity
  8
1
  6
CONTINUOUS
 62
           7
100
AcDbLine
 10
-401.451652947254
 20
-1028.661123124274
 11
-395.218950232901
 21
-1028.661123124274
  0
LINE
  5
1A0
100
AcDbEntity
  8
1
  6
CONTINUOUS
 62
           7
100
AcDbLine
 10
-412.324576261768
 20
-1017.261123124274
 11
-401.451652947254
 21
-1017.261123124274
  0
LINE
  5
19F
100
AcDbEntity
  8
1
  6
CONTINUOUS
 62
           7
100
AcDbLine
 10
-395.218950232901
 20
-1017.261123124274
 11
-393.463821148539
 21
-1017.261123124274
  0
LINE
  5
19E
100
AcDbEntity
  8
1
  6
CONTINUOUS
 62
           7
100
AcDbLine
 10
-412.324576261768
 20
-1026.561123124274
 11
-401.451652947254
 21
-1026.561123124274
  0
LINE
  5
19D
100
AcDbEntity
  8
1
  6
CONTINUOUS
 62
           7
100
AcDbLine
 10
-395.218950232901
 20
-1026.561123124274
 11
-393.463821148539
 21
-1026.561123124274
  0
LINE
  5
19C
100
AcDbEntity
  8
1
  6
CONTINUOUS
 62
           7
100
AcDbLine
 10
-369.370606478958
 20
-1014.911123124274
 11
-368.963821148539
 21
-1014.911123124274
  0
LINE
  5
19B
100
AcDbEntity
  8
1
  6
CONTINUOUS
 62
           7
100
AcDbLine
 10
-389.463821148539
 20
-1021.911123124274
 11
-389.463821148539
 21
-1018.806285128325
  0
LINE
  5
19A
100
AcDbEntity
  8
1
  6
CONTINUOUS
 62
           7
100
AcDbLine
 10
-375.463821148539
 20
-1021.911123124274
 11
-375.463821148539
 21
-1018.806285128325
  0
LINE
  5
199
100
AcDbEntity
  8
1
  6
DOT_CENTER
 62
           2
100
AcDbLine
 10
-363.603811468626
 20
-1021.911123124274
 11
-412.324576261768
 21
-1021.911123124274
  0
LINE
  5
198
100
AcDbEntity
  8
1
  6
CONTINUOUS
 62
           7
100
AcDbLine
 10
-365.463821148538
 20
-1029.411123124275
 11
-365.463821148538
 21
-1014.411123124274
  0
LINE
  5
197
100
AcDbEntity
  8
1
  6
CONTINUOUS
 62
           7
100
AcDbLine
 10
-365.463821148538
 20
-1029.411123124275
 11
-368.463821148539
 21
-1029.411123124274
  0
LINE
  5
196
100
AcDbEntity
  8
1
  6
CONTINUOUS
 62
           7
100
AcDbLine
 10
-365.463821148538
 20
-1014.411123124274
 11
-368.463821148538
 21
-1014.411123124275
  0
LINE
  5
195
100
AcDbEntity
  8
1
  6
CONTINUOUS
 62
           7
100
AcDbLine
 10
-368.963821148539
 20
-1028.911123124275
 11
-392.463821148539
 21
-1028.911123124274
  0
LINE
  5
194
100
AcDbEntity
  8
1
  6
CONTINUOUS
 62
           2
100
AcDbLine
 10
-368.963821148539
 20
-1028.911123124275
 11
-368.963821148539
 21
-1014.911123124274
  0
LINE
  5
193
100
AcDbEntity
  8
1
  6
CONTINUOUS
 62
           7
100
AcDbLine
 10
-368.463821148539
 20
-1029.411123124274
 11
-368.463821148538
 21
-1014.411123124275
  0
LINE
  5
192
100
AcDbEntity
  8
1
  6
CONTINUOUS
 62
           2
100
AcDbLine
 10
-352.463821148539
 20
-1026.161123124275
 11
-352.463821148539
 21
-1025.161123124275
  0
LINE
  5
191
100
AcDbEntity
  8
1
  6
CONTINUOUS
 62
           2
100
AcDbLine
 10
-352.463821148538
 20
-1018.661123124274
 11
-352.463821148538
 21
-1017.661123124275
  0
LINE
  5
190
100
AcDbEntity
  8
1
  6
CONTINUOUS
 62
           2
100
AcDbLine
 10
-364.963821148539
 20
-1026.161123124275
 11
-364.963821148539
 21
-1025.161123124274
  0
LINE
  5
18F
100
AcDbEntity
  8
1
  6
CONTINUOUS
 62
           2
100
AcDbLine
 10
-364.963821148538
 20
-1018.661123124274
 11
-364.963821148538
 21
-1017.661123124274
  0
LINE
  5
18E
100
AcDbEntity
  8
1
  6
CONTINUOUS
 62
           7
100
AcDbLine
 10
-351.963821148539
 20
-1027.624163545767
 11
-351.96382114854
 21
-1016.221734764399
  0
LINE
  5
18D
100
AcDbEntity
  8
1
  6
CONTINUOUS
 62
           7
100
AcDbLine
 10
-364.963821148539
 20
-1014.811123124275
 11
-352.463821148539
 21
-1014.811123124274
  0
LINE
  5
18C
100
AcDbEntity
  8
1
  6
CONTINUOUS
 62
           2
100
AcDbLine
 10
-364.963821148538
 20
-1017.661123124274
 11
-352.463821148538
 21
-1017.661123124275
  0
LINE
  5
18B
100
AcDbEntity
  8
1
  6
CONTINUOUS
 62
           2
100
AcDbLine
 10
-364.963821148538
 20
-1018.661123124274
 11
-352.463821148538
 21
-1018.661123124274
  0
LINE
  5
18A
100
AcDbEntity
  8
1
  6
CONTINUOUS
 62
           2
100
AcDbLine
 10
-364.963821148539
 20
-1025.161123124274
 11
-352.463821148539
 21
-1025.161123124275
  0
LINE
  5
189
100
AcDbEntity
  8
1
  6
CONTINUOUS
 62
           2
100
AcDbLine
 10
-364.963821148539
 20
-1026.161123124275
 11
-352.463821148539
 21
-1026.161123124275
  0
LINE
  5
188
100
AcDbEntity
  8
1
  6
CONTINUOUS
 62
           7
100
AcDbLine
 10
-364.963821148538
 20
-1029.011123124274
 11
-352.463821148538
 21
-1029.011123124275
  0
LINE
  5
187
100
AcDbEntity
  8
1
  6
DOT_CENTER
 62
           2
100
AcDbLine
 10
-363.603811468626
 20
-1021.911123124274
 11
-338.41337604897
 21
-1021.911123124275
  0
LINE
  5
186
100
AcDbEntity
  8
1
  6
DOT_CENTER
 62
           2
100
AcDbLine
 10
-388.418429743913
 20
-1021.911123124274
 11
-384.497009486758
 21
-1021.911123124274
  0
LINE
  5
185
100
AcDbEntity
  8
1
  6
CONTINUOUS
 62
           7
100
AcDbLine
 10
-351.963821148539
 20
-1025.411123124275
 11
-349.963821148539
 21
-1025.411123124275
  0
LINE
  5
184
100
AcDbEntity
  8
1
  6
CONTINUOUS
 62
           7
100
AcDbLine
 10
-351.963821148539
 20
-1018.411123124275
 11
-349.963821148538
 21
-1018.411123124275
  0
LINE
  5
183
100
AcDbEntity
  8
1
  6
CONTINUOUS
 62
           7
100
AcDbLine
 10
-348.963821148539
 20
-1013.911123124275
 11
-343.963821148539
 21
-1013.911123124275
  0
LINE
  5
182
100
AcDbEntity
  8
1
  6
CONTINUOUS
 62
           7
100
AcDbLine
 10
-348.963821148539
 20
-1029.911123124275
 11
-343.963821148539
 21
-1029.911123124275
  0
LINE
  5
181
100
AcDbEntity
  8
1
  6
CONTINUOUS
 62
           7
100
AcDbLine
 10
-349.963821148539
 20
-1028.911123124275
 11
-349.963821148539
 21
-1014.911123124275
  0
LINE
  5
180
100
AcDbEntity
  8
1
  6
CONTINUOUS
 62
           7
100
AcDbLine
 10
-342.963821148539
 20
-1014.911123124275
 11
-342.963821148538
 21
-1028.911123124274
  0
LINE
  5
17F
100
AcDbEntity
  8
1
  6
CONTINUOUS
 62
           7
100
AcDbLine
 10
-349.963821148539
 20
-1028.911123124275
 11
-348.963821148539
 21
-1029.911123124275
  0
LINE
  5
17E
100
AcDbEntity
  8
1
  6
CONTINUOUS
 62
           7
100
AcDbLine
 10
-349.963821148539
 20
-1014.911123124275
 11
-348.963821148539
 21
-1013.911123124275
  0
LINE
  5
17D
100
AcDbEntity
  8
1
  6
CONTINUOUS
 62
           7
100
AcDbLine
 10
-342.963821148539
 20
-1014.911123124275
 11
-343.963821148539
 21
-1013.911123124275
  0
LINE
  5
17C
100
AcDbEntity
  8
1
  6
CONTINUOUS
 62
           7
100
AcDbLine
 10
-342.963821148538
 20
-1028.911123124274
 11
-343.963821148539
 21
-1029.911123124275
  0
LINE
  5
17B
100
AcDbEntity
  8
1
  6
CONTINUOUS
 62
           2
100
AcDbLine
 10
-349.963821148539
 20
-1014.911123124275
 11
-342.963821148539
 21
-1014.911123124275
  0
LINE
  5
17A
100
AcDbEntity
  8
1
  6
CONTINUOUS
 62
           2
100
AcDbLine
 10
-349.963821148539
 20
-1028.911123124275
 11
-342.963821148538
 21
-1028.911123124274
  0
LINE
  5
179
100
AcDbEntity
  8
1
  6
CONTINUOUS
 62
           2
100
AcDbLine
 10
-349.963821148539
 20
-1016.411123124275
 11
-342.963821148539
 21
-1016.411123124275
  0
LINE
  5
178
100
AcDbEntity
  8
1
  6
CONTINUOUS
 62
           2
100
AcDbLine
 10
-349.963821148539
 20
-1017.911123124275
 11
-342.963821148539
 21
-1017.911123124275
  0
LINE
  5
177
100
AcDbEntity
  8
1
  6
CONTINUOUS
 62
           2
100
AcDbLine
 10
-349.963821148538
 20
-1019.411123124275
 11
-342.963821148539
 21
-1019.411123124274
  0
LINE
  5
176
100
AcDbEntity
  8
1
  6
CONTINUOUS
 62
           2
100
AcDbLine
 10
-349.963821148539
 20
-1020.911123124275
 11
-342.963821148539
 21
-1020.911123124275
  0
LINE
  5
175
100
AcDbEntity
  8
1
  6
CONTINUOUS
 62
           2
100
AcDbLine
 10
-349.963821148539
 20
-1022.911123124275
 11
-342.963821148538
 21
-1022.911123124275
  0
LINE
  5
174
100
AcDbEntity
  8
1
  6
CONTINUOUS
 62
           2
100
AcDbLine
 10
-349.963821148538
 20
-1024.411123124275
 11
-342.963821148539
 21
-1024.411123124275
  0
LINE
  5
173
100
AcDbEntity
  8
1
  6
CONTINUOUS
 62
           2
100
AcDbLine
 10
-349.963821148539
 20
-1025.911123124275
 11
-342.963821148539
 21
-1025.911123124275
  0
LINE
  5
172
100
AcDbEntity
  8
1
  6
CONTINUOUS
 62
           2
100
AcDbLine
 10
-349.963821148538
 20
-1027.411123124275
 11
-342.963821148539
 21
-1027.411123124275
  0
LINE
  5
171
100
AcDbEntity
  8
1
  6
CONTINUOUS
 62
           7
100
AcDbLine
 10
-413.780301950336
 20
-799.341689758162
 11
-351.147340346742
 21
-799.341689758162
  0
LINE
  5
170
100
AcDbEntity
  8
1
  6
CONTINUOUS
 62
           7
100
AcDbLine
 10
-351.147340346742
 20
-799.341689758162
 11
-351.147340346742
 21
-833.143605544229
  0
LINE
  5
16F
100
AcDbEntity
  8
1
  6
CONTINUOUS
 62
           7
100
AcDbLine
 10
-351.147340346742
 20
-833.143605544229
 11
-413.780301950336
 21
-833.143605544229
  0
LINE
  5
16E
100
AcDbEntity
  8
1
  6
CONTINUOUS
 62
           7
100
AcDbLine
 10
-413.780301950336
 20
-833.143605544229
 11
-413.780301950336
 21
-799.341689758162
  0
LINE
  5
16D
100
AcDbEntity
  8
1
  6
CONTINUOUS
 62
           7
100
AcDbLine
 10
-311.380380598428
 20
-815.745560654342
 11
-335.240556447416
 21
-815.745560654342
  0
LINE
  5
16C
100
AcDbEntity
  8
1
  6
CONTINUOUS
 62
           7
100
AcDbLine
 10
-335.240556447416
 20
-815.745560654342
 11
-335.240556447416
 21
-790.891210811646
  0
LINE
  5
16B
100
AcDbEntity
  8
1
  6
CONTINUOUS
 62
           7
100
AcDbLine
 10
-411.912535192462
 20
-957.165163403194
 11
-352.963821148539
 21
-957.165163403194
  0
LINE
  5
16A
100
AcDbEntity
  8
1
  6
CONTINUOUS
 62
           7
100
AcDbLine
 10
-413.463821148539
 20
-957.743711775128
 11
-413.463821148539
 21
-962.61927498031
  0
LINE
  5
169
100
AcDbEntity
  8
1
  6
CONTINUOUS
 62
           7
100
AcDbLine
 10
-351.463821148539
 20
-957.743711775128
 11
-351.463821148539
 21
-962.61927498031
  0
LINE
  5
168
100
AcDbEntity
  8
1
  6
CONTINUOUS
 62
           7
100
AcDbLine
 10
-351.463821148539
 20
-957.743711775128
 11
-352.963821148539
 21
-957.165163403194
  0
LINE
  5
167
100
AcDbEntity
  8
1
  6
CONTINUOUS
 62
           7
100
AcDbLine
 10
-411.912535192462
 20
-957.165163403194
 11
-413.463821148539
 21
-957.743711775128
  0
LINE
  5
166
100
AcDbEntity
  8
1
  6
CONTINUOUS
 62
           7
100
AcDbLine
 10
-413.463821148539
 20
-962.61927498031
 11
-351.463821148539
 21
-962.61927498031
  0
LINE
  5
165
100
AcDbEntity
  8
1
  6
CONTINUOUS
 62
           7
100
AcDbLine
 10
-413.463821148539
 20
-957.743711775128
 11
-351.463821148539
 21
-957.743711775128
  0
LINE
  5
164
100
AcDbEntity
  8
1
  6
CONTINUOUS
 62
           7
100
AcDbLine
 10
-423.365365946355
 20
-937.287261749886
 11
-411.912535192462
 21
-957.165163403194
  0
LINE
  5
163
100
AcDbEntity
  8
1
  6
CONTINUOUS
 62
           7
100
AcDbLine
 10
-450.62562205942
 20
-889.973483898474
 11
-423.365365946355
 21
-937.287261749886
  0
LINE
  5
162
100
AcDbEntity
  8
1
  6
CONTINUOUS
 62
           7
100
AcDbLine
 10
-314.302020237657
 20
-889.973483898474
 11
-353.011458774626
 21
-957.165163403194
  0
LINE
  5
161
100
AcDbEntity
  8
1
  6
CONTINUOUS
 62
           7
100
AcDbLine
 10
-453.963821148539
 20
-877.492843638562
 11
-453.963821148539
 21
-852.179598123107
  0
LINE
  5
160
100
AcDbEntity
  8
1
  6
CONTINUOUS
 62
           7
100
AcDbLine
 10
-310.963821148539
 20
-877.492843638562
 11
-310.963821148539
 21
-852.179598123107
  0
LINE
  5
15F
100
AcDbEntity
  8
1
  6
CONTINUOUS
 62
           7
100
AcDbLine
 10
-310.963821148539
 20
-842.179598123107
 11
-453.963821148539
 21
-842.179598123107
  0
LINE
  5
15E
100
AcDbEntity
  8
1
  6
CONTINUOUS
 62
           7
100
AcDbLine
 10
-310.963821148539
 20
-852.179598123107
 11
-453.963821148539
 21
-852.179598123107
  0
LINE
  5
15D
100
AcDbEntity
  8
1
  6
CONTINUOUS
 62
           7
100
AcDbLine
 10
-453.963821148539
 20
-842.179598123107
 11
-453.963821148539
 21
-791.179598123107
  0
LINE
  5
15C
100
AcDbEntity
  8
1
  6
CONTINUOUS
 62
           7
100
AcDbLine
 10
-310.963821148539
 20
-842.179598123107
 11
-310.963821148539
 21
-791.179598123107
  0
LINE
  5
15B
100
AcDbEntity
  8
1
  6
CONTINUOUS
 62
           7
100
AcDbLine
 10
-442.463821148539
 20
-791.179598123107
 11
-322.463821148539
 21
-791.179598123107
  0
LINE
  5
15A
100
AcDbEntity
  8
1
  6
CONTINUOUS
 62
           7
100
AcDbLine
 10
-310.963821148539
 20
-791.179598123107
 11
-453.963821148539
 21
-791.179598123107
  0
LINE
  5
159
100
AcDbEntity
  8
1
  6
CONTINUOUS
 62
           7
100
AcDbLine
 10
-310.963821148539
 20
-781.179598123107
 11
-453.963821148539
 21
-781.179598123107
  0
LINE
  5
158
100
AcDbEntity
  8
1
  6
CONTINUOUS
 62
           7
100
AcDbLine
 10
-453.963821148539
 20
-781.179598123107
 11
-453.963821148539
 21
-746.179598123107
  0
LINE
  5
157
100
AcDbEntity
  8
1
  6
CONTINUOUS
 62
           7
100
AcDbLine
 10
-310.963821148539
 20
-781.179598123107
 11
-310.963821148539
 21
-746.179598123107
  0
LINE
  5
156
100
AcDbEntity
  8
1
  6
CONTINUOUS
 62
           7
100
AcDbLine
 10
-309.713821148539
 20
-746.179598123107
 11
-455.213821148539
 21
-746.179598123107
  0
LINE
  5
155
100
AcDbEntity
  8
1
  6
CONTINUOUS
 62
           7
100
AcDbLine
 10
-382.463821148539
 20
-741.679598123107
 11
-309.713821148539
 21
-741.679598123107
  0
LINE
  5
154
100
AcDbEntity
  8
1
  6
CONTINUOUS
 62
           7
100
AcDbLine
 10
-382.463821148539
 20
-741.679598123107
 11
-455.213821148539
 21
-741.679598123107
  0
LINE
  5
153
100
AcDbEntity
  8
1
  6
CONTINUOUS
 62
           7
100
AcDbLine
 10
-368.963821148539
 20
-982.548904814966
 11
-368.963821148539
 21
-980.627370289843
  0
LINE
  5
152
100
AcDbEntity
  8
1
  6
CONTINUOUS
 62
           7
100
AcDbLine
 10
-395.963821148539
 20
-982.548904814966
 11
-395.963821148539
 21
-980.627370289088
  0
LINE
  5
151
100
AcDbEntity
  8
1
  6
CONTINUOUS
 62
           7
100
AcDbLine
 10
-360.463821148539
 20
-987.676749155563
 11
-360.463821148539
 21
-985.384770646132
  0
LINE
  5
150
100
AcDbEntity
  8
1
  6
CONTINUOUS
 62
           7
100
AcDbLine
 10
-404.463821148539
 20
-985.384770646132
 11
-404.463821148539
 21
-987.676749155563
  0
LINE
  5
14F
100
AcDbEntity
  8
1
  6
DOT_CENTER
 62
           2
100
AcDbLine
 10
-389.146331017526
 20
-976.139587758483
 11
-375.601513704258
 21
-976.139587758483
  0
LINE
  5
14E
100
AcDbEntity
  8
1
  6
CONTINUOUS
 62
           2
100
AcDbLine
 10
-58.651347175021
 20
-764.179598123108
 11
-55.113742867987
 21
-764.179598123108
  0
LINE
  5
14D
100
AcDbEntity
  8
1
  6
CONTINUOUS
 62
           7
100
AcDbLine
 10
-58.651347175021
 20
-759.679598123108
 11
-56.93489120105
 21
-759.179598123108
  0
LINE
  5
14C
100
AcDbEntity
  8
1
  6
CONTINUOUS
 62
           7
100
AcDbLine
 10
-56.93489120105
 20
-759.179598123108
 11
-41.892594534924
 21
-759.179598123108
  0
LINE
  5
14B
100
AcDbEntity
  8
1
  6
CONTINUOUS
 62
           7
100
AcDbLine
 10
-58.651347175021
 20
-764.179598123108
 11
-58.651347175021
 21
-759.679598123108
  0
LINE
  5
14A
100
AcDbEntity
  8
1
  6
CONTINUOUS
 62
           7
100
AcDbLine
 10
-40.176138560953
 20
-759.679598123108
 11
-40.176138560953
 21
-764.179598123108
  0
LINE
  5
149
100
AcDbEntity
  8
1
  6
CONTINUOUS
 62
           7
100
AcDbLine
 10
-41.892594534924
 20
-759.179598123108
 11
-40.176138560953
 21
-759.679598123108
  0
LINE
  5
148
100
AcDbEntity
  8
1
  6
CONTINUOUS
 62
           2
100
AcDbLine
 10
-43.713742867987
 20
-764.179598123108
 11
-40.176138560953
 21
-764.179598123108
  0
LINE
  5
147
100
AcDbEntity
  8
1
  6
CONTINUOUS
 62
           7
100
AcDbLine
 10
-84.41374286799
 20
-869.179598123107
 11
-84.41374286799
 21
-870.679598123107
  0
LINE
  5
146
100
AcDbEntity
  8
1
  6
CONTINUOUS
 62
           7
100
AcDbLine
 10
-79.41374286799
 20
-869.179598123107
 11
-84.41374286799
 21
-869.179598123107
  0
LINE
  5
145
100
AcDbEntity
  8
1
  6
CONTINUOUS
 62
           7
100
AcDbLine
 10
-84.41374286799
 20
-870.679598123107
 11
-84.735828856693
 21
-870.679598123107
  0
LINE
  5
144
100
AcDbEntity
  8
1
  6
CONTINUOUS
 62
           7
100
AcDbLine
 10
-61.91374286799
 20
-775.679598123107
 11
-61.91374286799
 21
-857.679598123107
  0
LINE
  5
143
100
AcDbEntity
  8
1
  6
CONTINUOUS
 62
           7
100
AcDbLine
 10
-36.91374286799
 20
-773.179598123107
 11
-36.91374286799
 21
-860.179598123107
  0
LINE
  5
142
100
AcDbEntity
  8
1
  6
CONTINUOUS
 62
           7
100
AcDbLine
 10
-76.41374286799
 20
-770.679598123107
 11
-66.91374286799
 21
-770.679598123107
  0
LINE
  5
141
100
AcDbEntity
  8
1
  6
CONTINUOUS
 62
           7
100
AcDbLine
 10
-76.41374286799
 20
-862.679598123107
 11
-66.91374286799
 21
-862.679598123107
  0
LINE
  5
140
100
AcDbEntity
  8
1
  6
CONTINUOUS
 62
           7
100
AcDbLine
 10
-84.735828856693
 20
-770.679598123107
 11
-76.41374286799
 21
-770.679598123107
  0
LINE
  5
13F
100
AcDbEntity
  8
1
  6
CONTINUOUS
 62
           7
100
AcDbLine
 10
-79.41374286799
 20
-762.679598123107
 11
-64.41374286799
 21
-762.679598123107
  0
LINE
  5
13E
100
AcDbEntity
  8
1
  6
CONTINUOUS
 62
           7
100
AcDbLine
 10
-84.735828856693
 20
-762.679598123107
 11
-79.41374286799
 21
-762.679598123107
  0
LINE
  5
13D
100
AcDbEntity
  8
1
  6
DOT_CENTER
 62
           2
100
AcDbLine
 10
-49.41374286799
 20
-743.852031583528
 11
-49.41374286799
 21
-877.980067755131
  0
LINE
  5
13C
100
AcDbEntity
  8
1
  6
CONTINUOUS
 62
           7
100
AcDbLine
 10
-64.41374286799
 20
-764.179598123107
 11
-64.41374286799
 21
-762.679598123107
  0
LINE
  5
13B
100
AcDbEntity
  8
1
  6
CONTINUOUS
 62
           7
100
AcDbLine
 10
-79.41374286799
 20
-869.179598123107
 11
-34.41374286799
 21
-869.179598123107
  0
LINE
  5
13A
100
AcDbEntity
  8
1
  6
CONTINUOUS
 62
           7
100
AcDbLine
 10
-64.41374286799
 20
-764.179598123107
 11
-34.477251194886
 21
-764.179598123107
  0
LINE
  5
139
100
AcDbEntity
  8
1
  6
CONTINUOUS
 62
           7
100
AcDbLine
 10
-86.756554798857
 20
-772.179598123107
 11
-86.467879664262
 21
-771.679598123107
  0
LINE
  5
138
100
AcDbEntity
  8
1
  6
CONTINUOUS
 62
           7
100
AcDbLine
 10
-86.756554798857
 20
-761.179598123107
 11
-86.467879664262
 21
-761.679598123107
  0
LINE
  5
137
100
AcDbEntity
  8
1
  6
CONTINUOUS
 62
           7
100
AcDbLine
 10
-86.756554798857
 20
-872.179598123107
 11
-86.467879664262
 21
-871.679598123107
  0
LINE
  5
136
100
AcDbEntity
  8
1
  6
CONTINUOUS
 62
           7
100
AcDbLine
 10
-86.756554798857
 20
-861.179598123107
 11
-86.467879664262
 21
-861.679598123107
  0
LINE
  5
135
100
AcDbEntity
  8
1
  6
CONTINUOUS
 62
           7
100
AcDbLine
 10
-34.41374286799
 20
-862.679598123107
 11
-34.41374286799
 21
-869.179598123107
  0
LINE
  5
134
100
AcDbEntity
  8
1
  6
CONTINUOUS
 62
           7
100
AcDbLine
 10
-76.41374286799
 20
-759.679598123107
 11
-76.41374286799
 21
-752.679598123107
  0
LINE
  5
133
100
AcDbEntity
  8
1
  6
CONTINUOUS
 62
           7
100
AcDbLine
 10
-76.41374286799
 20
-751.179598123107
 11
-76.41374286799
 21
-748.679598123107
  0
LINE
  5
132
100
AcDbEntity
  8
1
  6
CONTINUOUS
 62
           7
100
AcDbLine
 10
-75.41374286799
 20
-747.679598123107
 11
-65.41374286799
 21
-747.679598123107
  0
LINE
  5
131
100
AcDbEntity
  8
1
  6
CONTINUOUS
 62
           7
100
AcDbLine
 10
-64.41374286799
 20
-748.679598123107
 11
-64.41374286799
 21
-751.179598123107
  0
LINE
  5
130
100
AcDbEntity
  8
1
  6
CONTINUOUS
 62
           7
100
AcDbLine
 10
-74.91374286799
 20
-752.679598123107
 11
-65.91374286799
 21
-752.679598123107
  0
LINE
  5
12F
100
AcDbEntity
  8
1
  6
CONTINUOUS
 62
           7
100
AcDbLine
 10
-76.41374286799
 20
-752.679598123107
 11
-76.41374286799
 21
-751.179598123107
  0
LINE
  5
12E
100
AcDbEntity
  8
1
  6
CONTINUOUS
 62
           7
100
AcDbLine
 10
-64.41374286799
 20
-751.179598123107
 11
-64.41374286799
 21
-752.679598123108
  0
LINE
  5
12D
100
AcDbEntity
  8
1
  6
CONTINUOUS
 62
           7
100
AcDbLine
 10
-64.41374286799
 20
-752.679598123108
 11
-64.41374286799
 21
-762.679598123107
  0
LINE
  5
12C
100
AcDbEntity
  8
1
  6
CONTINUOUS
 62
           7
100
AcDbLine
 10
-34.41374286799
 20
-764.679598123107
 11
-34.41374286799
 21
-767.679598123107
  0
LINE
  5
12B
100
AcDbEntity
  8
1
  6
CONTINUOUS
 62
           7
100
AcDbLine
 10
-84.735828856693
 20
-862.679598123107
 11
-76.41374286799
 21
-862.679598123107
  0
LINE
  5
12A
100
AcDbEntity
  8
1
  6
CONTINUOUS
 62
           7
100
AcDbLine
 10
-34.41374286799
 20
-767.679598123107
 11
-34.41374286799
 21
-770.679598123107
  0
LINE
  5
129
100
AcDbEntity
  8
1
  6
CONTINUOUS
 62
           7
100
AcDbLine
 10
-89.91374286799
 20
-860.679598123107
 11
-87.622580202641
 21
-860.679598123107
  0
LINE
  5
128
100
AcDbEntity
  8
1
  6
CONTINUOUS
 62
           7
100
AcDbLine
 10
-89.91374286799
 20
-872.679598123107
 11
-87.622580202641
 21
-872.679598123107
  0
LINE
  5
127
100
AcDbEntity
  8
1
  6
CONTINUOUS
 62
           7
100
AcDbLine
 10
-89.91374286799
 20
-760.679598123107
 11
-87.622580202641
 21
-760.679598123107
  0
LINE
  5
126
100
AcDbEntity
  8
1
  6
CONTINUOUS
 62
           7
100
AcDbLine
 10
-89.91374286799
 20
-772.679598123107
 11
-87.622580202641
 21
-772.679598123107
  0
LINE
  5
125
100
AcDbEntity
  8
1
  6
CONTINUOUS
 62
           7
100
AcDbLine
 10
-77.41374286799
 20
-874.179598123107
 11
-71.91374286799
 21
-874.179598123107
  0
LINE
  5
124
100
AcDbEntity
  8
1
  6
CONTINUOUS
 62
           7
100
AcDbLine
 10
-57.41374286799
 20
-875.179598123107
 11
-57.41374286799
 21
-904.879598123107
  0
LINE
  5
123
100
AcDbEntity
  8
1
  6
DOT_CENTER
 62
           2
100
AcDbLine
 10
-49.41374286799
 20
-859.788958748015
 11
-49.41374286799
 21
-910.485321473249
  0
LINE
  5
122
100
AcDbEntity
  8
1
  6
CONTINUOUS
 62
           7
100
AcDbLine
 10
-35.41374286799
 20
-874.179598123107
 11
-40.41374286799
 21
-874.179598123107
  0
LINE
  5
121
100
AcDbEntity
  8
1
  6
CONTINUOUS
 62
           7
100
AcDbLine
 10
-41.41374286799
 20
-875.179598123107
 11
-41.41374286799
 21
-904.879598123107
  0
LINE
  5
120
100
AcDbEntity
  8
1
  6
CONTINUOUS
 62
           7
100
AcDbLine
 10
-34.41374286799
 20
-869.179598123107
 11
-34.41374286799
 21
-873.179598123107
  0
LINE
  5
11F
100
AcDbEntity
  8
1
  6
CONTINUOUS
 62
           7
100
AcDbLine
 10
-78.41374286799
 20
-869.179598123107
 11
-78.41374286799
 21
-873.179598123107
  0
LINE
  5
11E
100
AcDbEntity
  8
1
  6
CONTINUOUS
 62
           7
100
AcDbLine
 10
-71.91374286799
 20
-874.179598123107
 11
-58.41374286799
 21
-874.179598123107
  0
LINE
  5
11D
100
AcDbEntity
  8
1
  6
CONTINUOUS
 62
           7
100
AcDbLine
 10
-34.41374286799
 20
-869.179598123107
 11
-39.51374286799
 21
-869.179598123107
  0
LINE
  5
11C
100
AcDbEntity
  8
1
  6
CONTINUOUS
 62
           7
100
AcDbLine
 10
-57.145793675559
 20
-905.879598123107
 11
-41.681692060422
 21
-905.879598123107
  0
LINE
  5
11B
100
AcDbEntity
  8
1
  6
CONTINUOUS
 62
           7
100
AcDbLine
 10
-78.41374286799
 20
-869.179598123107
 11
-34.41374286799
 21
-869.179598123107
  0
LINE
  5
11A
100
AcDbEntity
  8
1
  6
CONTINUOUS
 62
           7
100
AcDbLine
 10
-53.41374286799
 20
-759.179598123108
 11
-53.41374286799
 21
-757.162258692051
  0
LINE
  5
119
100
AcDbEntity
  8
1
  6
CONTINUOUS
 62
           7
100
AcDbLine
 10
-72.41374286799
 20
-747.679598123108
 11
-52.41374286799
 21
-747.679598123108
  0
LINE
  5
118
100
AcDbEntity
  8
1
  6
CONTINUOUS
 62
           7
100
AcDbLine
 10
-52.41374286799
 20
-747.679598123108
 11
-48.680491779137
 21
-747.679598123108
  0
LINE
  5
117
100
AcDbEntity
  8
1
  6
CONTINUOUS
 62
           7
100
AcDbLine
 10
-61.41374286799
 20
-752.679598123108
 11
-61.41374286799
 21
-747.679598123108
  0
LINE
  5
116
100
AcDbEntity
  8
1
  6
CONTINUOUS
 62
           7
100
AcDbLine
 10
-37.41374286799
 20
-752.679598123108
 11
-37.41374286799
 21
-749.679598123108
  0
LINE
  5
115
100
AcDbEntity
  8
1
  6
CONTINUOUS
 62
           7
100
AcDbLine
 10
-43.727315027335
 20
-752.679598123108
 11
-43.727315027335
 21
-748.679598123108
  0
LINE
  5
114
100
AcDbEntity
  8
1
  6
CONTINUOUS
 62
           7
100
AcDbLine
 10
-47.680491779137
 20
-752.679598123108
 11
-47.680491779137
 21
-748.679598123108
  0
LINE
  5
113
100
AcDbEntity
  8
1
  6
CONTINUOUS
 62
           7
100
AcDbLine
 10
-51.41374286799
 20
-752.679598123108
 11
-51.41374286799
 21
-748.679598123108
  0
LINE
  5
112
100
AcDbEntity
  8
1
  6
CONTINUOUS
 62
           7
100
AcDbLine
 10
-48.680491779137
 20
-747.679598123108
 11
-44.727315027335
 21
-747.679598123108
  0
LINE
  5
111
100
AcDbEntity
  8
1
  6
CONTINUOUS
 62
           7
100
AcDbLine
 10
-43.91374286799
 20
-752.679598123108
 11
-37.41374286799
 21
-752.679598123108
  0
LINE
  5
110
100
AcDbEntity
  8
1
  6
CONTINUOUS
 62
           7
100
AcDbLine
 10
-54.91374286799
 20
-752.679598123108
 11
-53.91374286799
 21
-752.679598123108
  0
LINE
  5
10F
100
AcDbEntity
  8
1
  6
CONTINUOUS
 62
           7
100
AcDbLine
 10
-53.91374286799
 20
-752.679598123108
 11
-44.91374286799
 21
-752.679598123108
  0
LINE
  5
10E
100
AcDbEntity
  8
1
  6
CONTINUOUS
 62
           7
100
AcDbLine
 10
-44.91374286799
 20
-752.679598123108
 11
-43.91374286799
 21
-752.679598123108
  0
LINE
  5
10D
100
AcDbEntity
  8
1
  6
CONTINUOUS
 62
           7
100
AcDbLine
 10
-44.727315027335
 20
-747.679598123108
 11
-39.41374286799
 21
-747.679598123108
  0
LINE
  5
10C
100
AcDbEntity
  8
1
  6
CONTINUOUS
 62
           7
100
AcDbLine
 10
-45.41374286799
 20
-758.989578999912
 11
-45.41374286799
 21
-752.679598123108
  0
LINE
  5
10B
100
AcDbEntity
  8
1
  6
CONTINUOUS
 62
           7
100
AcDbLine
 10
-53.41374286799
 20
-757.162258692051
 11
-53.41374286799
 21
-752.679598123108
  0
LINE
  5
10A
100
AcDbEntity
  8
1
  6
CONTINUOUS
 62
           7
100
AcDbLine
 10
-64.41374286799
 20
-752.679598123108
 11
-54.91374286799
 21
-752.679598123108
  0
LINE
  5
109
100
AcDbEntity
  8
1
  6
CONTINUOUS
 62
           7
100
AcDbLine
 10
-130.41374286799
 20
-747.179598123107
 11
-85.41374286799
 21
-747.179598123107
  0
LINE
  5
108
100
AcDbEntity
  8
1
  6
CONTINUOUS
 62
           7
100
AcDbLine
 10
-130.41374286799
 20
-740.679598123107
 11
-130.41374286799
 21
-747.179598123107
  0
LINE
  5
107
100
AcDbEntity
  8
1
  6
CONTINUOUS
 62
           7
100
AcDbLine
 10
-85.41374286799
 20
-747.179598123107
 11
-85.41374286799
 21
-742.679598123107
  0
LINE
  5
106
100
AcDbEntity
  8
1
  6
CONTINUOUS
 62
           7
100
AcDbLine
 10
-87.41374286799
 20
-740.679598123107
 11
-130.41374286799
 21
-740.679598123107
  0
LINE
  5
105
100
AcDbEntity
  8
1
  6
CONTINUOUS
 62
           7
100
AcDbLine
 10
-53.614622306881
 20
-908.363870172141
 11
-53.614622306881
 21
-910.079598123106
  0
LINE
  5
104
100
AcDbEntity
  8
1
  6
CONTINUOUS
 62
           7
100
AcDbLine
 10
-52.270314239408
 20
-908.447202710672
 11
-52.270314239408
 21
-910.079598123106
  0
LINE
  5
103
100
AcDbEntity
  8
1
  6
CONTINUOUS
 62
           7
100
AcDbLine
 10
-56.51374286799
 20
-908.452803203863
 11
-56.51374286799
 21
-910.333187961592
  0
LINE
  5
102
100
AcDbEntity
  8
1
  6
CONTINUOUS
 62
           7
100
AcDbLine
 10
-56.51374286799
 20
-908.452803203863
 11
-56.21374286799
 21
-908.279598123106
  0
LINE
  5
101
100
AcDbEntity
  8
1
  6
CONTINUOUS
 62
           7
100
AcDbLine
 10
-56.21374286799
 20
-908.279598123106
 11
-56.51374286799
 21
-908.106393042349
  0
LINE
  5
100
100
AcDbEntity
  8
1
  6
CONTINUOUS
 62
           7
100
AcDbLine
 10
-53.614622306881
 20
-906.479598123106
 11
-53.614622306881
 21
-908.195326074072
  0
LINE
  5
FF
100
AcDbEntity
  8
1
  6
CONTINUOUS
 62
           7
100
AcDbLine
 10
-53.614622306881
 20
-910.079598123106
 11
-52.270314239408
 21
-910.079598123106
  0
LINE
  5
FE
100
AcDbEntity
  8
1
  6
CONTINUOUS
 62
           7
100
AcDbLine
 10
-52.270314239408
 20
-906.479598123106
 11
-52.270314239408
 21
-908.111993535541
  0
LINE
  5
FD
100
AcDbEntity
  8
1
  6
CONTINUOUS
 62
           7
100
AcDbLine
 10
-52.270314239408
 20
-906.479598123106
 11
-53.614622306881
 21
-906.479598123106
  0
LINE
  5
FC
100
AcDbEntity
  8
1
  6
CONTINUOUS
 62
           7
100
AcDbLine
 10
-55.91374286799
 20
-914.509784907495
 11
-49.41374286799
 21
-914.509784907495
  0
LINE
  5
FB
100
AcDbEntity
  8
1
  6
CONTINUOUS
 62
           7
100
AcDbLine
 10
-55.01374286799
 20
-913.879598123106
 11
-49.41374286799
 21
-913.879598123106
  0
LINE
  5
FA
100
AcDbEntity
  8
1
  6
CONTINUOUS
 62
           7
100
AcDbLine
 10
-55.91374286799
 20
-920.629598123106
 11
-49.41374286799
 21
-920.629598123106
  0
LINE
  5
F9
100
AcDbEntity
  8
1
  6
CONTINUOUS
 62
           7
100
AcDbLine
 10
-56.51374286799
 20
-906.379598123106
 11
-56.01374286799
 21
-905.879598123106
  0
LINE
  5
F8
100
AcDbEntity
  8
1
  6
DOT_CENTER
 62
           2
100
AcDbLine
 10
-49.41374286799
 20
-925.720677985737
 11
-49.41374286799
 21
-898.379598123106
  0
LINE
  5
F7
100
AcDbEntity
  8
1
  6
CONTINUOUS
 62
           7
100
AcDbLine
 10
-53.66374286799
 20
-921.879598123106
 11
-54.66374286799
 21
-921.879598123106
  0
LINE
  5
F6
100
AcDbEntity
  8
1
  6
CONTINUOUS
 62
           7
100
AcDbLine
 10
-55.13624286799
 20
-921.407098123106
 11
-54.66374286799
 21
-921.879598123106
  0
LINE
  5
F5
100
AcDbEntity
  8
1
  6
CONTINUOUS
 62
           7
100
AcDbLine
 10
-55.91374286799
 20
-920.629598123106
 11
-55.13624286799
 21
-921.407098123106
  0
LINE
  5
F4
100
AcDbEntity
  8
1
  6
CONTINUOUS
 62
           7
100
AcDbLine
 10
-55.91374286799
 20
-910.679598123106
 11
-49.41374286799
 21
-910.679598123106
  0
LINE
  5
F3
100
AcDbEntity
  8
1
  6
CONTINUOUS
 62
           7
100
AcDbLine
 10
-56.51374286799
 20
-910.333187961592
 11
-55.91374286799
 21
-910.679598123106
  0
LINE
  5
F2
100
AcDbEntity
  8
1
  6
CONTINUOUS
 62
           7
100
AcDbLine
 10
-56.51374286799
 20
-906.379598123106
 11
-56.51374286799
 21
-908.106393042349
  0
LINE
  5
F1
100
AcDbEntity
  8
1
  6
CONTINUOUS
 62
           7
100
AcDbLine
 10
-49.41374286799
 20
-905.879598123106
 11
-56.01374286799
 21
-905.879598123106
  0
LINE
  5
F0
100
AcDbEntity
  8
1
  6
CONTINUOUS
 62
           7
100
AcDbLine
 10
-53.66374286799
 20
-921.879598123106
 11
-49.41374286799
 21
-921.879598123106
  0
LINE
  5
EF
100
AcDbEntity
  8
1
  6
CONTINUOUS
 62
           7
100
AcDbLine
 10
-55.01374286799
 20
-913.879598123106
 11
-55.91374286799
 21
-914.509784907495
  0
LINE
  5
EE
100
AcDbEntity
  8
1
  6
CONTINUOUS
 62
           7
100
AcDbLine
 10
-55.91374286799
 20
-914.509784907495
 11
-55.91374286799
 21
-920.629598123106
  0
LINE
  5
ED
100
AcDbEntity
  8
1
  6
CONTINUOUS
 62
           7
100
AcDbLine
 10
-55.01374286799
 20
-910.679598123106
 11
-55.01374286799
 21
-913.879598123106
  0
LINE
  5
EC
100
AcDbEntity
  8
1
  6
CONTINUOUS
 62
           2
100
AcDbLine
 10
-55.01374286799
 20
-921.529598123106
 11
-55.01374286799
 21
-913.879598123106
  0
LINE
  5
EB
100
AcDbEntity
  8
1
  6
CONTINUOUS
 62
           2
100
AcDbLine
 10
-43.81374286799
 20
-913.879598123106
 11
-43.81374286799
 21
-921.529598123106
  0
LINE
  5
EA
100
AcDbEntity
  8
1
  6
CONTINUOUS
 62
           7
100
AcDbLine
 10
-43.81374286799
 20
-913.879598123106
 11
-43.81374286799
 21
-910.679598123106
  0
LINE
  5
E9
100
AcDbEntity
  8
1
  6
CONTINUOUS
 62
           7
100
AcDbLine
 10
-42.91374286799
 20
-920.629598123106
 11
-42.91374286799
 21
-914.509784907495
  0
LINE
  5
E8
100
AcDbEntity
  8
1
  6
CONTINUOUS
 62
           7
100
AcDbLine
 10
-42.91374286799
 20
-914.509784907495
 11
-43.81374286799
 21
-913.879598123106
  0
LINE
  5
E7
100
AcDbEntity
  8
1
  6
CONTINUOUS
 62
           7
100
AcDbLine
 10
-49.41374286799
 20
-921.879598123106
 11
-45.16374286799
 21
-921.879598123106
  0
LINE
  5
E6
100
AcDbEntity
  8
1
  6
CONTINUOUS
 62
           7
100
AcDbLine
 10
-42.81374286799
 20
-905.879598123106
 11
-49.41374286799
 21
-905.879598123106
  0
LINE
  5
E5
100
AcDbEntity
  8
1
  6
CONTINUOUS
 62
           7
100
AcDbLine
 10
-42.31374286799
 20
-908.106393042349
 11
-42.31374286799
 21
-906.379598123106
  0
LINE
  5
E4
100
AcDbEntity
  8
1
  6
CONTINUOUS
 62
           7
100
AcDbLine
 10
-42.91374286799
 20
-910.679598123106
 11
-42.31374286799
 21
-910.333187961592
  0
LINE
  5
E3
100
AcDbEntity
  8
1
  6
CONTINUOUS
 62
           7
100
AcDbLine
 10
-49.41374286799
 20
-910.679598123106
 11
-42.91374286799
 21
-910.679598123106
  0
LINE
  5
E2
100
AcDbEntity
  8
1
  6
CONTINUOUS
 62
           7
100
AcDbLine
 10
-43.69124286799
 20
-921.407098123106
 11
-42.91374286799
 21
-920.629598123106
  0
LINE
  5
E1
100
AcDbEntity
  8
1
  6
CONTINUOUS
 62
           7
100
AcDbLine
 10
-44.16374286799
 20
-921.879598123106
 11
-43.69124286799
 21
-921.407098123106
  0
LINE
  5
E0
100
AcDbEntity
  8
1
  6
CONTINUOUS
 62
           7
100
AcDbLine
 10
-44.16374286799
 20
-921.879598123106
 11
-45.16374286799
 21
-921.879598123106
  0
LINE
  5
DF
100
AcDbEntity
  8
1
  6
CONTINUOUS
 62
           7
100
AcDbLine
 10
-42.81374286799
 20
-905.879598123106
 11
-42.31374286799
 21
-906.379598123106
  0
LINE
  5
DE
100
AcDbEntity
  8
1
  6
CONTINUOUS
 62
           7
100
AcDbLine
 10
-49.41374286799
 20
-920.629598123106
 11
-42.91374286799
 21
-920.629598123106
  0
LINE
  5
DD
100
AcDbEntity
  8
1
  6
CONTINUOUS
 62
           7
100
AcDbLine
 10
-49.41374286799
 20
-913.879598123106
 11
-43.81374286799
 21
-913.879598123106
  0
LINE
  5
DC
100
AcDbEntity
  8
1
  6
CONTINUOUS
 62
           7
100
AcDbLine
 10
-49.41374286799
 20
-914.509784907495
 11
-42.91374286799
 21
-914.509784907495
  0
LINE
  5
DB
100
AcDbEntity
  8
1
  6
CONTINUOUS
 62
           7
100
AcDbLine
 10
-45.2128634291
 20
-906.479598123106
 11
-46.557171496573
 21
-906.479598123106
  0
LINE
  5
DA
100
AcDbEntity
  8
1
  6
CONTINUOUS
 62
           7
100
AcDbLine
 10
-46.557171496573
 20
-908.111993535541
 11
-46.557171496573
 21
-906.479598123106
  0
LINE
  5
D9
100
AcDbEntity
  8
1
  6
CONTINUOUS
 62
           7
100
AcDbLine
 10
-46.557171496573
 20
-910.079598123106
 11
-45.2128634291
 21
-910.079598123106
  0
LINE
  5
D8
100
AcDbEntity
  8
1
  6
CONTINUOUS
 62
           7
100
AcDbLine
 10
-45.2128634291
 20
-908.195326074072
 11
-45.2128634291
 21
-906.479598123106
  0
LINE
  5
D7
100
AcDbEntity
  8
1
  6
CONTINUOUS
 62
           7
100
AcDbLine
 10
-42.31374286799
 20
-908.106393042349
 11
-42.61374286799
 21
-908.279598123106
  0
LINE
  5
D6
100
AcDbEntity
  8
1
  6
CONTINUOUS
 62
           7
100
AcDbLine
 10
-42.61374286799
 20
-908.279598123106
 11
-42.31374286799
 21
-908.452803203863
  0
LINE
  5
D5
100
AcDbEntity
  8
1
  6
CONTINUOUS
 62
           7
100
AcDbLine
 10
-42.31374286799
 20
-910.333187961592
 11
-42.31374286799
 21
-908.452803203863
  0
LINE
  5
D4
100
AcDbEntity
  8
1
  6
CONTINUOUS
 62
           7
100
AcDbLine
 10
-46.557171496573
 20
-910.079598123106
 11
-46.557171496573
 21
-908.447202710672
  0
LINE
  5
D3
100
AcDbEntity
  8
1
  6
CONTINUOUS
 62
           7
100
AcDbLine
 10
-45.2128634291
 20
-910.079598123106
 11
-45.2128634291
 21
-908.363870172141
  0
LINE
  5
D2
100
AcDbEntity
  8
1
  6
CONTINUOUS
 62
           2
100
AcDbLine
 10
-112.020447780444
 20
-1019.177801771857
 11
-110.08889035823
 21
-1019.211517232074
  0
LINE
  5
D1
100
AcDbEntity
  8
1
  6
CONTINUOUS
 62
           2
100
AcDbLine
 10
-109.815348933908
 20
-1011.48770820435
 11
-108.159428867511
 21
-1012.482685360506
  0
LINE
  5
D0
100
AcDbEntity
  8
1
  6
CONTINUOUS
 62
           7
100
AcDbLine
 10
-118.021240938973
 20
-1009.134706535863
 11
-108.021610189603
 21
-1012.002054512537
  0
LINE
  5
CF
100
AcDbEntity
  8
1
  6
CONTINUOUS
 62
           7
100
AcDbLine
 10
-120.226339785509
 20
-1016.82480010337
 11
-110.226709036138
 21
-1019.692148080043
  0
LINE
  5
CE
100
AcDbEntity
  8
1
  6
CONTINUOUS
 62
           2
100
AcDbLine
 10
-106.233436426213
 20
-1009.393906780539
 11
-110.092359407651
 21
-1022.851570523675
  0
LINE
  5
CD
100
AcDbEntity
  8
1
  6
CONTINUOUS
 62
           7
100
AcDbLine
 10
-110.777983747772
 20
-1021.61467147192
 11
-110.092359407651
 21
-1022.851570523675
  0
LINE
  5
CC
100
AcDbEntity
  8
1
  6
CONTINUOUS
 62
           7
100
AcDbLine
 10
-107.470335477968
 20
-1010.07953112066
 11
-106.233436426213
 21
-1009.393906780539
  0
LINE
  5
CB
100
AcDbEntity
  8
1
  6
CONTINUOUS
 62
           7
100
AcDbLine
 10
-107.470335477968
 20
-1010.07953112066
 11
-110.777983747772
 21
-1021.61467147192
  0
LINE
  5
CA
100
AcDbEntity
  8
1
  6
CONTINUOUS
 62
           7
100
AcDbLine
 10
-93.628814332663
 20
-1027.572416107161
 11
-110.092359407651
 21
-1022.851570523675
  0
LINE
  5
C9
100
AcDbEntity
  8
1
  6
CONTINUOUS
 62
           7
100
AcDbLine
 10
-89.315230577699
 20
-1014.245124242918
 11
-106.233436426213
 21
-1009.393906780539
  0
LINE
  5
C8
100
AcDbEntity
  8
1
  6
DOT_CENTER
 62
           2
100
AcDbLine
 10
-90.677648389234
 20
-1031.33148774446
 11
-87.976402302228
 21
-1021.911123124264
  0
LINE
  5
C7
100
AcDbEntity
  8
1
  6
CONTINUOUS
 62
           7
100
AcDbLine
 10
-108.021610189603
 20
-1012.002054512537
 11
-110.226709036138
 21
-1019.692148080043
  0
LINE
  5
C6
100
AcDbEntity
  8
1
  6
CONTINUOUS
 62
           7
100
AcDbLine
 10
-128.191976378939
 20
-1001.068812871164
 11
-133.153448783645
 21
-1018.371523398054
  0
LINE
  5
C5
100
AcDbEntity
  8
1
  6
CONTINUOUS
 62
           7
100
AcDbLine
 10
-132.810636613584
 20
-1018.989972923932
 11
-128.484958981862
 21
-1020.230341025108
  0
LINE
  5
C4
100
AcDbEntity
  8
1
  6
CONTINUOUS
 62
           7
100
AcDbLine
 10
-123.682119551591
 20
-1025.248581095794
 11
-128.488428031283
 21
-1023.870394316709
  0
LINE
  5
C3
100
AcDbEntity
  8
1
  6
CONTINUOUS
 62
           7
100
AcDbLine
 10
-133.153448783645
 20
-1018.371523398054
 11
-132.810636613584
 21
-1018.989972923932
  0
LINE
  5
C2
100
AcDbEntity
  8
1
  6
CONTINUOUS
 62
           7
100
AcDbLine
 10
-129.174052371403
 20
-1022.633495264955
 11
-128.488428031283
 21
-1023.870394316709
  0
LINE
  5
C1
100
AcDbEntity
  8
1
  6
CONTINUOUS
 62
           7
100
AcDbLine
 10
-122.445220499836
 20
-1024.562956755673
 11
-123.682119551591
 21
-1025.248581095794
  0
LINE
  5
C0
100
AcDbEntity
  8
1
  6
CONTINUOUS
 62
           7
100
AcDbLine
 10
-115.829923960228
 20
-1001.492676053153
 11
-122.445220499836
 21
-1024.562956755673
  0
LINE
  5
BF
100
AcDbEntity
  8
1
  6
CONTINUOUS
 62
           7
100
AcDbLine
 10
-122.558755831796
 20
-999.563214562434
 11
-129.174052371403
 21
-1022.633495264955
  0
LINE
  5
BE
100
AcDbEntity
  8
1
  6
CONTINUOUS
 62
           7
100
AcDbLine
 10
-123.247849221339
 20
-1001.96636880228
 11
-127.573526853061
 21
-1000.726000701104
  0
LINE
  5
BD
100
AcDbEntity
  8
1
  6
CONTINUOUS
 62
           7
100
AcDbLine
 10
-121.321856780041
 20
-998.877590222313
 11
-116.515548300349
 21
-1000.255777001398
  0
LINE
  5
BC
100
AcDbEntity
  8
1
  6
CONTINUOUS
 62
           7
100
AcDbLine
 10
-127.573526853061
 20
-1000.726000701104
 11
-128.191976378939
 21
-1001.068812871164
  0
LINE
  5
BB
100
AcDbEntity
  8
1
  6
CONTINUOUS
 62
           7
100
AcDbLine
 10
-121.321856780041
 20
-998.877590222313
 11
-122.558755831796
 21
-999.563214562434
  0
LINE
  5
BA
100
AcDbEntity
  8
1
  6
CONTINUOUS
 62
           7
100
AcDbLine
 10
-116.515548300349
 20
-1000.255777001398
 11
-115.829923960228
 21
-1001.492676053153
  0
LINE
  5
B9
100
AcDbEntity
  8
1
  6
CONTINUOUS
 62
           7
100
AcDbLine
 10
-135.406616826801
 20
-1015.124689268686
 11
-132.522831738986
 21
-1015.951601336137
  0
LINE
  5
B8
100
AcDbEntity
  8
1
  6
CONTINUOUS
 62
           7
100
AcDbLine
 10
-128.939546113365
 20
-1003.455199288939
 11
-131.82333120118
 21
-1002.628287221488
  0
LINE
  5
B7
100
AcDbEntity
  8
1
  6
DASH_CENTER
 62
           2
100
AcDbLine
 10
-69.41374286799
 20
-860.292340682618
 11
-69.41374286799
 21
-882.71190625294
  0
LINE
  5
B6
100
AcDbEntity
  8
1
  6
CONTINUOUS
 62
           7
100
AcDbLine
 10
-72.991520645768
 20
-880.379598123107
 11
-72.991520645768
 21
-875.879598123107
  0
LINE
  5
B5
100
AcDbEntity
  8
1
  6
CONTINUOUS
 62
           7
100
AcDbLine
 10
-71.969298423546
 20
-880.379598123107
 11
-71.969298423546
 21
-875.879598123107
  0
LINE
  5
B4
100
AcDbEntity
  8
1
  6
CONTINUOUS
 62
           7
100
AcDbLine
 10
-70.947076201324
 20
-880.379598123107
 11
-70.947076201324
 21
-875.879598123107
  0
LINE
  5
B3
100
AcDbEntity
  8
1
  6
CONTINUOUS
 62
           7
100
AcDbLine
 10
-69.924853979101
 20
-880.379598123107
 11
-69.924853979101
 21
-875.879598123107
  0
LINE
  5
B2
100
AcDbEntity
  8
1
  6
CONTINUOUS
 62
           7
100
AcDbLine
 10
-68.902631756879
 20
-880.379598123107
 11
-68.902631756879
 21
-875.879598123107
  0
LINE
  5
B1
100
AcDbEntity
  8
1
  6
CONTINUOUS
 62
           7
100
AcDbLine
 10
-67.880409534657
 20
-880.379598123107
 11
-67.880409534657
 21
-875.879598123107
  0
LINE
  5
B0
100
AcDbEntity
  8
1
  6
CONTINUOUS
 62
           7
100
AcDbLine
 10
-66.858187312435
 20
-880.379598123107
 11
-66.858187312435
 21
-875.879598123107
  0
LINE
  5
AF
100
AcDbEntity
  8
1
  6
CONTINUOUS
 62
           7
100
AcDbLine
 10
-65.835965090213
 20
-880.379598123107
 11
-65.835965090213
 21
-875.879598123107
  0
LINE
  5
AE
100
AcDbEntity
  8
1
  6
CONTINUOUS
 62
           7
100
AcDbLine
 10
-74.01374286799
 20
-880.379598123107
 11
-64.81374286799
 21
-880.379598123107
  0
LINE
  5
AD
100
AcDbEntity
  8
1
  6
CONTINUOUS
 62
           7
100
AcDbLine
 10
-64.81374286799
 20
-880.379598123107
 11
-65.31374286799
 21
-880.879598123107
  0
LINE
  5
AC
100
AcDbEntity
  8
1
  6
CONTINUOUS
 62
           7
100
AcDbLine
 10
-74.01374286799
 20
-880.379598123107
 11
-73.51374286799
 21
-880.879598123107
  0
LINE
  5
AB
100
AcDbEntity
  8
1
  6
CONTINUOUS
 62
           7
100
AcDbLine
 10
-74.01374286799
 20
-875.879598123107
 11
-74.01374286799
 21
-880.379598123107
  0
LINE
  5
AA
100
AcDbEntity
  8
1
  6
CONTINUOUS
 62
           7
100
AcDbLine
 10
-64.81374286799
 20
-875.879598123107
 11
-74.01374286799
 21
-875.879598123107
  0
LINE
  5
A9
100
AcDbEntity
  8
1
  6
CONTINUOUS
 62
           7
100
AcDbLine
 10
-73.51374286799
 20
-880.879598123107
 11
-65.31374286799
 21
-880.879598123107
  0
LINE
  5
A8
100
AcDbEntity
  8
1
  6
CONTINUOUS
 62
           7
100
AcDbLine
 10
-73.66374286799
 20
-875.879598123107
 11
-65.16374286799
 21
-875.879598123107
  0
LINE
  5
A7
100
AcDbEntity
  8
1
  6
CONTINUOUS
 62
           7
100
AcDbLine
 10
-65.16374286799
 20
-875.879598123107
 11
-65.16374286799
 21
-874.179598123107
  0
LINE
  5
A6
100
AcDbEntity
  8
1
  6
CONTINUOUS
 62
           7
100
AcDbLine
 10
-73.66374286799
 20
-874.179598123107
 11
-73.66374286799
 21
-875.879598123107
  0
LINE
  5
A5
100
AcDbEntity
  8
1
  6
CONTINUOUS
 62
           7
100
AcDbLine
 10
-65.16374286799
 20
-874.179598123107
 11
-73.66374286799
 21
-874.179598123107
  0
LINE
  5
A4
100
AcDbEntity
  8
1
  6
CONTINUOUS
 62
           7
100
AcDbLine
 10
-64.81374286799
 20
-880.379598123107
 11
-64.81374286799
 21
-875.879598123107
  0
LINE
  5
A3
100
AcDbEntity
  8
1
  6
CONTINUOUS
 62
           7
100
AcDbLine
 10
-57.41374286799
 20
-892.75956399515
 11
-90.601628319601
 21
-1013.876255626177
  0
LINE
  5
A2
100
AcDbEntity
  8
1
  6
CONTINUOUS
 62
           7
100
AcDbLine
 10
-55.507952139855
 20
-921.035388851242
 11
-81.767241121885
 21
-1016.866688821339
  0
LINE
  5
A1
100
AcDbEntity
  8
1
  6
DOT_CENTER
 62
           2
100
AcDbLine
 10
-56.51374286799
 20
-907.090514075679
 11
-87.97640230223
 21
-1021.911123124274
  0
LINE
  5
A0
100
AcDbEntity
  8
1
  6
CONTINUOUS
 62
           7
100
AcDbLine
 10
-135.235283518858
 20
-998.201380262412
 11
-140.646019772568
 21
-1017.070860025409
  0
LINE
  5
9F
100
AcDbEntity
  8
1
  6
CONTINUOUS
 62
           7
100
AcDbLine
 10
-131.639385556704
 20
-999.23248741072
 11
-131.272056489546
 21
-1000.705763829612
  0
LINE
  5
9E
100
AcDbEntity
  8
1
  6
CONTINUOUS
 62
           7
100
AcDbLine
 10
-135.957891538435
 20
-1017.047212660563
 11
-137.050121810413
 21
-1018.101967173717
  0
LINE
  5
9D
100
AcDbEntity
  8
1
  6
CONTINUOUS
 62
           7
100
AcDbLine
 10
-135.235283518858
 20
-998.201380262412
 11
-131.639385556704
 21
-999.23248741072
  0
LINE
  5
9C
100
AcDbEntity
  8
1
  6
CONTINUOUS
 62
           7
100
AcDbLine
 10
-131.272056489546
 20
-1000.705763829612
 11
-135.957891538435
 21
-1017.047212660563
  0
LINE
  5
9B
100
AcDbEntity
  8
1
  6
CONTINUOUS
 62
           7
100
AcDbLine
 10
-137.050121810413
 20
-1018.101967173717
 11
-140.646019772568
 21
-1017.070860025409
  0
LINE
  5
9A
100
AcDbEntity
  8
1
  6
CONTINUOUS
 62
           7
100
AcDbLine
 10
-136.587967582285
 20
-1002.918750203162
 11
-132.992069620131
 21
-1003.949857351469
  0
LINE
  5
99
100
AcDbEntity
  8
1
  6
CONTINUOUS
 62
           7
100
AcDbLine
 10
-139.29333570914
 20
-1012.35349008466
 11
-135.697437746986
 21
-1013.384597232968
  0
LINE
  5
98
100
AcDbEntity
  8
1
  6
DASH_CENTER
 62
           2
100
AcDbLine
 10
-140.090842281364
 20
-1007.019562900636
 11
-131.464783378339
 21
-1009.493045488363
  0
LINE
  5
97
100
AcDbEntity
  8
1
  6
CONTINUOUS
 62
           7
100
AcDbLine
 10
-131.91374286799
 20
-957.076149847245
 11
-93.251941957108
 21
-889.973483898474
  0
LINE
  5
96
100
AcDbEntity
  8
1
  6
DOT_CENTER
 62
           2
100
AcDbLine
 10
-161.41374286799
 20
-1039.85081148302
 11
-161.41374286799
 21
-728.833170053145
  0
LINE
  5
95
100
AcDbEntity
  8
1
  6
CONTINUOUS
 62
           7
100
AcDbLine
 10
-89.91374286799
 20
-874.179598123107
 11
-89.91374286799
 21
-852.179598123107
  0
LINE
  5
94
100
AcDbEntity
  8
1
  6
CONTINUOUS
 62
           7
100
AcDbLine
 10
-89.91374286799
 20
-774.179598123107
 11
-89.91374286799
 21
-747.179598123107
  0
LINE
  5
93
100
AcDbEntity
  8
1
  6
CONTINUOUS
 62
           7
100
AcDbLine
 10
-161.41374286799
 20
-741.679598123107
 11
-130.41374286799
 21
-741.679598123107
  0
LINE
  5
92
100
AcDbEntity
  8
1
  6
CONTINUOUS
 62
           7
100
AcDbLine
 10
-89.91374286799
 20
-874.179598123107
 11
-89.91374286799
 21
-877.492843638562
  0
LINE
  5
91
100
AcDbEntity
  8
1
  6
CONTINUOUS
 62
           7
100
AcDbLine
 10
-89.91374286799
 20
-791.179598123107
 11
-89.91374286799
 21
-842.179598123107
  0
LINE
  5
90
100
AcDbEntity
  8
1
  6
CONTINUOUS
 62
           7
100
AcDbLine
 10
-89.91374286799
 20
-774.179598123107
 11
-89.91374286799
 21
-781.179598123107
  0
LINE
  5
8F
100
AcDbEntity
  8
1
  6
CONTINUOUS
 62
           7
100
AcDbLine
 10
-232.91374286799
 20
-852.179598123107
 11
-232.91374286799
 21
-877.492843638562
  0
LINE
  5
8E
100
AcDbEntity
  8
1
  6
CONTINUOUS
 62
           7
100
AcDbLine
 10
-232.91374286799
 20
-791.179598123107
 11
-232.91374286799
 21
-842.179598123107
  0
LINE
  5
8D
100
AcDbEntity
  8
1
  6
CONTINUOUS
 62
           7
100
AcDbLine
 10
-232.91374286799
 20
-746.179598123107
 11
-232.91374286799
 21
-781.179598123107
  0
LINE
  5
8C
100
AcDbEntity
  8
1
  6
CONTINUOUS
 62
           7
100
AcDbLine
 10
-89.91374286799
 20
-842.179598123107
 11
-232.91374286799
 21
-842.179598123107
  0
LINE
  5
8B
100
AcDbEntity
  8
1
  6
CONTINUOUS
 62
           7
100
AcDbLine
 10
-89.91374286799
 20
-791.179598123107
 11
-232.91374286799
 21
-791.179598123107
  0
LINE
  5
8A
100
AcDbEntity
  8
1
  6
CONTINUOUS
 62
           7
100
AcDbLine
 10
-89.91374286799
 20
-781.179598123107
 11
-232.91374286799
 21
-781.179598123107
  0
LINE
  5
89
100
AcDbEntity
  8
1
  6
CONTINUOUS
 62
           7
100
AcDbLine
 10
-232.91374286799
 20
-746.179598123107
 11
-130.41374286799
 21
-746.179598123107
  0
LINE
  5
88
100
AcDbEntity
  8
1
  6
CONTINUOUS
 62
           7
100
AcDbLine
 10
-233.91374286799
 20
-741.679598123107
 11
-161.41374286799
 21
-741.679598123107
  0
LINE
  5
87
100
AcDbEntity
  8
1
  6
CONTINUOUS
 62
           7
100
AcDbLine
 10
-233.91374286799
 20
-746.179598123107
 11
-232.91374286799
 21
-746.179598123107
  0
LINE
  5
86
100
AcDbEntity
  8
1
  6
CONTINUOUS
 62
           7
100
AcDbLine
 10
-229.575543778871
 20
-889.973483898474
 11
-190.91374286799
 21
-957.076149847245
  0
LINE
  5
85
100
AcDbEntity
  8
1
  6
CONTINUOUS
 62
           7
100
AcDbLine
 10
-101.41374286799
 20
-816.179598123107
 11
-221.41374286799
 21
-816.179598123107
  0
LINE
  5
84
100
AcDbEntity
  8
1
  6
CONTINUOUS
 62
           7
100
AcDbLine
 10
-101.41374286799
 20
-791.179598123107
 11
-101.41374286799
 21
-816.179598123107
  0
LINE
  5
83
100
AcDbEntity
  8
1
  6
CONTINUOUS
 62
           7
100
AcDbLine
 10
-221.41374286799
 20
-816.179598123107
 11
-221.41374286799
 21
-791.179598123107
  0
LINE
  5
82
100
AcDbEntity
  8
1
  6
CONTINUOUS
 62
           7
100
AcDbLine
 10
-232.91374286799
 20
-798.427098176198
 11
-225.41374286799
 21
-798.427098176198
  0
LINE
  5
81
100
AcDbEntity
  8
1
  6
CONTINUOUS
 62
           7
100
AcDbLine
 10
-225.41374286799
 20
-798.427098176198
 11
-225.41374286799
 21
-832.427098176198
  0
LINE
  5
80
100
AcDbEntity
  8
1
  6
CONTINUOUS
 62
           7
100
AcDbLine
 10
-232.91374286799
 20
-832.427098176198
 11
-225.41374286799
 21
-832.427098176198
  0
LINE
  5
7F
100
AcDbEntity
  8
1
  6
CONTINUOUS
 62
           7
100
AcDbLine
 10
-234.350219323018
 20
-967.034080363662
 11
-234.44839331798
 21
-967.378039213421
  0
LINE
  5
7E
100
AcDbEntity
  8
1
  6
CONTINUOUS
 62
           7
100
AcDbLine
 10
-230.041349102147
 20
-968.635913918338
 11
-234.44839331798
 21
-967.378039213421
  0
LINE
  5
7D
100
AcDbEntity
  8
1
  6
CONTINUOUS
 62
           7
100
AcDbLine
 10
-231.001968719054
 20
-972.001505983876
 11
-235.409012934888
 21
-970.743631278959
  0
LINE
  5
7C
100
AcDbEntity
  8
1
  6
CONTINUOUS
 62
           7
100
AcDbLine
 10
-235.409012934888
 20
-970.743631278959
 11
-236.88899973913
 21
-975.928859394012
  0
LINE
  5
7B
100
AcDbEntity
  8
1
  6
CONTINUOUS
 62
           7
100
AcDbLine
 10
-236.88899973913
 20
-975.928859394012
 11
-232.481955523297
 21
-977.186734098929
  0
LINE
  5
7A
100
AcDbEntity
  8
1
  6
CONTINUOUS
 62
           7
100
AcDbLine
 10
-240.105143584358
 20
-978.3906874974
 11
-237.823340306251
 21
-970.396244251862
  0
LINE
  5
79
100
AcDbEntity
  8
1
  6
CONTINUOUS
 62
           7
100
AcDbLine
 10
-229.943175107184
 20
-968.291955068578
 11
-234.350219323018
 21
-967.034080363662
  0
LINE
  5
78
100
AcDbEntity
  8
1
  6
CONTINUOUS
 62
           7
100
AcDbLine
 10
-234.350219323018
 20
-967.034080363662
 11
-237.823340306251
 21
-970.396244251862
  0
LINE
  5
77
100
AcDbEntity
  8
1
  6
CONTINUOUS
 62
           7
100
AcDbLine
 10
-237.823340306251
 20
-970.396244251862
 11
-246.425611710006
 21
-971.386996850843
  0
LINE
  5
76
100
AcDbEntity
  8
1
  6
CONTINUOUS
 62
           7
100
AcDbLine
 10
-249.170239186884
 20
-981.002974180952
 11
-242.386946862465
 21
-986.385130742937
  0
LINE
  5
75
100
AcDbEntity
  8
1
  6
CONTINUOUS
 62
           7
100
AcDbLine
 10
-242.386946862465
 20
-986.385130742937
 11
-241.211788015213
 21
-991.074023688934
  0
LINE
  5
74
100
AcDbEntity
  8
1
  6
CONTINUOUS
 62
           7
100
AcDbLine
 10
-241.211788015213
 20
-991.074023688934
 11
-236.80474379938
 21
-992.33189839385
  0
LINE
  5
73
100
AcDbEntity
  8
1
  6
CONTINUOUS
 62
           7
100
AcDbLine
 10
-242.386946862465
 20
-986.385130742937
 11
-240.105143584358
 21
-978.3906874974
  0
LINE
  5
72
100
AcDbEntity
  8
1
  6
CONTINUOUS
 62
           7
100
AcDbLine
 10
-234.265963383267
 20
-983.4371193635
 11
-238.673007599101
 21
-982.179244658583
  0
LINE
  5
71
100
AcDbEntity
  8
1
  6
CONTINUOUS
 62
           7
100
AcDbLine
 10
-238.673007599101
 20
-982.179244658583
 11
-240.152994403344
 21
-987.364472773636
  0
LINE
  5
70
100
AcDbEntity
  8
1
  6
CONTINUOUS
 62
           7
100
AcDbLine
 10
-240.152994403344
 20
-987.364472773636
 11
-235.74595018751
 21
-988.622347478553
  0
LINE
  5
6F
100
AcDbEntity
  8
1
  6
CONTINUOUS
 62
           7
100
AcDbLine
 10
-241.113614020251
 20
-990.730064839175
 11
-236.706569804417
 21
-991.987939544091
  0
LINE
  5
6E
100
AcDbEntity
  8
1
  6
CONTINUOUS
 62
           7
100
AcDbLine
 10
-241.113614020251
 20
-990.730064839175
 11
-241.211788015213
 21
-991.074023688934
  0
LINE
  5
6D
100
AcDbEntity
  8
1
  6
CONTINUOUS
 62
           7
100
AcDbLine
 10
-246.425611710006
 20
-971.386996850843
 11
-249.170239186884
 21
-981.002974180952
  0
LINE
  5
6C
100
AcDbEntity
  8
1
  6
CONTINUOUS
 62
           7
100
AcDbLine
 10
-233.351179788414
 20
-980.315794815855
 11
-229.644833198399
 21
-967.334539292806
  0
LINE
  5
6B
100
AcDbEntity
  8
1
  6
CONTINUOUS
 62
           7
100
AcDbLine
 10
-229.644833198399
 20
-967.334539292806
 11
-222.913811816078
 21
-969.256348635777
  0
LINE
  5
6A
100
AcDbEntity
  8
1
  6
CONTINUOUS
 62
           7
100
AcDbLine
 10
-222.913811816078
 20
-969.256348635777
 11
-226.620158406093
 21
-982.237604158826
  0
LINE
  5
69
100
AcDbEntity
  8
1
  6
CONTINUOUS
 62
           7
100
AcDbLine
 10
-226.620158406093
 20
-982.237604158826
 11
-230.326504996107
 21
-995.218859681875
  0
LINE
  5
68
100
AcDbEntity
  8
1
  6
CONTINUOUS
 62
           7
100
AcDbLine
 10
-230.326504996107
 20
-995.218859681875
 11
-237.057526378429
 21
-993.297050338904
  0
LINE
  5
67
100
AcDbEntity
  8
1
  6
CONTINUOUS
 62
           7
100
AcDbLine
 10
-237.057526378429
 20
-993.297050338904
 11
-233.351179788414
 21
-980.315794815855
  0
LINE
  5
66
100
AcDbEntity
  8
1
  6
CONTINUOUS
 62
           7
100
AcDbLine
 10
-221.121236828592
 20
-1006.686773091215
 11
-230.326504996107
 21
-995.218859681875
  0
LINE
  5
65
100
AcDbEntity
  8
1
  6
CONTINUOUS
 62
           3
100
AcDbLine
 10
-221.011419151851
 20
-1006.30214329794
 11
-213.31882328634
 21
-1008.498496832763
  0
LINE
  5
64
100
AcDbEntity
  8
1
  6
CONTINUOUS
 62
           3
100
AcDbLine
 10
-220.901601475109
 20
-1005.917513504664
 11
-213.209005609599
 21
-1008.113867039488
  0
LINE
  5
63
100
AcDbEntity
  8
1
  6
CONTINUOUS
 62
           3
100
AcDbLine
 10
-220.681966121627
 20
-1005.148253918113
 11
-212.989370256117
 21
-1007.344607452937
  0
LINE
  5
62
100
AcDbEntity
  8
1
  6
CONTINUOUS
 62
           3
100
AcDbLine
 10
-220.407421929774
 20
-1004.186679434924
 11
-212.714826064264
 21
-1006.383032969748
  0
LINE
  5
61
100
AcDbEntity
  8
1
  6
CONTINUOUS
 62
           3
100
AcDbLine
 10
-220.105423318736
 20
-1003.128947503416
 11
-212.412827453226
 21
-1005.32530103824
  0
LINE
  5
60
100
AcDbEntity
  8
1
  6
CONTINUOUS
 62
           3
100
AcDbLine
 10
-219.775970288512
 20
-1001.97505812359
 11
-212.083374423002
 21
-1004.171411658413
  0
LINE
  5
5F
100
AcDbEntity
  8
1
  6
CONTINUOUS
 62
           3
100
AcDbLine
 10
-219.419062839104
 20
-1000.725011295444
 11
-211.726466973593
 21
-1002.921364830268
  0
LINE
  5
5E
100
AcDbEntity
  8
1
  6
CONTINUOUS
 62
           3
100
AcDbLine
 10
-219.03470097051
 20
-999.37880701898
 11
-211.342105104999
 21
-1001.575160553804
  0
LINE
  5
5D
100
AcDbEntity
  8
1
  6
CONTINUOUS
 62
           7
100
AcDbLine
 10
-213.428640963082
 20
-1008.883126626039
 11
-212.19252228804
 21
-1008.196096334703
  0
LINE
  5
5C
100
AcDbEntity
  8
1
  6
CONTINUOUS
 62
           7
100
AcDbLine
 10
-213.428640963082
 20
-1008.883126626039
 11
-221.121236828592
 21
-1006.686773091215
  0
LINE
  5
5B
100
AcDbEntity
  8
1
  6
CONTINUOUS
 62
           7
100
AcDbLine
 10
-206.427094259128
 20
-988.003032187738
 11
-212.19252228804
 21
-1008.196096334703
  0
LINE
  5
5A
100
AcDbEntity
  8
1
  6
CONTINUOUS
 62
           7
100
AcDbLine
 10
-213.428640963082
 20
-1008.883126626039
 11
-207.388668742317
 21
-987.728487995885
  0
LINE
  5
59
100
AcDbEntity
  8
1
  6
CONTINUOUS
 62
           7
100
AcDbLine
 10
-215.081264607827
 20
-985.532134461062
 11
-221.121236828592
 21
-1006.686773091215
  0
LINE
  5
58
100
AcDbEntity
  8
1
  6
CONTINUOUS
 62
           3
100
AcDbLine
 10
-218.62288468273
 20
-997.936445294197
 11
-210.93028881722
 21
-1000.13279882902
  0
LINE
  5
57
100
AcDbEntity
  8
1
  6
CONTINUOUS
 62
           3
100
AcDbLine
 10
-218.183613975765
 20
-996.397926121095
 11
-210.491018110255
 21
-998.594279655918
  0
LINE
  5
56
100
AcDbEntity
  8
1
  6
CONTINUOUS
 62
           3
100
AcDbLine
 10
-217.716888849615
 20
-994.763249499674
 11
-210.024292984105
 21
-996.959603034497
  0
LINE
  5
55
100
AcDbEntity
  8
1
  6
CONTINUOUS
 62
           3
100
AcDbLine
 10
-217.22270930428
 20
-993.032415429934
 11
-209.530113438769
 21
-995.228768964758
  0
LINE
  5
54
100
AcDbEntity
  8
1
  6
CONTINUOUS
 62
           3
100
AcDbLine
 10
-216.701075339759
 20
-991.205423911875
 11
-209.008479474249
 21
-993.401777446699
  0
LINE
  5
53
100
AcDbEntity
  8
1
  6
CONTINUOUS
 62
           3
100
AcDbLine
 10
-216.179441375239
 20
-989.378432393817
 11
-208.486845509728
 21
-991.57478592864
  0
LINE
  5
52
100
AcDbEntity
  8
1
  6
CONTINUOUS
 62
           3
100
AcDbLine
 10
-215.630352991533
 20
-987.455283427439
 11
-207.937757126022
 21
-989.651636962263
  0
LINE
  5
51
100
AcDbEntity
  8
1
  6
CONTINUOUS
 62
           7
100
AcDbLine
 10
-166.650852628513
 20
-1019.169291769256
 11
-210.723649417063
 21
-1006.531620652655
  0
LINE
  5
50
100
AcDbEntity
  8
1
  6
CONTINUOUS
 62
           7
100
AcDbLine
 10
-222.913811816078
 20
-969.256348635777
 11
-209.041292387062
 21
-964.377495830907
  0
LINE
  5
4F
100
AcDbEntity
  8
1
  6
CONTINUOUS
 62
           7
100
AcDbLine
 10
-209.041292387062
 20
-964.377495830907
 11
-201.348696521551
 21
-966.573849365731
  0
LINE
  5
4E
100
AcDbEntity
  8
1
  6
CONTINUOUS
 62
           7
100
AcDbLine
 10
-200.661666230216
 20
-967.809968040773
 11
-201.348696521551
 21
-966.573849365731
  0
LINE
  5
4D
100
AcDbEntity
  8
1
  6
CONTINUOUS
 62
           3
100
AcDbLine
 10
-201.568331875034
 20
-967.343108952282
 11
-209.260927740544
 21
-965.146755417459
  0
LINE
  5
4C
100
AcDbEntity
  8
1
  6
CONTINUOUS
 62
           3
100
AcDbLine
 10
-201.458514198293
 20
-966.958479159006
 11
-209.151110063803
 21
-964.762125624183
  0
LINE
  5
4B
100
AcDbEntity
  8
1
  6
CONTINUOUS
 62
           3
100
AcDbLine
 10
-201.787967228516
 20
-968.112368538833
 11
-209.480563094027
 21
-965.91601500401
  0
LINE
  5
4A
100
AcDbEntity
  8
1
  6
CONTINUOUS
 62
           3
100
AcDbLine
 10
-202.062511420369
 20
-969.073943022022
 11
-209.75510728588
 21
-966.877589487199
  0
LINE
  5
49
100
AcDbEntity
  8
1
  6
CONTINUOUS
 62
           3
100
AcDbLine
 10
-202.693963061631
 20
-971.285564333356
 11
-210.386558927141
 21
-969.089210798533
  0
LINE
  5
48
100
AcDbEntity
  8
1
  6
CONTINUOUS
 62
           3
100
AcDbLine
 10
-202.364510031407
 20
-970.13167495353
 11
-210.057105896918
 21
-967.935321418706
  0
LINE
  5
47
100
AcDbEntity
  8
1
  6
CONTINUOUS
 62
           3
100
AcDbLine
 10
-203.05087051104
 20
-972.535611161502
 11
-210.74346637655
 21
-970.339257626678
  0
LINE
  5
46
100
AcDbEntity
  8
1
  6
CONTINUOUS
 62
           3
100
AcDbLine
 10
-203.435232379634
 20
-973.881815437966
 11
-211.127828245144
 21
-971.685461903142
  0
LINE
  5
45
100
AcDbEntity
  8
1
  6
CONTINUOUS
 62
           3
100
AcDbLine
 10
-206.290491974905
 20
-983.882190063129
 11
-213.983087840415
 21
-981.685836528306
  0
LINE
  5
44
100
AcDbEntity
  8
1
  6
CONTINUOUS
 62
           3
100
AcDbLine
 10
-205.768858010384
 20
-982.055198545071
 11
-213.461453875895
 21
-979.858845010247
  0
LINE
  5
43
100
AcDbEntity
  8
1
  6
CONTINUOUS
 62
           3
100
AcDbLine
 10
-205.247224045864
 20
-980.228207027012
 11
-212.939819911374
 21
-978.031853492188
  0
LINE
  5
42
100
AcDbEntity
  8
1
  6
CONTINUOUS
 62
           3
100
AcDbLine
 10
-204.753044500528
 20
-978.497372957272
 11
-212.445640366039
 21
-976.301019422449
  0
LINE
  5
41
100
AcDbEntity
  8
1
  6
CONTINUOUS
 62
           3
100
AcDbLine
 10
-204.286319374378
 20
-976.862696335851
 11
-211.978915239889
 21
-974.666342801028
  0
LINE
  5
40
100
AcDbEntity
  8
1
  6
CONTINUOUS
 62
           3
100
AcDbLine
 10
-203.847048667413
 20
-975.324177162749
 11
-211.539644532924
 21
-973.127823627925
  0
LINE
  5
3F
100
AcDbEntity
  8
1
  6
CONTINUOUS
 62
           3
100
AcDbLine
 10
-206.839580358611
 20
-985.805339029507
 11
-214.532176224121
 21
-983.608985494683
  0
LINE
  5
3E
100
AcDbEntity
  8
1
  6
CONTINUOUS
 62
           7
100
AcDbLine
 10
-209.041292387062
 20
-964.377495830907
 11
-215.081264607827
 21
-985.532134461062
  0
LINE
  5
3D
100
AcDbEntity
  8
1
  6
CONTINUOUS
 62
           7
100
AcDbLine
 10
-207.388668742317
 20
-987.728487995885
 11
-201.348696521551
 21
-966.573849365731
  0
LINE
  5
3C
100
AcDbEntity
  8
1
  6
CONTINUOUS
 62
           7
100
AcDbLine
 10
-200.661666230216
 20
-967.809968040773
 11
-206.427094259128
 21
-988.003032187738
  0
LINE
  5
3B
100
AcDbEntity
  8
1
  6
CONTINUOUS
 62
           7
100
AcDbLine
 10
-200.247011238144
 20
-970.004369745983
 11
-192.86278128013
 21
-972.121763613826
  0
LINE
  5
3A
100
AcDbEntity
  8
1
  6
CONTINUOUS
 62
           7
100
AcDbLine
 10
-192.382476145923
 20
-962.770610044318
 11
-130.41374286799
 21
-962.770610044318
  0
LINE
  5
39
100
AcDbEntity
  8
1
  6
CONTINUOUS
 62
           7
100
AcDbLine
 10
-192.41374286799
 20
-957.506267925883
 11
-192.41374286799
 21
-962.65657772621
  0
LINE
  5
38
100
AcDbEntity
  8
1
  6
CONTINUOUS
 62
           7
100
AcDbLine
 10
-190.91374286799
 20
-957.076149847245
 11
-192.41374286799
 21
-957.506267925883
  0
LINE
  5
37
100
AcDbEntity
  8
1
  6
CONTINUOUS
 62
           7
100
AcDbLine
 10
-131.91374286799
 20
-957.076149847245
 11
-190.91374286799
 21
-957.076149847245
  0
LINE
  5
36
100
AcDbEntity
  8
1
  6
CONTINUOUS
 62
           7
100
AcDbLine
 10
-192.41374286799
 20
-957.506267925883
 11
-130.41374286799
 21
-957.506267925883
  0
LINE
  5
35
100
AcDbEntity
  8
1
  6
CONTINUOUS
 62
           7
100
AcDbLine
 10
-130.41374286799
 20
-957.506267925883
 11
-131.91374286799
 21
-957.076149847245
  0
LINE
  5
34
100
AcDbEntity
  8
1
  6
CONTINUOUS
 62
           7
100
AcDbLine
 10
-130.41374286799
 20
-957.506267925883
 11
-130.41374286799
 21
-962.65657772621
  0
LINE
  5
33
100
AcDbEntity
  8
1
  6
CONTINUOUS
 62
           7
100
AcDbLine
 10
-146.694273527265
 20
-1016.049203537247
 11
-140.834843881791
 21
-1017.729367951264
  0
LINE
  5
32
100
AcDbEntity
  8
1
  6
CONTINUOUS
 62
           7
100
AcDbLine
 10
-136.547840897419
 20
-997.112358122675
 11
-135.046459409636
 21
-997.54287233656
  0
LINE
  5
31
100
AcDbEntity
  8
1
  6
CONTINUOUS
 62
           7
100
AcDbLine
 10
-135.046459409636
 20
-997.54287233656
 11
-140.834843881791
 21
-1017.729367951264
  0
LINE
  5
30
100
AcDbEntity
  8
1
  6
DOT_CENTER
 62
           2
100
AcDbLine
 10
-250.621626750318
 20
-975.325370469868
 11
-77.238071812986
 21
-1025.0423048146
  0
LINE
  5
2F
100
AcDbEntity
  8
1
  6
CONTINUOUS
 62
           7
100
AcDbLine
 10
-89.91374286799
 20
-852.179598123107
 11
-232.91374286799
 21
-852.179598123107
  0
INSERT
  5
2A
100
AcDbEntity
  8
0
100
AcDbBlockReference
  2
_1
 10
0.0
 20
0.0
  0
ENDSEC
  0
SECTION
  2
OBJECTS
  0
DICTIONARY
  5
19
100
AcDbDictionary
  3
ACAD_GROUP
350
1A
  3
ACAD_MLINESTYLE
350
1B
  0
DICTIONARY
  5
1A
102
{ACAD_REACTORS
330
19
102
}
100
AcDbDictionary
  0
DICTIONARY
  5
1B
102
{ACAD_REACTORS
330
19
102
}
100
AcDbDictionary
  3
STANDARD
350
1C
  0
MLINESTYLE
  5
1C
102
{ACAD_REACTORS
330
1B
102
}
100
AcDbMlineStyle
  2
STANDARD
 70
           0
  3

 62
           0
 51
90.0
 52
90.0
 71
           2
 49
0.5
 62
         256
  6
BYLAYER
 49
-0.5
 62
         256
  6
BYLAYER
  0
ENDSEC
  0
EOF
